  0
SECTION
  2
HEADER
  9
$ACADVER
  1
AC1021
  9
$ACADMAINTVER
 70
    25
  9
$DWGCODEPAGE
  3
ANSI_1252
  9
$LASTSAVEDBY
  1
nishant.babu
  9
$INSBASE
 10
0.0
 20
0.0
 30
0.0
  9
$EXTMIN
 10
948.2033625430885
 20
382.7881300427701
 30
-0.0015258207003583
  9
$EXTMAX
 10
1027.015234285684
 20
438.2139227964509
 30
0.0000000349246037
  9
$LIMMIN
 10
-33.59514296221303
 20
-33.23262434020245
  9
$LIMMAX
 10
44.40485703778699
 20
22.06737565979756
  9
$ORTHOMODE
 70
     0
  9
$REGENMODE
 70
     1
  9
$FILLMODE
 70
     1
  9
$QTEXTMODE
 70
     0
  9
$MIRRTEXT
 70
     0
  9
$LTSCALE
 40
0.5
  9
$ATTMODE
 70
     1
  9
$TEXTSIZE
 40
3.5
  9
$TRACEWID
 40
0.5
  9
$TEXTSTYLE
  7
STANDARD
  9
$CLAYER
  8
0
  9
$CELTYPE
  6
ByLayer
  9
$CECOLOR
 62
   256
  9
$CELTSCALE
 40
1.0
  9
$DISPSILH
 70
     0
  9
$DIMSCALE
 40
1.0
  9
$DIMASZ
 40
0.7000000000000002
  9
$DIMEXO
 40
0.0
  9
$DIMDLI
 40
7.0
  9
$DIMRND
 40
0.0
  9
$DIMDLE
 40
0.0
  9
$DIMEXE
 40
0.2
  9
$DIMTP
 40
0.0
  9
$DIMTM
 40
0.0
  9
$DIMTXT
 40
0.7000000000000002
  9
$DIMCEN
 40
0.0
  9
$DIMTSZ
 40
0.0
  9
$DIMTOL
 70
     0
  9
$DIMLIM
 70
     0
  9
$DIMTIH
 70
     0
  9
$DIMTOH
 70
     0
  9
$DIMSE1
 70
     0
  9
$DIMSE2
 70
     0
  9
$DIMTAD
 70
     1
  9
$DIMZIN
 70
     9
  9
$DIMBLK
  1

  9
$DIMASO
 70
     1
  9
$DIMSHO
 70
     1
  9
$DIMPOST
  1

  9
$DIMAPOST
  1

  9
$DIMALT
 70
     0
  9
$DIMALTD
 70
     2
  9
$DIMALTF
 40
25.4
  9
$DIMLFAC
 40
1.0
  9
$DIMTOFL
 70
     0
  9
$DIMTVP
 40
0.0
  9
$DIMTIX
 70
     0
  9
$DIMSOXD
 70
     0
  9
$DIMSAH
 70
     0
  9
$DIMBLK1
  1

  9
$DIMBLK2
  1

  9
$DIMSTYLE
  2
DMST_1
  9
$DIMCLRD
 70
     2
  9
$DIMCLRE
 70
     2
  9
$DIMCLRT
 70
     3
  9
$DIMTFAC
 40
1.0
  9
$DIMGAP
 40
0.09
  9
$DIMJUST
 70
     0
  9
$DIMSD1
 70
     0
  9
$DIMSD2
 70
     0
  9
$DIMTOLJ
 70
     1
  9
$DIMTZIN
 70
     0
  9
$DIMALTZ
 70
     0
  9
$DIMALTTZ
 70
     0
  9
$DIMUPT
 70
     0
  9
$DIMDEC
 70
     4
  9
$DIMTDEC
 70
     4
  9
$DIMALTU
 70
     2
  9
$DIMALTTD
 70
     2
  9
$DIMTXSTY
  7
STANDARD
  9
$DIMAUNIT
 70
     0
  9
$DIMADEC
 70
     0
  9
$DIMALTRND
 40
0.0
  9
$DIMAZIN
 70
     0
  9
$DIMDSEP
 70
    46
  9
$DIMATFIT
 70
     3
  9
$DIMFRAC
 70
     0
  9
$DIMLDRBLK
  1

  9
$DIMLUNIT
 70
     2
  9
$DIMLWD
 70
    -2
  9
$DIMLWE
 70
    -2
  9
$DIMTMOVE
 70
     2
  9
$DIMFXL
 40
1.0
  9
$DIMFXLON
 70
     0
  9
$DIMJOGANG
 40
0.7853981633974483
  9
$DIMTFILL
 70
     0
  9
$DIMTFILLCLR
 70
     0
  9
$DIMARCSYM
 70
     0
  9
$DIMLTYPE
  6

  9
$DIMLTEX1
  6

  9
$DIMLTEX2
  6

  9
$LUNITS
 70
     2
  9
$LUPREC
 70
     4
  9
$SKETCHINC
 40
0.1
  9
$FILLETRAD
 40
2.0
  9
$AUNITS
 70
     0
  9
$AUPREC
 70
     0
  9
$MENU
  1
ACAD
  9
$ELEVATION
 40
0.0
  9
$PELEVATION
 40
0.0
  9
$THICKNESS
 40
0.0
  9
$LIMCHECK
 70
     0
  9
$CHAMFERA
 40
0.0
  9
$CHAMFERB
 40
0.0
  9
$CHAMFERC
 40
0.0
  9
$CHAMFERD
 40
0.0
  9
$SKPOLY
 70
     0
  9
$TDCREATE
 40
2454937.447508449
  9
$TDUCREATE
 40
2454937.218341783
  9
$TDUPDATE
 40
2456570.742429722
  9
$TDUUPDATE
 40
2456570.513263056
  9
$TDINDWG
 40
0.3326988773
  9
$TDUSRTIMER
 40
0.3326982292
  9
$USRTIMER
 70
     1
  9
$ANGBASE
 50
0.0
  9
$ANGDIR
 70
     0
  9
$PDMODE
 70
     0
  9
$PDSIZE
 40
0.0
  9
$PLINEWID
 40
0.0
  9
$SPLFRAME
 70
     0
  9
$SPLINETYPE
 70
     6
  9
$SPLINESEGS
 70
     8
  9
$HANDSEED
  5
1783
  9
$SURFTAB1
 70
     6
  9
$SURFTAB2
 70
     6
  9
$SURFTYPE
 70
     6
  9
$SURFU
 70
     6
  9
$SURFV
 70
     6
  9
$UCSBASE
  2

  9
$UCSNAME
  2

  9
$UCSORG
 10
0.0
 20
0.0
 30
0.0
  9
$UCSXDIR
 10
1.0
 20
0.0
 30
0.0
  9
$UCSYDIR
 10
0.0
 20
1.0
 30
0.0
  9
$UCSORTHOREF
  2

  9
$UCSORTHOVIEW
 70
     0
  9
$UCSORGTOP
 10
0.0
 20
0.0
 30
0.0
  9
$UCSORGBOTTOM
 10
0.0
 20
0.0
 30
0.0
  9
$UCSORGLEFT
 10
0.0
 20
0.0
 30
0.0
  9
$UCSORGRIGHT
 10
0.0
 20
0.0
 30
0.0
  9
$UCSORGFRONT
 10
0.0
 20
0.0
 30
0.0
  9
$UCSORGBACK
 10
0.0
 20
0.0
 30
0.0
  9
$PUCSBASE
  2

  9
$PUCSNAME
  2

  9
$PUCSORG
 10
0.0
 20
0.0
 30
0.0
  9
$PUCSXDIR
 10
1.0
 20
0.0
 30
0.0
  9
$PUCSYDIR
 10
0.0
 20
1.0
 30
0.0
  9
$PUCSORTHOREF
  2

  9
$PUCSORTHOVIEW
 70
     0
  9
$PUCSORGTOP
 10
0.0
 20
0.0
 30
0.0
  9
$PUCSORGBOTTOM
 10
0.0
 20
0.0
 30
0.0
  9
$PUCSORGLEFT
 10
0.0
 20
0.0
 30
0.0
  9
$PUCSORGRIGHT
 10
0.0
 20
0.0
 30
0.0
  9
$PUCSORGFRONT
 10
0.0
 20
0.0
 30
0.0
  9
$PUCSORGBACK
 10
0.0
 20
0.0
 30
0.0
  9
$USERI1
 70
     0
  9
$USERI2
 70
     0
  9
$USERI3
 70
     0
  9
$USERI4
 70
     0
  9
$USERI5
 70
     0
  9
$USERR1
 40
0.0
  9
$USERR2
 40
0.0
  9
$USERR3
 40
0.0
  9
$USERR4
 40
0.0
  9
$USERR5
 40
0.0
  9
$WORLDVIEW
 70
     1
  9
$SHADEDGE
 70
     3
  9
$SHADEDIF
 70
    70
  9
$TILEMODE
 70
     1
  9
$MAXACTVP
 70
    64
  9
$PINSBASE
 10
0.0
 20
0.0
 30
0.0
  9
$PLIMCHECK
 70
     0
  9
$PEXTMIN
 10
1.000000000000000E+20
 20
1.000000000000000E+20
 30
1.000000000000000E+20
  9
$PEXTMAX
 10
-1.000000000000000E+20
 20
-1.000000000000000E+20
 30
-1.000000000000000E+20
  9
$PLIMMIN
 10
0.0
 20
0.0
  9
$PLIMMAX
 10
12.0
 20
9.0
  9
$UNITMODE
 70
     0
  9
$VISRETAIN
 70
     1
  9
$PLINEGEN
 70
     0
  9
$PSLTSCALE
 70
     1
  9
$TREEDEPTH
 70
  3020
  9
$CMLSTYLE
  2
Standard
  9
$CMLJUST
 70
     0
  9
$CMLSCALE
 40
1.0
  9
$PROXYGRAPHICS
 70
     1
  9
$MEASUREMENT
 70
     0
  9
$CELWEIGHT
370
    -1
  9
$ENDCAPS
280
     0
  9
$JOINSTYLE
280
     0
  9
$LWDISPLAY
290
     0
  9
$INSUNITS
 70
     0
  9
$HYPERLINKBASE
  1

  9
$STYLESHEET
  1
SSG1.ctb
  9
$XEDIT
290
     1
  9
$CEPSNTYPE
380
     0
  9
$PSTYLEMODE
290
     1
  9
$FINGERPRINTGUID
  2
{CD06646F-834D-47AC-B808-B1A71DC6F9B7}
  9
$VERSIONGUID
  2
{F7D89B40-D6AE-4ECD-95A5-E1EA7544E261}
  9
$EXTNAMES
290
     1
  9
$PSVPSCALE
 40
0.0
  9
$OLESTARTUP
290
     0
  9
$SORTENTS
280
   127
  9
$INDEXCTL
280
     0
  9
$HIDETEXT
280
     0
  9
$XCLIPFRAME
290
     0
  9
$HALOGAP
280
     0
  9
$OBSCOLOR
 70
   257
  9
$OBSLTYPE
280
     0
  9
$INTERSECTIONDISPLAY
280
     0
  9
$INTERSECTIONCOLOR
 70
   257
  9
$DIMASSOC
280
     1
  9
$PROJECTNAME
  1

  9
$CAMERADISPLAY
290
     0
  9
$LENSLENGTH
 40
50.0
  9
$CAMERAHEIGHT
 40
0.0
  9
$STEPSPERSEC
 40
2.0
  9
$STEPSIZE
 40
6.0
  9
$3DDWFPREC
 40
2.0
  9
$PSOLWIDTH
 40
0.25
  9
$PSOLHEIGHT
 40
4.0
  9
$LOFTANG1
 40
1.570796326794896
  9
$LOFTANG2
 40
1.570796326794896
  9
$LOFTMAG1
 40
0.0
  9
$LOFTMAG2
 40
0.0
  9
$LOFTPARAM
 70
     7
  9
$LOFTNORMALS
280
     1
  9
$LATITUDE
 40
37.795
  9
$LONGITUDE
 40
-122.394
  9
$NORTHDIRECTION
 40
0.0
  9
$TIMEZONE
 70
 -8000
  9
$LIGHTGLYPHDISPLAY
280
     1
  9
$TILEMODELIGHTSYNCH
280
     1
  9
$CMATERIAL
347
B8C
  9
$SOLIDHIST
280
     1
  9
$SHOWHIST
280
     1
  9
$DWFFRAME
280
     2
  9
$DGNFRAME
280
     0
  9
$REALWORLDSCALE
290
     1
  9
$INTERFERECOLOR
 62
     1
  9
$INTERFEREOBJVS
345
1149
  9
$INTERFEREVPVS
346
1146
  9
$CSHADOW
280
     0
  9
$SHADOWPLANELOCATION
 40
0.0
  0
ENDSEC
  0
SECTION
  2
CLASSES
  0
CLASS
  1
ACDBDICTIONARYWDFLT
  2
AcDbDictionaryWithDefault
  3
ObjectDBX Classes
 90
        0
 91
        1
280
     0
281
     0
  0
CLASS
  1
TABLESTYLE
  2
AcDbTableStyle
  3
ObjectDBX Classes
 90
     4095
 91
        1
280
     0
281
     0
  0
CLASS
  1
ACAD_EVALUATION_GRAPH
  2
AcDbEvalGraph
  3
ObjectDBX Classes
 90
     1153
 91
        0
280
     0
281
     0
  0
CLASS
  1
ACAECUSTOBJ
  2
AcAeEditorObj
  3
AcAeEditorObj
 90
     1024
 91
        0
280
     0
281
     0
  0
CLASS
  1
ACDB_DYNAMICBLOCKPURGEPREVENTER_VERSION
  2
AcDbDynamicBlockPurgePreventer
  3
ObjectDBX Classes
 90
     1153
 91
        0
280
     0
281
     0
  0
CLASS
  1
SORTENTSTABLE
  2
AcDbSortentsTable
  3
ObjectDBX Classes
 90
        0
 91
        1
280
     0
281
     0
  0
CLASS
  1
DICTIONARYVAR
  2
AcDbDictionaryVar
  3
ObjectDBX Classes
 90
        0
 91
       23
280
     0
281
     0
  0
CLASS
  1
MATERIAL
  2
AcDbMaterial
  3
ObjectDBX Classes
 90
     1153
 91
        3
280
     0
281
     0
  0
CLASS
  1
VISUALSTYLE
  2
AcDbVisualStyle
  3
ObjectDBX Classes
 90
     4095
 91
       16
280
     0
281
     0
  0
CLASS
  1
SCALE
  2
AcDbScale
  3
ObjectDBX Classes
 90
     1153
 91
       33
280
     0
281
     0
  0
CLASS
  1
MLEADERSTYLE
  2
AcDbMLeaderStyle
  3
ACDB_MLEADERSTYLE_CLASS
 90
     4095
 91
        1
280
     0
281
     0
  0
CLASS
  1
BREAKDATA
  2
AcDbBreakData
  3
ObjectDBX Classes
 90
     1024
 91
        5
280
     0
281
     0
  0
CLASS
  1
CELLSTYLEMAP
  2
AcDbCellStyleMap
  3
ObjectDBX Classes
 90
     1152
 91
        9
280
     0
281
     0
  0
ENDSEC
  0
SECTION
  2
TABLES
  0
TABLE
  2
VPORT
  5
8
330
0
100
AcDbSymbolTable
 70
     1
  0
VPORT
  5
16B9
330
8
100
AcDbSymbolTableRecord
100
AcDbViewportTableRecord
  2
*Active
 70
     0
 10
0.0
 20
0.0
 11
1.0
 21
1.0
 12
989.6214333636173
 22
409.3635805353201
 13
0.0
 23
0.0
 14
1.0
 24
1.0
 15
0.0
 25
0.0
 16
0.0
 26
0.0
 36
1.0
 17
0.0
 27
0.0
 37
0.0
 40
60.15516457689352
 41
2.006430868167202
 42
50.0
 43
0.0
 44
0.0
 50
0.0
 51
0.0
 71
     0
 72
   100
 73
     1
 74
     1
 75
     0
 76
     0
 77
     0
 78
     0
281
     0
 65
     1
110
0.0
120
0.0
130
0.0
111
1.0
121
0.0
131
0.0
112
0.0
122
1.0
132
0.0
 79
     0
146
0.0
348
1145
 60
     3
 61
     5
292
     1
282
     1
141
0.0
142
0.0
 63
   250
421
  3355443
  0
ENDTAB
  0
TABLE
  2
LTYPE
  5
5
330
0
100
AcDbSymbolTable
 70
     3
  0
LTYPE
  5
13
330
5
100
AcDbSymbolTableRecord
100
AcDbLinetypeTableRecord
  2
ByBlock
 70
     0
  3

 72
    65
 73
     0
 40
0.0
  0
LTYPE
  5
14
330
5
100
AcDbSymbolTableRecord
100
AcDbLinetypeTableRecord
  2
ByLayer
 70
     0
  3

 72
    65
 73
     0
 40
0.0
  0
LTYPE
  5
15
330
5
100
AcDbSymbolTableRecord
100
AcDbLinetypeTableRecord
  2
CONTINUOUS
 70
     0
  3
Solid line
 72
    65
 73
     0
 40
0.0
  0
LTYPE
  5
2A
330
5
100
AcDbSymbolTableRecord
100
AcDbLinetypeTableRecord
  2
CENTER
 70
     0
  3
____ _ ____ _
 72
    65
 73
     4
 40
4.105263157894738
 49
2.565789473684211
 74
     0
 49
-0.5131578947368423
 74
     0
 49
0.5131578947368423
 74
     0
 49
-0.5131578947368423
 74
     0
  0
LTYPE
  5
2B
330
5
100
AcDbSymbolTableRecord
100
AcDbLinetypeTableRecord
  2
DASHDOT
 70
     0
  3
__ . __ . __ .
 72
    65
 73
     4
 40
2.052631578947369
 49
1.026315789473684
 74
     0
 49
-0.5131578947368423
 74
     0
 49
0.0
 74
     0
 49
-0.5131578947368423
 74
     0
  0
ENDTAB
  0
TABLE
  2
LAYER
  5
2
330
0
100
AcDbSymbolTable
 70
     3
  0
LAYER
  5
10
102
{ACAD_XDICTIONARY
360
14E9
102
}
330
2
100
AcDbSymbolTableRecord
100
AcDbLayerTableRecord
  2
0
 70
     0
 62
     7
  6
CONTINUOUS
370
    -3
390
F
347
B95
  0
LAYER
  5
31
102
{ACAD_XDICTIONARY
360
14EB
102
}
330
2
100
AcDbSymbolTableRecord
100
AcDbLayerTableRecord
  2
1
 70
     0
 62
     7
  6
CONTINUOUS
370
    -3
390
F
347
B95
  0
LAYER
  5
3A2
330
2
100
AcDbSymbolTableRecord
100
AcDbLayerTableRecord
  2
Defpoints
 70
     0
 62
     7
  6
CONTINUOUS
290
     0
370
    -3
390
F
347
B95
  0
ENDTAB
  0
TABLE
  2
STYLE
  5
3
330
0
100
AcDbSymbolTable
 70
     3
  0
STYLE
  5
11
330
3
100
AcDbSymbolTableRecord
100
AcDbTextStyleTableRecord
  2
STANDARD
 70
     0
 40
0.0
 41
1.0
 50
0.0
 71
     0
 42
3.5
  3
isocpeur.ttf
  4

1001
ACAD
1000
ISOCPEUR
1071
       34
  0
ENDTAB
  0
TABLE
  2
VIEW
  5
6
330
0
100
AcDbSymbolTable
 70
     0
  0
ENDTAB
  0
TABLE
  2
UCS
  5
7
330
0
100
AcDbSymbolTable
 70
     0
  0
ENDTAB
  0
TABLE
  2
APPID
  5
9
330
0
100
AcDbSymbolTable
 70
    12
  0
APPID
  5
12
330
9
100
AcDbSymbolTableRecord
100
AcDbRegAppTableRecord
  2
ACAD
 70
     0
  0
APPID
  5
445
330
9
100
AcDbSymbolTableRecord
100
AcDbRegAppTableRecord
  2
ACAUTHENVIRON
 70
     0
  0
APPID
  5
540
330
9
100
AcDbSymbolTableRecord
100
AcDbRegAppTableRecord
  2
AcDbDynamicBlockTrueName
 70
     0
  0
APPID
  5
541
330
9
100
AcDbSymbolTableRecord
100
AcDbRegAppTableRecord
  2
AcDbDynamicBlockGUID
 70
     0
  0
APPID
  5
543
330
9
100
AcDbSymbolTableRecord
100
AcDbRegAppTableRecord
  2
AcDbBlockRepETag
 70
     0
  0
APPID
  5
A91
330
9
100
AcDbSymbolTableRecord
100
AcDbRegAppTableRecord
  2
ACAD_DSTYLE_DIMFLIPARROW_SYMBOL
 70
     0
  0
APPID
  5
A93
330
9
100
AcDbSymbolTableRecord
100
AcDbRegAppTableRecord
  2
ACAD_DSTYLE_DIMFLIPARROW_WHICH_SYMBOL
 70
     0
  0
APPID
  5
B7F
330
9
100
AcDbSymbolTableRecord
100
AcDbRegAppTableRecord
  2
ACAD_PSEXT
 70
     0
  0
APPID
  5
B80
330
9
100
AcDbSymbolTableRecord
100
AcDbRegAppTableRecord
  2
ACAD_DSTYLE_DIMJAG
 70
     0
  0
APPID
  5
B81
330
9
100
AcDbSymbolTableRecord
100
AcDbRegAppTableRecord
  2
ACAD_DSTYLE_DIMTALN
 70
     0
  0
APPID
  5
B82
330
9
100
AcDbSymbolTableRecord
100
AcDbRegAppTableRecord
  2
ACAD_MLEADERVER
 70
     0
  0
APPID
  5
F4A
330
9
100
AcDbSymbolTableRecord
100
AcDbRegAppTableRecord
  2
ACAD_EXEMPT_FROM_CAD_STANDARDS
 70
     0
  0
ENDTAB
  0
TABLE
  2
DIMSTYLE
  5
A
330
0
100
AcDbSymbolTable
 70
     3
100
AcDbDimStyleTable
 71
     1
340
26
  0
DIMSTYLE
105
26
102
{ACAD_REACTORS
330
D0B
330
D0D
330
D0E
330
D0F
330
D10
330
D12
330
D13
330
D14
330
D16
330
D17
330
D0C
330
D15
330
D11
102
}
330
A
100
AcDbSymbolTableRecord
100
AcDbDimStyleTableRecord
  2
DMST_1
 70
     0
 41
0.7000000000000002
 42
0.0
 43
7.0
 44
0.2
 73
     0
 74
     0
 77
     1
 78
     9
140
0.7000000000000002
141
0.0
176
     2
177
     2
178
     3
279
     2
340
11
  0
ENDTAB
  0
TABLE
  2
BLOCK_RECORD
  5
1
330
0
100
AcDbSymbolTable
 70
    15
  0
BLOCK_RECORD
  5
22
102
{ACAD_XDICTIONARY
360
A77
102
}
330
1
100
AcDbSymbolTableRecord
100
AcDbBlockTableRecord
  2
*Model_Space
340
25
 70
     0
280
     1
281
     0
  0
BLOCK_RECORD
  5
1E
330
1
100
AcDbSymbolTableRecord
100
AcDbBlockTableRecord
  2
*Paper_Space
340
21
 70
     0
280
     1
281
     0
  0
BLOCK_RECORD
  5
D33
330
1
100
AcDbSymbolTableRecord
100
AcDbBlockTableRecord
  2
*D0
340
0
 70
     0
280
     1
281
     0
  0
BLOCK_RECORD
  5
D40
330
1
100
AcDbSymbolTableRecord
100
AcDbBlockTableRecord
  2
*D1
340
0
 70
     0
280
     1
281
     0
  0
BLOCK_RECORD
  5
D4C
330
1
100
AcDbSymbolTableRecord
100
AcDbBlockTableRecord
  2
*D2
340
0
 70
     0
280
     1
281
     0
  0
BLOCK_RECORD
  5
D59
330
1
100
AcDbSymbolTableRecord
100
AcDbBlockTableRecord
  2
*D3
340
0
 70
     0
280
     1
281
     0
  0
BLOCK_RECORD
  5
D65
330
1
100
AcDbSymbolTableRecord
100
AcDbBlockTableRecord
  2
*D4
340
0
 70
     0
280
     1
281
     0
  0
BLOCK_RECORD
  5
D72
330
1
100
AcDbSymbolTableRecord
100
AcDbBlockTableRecord
  2
*D5
340
0
 70
     0
280
     1
281
     0
  0
BLOCK_RECORD
  5
D7E
330
1
100
AcDbSymbolTableRecord
100
AcDbBlockTableRecord
  2
*D6
340
0
 70
     0
280
     1
281
     0
  0
BLOCK_RECORD
  5
D8B
330
1
100
AcDbSymbolTableRecord
100
AcDbBlockTableRecord
  2
*D7
340
0
 70
     0
280
     1
281
     0
  0
BLOCK_RECORD
  5
D9B
330
1
100
AcDbSymbolTableRecord
100
AcDbBlockTableRecord
  2
*D8
340
0
 70
     0
280
     1
281
     0
  0
BLOCK_RECORD
  5
DA8
330
1
100
AcDbSymbolTableRecord
100
AcDbBlockTableRecord
  2
*D9
340
0
 70
     0
280
     1
281
     0
  0
BLOCK_RECORD
  5
DB4
330
1
100
AcDbSymbolTableRecord
100
AcDbBlockTableRecord
  2
*D10
340
0
 70
     0
280
     1
281
     0
  0
BLOCK_RECORD
  5
DC0
330
1
100
AcDbSymbolTableRecord
100
AcDbBlockTableRecord
  2
*D11
340
0
 70
     0
280
     1
281
     0
  0
BLOCK_RECORD
  5
DCC
330
1
100
AcDbSymbolTableRecord
100
AcDbBlockTableRecord
  2
*D12
340
0
 70
     0
280
     1
281
     0
  0
ENDTAB
  0
ENDSEC
  0
SECTION
  2
BLOCKS
  0
BLOCK
  5
23
330
22
100
AcDbEntity
  8
0
100
AcDbBlockBegin
  2
*Model_Space
 70
     0
 10
0.0
 20
0.0
 30
0.0
  3
*Model_Space
  1

  0
ENDBLK
  5
24
330
22
100
AcDbEntity
  8
0
100
AcDbBlockEnd
  0
BLOCK
  5
1F
330
1E
100
AcDbEntity
 67
     1
  8
0
100
AcDbBlockBegin
  2
*Paper_Space
 70
     0
 10
0.0
 20
0.0
 30
0.0
  3
*Paper_Space
  1

  0
ENDBLK
  5
20
330
1E
100
AcDbEntity
 67
     1
  8
0
100
AcDbBlockEnd
  0
BLOCK
  5
D3E
330
D33
100
AcDbEntity
  8
0
100
AcDbBlockBegin
  2
*D0
 70
     1
 10
0.0
 20
0.0
 30
0.0
  3
*D0
  1

  0
LINE
  5
105A
330
D33
100
AcDbEntity
  8
1
  6
Continuous
 62
     2
370
    -2
100
AcDbLine
 10
973.9383202871946
 20
418.6568965323476
 30
0.0
 11
973.9383202871946
 21
410.7133457539653
 31
0.0
  0
LINE
  5
105B
330
D33
100
AcDbEntity
  8
1
  6
Continuous
 62
     2
370
    -2
100
AcDbLine
 10
974.4383202871944
 20
415.7268965323476
 30
0.0
 11
974.4383202871944
 21
410.7133457539653
 31
0.0
  0
LINE
  5
105C
330
D33
100
AcDbEntity
  8
1
  6
Continuous
 62
     2
370
    -2
100
AcDbLine
 10
973.2383202871949
 20
410.9133457539653
 30
0.0
 11
972.5383202871947
 21
410.9133457539653
 31
0.0
  0
LINE
  5
105D
330
D33
100
AcDbEntity
  8
1
  6
Continuous
 62
     2
370
    -2
100
AcDbLine
 10
975.1383202871947
 20
410.9133457539653
 30
0.0
 11
975.8383202871948
 21
410.9133457539653
 31
0.0
  0
MTEXT
  5
105E
330
D33
100
AcDbEntity
  8
1
  6
Continuous
 62
     3
100
AcDbMText
 10
975.8790922649726
 20
411.5660727841738
 30
0.0
 40
0.7000000000000002
 41
0.0
 46
0.0
 71
     5
 72
     1
  1
\A1;0.5
 73
     1
 44
1.0
1001
ACAD
1000
MTEXTBEGIN
1070
    73
1070
     1
1070
    44
1040
1.0
1070
    74
1070
     0
1000
MTEXTEND
  0
SOLID
  5
105F
330
D33
100
AcDbEntity
  8
1
  6
Continuous
 62
     2
100
AcDbTrace
 10
973.2383202871949
 20
411.0300124206316
 30
0.0
 11
973.2383202871949
 21
410.7966790872985
 31
0.0
 12
973.9383202871946
 22
410.9133457539653
 32
0.0
 13
973.9383202871946
 23
410.9133457539653
 33
0.0
  0
SOLID
  5
1060
330
D33
100
AcDbEntity
  8
1
  6
Continuous
 62
     2
100
AcDbTrace
 10
975.1383202871947
 20
411.0300124206316
 30
0.0
 11
975.1383202871947
 21
410.7966790872985
 31
0.0
 12
974.4383202871944
 22
410.9133457539653
 32
0.0
 13
974.4383202871944
 23
410.9133457539653
 33
0.0
  0
POINT
  5
1061
330
D33
100
AcDbEntity
  8
Defpoints
  6
Continuous
 62
     0
100
AcDbPoint
 10
973.9383202871946
 20
418.6568965323476
 30
0.0
  0
POINT
  5
1062
330
D33
100
AcDbEntity
  8
Defpoints
  6
Continuous
 62
     0
100
AcDbPoint
 10
974.4383202871944
 20
415.7268965323476
 30
0.0
  0
POINT
  5
1063
330
D33
100
AcDbEntity
  8
Defpoints
  6
Continuous
 62
     0
100
AcDbPoint
 10
974.4383202871944
 20
410.9133457539653
 30
0.0
  0
ENDBLK
  5
D3F
330
D33
100
AcDbEntity
  8
0
100
AcDbBlockEnd
  0
BLOCK
  5
D4A
330
D40
100
AcDbEntity
  8
0
100
AcDbBlockBegin
  2
*D1
 70
     1
 10
0.0
 20
0.0
 30
0.0
  3
*D1
  1

  0
LINE
  5
154E
330
D40
100
AcDbEntity
  8
1
  6
Continuous
 62
     2
370
    -2
100
AcDbLine
 10
963.7883202871943
 20
417.8257577022633
 30
0.0
 11
963.7883202871943
 21
411.2058685603519
 31
0.0
  0
LINE
  5
154F
330
D40
100
AcDbEntity
  8
1
  6
Continuous
 62
     2
370
    -2
100
AcDbLine
 10
959.2883202871943
 20
417.8257577022633
 30
0.0
 11
959.2883202871943
 21
411.2058685603519
 31
0.0
  0
LINE
  5
1550
330
D40
100
AcDbEntity
  8
1
  6
Continuous
 62
     2
370
    -2
100
AcDbLine
 10
963.0883202871942
 20
411.4058685603517
 30
0.0
 11
959.9883202871943
 21
411.4058685603517
 31
0.0
  0
MTEXT
  5
1551
330
D40
100
AcDbEntity
  8
1
  6
Continuous
 62
     3
100
AcDbMText
 10
960.8363144936062
 20
412.1263829689833
 30
0.0
 40
0.7000000000000002
 41
0.0
 46
0.0
 71
     5
 72
     1
  1
\A1;4.5
 73
     1
 44
1.0
1001
ACAD
1000
MTEXTBEGIN
1070
    73
1070
     1
1070
    44
1040
1.0
1070
    74
1070
     0
1000
MTEXTEND
  0
SOLID
  5
1552
330
D40
100
AcDbEntity
  8
1
  6
Continuous
 62
     2
100
AcDbTrace
 10
963.0883202871942
 20
411.5225352270185
 30
0.0
 11
963.0883202871942
 21
411.2892018936851
 31
0.0
 12
963.7883202871943
 22
411.4058685603517
 32
0.0
 13
963.7883202871943
 23
411.4058685603517
 33
0.0
  0
SOLID
  5
1553
330
D40
100
AcDbEntity
  8
1
  6
Continuous
 62
     2
100
AcDbTrace
 10
959.9883202871943
 20
411.5225352270185
 30
0.0
 11
959.9883202871943
 21
411.2892018936851
 31
0.0
 12
959.2883202871943
 22
411.4058685603517
 32
0.0
 13
959.2883202871943
 23
411.4058685603517
 33
0.0
  0
POINT
  5
1554
330
D40
100
AcDbEntity
  8
Defpoints
  6
Continuous
 62
     0
100
AcDbPoint
 10
963.7883202871943
 20
417.8257577022633
 30
0.0
  0
POINT
  5
1555
330
D40
100
AcDbEntity
  8
Defpoints
  6
Continuous
 62
     0
100
AcDbPoint
 10
959.2883202871943
 20
417.8257577022633
 30
0.0
  0
POINT
  5
1556
330
D40
100
AcDbEntity
  8
Defpoints
  6
Continuous
 62
     0
100
AcDbPoint
 10
959.2883202871943
 20
411.4058685603517
 30
0.0
  0
ENDBLK
  5
D4B
330
D40
100
AcDbEntity
  8
0
100
AcDbBlockEnd
  0
BLOCK
  5
D57
330
D4C
100
AcDbEntity
  8
0
100
AcDbBlockBegin
  2
*D2
 70
     1
 10
0.0
 20
0.0
 30
0.0
  3
*D2
  1

  0
LINE
  5
DEC
330
D4C
100
AcDbEntity
  8
1
  6
Continuous
 62
     2
370
    -2
100
AcDbLine
 10
1015.518320287194
 20
421.6568965323475
 30
0.0
 11
1009.843060611366
 21
421.6568965323475
 31
0.0
  0
LINE
  5
DED
330
D4C
100
AcDbEntity
  8
1
  6
Continuous
 62
     2
370
    -2
100
AcDbLine
 10
1015.518320287194
 20
421.4568965323476
 30
0.0
 11
1009.843060611366
 21
421.4568965323476
 31
0.0
  0
LINE
  5
DEE
330
D4C
100
AcDbEntity
  8
1
  6
Continuous
 62
     2
370
    -2
100
AcDbLine
 10
1010.043060611366
 20
422.3568965323476
 30
0.0
 11
1010.043060611366
 21
423.0568965323476
 31
0.0
  0
LINE
  5
DEF
330
D4C
100
AcDbEntity
  8
1
  6
Continuous
 62
     2
370
    -2
100
AcDbLine
 10
1010.043060611366
 20
420.7568965323476
 30
0.0
 11
1010.043060611366
 21
420.0568965323476
 31
0.0
  0
MTEXT
  5
DF0
330
D4C
100
AcDbEntity
  8
1
  6
Continuous
 62
     3
100
AcDbMText
 10
1009.496551165945
 20
420.001273691668
 30
0.0
 40
0.7000000000000002
 41
0.0
 46
0.0
 71
     5
 72
     1
  1
\A1;0.2
 11
0.0000000000000001
 21
1.0
 31
0.0
 73
     1
 44
1.0
1001
ACAD
1000
MTEXTBEGIN
1070
    73
1070
     1
1070
    44
1040
1.0
1070
    74
1070
     0
1000
MTEXTEND
  0
SOLID
  5
DF1
330
D4C
100
AcDbEntity
  8
1
  6
Continuous
 62
     2
100
AcDbTrace
 10
1009.9263939447
 20
422.3568965323476
 30
0.0
 11
1010.159727278033
 21
422.3568965323476
 31
0.0
 12
1010.043060611366
 22
421.6568965323475
 32
0.0
 13
1010.043060611366
 23
421.6568965323475
 33
0.0
  0
SOLID
  5
DF2
330
D4C
100
AcDbEntity
  8
1
  6
Continuous
 62
     2
100
AcDbTrace
 10
1009.9263939447
 20
420.7568965323476
 30
0.0
 11
1010.159727278033
 21
420.7568965323476
 31
0.0
 12
1010.043060611366
 22
421.4568965323476
 32
0.0
 13
1010.043060611366
 23
421.4568965323476
 33
0.0
  0
POINT
  5
DF3
330
D4C
100
AcDbEntity
  8
Defpoints
  6
Continuous
 62
     0
100
AcDbPoint
 10
1015.518320287194
 20
421.6568965323475
 30
0.0
  0
POINT
  5
DF4
330
D4C
100
AcDbEntity
  8
Defpoints
  6
Continuous
 62
     0
100
AcDbPoint
 10
1015.518320287194
 20
421.4568965323476
 30
0.0
  0
POINT
  5
DF5
330
D4C
100
AcDbEntity
  8
Defpoints
  6
Continuous
 62
     0
100
AcDbPoint
 10
1010.043060611366
 20
421.4568965323476
 30
0.0
  0
ENDBLK
  5
D58
330
D4C
100
AcDbEntity
  8
0
100
AcDbBlockEnd
  0
BLOCK
  5
D63
330
D59
100
AcDbEntity
  8
0
100
AcDbBlockBegin
  2
*D3
 70
     1
 10
0.0
 20
0.0
 30
0.0
  3
*D3
  1

  0
LINE
  5
DF6
330
D59
100
AcDbEntity
  8
1
  6
Continuous
 62
     2
370
    -2
100
AcDbLine
 10
1015.268320287194
 20
417.2568965323476
 30
0.0
 11
1007.852874465824
 21
417.2568965323476
 31
0.0
  0
LINE
  5
DF7
330
D59
100
AcDbEntity
  8
1
  6
Continuous
 62
     2
370
    -2
100
AcDbLine
 10
1015.268320287194
 20
421.5568965323474
 30
0.0
 11
1007.852874465824
 21
421.5568965323474
 31
0.0
  0
LINE
  5
DF8
330
D59
100
AcDbEntity
  8
1
  6
Continuous
 62
     2
370
    -2
100
AcDbLine
 10
1008.052874465824
 20
417.9568965323475
 30
0.0
 11
1008.052874465824
 21
420.8568965323475
 31
0.0
  0
SOLID
  5
DF9
330
D59
100
AcDbEntity
  8
1
  6
Continuous
 62
     2
100
AcDbTrace
 10
1007.936207799158
 20
417.9568965323475
 30
0.0
 11
1008.169541132491
 21
417.9568965323475
 31
0.0
 12
1008.052874465824
 22
417.2568965323476
 32
0.0
 13
1008.052874465824
 23
417.2568965323476
 33
0.0
  0
SOLID
  5
DFA
330
D59
100
AcDbEntity
  8
1
  6
Continuous
 62
     2
100
AcDbTrace
 10
1007.936207799158
 20
420.8568965323475
 30
0.0
 11
1008.169541132491
 21
420.8568965323475
 31
0.0
 12
1008.052874465824
 22
421.5568965323474
 32
0.0
 13
1008.052874465824
 23
421.5568965323474
 33
0.0
  0
MTEXT
  5
DFB
330
D59
100
AcDbEntity
  8
1
  6
Continuous
 62
     3
100
AcDbMText
 10
1007.612874465824
 20
419.4068965323477
 30
0.0
 40
0.7000000000000002
 41
0.0
 46
0.0
 71
     5
 72
     1
  1
\A1;4.3
 11
0.0000000000000001
 21
1.0
 31
0.0
 73
     1
 44
1.0
1001
ACAD
1000
MTEXTBEGIN
1070
    73
1070
     1
1070
    44
1040
1.0
1070
    74
1070
     0
1000
MTEXTEND
  0
POINT
  5
DFC
330
D59
100
AcDbEntity
  8
Defpoints
  6
Continuous
 62
     0
100
AcDbPoint
 10
1015.268320287194
 20
417.2568965323476
 30
0.0
  0
POINT
  5
DFD
330
D59
100
AcDbEntity
  8
Defpoints
  6
Continuous
 62
     0
100
AcDbPoint
 10
1015.268320287194
 20
421.5568965323474
 30
0.0
  0
POINT
  5
DFE
330
D59
100
AcDbEntity
  8
Defpoints
  6
Continuous
 62
     0
100
AcDbPoint
 10
1008.052874465824
 20
421.5568965323474
 30
0.0
  0
ENDBLK
  5
D64
330
D59
100
AcDbEntity
  8
0
100
AcDbBlockEnd
  0
BLOCK
  5
D70
330
D65
100
AcDbEntity
  8
0
100
AcDbBlockBegin
  2
*D4
 70
     1
 10
0.0
 20
0.0
 30
0.0
  3
*D4
  1

  0
LINE
  5
14AC
330
D65
100
AcDbEntity
  8
1
  6
Continuous
 62
     2
370
    -2
100
AcDbLine
 10
974.4383202871944
 20
415.7268965323476
 30
0.0
 11
974.4383202871944
 21
405.9733010806946
 31
0.0
  0
LINE
  5
14AD
330
D65
100
AcDbEntity
  8
1
  6
Continuous
 62
     2
370
    -2
100
AcDbLine
 10
972.8883202871946
 20
417.1568965325375
 30
0.0
 11
972.8883202871946
 21
410.9758457539653
 31
0.0
  0
LINE
  5
14AE
330
D65
100
AcDbEntity
  8
1
  6
Continuous
 62
     2
370
    -2
100
AcDbLine
 10
972.8883202871946
 20
410.8508457539652
 30
0.0
 11
972.8883202871946
 21
405.9733010806946
 31
0.0
  0
LINE
  5
14AF
330
D65
100
AcDbEntity
  8
1
  6
Continuous
 62
     2
370
    -2
100
AcDbLine
 10
975.1383202871947
 20
406.1733010806946
 30
0.0
 11
975.8383202871948
 21
406.1733010806946
 31
0.0
  0
LINE
  5
14B0
330
D65
100
AcDbEntity
  8
1
  6
Continuous
 62
     2
370
    -2
100
AcDbLine
 10
972.1883202871946
 20
406.1733010806946
 30
0.0
 11
971.4883202871948
 21
406.1733010806946
 31
0.0
  0
MTEXT
  5
14B1
330
D65
100
AcDbEntity
  8
1
  6
Continuous
 62
     3
100
AcDbMText
 10
973.6488259870462
 20
406.7976032697845
 30
0.0
 40
0.7000000000000002
 41
0.0
 46
0.0
 71
     5
 72
     1
  1
\A1;1.55
 73
     1
 44
1.0
1001
ACAD
1000
MTEXTBEGIN
1070
    73
1070
     1
1070
    44
1040
1.0
1070
    74
1070
     0
1000
MTEXTEND
  0
SOLID
  5
14B2
330
D65
100
AcDbEntity
  8
1
  6
Continuous
 62
     2
100
AcDbTrace
 10
975.1383202871947
 20
406.2899677473613
 30
0.0
 11
975.1383202871947
 21
406.056634414028
 31
0.0
 12
974.4383202871944
 22
406.1733010806946
 32
0.0
 13
974.4383202871944
 23
406.1733010806946
 33
0.0
  0
SOLID
  5
14B3
330
D65
100
AcDbEntity
  8
1
  6
Continuous
 62
     2
100
AcDbTrace
 10
972.1883202871946
 20
406.2899677473613
 30
0.0
 11
972.1883202871946
 21
406.056634414028
 31
0.0
 12
972.8883202871946
 22
406.1733010806946
 32
0.0
 13
972.8883202871946
 23
406.1733010806946
 33
0.0
  0
POINT
  5
14B4
330
D65
100
AcDbEntity
  8
Defpoints
  6
Continuous
 62
     0
100
AcDbPoint
 10
974.4383202871944
 20
415.7268965323476
 30
0.0
  0
POINT
  5
14B5
330
D65
100
AcDbEntity
  8
Defpoints
  6
Continuous
 62
     0
100
AcDbPoint
 10
972.8883202871946
 20
417.1568965325375
 30
0.0
  0
POINT
  5
14B6
330
D65
100
AcDbEntity
  8
Defpoints
  6
Continuous
 62
     0
100
AcDbPoint
 10
972.8883202871946
 20
406.1733010806946
 30
0.0
  0
ENDBLK
  5
D71
330
D65
100
AcDbEntity
  8
0
100
AcDbBlockEnd
  0
BLOCK
  5
D7C
330
D72
100
AcDbEntity
  8
0
100
AcDbBlockBegin
  2
*D5
 70
     1
 10
0.0
 20
0.0
 30
0.0
  3
*D5
  1

  0
LINE
  5
F82
330
D72
100
AcDbEntity
  8
1
  6
Continuous
 62
     2
370
    -2
100
AcDbLine
 10
974.4383202871944
 20
415.7268965323476
 30
0.0
 11
974.4383202871944
 21
405.9751444005912
 31
0.0
  0
LINE
  5
F83
330
D72
100
AcDbEntity
  8
1
  6
Continuous
 62
     2
370
    -2
100
AcDbLine
 10
991.0383202871946
 20
415.6068965323476
 30
0.0
 11
991.0383202871946
 21
405.9751444005912
 31
0.0
  0
LINE
  5
F84
330
D72
100
AcDbEntity
  8
1
  6
Continuous
 62
     2
370
    -2
100
AcDbLine
 10
975.1383202871947
 20
406.1751444005912
 30
0.0
 11
990.3383202871944
 21
406.1751444005912
 31
0.0
  0
MTEXT
  5
F85
330
D72
100
AcDbEntity
  8
1
  6
Continuous
 62
     3
100
AcDbMText
 10
982.8466715381455
 20
406.9969672854538
 30
0.0
 40
0.7000000000000002
 41
0.0
 46
0.0
 71
     5
 72
     1
  1
\A1;16.6
 73
     1
 44
1.0
1001
ACAD
1000
MTEXTBEGIN
1070
    73
1070
     1
1070
    44
1040
1.0
1070
    74
1070
     0
1000
MTEXTEND
  0
SOLID
  5
F86
330
D72
100
AcDbEntity
  8
1
  6
Continuous
 62
     2
100
AcDbTrace
 10
975.1383202871947
 20
406.291811067258
 30
0.0
 11
975.1383202871947
 21
406.0584777339246
 31
0.0
 12
974.4383202871944
 22
406.1751444005912
 32
0.0
 13
974.4383202871944
 23
406.1751444005912
 33
0.0
  0
SOLID
  5
F87
330
D72
100
AcDbEntity
  8
1
  6
Continuous
 62
     2
100
AcDbTrace
 10
990.3383202871944
 20
406.291811067258
 30
0.0
 11
990.3383202871944
 21
406.0584777339246
 31
0.0
 12
991.0383202871946
 22
406.1751444005912
 32
0.0
 13
991.0383202871946
 23
406.1751444005912
 33
0.0
  0
POINT
  5
F88
330
D72
100
AcDbEntity
  8
Defpoints
  6
Continuous
 62
     0
100
AcDbPoint
 10
974.4383202871944
 20
415.7268965323476
 30
0.0
  0
POINT
  5
F89
330
D72
100
AcDbEntity
  8
Defpoints
  6
Continuous
 62
     0
100
AcDbPoint
 10
991.0383202871946
 20
415.6068965323476
 30
0.0
  0
POINT
  5
F8A
330
D72
100
AcDbEntity
  8
Defpoints
  6
Continuous
 62
     0
100
AcDbPoint
 10
991.0383202871946
 20
406.1751444005912
 30
0.0
  0
ENDBLK
  5
D7D
330
D72
100
AcDbEntity
  8
0
100
AcDbBlockEnd
  0
BLOCK
  5
D89
330
D7E
100
AcDbEntity
  8
0
100
AcDbBlockBegin
  2
*D6
 70
     1
 10
0.0
 20
0.0
 30
0.0
  3
*D6
  1

  0
LINE
  5
1708
330
D7E
100
AcDbEntity
  8
1
  6
Continuous
 62
     2
370
    -2
100
AcDbLine
 10
995.1383202871946
 20
418.6568965323476
 30
0.0
 11
998.2257672006452
 21
418.6568965323476
 31
0.0
  0
LINE
  5
1709
330
D7E
100
AcDbEntity
  8
1
  6
Continuous
 62
     2
370
    -2
100
AcDbLine
 10
995.1383202871946
 20
420.1568965323476
 30
0.0
 11
995.4420515419187
 21
420.1568965323476
 31
0.0
  0
LINE
  5
170A
330
D7E
100
AcDbEntity
  8
1
  6
Continuous
 62
     2
370
    -2
100
AcDbLine
 10
995.7327494722759
 20
420.1568965323476
 30
0.0
 11
998.2257672006452
 21
420.1568965323476
 31
0.0
  0
LINE
  5
170B
330
D7E
100
AcDbEntity
  8
1
  6
Continuous
 62
     2
370
    -2
100
AcDbLine
 10
998.0257672006453
 20
417.9568965323475
 30
0.0
 11
998.0257672006453
 21
417.2568965323476
 31
0.0
  0
LINE
  5
170C
330
D7E
100
AcDbEntity
  8
1
  6
Continuous
 62
     2
370
    -2
100
AcDbLine
 10
998.0257672006453
 20
420.8568965323475
 30
0.0
 11
998.0257672006453
 21
421.5568965323475
 31
0.0
  0
MTEXT
  5
170D
330
D7E
100
AcDbEntity
  8
1
  6
Continuous
 62
     3
100
AcDbMText
 10
997.260623632807
 20
422.1996352650701
 30
0.0
 40
0.7000000000000002
 41
0.0
 46
0.0
 71
     5
 72
     1
  1
\A1;%%C1.5
 11
0.0000000000000001
 21
1.0
 31
0.0
 73
     1
 44
1.0
  0
SOLID
  5
170E
330
D7E
100
AcDbEntity
  8
1
  6
Continuous
 62
     2
100
AcDbTrace
 10
997.9091005339785
 20
417.9568965323475
 30
0.0
 11
998.142433867312
 21
417.9568965323475
 31
0.0
 12
998.0257672006453
 22
418.6568965323476
 32
0.0
 13
998.0257672006453
 23
418.6568965323476
 33
0.0
  0
SOLID
  5
170F
330
D7E
100
AcDbEntity
  8
1
  6
Continuous
 62
     2
100
AcDbTrace
 10
997.9091005339785
 20
420.8568965323475
 30
0.0
 11
998.142433867312
 21
420.8568965323475
 31
0.0
 12
998.0257672006453
 22
420.1568965323476
 32
0.0
 13
998.0257672006453
 23
420.1568965323476
 33
0.0
  0
POINT
  5
1710
330
D7E
100
AcDbEntity
  8
Defpoints
  6
Continuous
 62
     0
100
AcDbPoint
 10
995.1383202871946
 20
418.6568965323476
 30
0.0
  0
POINT
  5
1711
330
D7E
100
AcDbEntity
  8
Defpoints
  6
Continuous
 62
     0
100
AcDbPoint
 10
995.1383202871946
 20
420.1568965323476
 30
0.0
  0
POINT
  5
1712
330
D7E
100
AcDbEntity
  8
Defpoints
  6
Continuous
 62
     0
100
AcDbPoint
 10
998.0257672006453
 20
420.1568965323476
 30
0.0
  0
ENDBLK
  5
D8A
330
D7E
100
AcDbEntity
  8
0
100
AcDbBlockEnd
  0
BLOCK
  5
D99
330
D8B
100
AcDbEntity
  8
0
100
AcDbBlockBegin
  2
*D7
 70
     1
 10
0.0
 20
0.0
 30
0.0
  3
*D7
  1

  0
LINE
  5
16A7
330
D8B
100
AcDbEntity
  8
1
  6
Continuous
 62
     2
370
    -2
100
AcDbLine
 10
991.0383202871946
 20
415.6068965323476
 30
0.0
 11
991.0383202871946
 21
410.7142801318012
 31
0.0
  0
LINE
  5
16A8
330
D8B
100
AcDbEntity
  8
1
  6
Continuous
 62
     2
370
    -2
100
AcDbLine
 10
992.9383202871944
 20
417.0068965323476
 30
0.0
 11
992.9383202871944
 21
410.7142801318012
 31
0.0
  0
LINE
  5
16A9
330
D8B
100
AcDbEntity
  8
1
  6
Continuous
 62
     2
370
    -2
100
AcDbLine
 10
991.7383202871947
 20
410.9142801318013
 30
0.0
 11
992.2383202871943
 21
410.9142801318013
 31
0.0
  0
MTEXT
  5
16AA
330
D8B
100
AcDbEntity
  8
1
  6
Continuous
 62
     3
100
AcDbMText
 10
991.9054338209159
 20
411.6026055816686
 30
0.0
 40
0.7000000000000002
 41
0.0
 46
0.0
 71
     5
 72
     1
  1
\A1;1.9
 73
     1
 44
1.0
1001
ACAD
1000
MTEXTBEGIN
1070
    73
1070
     1
1070
    44
1040
1.0
1070
    74
1070
     0
1000
MTEXTEND
  0
SOLID
  5
16AB
330
D8B
100
AcDbEntity
  8
1
  6
Continuous
 62
     2
100
AcDbTrace
 10
990.3383202871946
 20
411.030946798468
 30
0.0
 11
990.3383202871946
 21
410.7976134651346
 31
0.0
 12
991.0383202871946
 22
410.9142801318013
 32
0.0
 13
991.0383202871946
 23
410.9142801318013
 33
0.0
  0
LINE
  5
16AC
330
D8B
100
AcDbEntity
  8
1
  6
Continuous
 62
     2
370
    -2
100
AcDbLine
 10
990.3383202871946
 20
410.9142801318013
 30
0.0
 11
989.6383202871943
 21
410.9142801318013
 31
0.0
  0
LINE
  5
16AD
330
D8B
100
AcDbEntity
  8
1
  6
Continuous
 62
     2
370
    -2
100
AcDbLine
 10
991.0383202871946
 20
410.9142801318013
 30
0.0
 11
991.7383202871947
 21
410.9142801318013
 31
0.0
  0
SOLID
  5
16AE
330
D8B
100
AcDbEntity
  8
1
  6
Continuous
 62
     2
100
AcDbTrace
 10
993.6383202871944
 20
411.030946798468
 30
0.0
 11
993.6383202871944
 21
410.7976134651346
 31
0.0
 12
992.9383202871944
 22
410.9142801318013
 32
0.0
 13
992.9383202871944
 23
410.9142801318013
 33
0.0
  0
LINE
  5
16AF
330
D8B
100
AcDbEntity
  8
1
  6
Continuous
 62
     2
370
    -2
100
AcDbLine
 10
993.6383202871944
 20
410.9142801318013
 30
0.0
 11
994.3383202871943
 21
410.9142801318013
 31
0.0
  0
LINE
  5
16B0
330
D8B
100
AcDbEntity
  8
1
  6
Continuous
 62
     2
370
    -2
100
AcDbLine
 10
992.9383202871944
 20
410.9142801318013
 30
0.0
 11
992.2383202871943
 21
410.9142801318013
 31
0.0
  0
POINT
  5
16B1
330
D8B
100
AcDbEntity
  8
Defpoints
  6
Continuous
 62
     0
100
AcDbPoint
 10
991.0383202871946
 20
415.6068965323476
 30
0.0
  0
POINT
  5
16B2
330
D8B
100
AcDbEntity
  8
Defpoints
  6
Continuous
 62
     0
100
AcDbPoint
 10
992.9383202871944
 20
417.0068965323476
 30
0.0
  0
POINT
  5
16B3
330
D8B
100
AcDbEntity
  8
Defpoints
  6
Continuous
 62
     0
100
AcDbPoint
 10
992.9383202871944
 20
410.9142801318013
 30
0.0
  0
ENDBLK
  5
D9A
330
D8B
100
AcDbEntity
  8
0
100
AcDbBlockEnd
  0
BLOCK
  5
DA6
330
D9B
100
AcDbEntity
  8
0
100
AcDbBlockBegin
  2
*D8
 70
     1
 10
0.0
 20
0.0
 30
0.0
  3
*D8
  1

  0
LINE
  5
10C6
330
D9B
100
AcDbEntity
  8
1
  6
Continuous
 62
     2
370
    -2
100
AcDbLine
 10
991.4383202871944
 20
416.4068965323476
 30
0.0
 11
991.4383202871944
 21
413.2087947231739
 31
0.0
  0
LINE
  5
10C7
330
D9B
100
AcDbEntity
  8
1
  6
Continuous
 62
     2
370
    -2
100
AcDbLine
 10
991.0383202871946
 20
415.6068965323476
 30
0.0
 11
991.0383202871946
 21
413.2087947231739
 31
0.0
  0
LINE
  5
10C8
330
D9B
100
AcDbEntity
  8
1
  6
Continuous
 62
     2
370
    -2
100
AcDbLine
 10
992.1383202871943
 20
413.4087947231739
 30
0.0
 11
992.8383202871943
 21
413.4087947231739
 31
0.0
  0
LINE
  5
10C9
330
D9B
100
AcDbEntity
  8
1
  6
Continuous
 62
     2
370
    -2
100
AcDbLine
 10
990.3383202871944
 20
413.4087947231739
 30
0.0
 11
989.6383202871943
 21
413.4087947231739
 31
0.0
  0
MTEXT
  5
10CA
330
D9B
100
AcDbEntity
  8
1
  6
Continuous
 62
     3
100
AcDbMText
 10
989.6239187949912
 20
413.9533839182067
 30
0.0
 40
0.7000000000000002
 41
0.0
 46
0.0
 71
     5
 72
     1
  1
\A1;0.4
 73
     1
 44
1.0
1001
ACAD
1000
MTEXTBEGIN
1070
    73
1070
     1
1070
    44
1040
1.0
1070
    74
1070
     0
1000
MTEXTEND
  0
SOLID
  5
10CB
330
D9B
100
AcDbEntity
  8
1
  6
Continuous
 62
     2
100
AcDbTrace
 10
992.1383202871943
 20
413.5254613898402
 30
0.0
 11
992.1383202871943
 21
413.2921280565072
 31
0.0
 12
991.4383202871944
 22
413.4087947231739
 32
0.0
 13
991.4383202871944
 23
413.4087947231739
 33
0.0
  0
SOLID
  5
10CC
330
D9B
100
AcDbEntity
  8
1
  6
Continuous
 62
     2
100
AcDbTrace
 10
990.3383202871944
 20
413.5254613898402
 30
0.0
 11
990.3383202871944
 21
413.2921280565072
 31
0.0
 12
991.0383202871946
 22
413.4087947231739
 32
0.0
 13
991.0383202871946
 23
413.4087947231739
 33
0.0
  0
POINT
  5
10CD
330
D9B
100
AcDbEntity
  8
Defpoints
  6
Continuous
 62
     0
100
AcDbPoint
 10
991.4383202871944
 20
416.4068965323476
 30
0.0
  0
POINT
  5
10CE
330
D9B
100
AcDbEntity
  8
Defpoints
  6
Continuous
 62
     0
100
AcDbPoint
 10
991.0383202871946
 20
415.6068965323476
 30
0.0
  0
POINT
  5
10CF
330
D9B
100
AcDbEntity
  8
Defpoints
  6
Continuous
 62
     0
100
AcDbPoint
 10
991.0383202871946
 20
413.4087947231739
 30
0.0
  0
ENDBLK
  5
DA7
330
D9B
100
AcDbEntity
  8
0
100
AcDbBlockEnd
  0
BLOCK
  5
DB2
330
DA8
100
AcDbEntity
  8
0
100
AcDbBlockBegin
  2
*D9
 70
     1
 10
0.0
 20
0.0
 30
0.0
  3
*D9
  1

  0
LINE
  5
1731
330
DA8
100
AcDbEntity
  8
1
  6
Continuous
 62
     2
370
    -2
100
AcDbLine
 10
995.1383202871946
 20
418.6568965323476
 30
0.0
 11
995.1383202871946
 21
416.7577530254892
 31
0.0
  0
LINE
  5
1732
330
DA8
100
AcDbEntity
  8
1
  6
Continuous
 62
     2
370
    -2
100
AcDbLine
 10
995.1383202871946
 20
416.2798182273504
 30
0.0
 11
995.1383202871946
 21
408.2179415461131
 31
0.0
  0
LINE
  5
1733
330
DA8
100
AcDbEntity
  8
1
  6
Continuous
 62
     2
370
    -2
100
AcDbLine
 10
993.1383202871943
 20
410.3970536370178
 30
0.0
 11
993.1383202871943
 21
408.2179415461131
 31
0.0
  0
LINE
  5
1734
330
DA8
100
AcDbEntity
  8
1
  6
Continuous
 62
     2
370
    -2
100
AcDbLine
 10
994.4383202871946
 20
408.4179415461131
 30
0.0
 11
993.8383202871944
 21
408.4179415461131
 31
0.0
  0
MTEXT
  5
1735
330
DA8
100
AcDbEntity
  8
1
  6
Continuous
 62
     3
100
AcDbMText
 10
994.1580143552569
 20
409.1064262778306
 30
0.0
 40
0.7000000000000002
 41
0.0
 46
0.0
 71
     5
 72
     1
  1
\A1;2
 73
     1
 44
1.0
  0
SOLID
  5
1736
330
DA8
100
AcDbEntity
  8
1
  6
Continuous
 62
     2
100
AcDbTrace
 10
994.4383202871946
 20
408.5346082127798
 30
0.0
 11
994.4383202871946
 21
408.3012748794464
 31
0.0
 12
995.1383202871946
 22
408.4179415461131
 32
0.0
 13
995.1383202871946
 23
408.4179415461131
 33
0.0
  0
SOLID
  5
1737
330
DA8
100
AcDbEntity
  8
1
  6
Continuous
 62
     2
100
AcDbTrace
 10
993.8383202871944
 20
408.5346082127798
 30
0.0
 11
993.8383202871944
 21
408.3012748794464
 31
0.0
 12
993.1383202871943
 22
408.4179415461131
 32
0.0
 13
993.1383202871943
 23
408.4179415461131
 33
0.0
  0
POINT
  5
1738
330
DA8
100
AcDbEntity
  8
Defpoints
  6
Continuous
 62
     0
100
AcDbPoint
 10
995.1383202871946
 20
418.6568965323476
 30
0.0
  0
POINT
  5
1739
330
DA8
100
AcDbEntity
  8
Defpoints
  6
Continuous
 62
     0
100
AcDbPoint
 10
993.1383202871943
 20
410.3970536370178
 30
0.0
  0
POINT
  5
173A
330
DA8
100
AcDbEntity
  8
Defpoints
  6
Continuous
 62
     0
100
AcDbPoint
 10
993.1383202871943
 20
408.4179415461131
 30
0.0
  0
ENDBLK
  5
DB3
330
DA8
100
AcDbEntity
  8
0
100
AcDbBlockEnd
  0
BLOCK
  5
DBE
330
DB4
100
AcDbEntity
  8
0
100
AcDbBlockBegin
  2
*D10
 70
     1
 10
0.0
 20
0.0
 30
0.0
  3
*D10
  1

  0
LINE
  5
1759
330
DB4
100
AcDbEntity
  8
1
  6
Continuous
 62
     2
370
    -2
100
AcDbLine
 10
991.0383202871946
 20
415.6068965323476
 30
0.0
 11
991.0383202871946
 21
405.974889364325
 31
0.0
  0
LINE
  5
175A
330
DB4
100
AcDbEntity
  8
1
  6
Continuous
 62
     2
370
    -2
100
AcDbLine
 10
996.0383202871943
 20
418.8568965323476
 30
0.0
 11
996.0383202871943
 21
416.7694664336137
 31
0.0
  0
LINE
  5
175B
330
DB4
100
AcDbEntity
  8
1
  6
Continuous
 62
     2
370
    -2
100
AcDbLine
 10
996.0383202871943
 20
416.281526911957
 30
0.0
 11
996.0383202871943
 21
405.974889364325
 31
0.0
  0
LINE
  5
175C
330
DB4
100
AcDbEntity
  8
1
  6
Continuous
 62
     2
370
    -2
100
AcDbLine
 10
991.7383202871947
 20
406.1748893643251
 30
0.0
 11
995.3383202871943
 21
406.1748893643251
 31
0.0
  0
MTEXT
  5
175D
330
DB4
100
AcDbEntity
  8
1
  6
Continuous
 62
     3
100
AcDbMText
 10
993.5383202871943
 20
406.7546470857973
 30
0.0
 40
0.7000000000000002
 41
0.0
 46
0.0
 71
     5
 72
     1
  1
\A1;5
 73
     1
 44
1.0
  0
SOLID
  5
175E
330
DB4
100
AcDbEntity
  8
1
  6
Continuous
 62
     2
100
AcDbTrace
 10
991.7383202871947
 20
406.2915560309917
 30
0.0
 11
991.7383202871947
 21
406.0582226976584
 31
0.0
 12
991.0383202871946
 22
406.1748893643251
 32
0.0
 13
991.0383202871946
 23
406.1748893643251
 33
0.0
  0
SOLID
  5
175F
330
DB4
100
AcDbEntity
  8
1
  6
Continuous
 62
     2
100
AcDbTrace
 10
995.3383202871943
 20
406.2915560309917
 30
0.0
 11
995.3383202871943
 21
406.0582226976584
 31
0.0
 12
996.0383202871943
 22
406.1748893643251
 32
0.0
 13
996.0383202871943
 23
406.1748893643251
 33
0.0
  0
POINT
  5
1760
330
DB4
100
AcDbEntity
  8
Defpoints
  6
Continuous
 62
     0
100
AcDbPoint
 10
991.0383202871946
 20
415.6068965323476
 30
0.0
  0
POINT
  5
1761
330
DB4
100
AcDbEntity
  8
Defpoints
  6
Continuous
 62
     0
100
AcDbPoint
 10
996.0383202871943
 20
418.8568965323476
 30
0.0
  0
POINT
  5
1762
330
DB4
100
AcDbEntity
  8
Defpoints
  6
Continuous
 62
     0
100
AcDbPoint
 10
996.0383202871943
 20
406.1748893643251
 30
0.0
  0
ENDBLK
  5
DBF
330
DB4
100
AcDbEntity
  8
0
100
AcDbBlockEnd
  0
BLOCK
  5
DCA
330
DC0
100
AcDbEntity
  8
0
100
AcDbBlockBegin
  2
*D11
 70
     1
 10
0.0
 20
0.0
 30
0.0
  3
*D11
  1

  0
LINE
  5
16CF
330
DC0
100
AcDbEntity
  8
1
  6
Continuous
 62
     2
370
    -2
100
AcDbLine
 10
991.0383202871946
 20
415.6068965323476
 30
0.0
 11
991.0383202871946
 21
410.9767801318013
 31
0.0
  0
LINE
  5
16D0
330
DC0
100
AcDbEntity
  8
1
  6
Continuous
 62
     2
370
    -2
100
AcDbLine
 10
991.0383202871946
 20
410.8517801318013
 30
0.0
 11
991.0383202871946
 21
408.2200112480278
 31
0.0
  0
LINE
  5
16D1
330
DC0
100
AcDbEntity
  8
1
  6
Continuous
 62
     2
370
    -2
100
AcDbLine
 10
993.1383202871943
 20
418.6568965323476
 30
0.0
 11
993.1383202871943
 21
408.2200112480278
 31
0.0
  0
LINE
  5
16D2
330
DC0
100
AcDbEntity
  8
1
  6
Continuous
 62
     2
370
    -2
100
AcDbLine
 10
991.7383202871947
 20
408.4200112480279
 30
0.0
 11
992.4383202871943
 21
408.4200112480279
 31
0.0
  0
MTEXT
  5
16D3
330
DC0
100
AcDbEntity
  8
1
  6
Continuous
 62
     3
100
AcDbMText
 10
992.008055500872
 20
409.1195578682389
 30
0.0
 40
0.7000000000000002
 41
0.0
 46
0.0
 71
     5
 72
     1
  1
\A1;2.1
 73
     1
 44
1.0
  0
SOLID
  5
16D4
330
DC0
100
AcDbEntity
  8
1
  6
Continuous
 62
     2
100
AcDbTrace
 10
991.7383202871947
 20
408.5366779146945
 30
0.0
 11
991.7383202871947
 21
408.3033445813612
 31
0.0
 12
991.0383202871946
 22
408.4200112480279
 32
0.0
 13
991.0383202871946
 23
408.4200112480279
 33
0.0
  0
SOLID
  5
16D5
330
DC0
100
AcDbEntity
  8
1
  6
Continuous
 62
     2
100
AcDbTrace
 10
992.4383202871943
 20
408.5366779146945
 30
0.0
 11
992.4383202871943
 21
408.3033445813612
 31
0.0
 12
993.1383202871943
 22
408.4200112480279
 32
0.0
 13
993.1383202871943
 23
408.4200112480279
 33
0.0
  0
POINT
  5
16D6
330
DC0
100
AcDbEntity
  8
Defpoints
  6
Continuous
 62
     0
100
AcDbPoint
 10
991.0383202871946
 20
415.6068965323476
 30
0.0
  0
POINT
  5
16D7
330
DC0
100
AcDbEntity
  8
Defpoints
  6
Continuous
 62
     0
100
AcDbPoint
 10
993.1383202871943
 20
418.6568965323476
 30
0.0
  0
POINT
  5
16D8
330
DC0
100
AcDbEntity
  8
Defpoints
  6
Continuous
 62
     0
100
AcDbPoint
 10
993.1383202871943
 20
408.4200112480279
 30
0.0
  0
ENDBLK
  5
DCB
330
DC0
100
AcDbEntity
  8
0
100
AcDbBlockEnd
  0
BLOCK
  5
DD7
330
DCC
100
AcDbEntity
  8
0
100
AcDbBlockBegin
  2
*D12
 70
     1
 10
0.0
 20
0.0
 30
0.0
  3
*D12
  1

  0
LINE
  5
14DF
330
DCC
100
AcDbEntity
  8
1
  6
Continuous
 62
     2
370
    -2
100
AcDbLine
 10
1016.538320287194
 20
421.6568965323475
 30
0.0
 11
1016.538320287194
 21
425.6058539670299
 31
0.0
  0
LINE
  5
14E0
330
DCC
100
AcDbEntity
  8
1
  6
Continuous
 62
     2
370
    -2
100
AcDbLine
 10
1015.538320287194
 20
421.6568965323475
 30
0.0
 11
1015.538320287194
 21
425.6058539670299
 31
0.0
  0
LINE
  5
14E1
330
DCC
100
AcDbEntity
  8
1
  6
Continuous
 62
     2
370
    -2
100
AcDbLine
 10
1017.238320287194
 20
425.4058539670301
 30
0.0
 11
1017.938320287194
 21
425.4058539670301
 31
0.0
  0
LINE
  5
14E2
330
DCC
100
AcDbEntity
  8
1
  6
Continuous
 62
     2
370
    -2
100
AcDbLine
 10
1014.838320287194
 20
425.4058539670301
 30
0.0
 11
1014.138320287194
 21
425.4058539670301
 31
0.0
  0
MTEXT
  5
14E3
330
DCC
100
AcDbEntity
  8
1
  6
Continuous
 62
     3
100
AcDbMText
 10
1016.038320287194
 20
426.0920504640916
 30
0.0
 40
0.7000000000000002
 41
0.0
 46
0.0
 71
     5
 72
     1
  1
\A1;1
 73
     1
 44
1.0
1001
ACAD
1000
MTEXTBEGIN
1070
    73
1070
     1
1070
    44
1040
1.0
1070
    74
1070
     0
1000
MTEXTEND
  0
SOLID
  5
14E4
330
DCC
100
AcDbEntity
  8
1
  6
Continuous
 62
     2
100
AcDbTrace
 10
1017.238320287194
 20
425.5225206336969
 30
0.0
 11
1017.238320287194
 21
425.2891873003632
 31
0.0
 12
1016.538320287194
 22
425.4058539670301
 32
0.0
 13
1016.538320287194
 23
425.4058539670301
 33
0.0
  0
SOLID
  5
14E5
330
DCC
100
AcDbEntity
  8
1
  6
Continuous
 62
     2
100
AcDbTrace
 10
1014.838320287194
 20
425.5225206336969
 30
0.0
 11
1014.838320287194
 21
425.2891873003632
 31
0.0
 12
1015.538320287194
 22
425.4058539670301
 32
0.0
 13
1015.538320287194
 23
425.4058539670301
 33
0.0
  0
POINT
  5
14E6
330
DCC
100
AcDbEntity
  8
Defpoints
  6
Continuous
 62
     0
100
AcDbPoint
 10
1016.538320287194
 20
421.6568965323475
 30
0.0
  0
POINT
  5
14E7
330
DCC
100
AcDbEntity
  8
Defpoints
  6
Continuous
 62
     0
100
AcDbPoint
 10
1015.538320287194
 20
421.6568965323475
 30
0.0
  0
POINT
  5
14E8
330
DCC
100
AcDbEntity
  8
Defpoints
  6
Continuous
 62
     0
100
AcDbPoint
 10
1015.538320287194
 20
425.4058539670301
 30
0.0
  0
ENDBLK
  5
DD8
330
DCC
100
AcDbEntity
  8
0
100
AcDbBlockEnd
  0
ENDSEC
  0
SECTION
  2
ENTITIES
  0
LINE
  5
BD7
330
22
100
AcDbEntity
  8
1
 62
     7
100
AcDbLine
 10
991.4638921880913
 20
421.8025841168637
 30
0.0
 11
991.5449431995224
 21
420.2420611867721
 31
0.0
  0
LINE
  5
BD8
330
22
100
AcDbEntity
  8
1
 62
     7
100
AcDbLine
 10
991.4383202871944
 20
420.5276625460783
 30
0.0
 11
991.5449431995224
 21
420.2420611867721
 31
0.0
  0
LINE
  5
BD9
330
22
100
AcDbEntity
  8
1
  6
DASHDOT
 62
     2
100
AcDbLine
 10
962.2883202871943
 20
419.4068965323475
 30
0.0
 11
962.5383202871942
 21
419.4068965323475
 31
0.0
  0
LINE
  5
BDA
330
22
100
AcDbEntity
  8
1
 62
     7
100
AcDbLine
 10
963.7883202871943
 20
420.9880353624318
 30
0.0
 11
963.7883202871943
 21
417.8257577022633
 31
0.0
  0
LINE
  5
BDB
330
22
100
AcDbEntity
  8
1
 62
     7
100
AcDbLine
 10
959.2883202871943
 20
420.9880353624318
 30
0.0
 11
959.2883202871943
 21
417.8257577022633
 31
0.0
  0
LINE
  5
BDC
330
22
100
AcDbEntity
  8
1
 62
     3
100
AcDbLine
 10
1015.738320287194
 20
417.1568965323475
 30
0.0
 11
1016.338320287195
 21
417.1568965323475
 31
0.0
  0
LINE
  5
BDD
330
22
100
AcDbEntity
  8
1
 62
     3
100
AcDbLine
 10
1016.338320287195
 20
417.3568965323483
 30
0.0
 11
1015.738320287194
 21
417.3568965323483
 31
0.0
  0
LINE
  5
BDE
330
22
100
AcDbEntity
  8
1
 62
     3
100
AcDbLine
 10
1015.738320287194
 20
421.4568965323469
 30
0.0
 11
1016.338320287195
 21
421.4568965323469
 31
0.0
  0
LINE
  5
BDF
330
22
100
AcDbEntity
  8
1
 62
     3
100
AcDbLine
 10
1016.338320287195
 20
421.6568965323475
 30
0.0
 11
1015.738320287194
 21
421.6568965323475
 31
0.0
  0
LINE
  5
BE0
330
22
100
AcDbEntity
  8
1
 62
     7
100
AcDbLine
 10
1014.408320287194
 20
416.8068965323453
 30
0.0
 11
1015.138320287195
 21
416.8068965323453
 31
0.0
  0
LINE
  5
BE1
330
22
100
AcDbEntity
  8
1
 62
     7
100
AcDbLine
 10
991.9633202871946
 20
421.8135952621582
 30
0.0
 11
992.0449431995224
 21
420.2420611867721
 31
0.0
  0
LINE
  5
BE2
330
22
100
AcDbEntity
  8
1
 62
     7
100
AcDbLine
 10
992.4633202871943
 20
421.8135952621582
 30
0.0
 11
992.5449431995224
 21
420.2420611867721
 31
0.0
  0
LINE
  5
BE3
330
22
100
AcDbEntity
  8
1
 62
     7
100
AcDbLine
 10
992.7133202871946
 20
422.1568965323474
 30
0.0
 11
992.7664503403724
 21
420.9880353624318
 31
0.0
  0
LINE
  5
BE4
330
22
100
AcDbEntity
  8
1
 62
     7
100
AcDbLine
 10
991.7133202871944
 20
422.1568965323474
 30
0.0
 11
991.7664503403726
 21
420.9880353624318
 31
0.0
  0
LINE
  5
BE5
330
22
100
AcDbEntity
  8
1
 62
     7
100
AcDbLine
 10
992.2133202871943
 20
422.1568965323474
 30
0.0
 11
992.190392881411
 21
422.1568965323474
 31
0.0
  0
LINE
  5
BE6
330
22
100
AcDbEntity
  8
1
 62
     7
100
AcDbLine
 10
992.4633202871943
 20
416.6568965323476
 30
0.0
 11
992.486247692978
 21
416.6568965323476
 31
0.0
  0
LINE
  5
BE7
330
22
100
AcDbEntity
  8
1
 62
     7
100
AcDbLine
 10
992.2133202871943
 20
422.1568965323474
 30
0.0
 11
992.2664503403723
 21
420.9880353624318
 31
0.0
  0
LINE
  5
BE8
330
22
100
AcDbEntity
  8
1
 62
     7
100
AcDbLine
 10
991.4383202871944
 20
421.8322555161962
 30
0.0
 11
991.4383202871944
 21
416.6568965323476
 31
0.0
  0
LINE
  5
BE9
330
22
100
AcDbEntity
  8
1
 62
     7
100
AcDbLine
 10
991.0383202871946
 20
422.4068965323475
 30
0.0
 11
991.0383202871946
 21
416.4068965323476
 31
0.0
  0
LINE
  5
BEA
330
22
100
AcDbEntity
  8
1
 62
     7
100
AcDbLine
 10
989.4383202871946
 20
423.2568965323476
 30
0.0
 11
989.4383202871946
 21
415.5568965323475
 31
0.0
  0
LINE
  5
BEB
330
22
100
AcDbEntity
  8
1
 62
     3
100
AcDbLine
 10
993.0383202871944
 20
419.0068965323474
 30
0.0
 11
993.1383202871943
 21
419.0068965323474
 31
0.0
  0
LINE
  5
BEC
330
22
100
AcDbEntity
  8
1
 62
     7
100
AcDbLine
 10
995.1383202871946
 20
419.9568965323476
 30
0.0
 11
995.1383202871946
 21
418.8568965323476
 31
0.0
  0
LINE
  5
BED
330
22
100
AcDbEntity
  8
1
  6
CENTER
 62
     2
 48
2.0
100
AcDbLine
 10
997.0383202871943
 20
419.4068965323475
 30
0.0
 11
972.5383202871944
 21
419.4068965323475
 31
0.0
  0
LINE
  5
BEE
330
22
100
AcDbEntity
  8
1
 62
     7
100
AcDbLine
 10
989.4383202871946
 20
415.5568965323475
 30
0.0
 11
989.4383202871946
 21
415.4646315592666
 31
0.0
  0
LINE
  5
BEF
330
22
100
AcDbEntity
  8
1
 62
     7
100
AcDbLine
 10
991.0383202871946
 20
415.6068965323476
 30
0.0
 11
989.4383202871946
 21
415.5568965323475
 31
0.0
  0
LINE
  5
BF0
330
22
100
AcDbEntity
  8
1
 62
     7
100
AcDbLine
 10
989.4383202871946
 20
423.3491615054282
 30
0.0
 11
989.4383202871946
 21
423.2568965323476
 31
0.0
  0
LINE
  5
BF1
330
22
100
AcDbEntity
  8
1
 62
     7
100
AcDbLine
 10
973.9383202871946
 20
418.6568965323476
 30
0.0
 11
974.4383202871949
 21
418.6568965323476
 31
0.0
  0
LINE
  5
BF2
330
22
100
AcDbEntity
  8
1
 62
     7
100
AcDbLine
 10
972.8883202871946
 20
417.3568965325377
 30
0.0
 11
972.8883202871946
 21
417.1568965325375
 31
0.0
  0
LINE
  5
BF3
330
22
100
AcDbEntity
  8
1
 62
     7
100
AcDbLine
 10
974.4383202871949
 20
417.3568965325377
 30
0.0
 11
972.8883202871946
 21
417.3568965325377
 31
0.0
  0
LINE
  5
BF4
330
22
100
AcDbEntity
  8
1
 62
     7
100
AcDbLine
 10
974.4383202871949
 20
417.1568965325375
 30
0.0
 11
972.8883202871946
 21
417.1568965325375
 31
0.0
  0
LINE
  5
BF5
330
22
100
AcDbEntity
  8
1
 62
     7
100
AcDbLine
 10
974.4383202871949
 20
420.1568965323476
 30
0.0
 11
973.9383202871946
 21
420.1568965323476
 31
0.0
  0
LINE
  5
BF6
330
22
100
AcDbEntity
  8
1
 62
     7
100
AcDbLine
 10
974.4383202871944
 20
415.7268965323476
 30
0.0
 11
974.4383202871944
 21
423.0868965323476
 31
0.0
  0
LINE
  5
BF7
330
22
100
AcDbEntity
  8
1
 62
     7
100
AcDbLine
 10
973.9383202871946
 20
420.1568965323476
 30
0.0
 11
973.9383202871946
 21
418.6568965323476
 31
0.0
  0
LINE
  5
BF8
330
22
100
AcDbEntity
  8
1
 62
     7
100
AcDbLine
 10
972.8883202871946
 20
421.6568965321575
 30
0.0
 11
972.8883202871946
 21
421.4568965321575
 31
0.0
  0
LINE
  5
BF9
330
22
100
AcDbEntity
  8
1
 62
     7
100
AcDbLine
 10
972.8883202871946
 20
421.4568965321575
 30
0.0
 11
974.4383202871949
 21
421.4568965321573
 31
0.0
  0
LINE
  5
BFA
330
22
100
AcDbEntity
  8
1
 62
     7
100
AcDbLine
 10
972.8883202871946
 20
421.6568965321575
 30
0.0
 11
974.4383202871949
 21
421.6568965321575
 31
0.0
  0
LINE
  5
BFB
330
22
100
AcDbEntity
  8
1
 62
     7
100
AcDbLine
 10
974.4383202871944
 20
423.0868965323476
 30
0.0
 11
974.9383202871946
 21
423.0868965323476
 31
0.0
  0
LINE
  5
BFC
330
22
100
AcDbEntity
  8
1
 62
     7
100
AcDbLine
 10
974.4383202871944
 20
415.7268965323476
 30
0.0
 11
974.9383202871946
 21
415.7268965323476
 31
0.0
  0
LINE
  5
BFD
330
22
100
AcDbEntity
  8
1
 62
     7
100
AcDbLine
 10
974.9883202871943
 20
423.4068965323475
 30
0.0
 11
989.3383202871946
 21
423.4068965323475
 31
0.0
  0
LINE
  5
BFE
330
22
100
AcDbEntity
  8
1
 62
     7
100
AcDbLine
 10
974.9883202871943
 20
415.4068965323475
 30
0.0
 11
989.3383202871946
 21
415.4068965323475
 31
0.0
  0
LINE
  5
BFF
330
22
100
AcDbEntity
  8
1
 62
     7
100
AcDbLine
 10
991.4383202871944
 20
416.4068965323476
 30
0.0
 11
991.0383202871946
 21
416.4068965323476
 31
0.0
  0
LINE
  5
C00
330
22
100
AcDbEntity
  8
1
 62
     7
100
AcDbLine
 10
991.4383202871944
 20
422.4068965323475
 30
0.0
 11
991.4383202871944
 21
421.8322555161962
 31
0.0
  0
LINE
  5
C01
330
22
100
AcDbEntity
  8
1
 62
     7
100
AcDbLine
 10
991.0383202871946
 20
422.4068965323475
 30
0.0
 11
991.4383202871944
 21
422.4068965323475
 31
0.0
  0
LINE
  5
C02
330
22
100
AcDbEntity
  8
1
 62
     3
100
AcDbLine
 10
992.9383202871944
 20
420.4068965323473
 30
0.0
 11
993.0383202871944
 21
420.4068965323473
 31
0.0
  0
LINE
  5
C03
330
22
100
AcDbEntity
  8
1
 62
     3
100
AcDbLine
 10
992.9383202871944
 20
418.4068965323476
 30
0.0
 11
993.0383202871944
 21
418.4068965323476
 31
0.0
  0
LINE
  5
C04
330
22
100
AcDbEntity
  8
1
 62
     7
100
AcDbLine
 10
992.9383202871944
 20
418.4068965323476
 30
0.0
 11
992.9383202871944
 21
417.0068965323476
 31
0.0
  0
LINE
  5
C05
330
22
100
AcDbEntity
  8
1
 62
     3
100
AcDbLine
 10
993.0383202871944
 20
418.4068965323476
 30
0.0
 11
993.0383202871944
 21
420.4068965323473
 31
0.0
  0
LINE
  5
C06
330
22
100
AcDbEntity
  8
1
 62
     7
100
AcDbLine
 10
992.9383202871944
 20
418.4068965323476
 30
0.0
 11
992.9383202871944
 21
420.4068965323473
 31
0.0
  0
LINE
  5
C07
330
22
100
AcDbEntity
  8
1
 62
     7
100
AcDbLine
 10
993.1383202871943
 20
419.8068965323476
 30
0.0
 11
993.1383202871943
 21
420.1568965323476
 31
0.0
  0
LINE
  5
C08
330
22
100
AcDbEntity
  8
1
 62
     3
100
AcDbLine
 10
993.1383202871943
 20
419.8068965323476
 30
0.0
 11
993.0383202871944
 21
419.8068965323476
 31
0.0
  0
LINE
  5
C09
330
22
100
AcDbEntity
  8
1
 62
     7
100
AcDbLine
 10
993.1383202871943
 20
420.1568965323476
 30
0.0
 11
995.1383202871946
 21
420.1568965323476
 31
0.0
  0
LINE
  5
C0A
330
22
100
AcDbEntity
  8
1
 62
     7
100
AcDbLine
 10
995.1383202871946
 20
420.1568965323476
 30
0.0
 11
995.1383202871946
 21
419.9568965323476
 31
0.0
  0
LINE
  5
C0B
330
22
100
AcDbEntity
  8
1
 62
     7
100
AcDbLine
 10
995.1383202871946
 20
419.9568965323476
 30
0.0
 11
996.0383202871943
 21
419.9568965323476
 31
0.0
  0
LINE
  5
C0C
330
22
100
AcDbEntity
  8
1
 62
     7
100
AcDbLine
 10
993.1383202871943
 20
418.6568965323476
 30
0.0
 11
995.1383202871946
 21
418.6568965323476
 31
0.0
  0
LINE
  5
C0D
330
22
100
AcDbEntity
  8
1
 62
     7
100
AcDbLine
 10
995.1383202871946
 20
418.6568965323476
 30
0.0
 11
995.1383202871946
 21
418.8568965323476
 31
0.0
  0
LINE
  5
C0E
330
22
100
AcDbEntity
  8
1
 62
     7
100
AcDbLine
 10
995.1383202871946
 20
418.8568965323476
 30
0.0
 11
996.0383202871943
 21
418.8568965323476
 31
0.0
  0
LINE
  5
C0F
330
22
100
AcDbEntity
  8
1
 62
     7
100
AcDbLine
 10
991.0383202871946
 20
416.4068965323476
 30
0.0
 11
991.0383202871946
 21
415.6068965323476
 31
0.0
  0
LINE
  5
C10
330
22
100
AcDbEntity
  8
1
 62
     7
100
AcDbLine
 10
992.7362476929781
 20
422.1568965323474
 30
0.0
 11
992.9383202871944
 21
421.8068965323475
 31
0.0
  0
LINE
  5
C11
330
22
100
AcDbEntity
  8
1
 62
     7
100
AcDbLine
 10
992.9383202871944
 20
421.8068965323475
 30
0.0
 11
992.9383202871944
 21
420.4068965323473
 31
0.0
  0
LINE
  5
C12
330
22
100
AcDbEntity
  8
1
 62
     7
100
AcDbLine
 10
992.7362476929781
 20
422.1568965323474
 30
0.0
 11
992.6903928814107
 21
422.1568965323474
 31
0.0
  0
LINE
  5
C13
330
22
100
AcDbEntity
  8
1
 62
     7
100
AcDbLine
 10
992.6903928814107
 20
422.1568965323474
 30
0.0
 11
992.5066215573835
 21
421.8385952621583
 31
0.0
  0
LINE
  5
C14
330
22
100
AcDbEntity
  8
1
 62
     7
100
AcDbLine
 10
992.4200190170052
 20
421.8385952621583
 30
0.0
 11
992.2362476929782
 21
422.1568965323474
 31
0.0
  0
LINE
  5
C15
330
22
100
AcDbEntity
  8
1
 62
     7
100
AcDbLine
 10
992.2362476929782
 20
422.1568965323474
 30
0.0
 11
992.2133202871943
 21
422.1568965323474
 31
0.0
  0
LINE
  5
C16
330
22
100
AcDbEntity
  8
1
 62
     7
100
AcDbLine
 10
992.190392881411
 20
422.1568965323474
 30
0.0
 11
992.0066215573838
 21
421.8385952621583
 31
0.0
  0
LINE
  5
C17
330
22
100
AcDbEntity
  8
1
 62
     7
100
AcDbLine
 10
991.9200190170053
 20
421.8385952621583
 30
0.0
 11
991.7362476929779
 21
422.1568965323474
 31
0.0
  0
LINE
  5
C18
330
22
100
AcDbEntity
  8
1
 62
     7
100
AcDbLine
 10
991.7362476929779
 20
422.1568965323474
 30
0.0
 11
991.6903928814107
 21
422.1568965323474
 31
0.0
  0
LINE
  5
C19
330
22
100
AcDbEntity
  8
1
 62
     7
100
AcDbLine
 10
991.6903928814107
 20
422.1568965323474
 30
0.0
 11
991.4943010493079
 21
421.8172555161961
 31
0.0
  0
LINE
  5
C1A
330
22
100
AcDbEntity
  8
1
 62
     7
100
AcDbLine
 10
992.7566215573836
 20
416.9751978025368
 30
0.0
 11
992.8383202871946
 21
416.8336914515906
 31
0.0
  0
LINE
  5
C1B
330
22
100
AcDbEntity
  8
1
 62
     7
100
AcDbLine
 10
992.486247692978
 20
416.6568965323476
 30
0.0
 11
992.6700190170052
 21
416.9751978025368
 31
0.0
  0
LINE
  5
C1C
330
22
100
AcDbEntity
  8
1
 62
     7
100
AcDbLine
 10
992.4403928814108
 20
416.6568965323476
 30
0.0
 11
992.4633202871943
 21
416.6568965323476
 31
0.0
  0
LINE
  5
C1D
330
22
100
AcDbEntity
  8
1
 62
     7
100
AcDbLine
 10
992.2566215573835
 20
416.9751978025368
 30
0.0
 11
992.4403928814108
 21
416.6568965323476
 31
0.0
  0
LINE
  5
C1E
330
22
100
AcDbEntity
  8
1
 62
     7
100
AcDbLine
 10
991.9862476929781
 20
416.6568965323476
 30
0.0
 11
992.1700190170053
 21
416.9751978025368
 31
0.0
  0
LINE
  5
C1F
330
22
100
AcDbEntity
  8
1
 62
     7
100
AcDbLine
 10
991.9403928814107
 20
416.6568965323476
 30
0.0
 11
991.9862476929781
 21
416.6568965323476
 31
0.0
  0
LINE
  5
C20
330
22
100
AcDbEntity
  8
1
 62
     7
100
AcDbLine
 10
991.7566215573836
 20
416.9751978025368
 30
0.0
 11
991.9403928814107
 21
416.6568965323476
 31
0.0
  0
LINE
  5
C21
330
22
100
AcDbEntity
  8
1
 62
     7
100
AcDbLine
 10
991.4862476929782
 20
416.6568965323476
 30
0.0
 11
991.6700190170052
 21
416.9751978025368
 31
0.0
  0
LINE
  5
C22
330
22
100
AcDbEntity
  8
1
 62
     7
100
AcDbLine
 10
991.4383202871944
 20
416.6568965323476
 30
0.0
 11
991.4862476929782
 21
416.6568965323476
 31
0.0
  0
LINE
  5
C23
330
22
100
AcDbEntity
  8
1
 62
     7
100
AcDbLine
 10
991.4383202871944
 20
416.6568965323476
 30
0.0
 11
991.4383202871944
 21
416.4068965323476
 31
0.0
  0
LINE
  5
C24
330
22
100
AcDbEntity
  8
1
 62
     7
100
AcDbLine
 10
992.9383202871944
 20
417.0068965323476
 30
0.0
 11
992.8383202871946
 21
416.8336914515906
 31
0.0
  0
LINE
  5
C25
330
22
100
AcDbEntity
  8
1
 62
     7
100
AcDbLine
 10
989.4383202871946
 20
423.2568965323476
 30
0.0
 11
991.0383202871946
 21
423.2068965323476
 31
0.0
  0
LINE
  5
C26
330
22
100
AcDbEntity
  8
1
 62
     7
100
AcDbLine
 10
991.0383202871946
 20
423.2068965323476
 30
0.0
 11
991.0383202871946
 21
422.4068965323475
 31
0.0
  0
LINE
  5
C27
330
22
100
AcDbEntity
  8
1
 62
     7
100
AcDbLine
 10
974.9383202871946
 20
415.4568965323476
 30
0.0
 11
974.9383202871946
 21
423.3568965323475
 31
0.0
  0
LINE
  5
C28
330
22
100
AcDbEntity
  8
1
 62
     7
100
AcDbLine
 10
991.9101902340166
 20
417.8257577022633
 30
0.0
 11
991.9633202871946
 21
416.6568965323476
 31
0.0
  0
LINE
  5
C29
330
22
100
AcDbEntity
  8
1
 62
     7
100
AcDbLine
 10
992.4101902340165
 20
417.8257577022633
 30
0.0
 11
992.4633202871943
 21
416.6568965323476
 31
0.0
  0
LINE
  5
C2A
330
22
100
AcDbEntity
  8
1
 62
     7
100
AcDbLine
 10
991.6316973748664
 20
418.571731877923
 30
0.0
 11
991.7133202871944
 21
417.0001978025368
 31
0.0
  0
LINE
  5
C2B
330
22
100
AcDbEntity
  8
1
 62
     7
100
AcDbLine
 10
992.1316973748666
 20
418.571731877923
 30
0.0
 11
992.2133202871943
 21
417.0001978025368
 31
0.0
  0
LINE
  5
C2C
330
22
100
AcDbEntity
  8
1
 62
     7
100
AcDbLine
 10
992.6316973748663
 20
418.571731877923
 30
0.0
 11
992.7133202871946
 21
417.0001978025368
 31
0.0
  0
LINE
  5
C2D
330
22
100
AcDbEntity
  8
1
 62
     7
100
AcDbLine
 10
992.2664503403723
 20
420.9880353624318
 30
0.0
 11
992.5449431995224
 21
420.2420611867721
 31
0.0
  0
LINE
  5
C2E
330
22
100
AcDbEntity
  8
1
 62
     7
100
AcDbLine
 10
992.2664503403723
 20
420.9880353624318
 30
0.0
 11
992.0449431995224
 21
420.2420611867721
 31
0.0
  0
LINE
  5
C2F
330
22
100
AcDbEntity
  8
1
 62
     7
100
AcDbLine
 10
992.5449431995224
 20
420.2420611867721
 30
0.0
 11
992.7664503403724
 21
420.9880353624318
 31
0.0
  0
LINE
  5
C30
330
22
100
AcDbEntity
  8
1
 62
     7
100
AcDbLine
 10
991.6316973748664
 20
418.571731877923
 30
0.0
 11
991.9101902340166
 21
417.8257577022633
 31
0.0
  0
LINE
  5
C31
330
22
100
AcDbEntity
  8
1
 62
     7
100
AcDbLine
 10
991.9101902340166
 20
417.8257577022633
 30
0.0
 11
992.1316973748666
 21
418.571731877923
 31
0.0
  0
LINE
  5
C32
330
22
100
AcDbEntity
  8
1
 62
     7
100
AcDbLine
 10
992.1316973748666
 20
418.571731877923
 30
0.0
 11
992.4101902340165
 21
417.8257577022633
 31
0.0
  0
LINE
  5
C33
330
22
100
AcDbEntity
  8
1
 62
     7
100
AcDbLine
 10
992.4101902340165
 20
417.8257577022633
 30
0.0
 11
992.6316973748663
 21
418.571731877923
 31
0.0
  0
LINE
  5
C34
330
22
100
AcDbEntity
  8
1
 62
     7
100
AcDbLine
 10
992.7664503403724
 20
420.9880353624318
 30
0.0
 11
992.9383202871944
 21
420.5276625460783
 31
0.0
  0
LINE
  5
C35
330
22
100
AcDbEntity
  8
1
 62
     7
100
AcDbLine
 10
991.7664503403726
 20
420.9880353624318
 30
0.0
 11
992.0449431995224
 21
420.2420611867721
 31
0.0
  0
LINE
  5
C36
330
22
100
AcDbEntity
  8
1
 62
     7
100
AcDbLine
 10
991.7664503403726
 20
420.9880353624318
 30
0.0
 11
991.5449431995224
 21
420.2420611867721
 31
0.0
  0
LINE
  5
C37
330
22
100
AcDbEntity
  8
1
 62
     7
100
AcDbLine
 10
992.6316973748663
 20
418.571731877923
 30
0.0
 11
992.9101902340166
 21
417.8257577022633
 31
0.0
  0
LINE
  5
C38
330
22
100
AcDbEntity
  8
1
 62
     7
100
AcDbLine
 10
991.4442592021496
 20
417.9404924702756
 30
0.0
 11
991.6316973748664
 21
418.571731877923
 31
0.0
  0
LINE
  5
C39
330
22
100
AcDbEntity
  8
1
 62
     7
100
AcDbLine
 10
973.5383202871943
 20
419.1001580639786
 30
0.0
 11
973.5383202871943
 21
419.7136350007165
 31
0.0
  0
LINE
  5
C3A
330
22
100
AcDbEntity
  8
1
 62
     7
100
AcDbLine
 10
973.7383202871944
 20
419.8068965323476
 30
0.0
 11
973.9383202871946
 21
419.8068965323476
 31
0.0
  0
LINE
  5
C3B
330
22
100
AcDbEntity
  8
1
 62
     7
100
AcDbLine
 10
973.7383202871944
 20
419.0068965323476
 30
0.0
 11
973.9383202871946
 21
419.0068965323476
 31
0.0
  0
LINE
  5
C3C
330
22
100
AcDbEntity
  8
1
 62
     7
100
AcDbLine
 10
989.4383202871946
 20
415.4646315592666
 30
0.0
 11
989.3383202871946
 21
415.4068965323475
 31
0.0
  0
LINE
  5
C3D
330
22
100
AcDbEntity
  8
1
 62
     7
100
AcDbLine
 10
989.4383202871946
 20
423.3491615054282
 30
0.0
 11
989.3383202871946
 21
423.4068965323475
 31
0.0
  0
LINE
  5
C3E
330
22
100
AcDbEntity
  8
1
 62
     3
100
AcDbLine
 10
989.3383202871946
 20
415.4068965323475
 30
0.0
 11
989.3383202871946
 21
423.4068965323475
 31
0.0
  0
LINE
  5
C3F
330
22
100
AcDbEntity
  8
1
 62
     7
100
AcDbLine
 10
974.9883202871943
 20
415.4068965323475
 30
0.0
 11
974.9383202871946
 21
415.4568965323476
 31
0.0
  0
LINE
  5
C40
330
22
100
AcDbEntity
  8
1
 62
     7
100
AcDbLine
 10
974.9383202871946
 20
423.3568965323475
 30
0.0
 11
974.9883202871943
 21
423.4068965323475
 31
0.0
  0
LINE
  5
C41
330
22
100
AcDbEntity
  8
1
 62
     3
100
AcDbLine
 10
974.9883202871943
 20
415.4068965323475
 30
0.0
 11
974.9883202871943
 21
423.4068965323475
 31
0.0
  0
LINE
  5
C42
330
22
100
AcDbEntity
  8
1
 62
     7
100
AcDbLine
 10
973.5383202871943
 20
419.1001580639786
 30
0.0
 11
973.7383202871944
 21
419.0068965323476
 31
0.0
  0
LINE
  5
C43
330
22
100
AcDbEntity
  8
1
 62
     7
100
AcDbLine
 10
973.5383202871943
 20
419.7136350007165
 30
0.0
 11
973.7383202871944
 21
419.8068965323476
 31
0.0
  0
LINE
  5
C44
330
22
100
AcDbEntity
  8
1
 62
     7
100
AcDbLine
 10
973.7383202871944
 20
419.0068965323476
 30
0.0
 11
973.7383202871944
 21
419.8068965323476
 31
0.0
  0
LINE
  5
C45
330
22
100
AcDbEntity
  8
1
 62
     7
100
AcDbLine
 10
993.1383202871943
 20
419.0068965323474
 30
0.0
 11
993.1383202871943
 21
419.8068965323476
 31
0.0
  0
LINE
  5
C46
330
22
100
AcDbEntity
  8
1
 62
     7
100
AcDbLine
 10
993.1383202871943
 20
418.6568965323476
 30
0.0
 11
993.1383202871943
 21
419.0068965323474
 31
0.0
  0
LINE
  5
C47
330
22
100
AcDbEntity
  8
1
 62
     7
100
AcDbLine
 10
996.0383202871943
 20
418.8568965323476
 30
0.0
 11
996.0383202871943
 21
419.9568965323476
 31
0.0
  0
LINE
  5
C48
330
22
100
AcDbEntity
  8
1
  6
DASHDOT
 62
     2
100
AcDbLine
 10
962.5383202871942
 20
419.4068965323475
 30
0.0
 11
966.5383202871943
 21
419.4068965323475
 31
0.0
  0
LINE
  5
C49
330
22
100
AcDbEntity
  8
1
  6
CENTER
 62
     2
100
AcDbLine
 10
961.5383202871942
 20
424.4068965323473
 30
0.0
 11
961.5383202871942
 21
414.4068965323476
 31
0.0
  0
LINE
  5
C4A
330
22
100
AcDbEntity
  8
1
  6
CENTER
 62
     2
100
AcDbLine
 10
1016.038320287194
 20
424.4068965323476
 30
0.0
 11
1016.038320287194
 21
414.4068965323476
 31
0.0
  0
LINE
  5
C4B
330
22
100
AcDbEntity
  8
1
 62
     3
100
AcDbLine
 10
1016.558320287194
 20
417.1568965323475
 30
0.0
 11
1016.558320287194
 21
417.3568965323473
 31
0.0
  0
LINE
  5
C4C
330
22
100
AcDbEntity
  8
1
 62
     3
100
AcDbLine
 10
1016.558320287194
 20
421.4568965323476
 30
0.0
 11
1016.558320287194
 21
421.6568965323475
 31
0.0
  0
LINE
  5
C4D
330
22
100
AcDbEntity
  8
1
 62
     3
100
AcDbLine
 10
1014.988320287194
 20
417.7088965323476
 30
0.0
 11
1015.138320287194
 21
417.7088965323476
 31
0.0
  0
LINE
  5
C4E
330
22
100
AcDbEntity
  8
1
  6
CENTER
 62
     2
100
AcDbLine
 10
1015.788320287194
 20
418.6437338361813
 30
0.0
 11
1015.788320287194
 21
417.8166711894266
 31
0.0
  0
LINE
  5
C4F
330
22
100
AcDbEntity
  8
1
  6
CENTER
 62
     2
100
AcDbLine
 10
1015.365279142595
 20
418.2068965323476
 30
0.0
 11
1016.205264643205
 21
418.2068965323476
 31
0.0
  0
LINE
  5
C50
330
22
100
AcDbEntity
  8
1
  6
CENTER
 62
     2
100
AcDbLine
 10
1015.847416035616
 20
420.6068965323476
 30
0.0
 11
1016.713247243938
 21
420.6068965323476
 31
0.0
  0
LINE
  5
C51
330
22
100
AcDbEntity
  8
1
 62
     3
100
AcDbLine
 10
1014.408320287194
 20
417.7088965323476
 30
0.0
 11
1014.558320287195
 21
417.7088965323476
 31
0.0
  0
LINE
  5
C52
330
22
100
AcDbEntity
  8
1
  6
CENTER
 62
     2
100
AcDbLine
 10
1016.288320287194
 20
421.0101662933436
 30
0.0
 11
1016.288320287194
 21
420.1754800925156
 31
0.0
  0
LINE
  5
C53
330
22
100
AcDbEntity
  8
1
 62
     3
100
AcDbLine
 10
1014.988320287194
 20
417.1568965323475
 30
0.0
 11
1014.988320287194
 21
418.0836914515908
 31
0.0
  0
LINE
  5
C54
330
22
100
AcDbEntity
  8
1
 62
     3
100
AcDbLine
 10
1014.558320287195
 20
417.1568965323475
 30
0.0
 11
1014.558320287195
 21
418.0836914515908
 31
0.0
  0
LINE
  5
C55
330
22
100
AcDbEntity
  8
1
 62
     3
100
AcDbLine
 10
1014.558320287195
 20
418.0836914515908
 30
0.0
 11
1014.629452773735
 21
418.2068965323477
 31
0.0
  0
LINE
  5
C56
330
22
100
AcDbEntity
  8
1
 62
     3
100
AcDbLine
 10
1014.988320287194
 20
418.0836914515908
 30
0.0
 11
1014.917187800654
 21
418.2068965323477
 31
0.0
  0
LINE
  5
C57
330
22
100
AcDbEntity
  8
1
 62
     3
100
AcDbLine
 10
1016.558320287197
 20
417.1568965323475
 30
0.0
 11
1016.338320287195
 21
417.1568965323475
 31
0.0
  0
LINE
  5
C58
330
22
100
AcDbEntity
  8
1
 62
     3
100
AcDbLine
 10
1016.558320287197
 20
417.3568965323483
 30
0.0
 11
1016.338320287195
 21
417.3568965323483
 31
0.0
  0
LINE
  5
C59
330
22
100
AcDbEntity
  8
1
 62
     3
100
AcDbLine
 10
1015.518320287194
 20
417.3568965323473
 30
0.0
 11
1015.738320287194
 21
417.3568965323483
 31
0.0
  0
LINE
  5
C5A
330
22
100
AcDbEntity
  8
1
 62
     3
100
AcDbLine
 10
1015.738320287194
 20
417.1568965323475
 30
0.0
 11
1015.518320287194
 21
417.1568965323475
 31
0.0
  0
LINE
  5
C5B
330
22
100
AcDbEntity
  8
1
 62
     3
100
AcDbLine
 10
1015.518320287194
 20
417.3568965323473
 30
0.0
 11
1015.518320287194
 21
417.1568965323475
 31
0.0
  0
LINE
  5
C5C
330
22
100
AcDbEntity
  8
1
 62
     3
100
AcDbLine
 10
1016.538320287194
 20
417.1568965323475
 30
0.0
 11
1016.538320287194
 21
417.3568965323483
 31
0.0
  0
LINE
  5
C5D
330
22
100
AcDbEntity
  8
1
 62
     3
100
AcDbLine
 10
1015.538320287194
 20
417.1568965323475
 30
0.0
 11
1015.538320287194
 21
417.3568965323483
 31
0.0
  0
LINE
  5
C5E
330
22
100
AcDbEntity
  8
1
 62
     3
100
AcDbLine
 10
1016.338320287195
 20
417.1568965323475
 30
0.0
 11
1016.338320287195
 21
417.3568965323483
 31
0.0
  0
LINE
  5
C5F
330
22
100
AcDbEntity
  8
1
 62
     3
100
AcDbLine
 10
1015.738320287194
 20
417.3568965323483
 30
0.0
 11
1015.738320287194
 21
417.1568965323475
 31
0.0
  0
LINE
  5
C60
330
22
100
AcDbEntity
  8
1
 62
     3
100
AcDbLine
 10
1016.338320287195
 20
421.6568965323475
 30
0.0
 11
1016.558320287197
 21
421.6568965323475
 31
0.0
  0
LINE
  5
C61
330
22
100
AcDbEntity
  8
1
 62
     3
100
AcDbLine
 10
1016.338320287195
 20
421.4568965323469
 30
0.0
 11
1016.558320287197
 21
421.4568965323469
 31
0.0
  0
LINE
  5
C62
330
22
100
AcDbEntity
  8
1
 62
     3
100
AcDbLine
 10
1015.738320287194
 20
421.4568965323469
 30
0.0
 11
1015.518320287194
 21
421.4568965323476
 31
0.0
  0
LINE
  5
C63
330
22
100
AcDbEntity
  8
1
 62
     3
100
AcDbLine
 10
1015.518320287194
 20
421.6568965323475
 30
0.0
 11
1015.738320287194
 21
421.6568965323475
 31
0.0
  0
LINE
  5
C64
330
22
100
AcDbEntity
  8
1
 62
     3
100
AcDbLine
 10
1014.988320287194
 20
417.3568965323473
 30
0.0
 11
1015.048320287194
 21
417.3568965323473
 31
0.0
  0
LINE
  5
C65
330
22
100
AcDbEntity
  8
1
 62
     3
100
AcDbLine
 10
1017.088320287194
 20
421.1168965323468
 30
0.0
 11
1016.938320287194
 21
421.1168965323468
 31
0.0
  0
LINE
  5
C66
330
22
100
AcDbEntity
  8
1
 62
     3
100
AcDbLine
 10
1017.518320287194
 20
421.4568965323469
 30
0.0
 11
1017.578320287194
 21
421.4568965323469
 31
0.0
  0
LINE
  5
C67
330
22
100
AcDbEntity
  8
1
 62
     3
100
AcDbLine
 10
1016.638320287196
 20
417.9068965323476
 30
0.0
 11
1018.238320287194
 21
417.9068965323476
 31
0.0
  0
LINE
  5
C68
330
22
100
AcDbEntity
  8
1
 62
     3
100
AcDbLine
 10
1016.663723617953
 20
417.7068965323469
 30
0.0
 11
1017.238320287194
 21
417.7068965323469
 31
0.0
  0
LINE
  5
C69
330
22
100
AcDbEntity
  8
1
 62
     3
100
AcDbLine
 10
1017.438320287194
 20
417.1068965323483
 30
0.0
 11
1017.438320287194
 21
418.7068965323469
 31
0.0
  0
LINE
  5
C6A
330
22
100
AcDbEntity
  8
1
 62
     3
100
AcDbLine
 10
1017.028320287194
 20
421.6568965323475
 30
0.0
 11
1017.578320287194
 21
421.6568965323475
 31
0.0
  0
LINE
  5
C6B
330
22
100
AcDbEntity
  8
1
 62
     3
100
AcDbLine
 10
1015.518320287194
 20
421.6568965323475
 30
0.0
 11
1015.518320287194
 21
421.4568965323476
 31
0.0
  0
LINE
  5
C6C
330
22
100
AcDbEntity
  8
1
 62
     3
100
AcDbLine
 10
1015.048320287194
 20
417.1568965323475
 30
0.0
 11
1015.048320287194
 21
417.3568965323473
 31
0.0
  0
LINE
  5
C6D
330
22
100
AcDbEntity
  8
1
 62
     3
100
AcDbLine
 10
1014.498320287194
 20
417.1568965323475
 30
0.0
 11
1015.048320287194
 21
417.1568965323475
 31
0.0
  0
LINE
  5
C6E
330
22
100
AcDbEntity
  8
1
 62
     3
100
AcDbLine
 10
1017.028320287194
 20
421.4568965323469
 30
0.0
 11
1017.028320287194
 21
421.6568965323475
 31
0.0
  0
LINE
  5
C6F
330
22
100
AcDbEntity
  8
1
 62
     3
100
AcDbLine
 10
1017.028320287194
 20
421.4568965323469
 30
0.0
 11
1017.088320287194
 21
421.4568965323469
 31
0.0
  0
LINE
  5
C70
330
22
100
AcDbEntity
  8
1
 62
     3
100
AcDbLine
 10
1017.668320287195
 20
421.1168965323468
 30
0.0
 11
1017.518320287194
 21
421.1168965323468
 31
0.0
  0
LINE
  5
C71
330
22
100
AcDbEntity
  8
1
 62
     7
100
AcDbLine
 10
1016.938320287194
 20
420.1568965323476
 30
0.0
 11
1016.938320287194
 21
422.0068965323497
 31
0.0
  0
LINE
  5
C72
330
22
100
AcDbEntity
  8
1
 62
     7
100
AcDbLine
 10
1016.938320287194
 20
420.1568965323476
 30
0.0
 11
1017.668320287195
 21
420.1568965323476
 31
0.0
  0
LINE
  5
C73
330
22
100
AcDbEntity
  8
1
 62
     7
100
AcDbLine
 10
1017.668320287195
 20
420.1568965323476
 30
0.0
 11
1017.668320287195
 21
422.0068965323497
 31
0.0
  0
LINE
  5
C74
330
22
100
AcDbEntity
  8
1
 62
     7
100
AcDbLine
 10
1017.668320287195
 20
422.0068965323497
 30
0.0
 11
1016.938320287194
 21
422.0068965323497
 31
0.0
  0
LINE
  5
C75
330
22
100
AcDbEntity
  8
1
 62
     7
100
AcDbLine
 10
1015.138320287196
 20
418.6568965323476
 30
0.0
 11
1014.408320287194
 21
418.6568965323476
 31
0.0
  0
LINE
  5
C76
330
22
100
AcDbEntity
  8
1
 62
     7
100
AcDbLine
 10
1014.408320287194
 20
418.6568965323476
 30
0.0
 11
1014.408320287194
 21
416.8068965323453
 31
0.0
  0
LINE
  5
C77
330
22
100
AcDbEntity
  8
1
 62
     7
100
AcDbLine
 10
1015.138320287195
 20
416.8068965323453
 30
0.0
 11
1015.138320287196
 21
418.6568965323476
 31
0.0
  0
LINE
  5
C78
330
22
100
AcDbEntity
  8
1
 62
     3
100
AcDbLine
 10
1017.638320287196
 20
417.7068965323469
 30
0.0
 11
1017.238320287194
 21
418.1068965323483
 31
0.0
  0
LINE
  5
C79
330
22
100
AcDbEntity
  8
1
 62
     3
100
AcDbLine
 10
1017.238320287194
 20
417.7068965323469
 30
0.0
 11
1017.638320287196
 21
418.1068965323483
 31
0.0
  0
LINE
  5
C7A
330
22
100
AcDbEntity
  8
1
 62
     3
100
AcDbLine
 10
1017.238320287194
 20
418.1068965323483
 30
0.0
 11
1016.663723617953
 21
418.1068965323483
 31
0.0
  0
LINE
  5
C7B
330
22
100
AcDbEntity
  8
1
 62
     3
100
AcDbLine
 10
1017.638320287196
 20
418.1068965323483
 30
0.0
 11
1018.212916956436
 21
418.1068965323483
 31
0.0
  0
LINE
  5
C7C
330
22
100
AcDbEntity
  8
1
 62
     3
100
AcDbLine
 10
1017.638320287196
 20
417.7068965323469
 30
0.0
 11
1018.212916956436
 21
417.7068965323469
 31
0.0
  0
LINE
  5
C7D
330
22
100
AcDbEntity
  8
1
 62
     3
100
AcDbLine
 10
1017.638320287196
 20
417.7068965323469
 30
0.0
 11
1017.638320287196
 21
417.1322998631094
 31
0.0
  0
LINE
  5
C7E
330
22
100
AcDbEntity
  8
1
 62
     3
100
AcDbLine
 10
1017.238320287194
 20
417.7068965323469
 30
0.0
 11
1017.238320287194
 21
417.1322998631094
 31
0.0
  0
LINE
  5
C7F
330
22
100
AcDbEntity
  8
1
 62
     3
100
AcDbLine
 10
1017.238320287194
 20
418.1068965323483
 30
0.0
 11
1017.238320287194
 21
418.6814932015892
 31
0.0
  0
LINE
  5
C80
330
22
100
AcDbEntity
  8
1
 62
     3
100
AcDbLine
 10
1017.638320287196
 20
418.1068965323483
 30
0.0
 11
1017.638320287196
 21
418.6814932015892
 31
0.0
  0
LINE
  5
C81
330
22
100
AcDbEntity
  8
1
 62
     3
100
AcDbLine
 10
1017.578320287194
 20
421.6568965323475
 30
0.0
 11
1017.578320287194
 21
421.4568965323469
 31
0.0
  0
LINE
  5
C82
330
22
100
AcDbEntity
  8
1
 62
     3
100
AcDbLine
 10
1014.498320287194
 20
417.3568965323473
 30
0.0
 11
1014.498320287194
 21
417.1568965323475
 31
0.0
  0
LINE
  5
C83
330
22
100
AcDbEntity
  8
1
 62
     3
100
AcDbLine
 10
1014.498320287194
 20
417.3568965323473
 30
0.0
 11
1014.558320287197
 21
417.3568965323483
 31
0.0
  0
LINE
  5
C84
330
22
100
AcDbEntity
  8
1
 62
     3
100
AcDbLine
 10
1017.360585260275
 20
420.556896532349
 30
0.0
 11
1017.246055314114
 21
420.556896532349
 31
0.0
  0
LINE
  5
C85
330
22
100
AcDbEntity
  8
1
 62
     3
100
AcDbLine
 10
1017.518320287194
 20
421.6568965323475
 30
0.0
 11
1017.518320287194
 21
420.7301016131077
 31
0.0
  0
LINE
  5
C86
330
22
100
AcDbEntity
  8
1
 62
     3
100
AcDbLine
 10
1017.088320287194
 20
421.6568965323475
 30
0.0
 11
1017.088320287194
 21
420.7301016131077
 31
0.0
  0
LINE
  5
C87
330
22
100
AcDbEntity
  8
1
 62
     3
100
AcDbLine
 10
1014.716055314116
 20
418.2568965323498
 30
0.0
 11
1014.830585260275
 21
418.2568965323498
 31
0.0
  0
LINE
  5
C88
330
22
100
AcDbEntity
  8
1
 62
     3
100
AcDbLine
 10
1016.538320287194
 20
421.4568965323469
 30
0.0
 11
1016.538320287194
 21
421.6568965323475
 31
0.0
  0
LINE
  5
C89
330
22
100
AcDbEntity
  8
1
 62
     3
100
AcDbLine
 10
1015.538320287194
 20
421.4568965323469
 30
0.0
 11
1015.538320287194
 21
421.6568965323475
 31
0.0
  0
LINE
  5
C8A
330
22
100
AcDbEntity
  8
1
 62
     3
100
AcDbLine
 10
1016.338320287195
 20
421.4568965323469
 30
0.0
 11
1016.338320287195
 21
421.6568965323475
 31
0.0
  0
LINE
  5
C8B
330
22
100
AcDbEntity
  8
1
 62
     3
100
AcDbLine
 10
1015.738320287194
 20
421.6568965323475
 30
0.0
 11
1015.738320287194
 21
421.4568965323469
 31
0.0
  0
LINE
  5
C8C
330
22
100
AcDbEntity
  8
1
 62
     3
100
AcDbLine
 10
1017.518320287194
 20
420.7301016131077
 30
0.0
 11
1017.447187800654
 21
420.6068965323483
 31
0.0
  0
LINE
  5
C8D
330
22
100
AcDbEntity
  8
1
 62
     3
100
AcDbLine
 10
1017.088320287194
 20
420.7301016131077
 30
0.0
 11
1017.159452773735
 21
420.6068965323483
 31
0.0
  0
LINE
  5
C8E
330
22
100
AcDbEntity
  8
1
  6
CENTER
 62
     2
100
AcDbLine
 10
956.5383202871943
 20
419.4068965323475
 30
0.0
 11
962.2883202871943
 21
419.4068965323475
 31
0.0
  0
LINE
  5
C8F
330
22
100
AcDbEntity
  8
1
  6
CENTER
 62
     2
100
AcDbLine
 10
1016.808320287194
 20
421.5568965323474
 30
0.0
 11
1015.268320287194
 21
421.5568965323474
 31
0.0
  0
LINE
  5
C90
330
22
100
AcDbEntity
  8
1
  6
CENTER
 62
     2
100
AcDbLine
 10
1015.268320287194
 20
417.2568965323476
 30
0.0
 11
1016.808320287194
 21
417.2568965323476
 31
0.0
  0
LINE
  5
C91
330
22
100
AcDbEntity
  8
1
 62
     7
100
AcDbLine
 10
1016.413320287194
 20
422.6368965323476
 30
0.0
 11
1016.413320287194
 21
423.0878441005696
 31
0.0
  0
LINE
  5
C92
330
22
100
AcDbEntity
  8
1
 62
     7
100
AcDbLine
 10
1015.663320287194
 20
422.6368965323476
 30
0.0
 11
1015.663320287194
 21
423.0878441005696
 31
0.0
  0
LINE
  5
C93
330
22
100
AcDbEntity
  8
1
 62
     7
100
AcDbLine
 10
1016.413320287194
 20
415.7259489641255
 30
0.0
 11
1016.413320287194
 21
416.1768965323473
 31
0.0
  0
LINE
  5
C94
330
22
100
AcDbEntity
  8
1
 62
     7
100
AcDbLine
 10
1015.663320287194
 20
415.7259489641255
 30
0.0
 11
1015.663320287194
 21
416.1768965323473
 31
0.0
  0
LINE
  5
C95
330
22
100
AcDbEntity
  8
1
  6
CENTER
 62
     2
100
AcDbLine
 10
1021.038320287194
 20
419.4068965323475
 30
0.0
 11
1011.038320287194
 21
419.4068965323475
 31
0.0
  0
LINE
  5
C99
330
22
100
AcDbEntity
  8
1
  6
DASHDOT
 62
     2
100
AcDbLine
 10
1016.438320287194
 20
419.4068965323475
 30
0.0
 11
1016.345058755563
 21
419.4068965323475
 31
0.0
  0
ARC
  5
C9A
330
22
100
AcDbEntity
  8
1
 62
     7
100
AcDbCircle
 10
961.5383202871942
 20
419.4068965323475
 30
0.0
 40
3.815754807886042
100
AcDbArc
 50
82.46753497014081
 51
97.52505754922987
  0
ARC
  5
C9B
330
22
100
AcDbEntity
  8
1
 62
     7
100
AcDbCircle
 10
961.5383202871942
 20
423.2226188661325
 30
0.0
 40
0.5007855324787092
100
AcDbArc
 50
183.762528774613
 51
185.5656298778977
  0
ARC
  5
C9C
330
22
100
AcDbEntity
  8
1
 62
     7
100
AcDbCircle
 10
961.5383202871942
 20
423.2226188661325
 30
0.0
 40
0.5012799176552223
100
AcDbArc
 50
354.4343701221023
 51
356.237471225387
  0
ARC
  5
C9D
330
22
100
AcDbEntity
  8
1
 62
     7
100
AcDbCircle
 10
961.5383202871942
 20
419.4068965323475
 30
0.0
 40
3.799999999999995
100
AcDbArc
 50
97.54436737011481
 51
82.4556326298852
  0
ARC
  5
C9E
330
22
100
AcDbEntity
  8
1
 62
     7
100
AcDbCircle
 10
961.5383202871942
 20
423.2068965323476
 30
0.0
 40
0.4999999999999973
100
AcDbArc
 50
183.7721836850578
 51
270.0
  0
ARC
  5
C9F
330
22
100
AcDbEntity
  8
1
 62
     7
100
AcDbCircle
 10
961.5383202871942
 20
423.2068965323476
 30
0.0
 40
0.5
100
AcDbArc
 50
270.0
 51
356.2278163149422
  0
ARC
  5
CA0
330
22
100
AcDbEntity
  8
1
 62
     2
100
AcDbCircle
 10
961.5383202871942
 20
419.4068965323475
 30
0.0
 40
2.399999999999983
100
AcDbArc
 50
218.6107493407122
 51
339.6358651936804
  0
ARC
  5
CA1
330
22
100
AcDbEntity
  8
1
 62
     2
100
AcDbCircle
 10
961.5383202871942
 20
419.4068965323475
 30
0.0
 40
2.400000000000023
100
AcDbArc
 50
38.32029735361189
 51
159.6358651936804
  0
ARC
  5
CA2
330
22
100
AcDbEntity
  8
1
 62
     7
100
AcDbCircle
 10
961.5383202871942
 20
419.4068965323475
 30
0.0
 40
2.74999999999997
100
AcDbArc
 50
215.0968012275818
 51
324.9031987724182
  0
ARC
  5
CA3
330
22
100
AcDbEntity
  8
1
 62
     7
100
AcDbCircle
 10
961.5383202871942
 20
419.4068965323475
 30
0.0
 40
2.749999999999996
100
AcDbArc
 50
35.09680122758184
 51
90.0
  0
ARC
  5
CA4
330
22
100
AcDbEntity
  8
1
 62
     7
100
AcDbCircle
 10
961.5383202871942
 20
419.4068965323475
 30
0.0
 40
2.749999999999984
100
AcDbArc
 50
90.0
 51
144.9031987724182
  0
ARC
  5
CA5
330
22
100
AcDbEntity
  8
1
 62
     7
100
AcDbCircle
 10
1016.288320287194
 20
420.6068965323476
 30
0.0
 40
0.3499999999999941
100
AcDbArc
 50
90.00000000016934
 51
90.0
  0
ARC
  5
CA6
330
22
100
AcDbEntity
  8
1
 62
     3
100
AcDbCircle
 10
1017.438320287194
 20
417.9068965323476
 30
0.0
 40
0.7999999999996652
100
AcDbArc
 50
165.5224878140089
 51
180.0
  0
ARC
  5
CA7
330
22
100
AcDbEntity
  8
1
 62
     3
100
AcDbCircle
 10
1017.438320287194
 20
417.9068965323476
 30
0.0
 40
0.8000000000005805
100
AcDbArc
 50
345.5224878140264
 51
0.0
  0
ARC
  5
CA8
330
22
100
AcDbEntity
  8
1
 62
     3
100
AcDbCircle
 10
1017.438320287194
 20
417.9068965323476
 30
0.0
 40
0.7999999999968021
100
AcDbArc
 50
255.5224878140297
 51
270.0
  0
ARC
  5
CA9
330
22
100
AcDbEntity
  8
1
 62
     3
100
AcDbCircle
 10
1017.438320287194
 20
417.9068965323476
 30
0.0
 40
0.8000000000007897
100
AcDbArc
 50
75.52248781396244
 51
90.0
  0
ARC
  5
CAA
330
22
100
AcDbEntity
  8
1
 62
     3
100
AcDbCircle
 10
1017.438320287194
 20
417.9068965323476
 30
0.0
 40
0.7999999999983487
100
AcDbArc
 50
180.0
 51
194.4775121859911
  0
ARC
  5
CAB
330
22
100
AcDbEntity
  8
1
 62
     3
100
AcDbCircle
 10
1017.438320287194
 20
417.9068965323476
 30
0.0
 40
0.8000000000003243
100
AcDbArc
 50
104.4775121859097
 51
165.5224878140089
  0
ARC
  5
CAC
330
22
100
AcDbEntity
  8
1
 62
     3
100
AcDbCircle
 10
1017.438320287194
 20
417.9068965323476
 30
0.0
 40
0.8000000000002103
100
AcDbArc
 50
0.0
 51
14.47751218597376
  0
ARC
  5
CAD
330
22
100
AcDbEntity
  8
1
 62
     3
100
AcDbCircle
 10
1017.438320287194
 20
417.9068965323476
 30
0.0
 40
0.7999999999972676
100
AcDbArc
 50
284.4775121861048
 51
345.5224878140264
  0
ARC
  5
CAE
330
22
100
AcDbEntity
  8
1
 62
     3
100
AcDbCircle
 10
1017.438320287194
 20
417.9068965323476
 30
0.0
 40
0.799999999999272
100
AcDbArc
 50
270.0
 51
284.4775121861048
  0
ARC
  5
CAF
330
22
100
AcDbEntity
  8
1
 62
     3
100
AcDbCircle
 10
1017.438320287194
 20
417.9068965323476
 30
0.0
 40
0.7999999999996657
100
AcDbArc
 50
194.4775121859911
 51
255.5224878140297
  0
ARC
  5
CB0
330
22
100
AcDbEntity
  8
1
 62
     3
100
AcDbCircle
 10
1017.438320287194
 20
417.9068965323476
 30
0.0
 40
0.7999999999992716
100
AcDbArc
 50
90.0
 51
104.4775121859097
  0
ARC
  5
CB1
330
22
100
AcDbEntity
  8
1
 62
     3
100
AcDbCircle
 10
1017.438320287194
 20
417.9068965323476
 30
0.0
 40
0.8000000000005801
100
AcDbArc
 50
14.47751218597376
 51
75.52248781396244
  0
ARC
  5
CB2
330
22
100
AcDbEntity
  8
1
 62
     3
100
AcDbCircle
 10
1016.038320287194
 20
419.4068965323475
 30
0.0
 40
3.699999999999998
100
AcDbArc
 50
55.90275859971473
 51
84.18300739644697
  0
ARC
  5
CB3
330
22
100
AcDbEntity
  8
1
 62
     7
100
AcDbCircle
 10
1016.038320287194
 20
422.6368965323476
 30
0.0
 40
0.375
100
AcDbArc
 50
180.0
 51
0.0
  0
ARC
  5
CB4
330
22
100
AcDbEntity
  8
1
 62
     3
100
AcDbCircle
 10
1016.038320287194
 20
419.4068965323475
 30
0.0
 40
3.7
100
AcDbArc
 50
84.18300739644697
 51
95.816992603553
  0
ARC
  5
CB5
330
22
100
AcDbEntity
  8
1
 62
     7
100
AcDbCircle
 10
1016.038320287194
 20
416.1768965323473
 30
0.0
 40
0.375
100
AcDbArc
 50
0.0
 51
180.0
  0
ARC
  5
CB6
330
22
100
AcDbEntity
  8
1
 62
     3
100
AcDbCircle
 10
1012.238320287194
 20
419.4068965323475
 30
0.0
 40
0.7500000000000017
100
AcDbArc
 50
283.3125654421428
 51
76.68743455785723
  0
ARC
  5
CB7
330
22
100
AcDbEntity
  8
1
 62
     3
100
AcDbCircle
 10
1013.351314518685
 20
416.7198907638386
 30
0.0
 40
0.7500000000000046
100
AcDbArc
 50
328.3125654421411
 51
121.6874345578572
  0
ARC
  5
CB8
330
22
100
AcDbEntity
  8
1
 62
     7
100
AcDbCircle
 10
1018.725326055703
 20
416.7198907638386
 30
0.0
 40
0.7500000000000006
100
AcDbArc
 50
58.31256544214278
 51
211.6874345578555
  0
ARC
  5
CB9
330
22
100
AcDbEntity
  8
1
 62
     3
100
AcDbCircle
 10
1018.725326055703
 20
422.0939023008565
 30
0.0
 40
0.7500000000000008
100
AcDbArc
 50
148.3125654421412
 51
301.6874345578572
  0
ARC
  5
CBA
330
22
100
AcDbEntity
  8
1
 62
     3
100
AcDbCircle
 10
1013.351314518685
 20
422.0939023008565
 30
0.0
 40
0.7500000000000079
100
AcDbArc
 50
238.3125654421428
 51
31.68743455785882
  0
ARC
  5
CBB
330
22
100
AcDbEntity
  8
1
 62
     3
100
AcDbCircle
 10
1016.038320287194
 20
419.4068965323475
 30
0.0
 40
3.600000000000012
100
AcDbArc
 50
168.7845600273515
 51
191.2154399726484
  0
ARC
  5
CBC
330
22
100
AcDbEntity
  8
1
 62
     3
100
AcDbCircle
 10
1012.238320287194
 20
419.4068965323475
 30
0.0
 40
0.399999999999998
100
AcDbArc
 50
302.6478174351385
 51
57.35218256486149
  0
ARC
  5
CBD
330
22
100
AcDbEntity
  8
1
 62
     3
100
AcDbCircle
 10
1016.038320287194
 20
419.4068965323475
 30
0.0
 40
3.700000000000028
100
AcDbArc
 50
145.9027585997193
 51
168.6234711844574
  0
ARC
  5
CBE
330
22
100
AcDbEntity
  8
1
 62
     3
100
AcDbCircle
 10
1016.038320287194
 20
419.4068965323475
 30
0.0
 40
3.699999999999995
100
AcDbArc
 50
325.9027585997133
 51
33.6234711844601
  0
ARC
  5
CBF
330
22
100
AcDbEntity
  8
1
 62
     3
100
AcDbCircle
 10
1016.038320287194
 20
419.4068965323475
 30
0.0
 40
3.749999999999986
100
AcDbArc
 50
328.2911772430308
 51
31.70882275696623
  0
ARC
  5
CC0
330
22
100
AcDbEntity
  8
1
 62
     3
100
AcDbCircle
 10
1016.038320287194
 20
419.4068965323475
 30
0.0
 40
3.700000000000051
100
AcDbArc
 50
33.6234711844601
 51
34.09724140028064
  0
ARC
  5
CC1
330
22
100
AcDbEntity
  8
1
 62
     7
100
AcDbCircle
 10
1018.866747411941
 20
416.5784694076013
 30
0.0
 40
0.5000000000000027
100
AcDbArc
 50
81.42357364233012
 51
188.5764263576694
  0
ARC
  5
CC2
330
22
100
AcDbEntity
  8
1
 62
     3
100
AcDbCircle
 10
1018.866747411941
 20
416.5784694076013
 30
0.0
 40
0.7499999999999965
100
AcDbArc
 50
81.42357364233012
 51
188.5764263576694
  0
ARC
  5
CC3
330
22
100
AcDbEntity
  8
1
 62
     3
100
AcDbCircle
 10
1016.038320287194
 20
419.4068965323475
 30
0.0
 40
3.750000000000006
100
AcDbArc
 50
238.2911772430326
 51
301.7088227569674
  0
ARC
  5
CC4
330
22
100
AcDbEntity
  8
1
 62
     7
100
AcDbCircle
 10
1016.038320287194
 20
419.4068965323475
 30
0.0
 40
3.999999999999991
100
AcDbArc
 50
238.2911772430326
 51
301.7088227569674
  0
ARC
  5
CC5
330
22
100
AcDbEntity
  8
1
 62
     7
100
AcDbCircle
 10
1016.038320287194
 20
419.4068965323475
 30
0.0
 40
3.999999999999982
100
AcDbArc
 50
301.7088227569674
 51
328.2911772430308
  0
ARC
  5
CC6
330
22
100
AcDbEntity
  8
1
 62
     3
100
AcDbCircle
 10
1016.038320287194
 20
419.4068965323475
 30
0.0
 40
3.700000000000023
100
AcDbArc
 50
235.9027585997147
 51
304.0972414002853
  0
ARC
  5
CC7
330
22
100
AcDbEntity
  8
1
 62
     7
100
AcDbCircle
 10
1013.209893162448
 20
416.5784694076013
 30
0.0
 40
0.5000000000000057
100
AcDbArc
 50
351.4235736423306
 51
98.57642635766993
  0
ARC
  5
CC8
330
22
100
AcDbEntity
  8
1
 62
     3
100
AcDbCircle
 10
1013.209893162448
 20
416.5784694076013
 30
0.0
 40
0.7500000000000011
100
AcDbArc
 50
351.4235736423306
 51
98.57642635766993
  0
ARC
  5
CC9
330
22
100
AcDbEntity
  8
1
 62
     3
100
AcDbCircle
 10
1013.209893162448
 20
416.5784694076013
 30
0.0
 40
0.7500000000000011
100
AcDbArc
 50
351.4235736423306
 51
98.57642635766993
  0
ARC
  5
CCA
330
22
100
AcDbEntity
  8
1
 62
     3
100
AcDbCircle
 10
1013.209893162448
 20
416.5784694076013
 30
0.0
 40
0.7500000000000011
100
AcDbArc
 50
351.4235736423306
 51
98.57642635766993
  0
ARC
  5
CCB
330
22
100
AcDbEntity
  8
1
 62
     3
100
AcDbCircle
 10
1016.038320287194
 20
419.4068965323475
 30
0.0
 40
3.749999999999961
100
AcDbArc
 50
148.2911772430337
 51
211.7088227569662
  0
ARC
  5
CCC
330
22
100
AcDbEntity
  8
1
 62
     7
100
AcDbCircle
 10
1016.038320287194
 20
419.4068965323475
 30
0.0
 40
3.999999999999947
100
AcDbArc
 50
58.29117724303255
 51
211.7088227569662
  0
ARC
  5
CCD
330
22
100
AcDbEntity
  8
1
 62
     7
100
AcDbCircle
 10
1016.038320287194
 20
419.4068965323475
 30
0.0
 40
4.000000000000004
100
AcDbArc
 50
211.7088227569662
 51
238.2911772430326
  0
ARC
  5
CCE
330
22
100
AcDbEntity
  8
1
 62
     3
100
AcDbCircle
 10
1016.038320287194
 20
419.4068965323475
 30
0.0
 40
3.700000000000035
100
AcDbArc
 50
191.3765288155424
 51
214.097241400283
  0
ARC
  5
CCF
330
22
100
AcDbEntity
  8
1
 62
     3
100
AcDbCircle
 10
1018.866747411941
 20
422.2353236570937
 30
0.0
 40
0.7500000000000011
100
AcDbArc
 50
171.4235736423305
 51
278.5764263576699
  0
ARC
  5
CD0
330
22
100
AcDbEntity
  8
1
 62
     7
100
AcDbCircle
 10
1018.866747411941
 20
422.2353236570937
 30
0.0
 40
0.5000000000000088
100
AcDbArc
 50
171.4235736423305
 51
278.5764263576699
  0
ARC
  5
CD1
330
22
100
AcDbEntity
  8
1
 62
     3
100
AcDbCircle
 10
1013.209893162448
 20
422.2353236570937
 30
0.0
 40
0.7500000000000016
100
AcDbArc
 50
261.4235736423301
 51
8.576426357669431
  0
ARC
  5
CD2
330
22
100
AcDbEntity
  8
1
 62
     7
100
AcDbCircle
 10
1013.209893162448
 20
422.2353236570937
 30
0.0
 40
0.500000000000002
100
AcDbArc
 50
261.4235736423301
 51
8.576426357669431
  0
ARC
  5
CD3
330
22
100
AcDbEntity
  8
1
 62
     3
100
AcDbCircle
 10
1013.209893162448
 20
422.2353236570937
 30
0.0
 40
0.7500000000000016
100
AcDbArc
 50
261.4235736423301
 51
8.576426357669431
  0
ARC
  5
CD4
330
22
100
AcDbEntity
  8
1
 62
     3
100
AcDbCircle
 10
1013.209893162448
 20
422.2353236570937
 30
0.0
 40
0.7500000000000016
100
AcDbArc
 50
261.4235736423301
 51
8.576426357669431
  0
ARC
  5
CD5
330
22
100
AcDbEntity
  8
1
 62
     3
100
AcDbCircle
 10
1013.209893162448
 20
422.2353236570937
 30
0.0
 40
0.7500000000000016
100
AcDbArc
 50
261.4235736423301
 51
8.576426357669431
  0
ARC
  5
CD6
330
22
100
AcDbEntity
  8
1
 62
     3
100
AcDbCircle
 10
1013.209893162448
 20
422.2353236570937
 30
0.0
 40
0.7500000000000016
100
AcDbArc
 50
261.4235736423301
 51
8.576426357669431
  0
ARC
  5
CD7
330
22
100
AcDbEntity
  8
1
 62
     7
100
AcDbCircle
 10
1016.038320287194
 20
419.4068965323475
 30
0.0
 40
3.999999999999976
100
AcDbArc
 50
328.2911772430308
 51
31.70882275696623
  0
ARC
  5
CD8
330
22
100
AcDbEntity
  8
1
 62
     7
100
AcDbCircle
 10
1016.038320287194
 20
419.4068965323475
 30
0.0
 40
3.999999999999951
100
AcDbArc
 50
31.70882275696623
 51
58.29117724303255
  0
ARC
  5
CD9
330
22
100
AcDbEntity
  8
1
 62
     3
100
AcDbCircle
 10
1016.038320287194
 20
419.4068965323475
 30
0.0
 40
3.749999999999961
100
AcDbArc
 50
58.29117724303255
 51
121.7088227569674
  0
ARC
  5
CDA
330
22
100
AcDbEntity
  8
1
 62
     3
100
AcDbCircle
 10
1016.038320287194
 20
419.4068965323475
 30
0.0
 40
3.700000000000001
100
AcDbArc
 50
95.816992603553
 51
124.0972414002852
  0
ARC
  5
CDB
330
22
100
AcDbEntity
  8
1
 62
     7
100
AcDbCircle
 10
974.8212284504599
 20
422.1595622162523
 30
0.0
 40
0.6713801565107767
100
AcDbArc
 50
284.4111355354598
 51
75.58886446454003
  0
ARC
  5
CDC
330
22
100
AcDbEntity
  8
1
 62
     7
100
AcDbCircle
 10
974.8212284504599
 20
416.6542308484428
 30
0.0
 40
0.6713801565107768
100
AcDbArc
 50
284.4111355354598
 51
75.58886446454003
  0
CIRCLE
  5
CDD
330
22
100
AcDbEntity
  8
1
 62
     7
100
AcDbCircle
 10
961.5383202871942
 20
419.4068965323475
 30
0.0
 40
0.7500000000000285
  0
CIRCLE
  5
CDE
330
22
100
AcDbEntity
  8
1
 62
     3
100
AcDbCircle
 10
961.5383202871942
 20
419.4068965323475
 30
0.0
 40
3.942264973081007
  0
CIRCLE
  5
CDF
330
22
100
AcDbEntity
  8
1
 62
     7
100
AcDbCircle
 10
961.5383202871942
 20
419.4068965323475
 30
0.0
 40
4.000000000000028
  0
CIRCLE
  5
CE0
330
22
100
AcDbEntity
  8
1
 62
     7
100
AcDbCircle
 10
961.5383202871942
 20
419.4068965323475
 30
0.0
 40
0.5500000000000293
  0
CIRCLE
  5
CE1
330
22
100
AcDbEntity
  8
1
 62
     3
100
AcDbCircle
 10
961.5383202871942
 20
419.4068965323475
 30
0.0
 40
1.10000000000003
  0
CIRCLE
  5
CE2
330
22
100
AcDbEntity
  8
1
 62
     7
100
AcDbCircle
 10
961.5383202871942
 20
419.4068965323475
 30
0.0
 40
1.899999999999995
  0
CIRCLE
  5
CE3
330
22
100
AcDbEntity
  8
1
 62
     3
100
AcDbCircle
 10
961.5383202871942
 20
419.4068965323475
 30
0.0
 40
0.4000000000000119
  0
CIRCLE
  5
CE4
330
22
100
AcDbEntity
  8
1
 62
     3
100
AcDbCircle
 10
961.5383202871942
 20
419.4068965323475
 30
0.0
 40
1.0
  0
CIRCLE
  5
CE5
330
22
100
AcDbEntity
  8
1
 62
     7
100
AcDbCircle
 10
961.5383202871942
 20
419.4068965323475
 30
0.0
 40
3.000000000000028
  0
CIRCLE
  5
CE6
330
22
100
AcDbEntity
  8
1
 62
     7
100
AcDbCircle
 10
1016.038320287194
 20
419.4068965323475
 30
0.0
 40
0.7500000000000036
  0
CIRCLE
  5
CE7
330
22
100
AcDbEntity
  8
1
 62
     7
100
AcDbCircle
 10
1015.788320287194
 20
418.2068965323476
 30
0.0
 40
0.3499999999999885
  0
CIRCLE
  5
CE8
330
22
100
AcDbEntity
  8
1
 62
     3
100
AcDbCircle
 10
961.5383202871942
 20
419.4068965323475
 30
0.0
 40
0.3500000000000298
  0
CIRCLE
  5
CE9
330
22
100
AcDbEntity
  8
1
 62
     3
100
AcDbCircle
 10
1016.038320287194
 20
419.4068965323475
 30
0.0
 40
0.306738468368998
  0
CIRCLE
  5
CEA
330
22
100
AcDbEntity
  8
1
 62
     3
100
AcDbCircle
 10
1016.038320287194
 20
419.4068965323475
 30
0.0
 40
0.3999999999999844
  0
ARC
  5
CEB
330
22
100
AcDbEntity
  8
1
 62
     7
100
AcDbCircle
 10
991.9633202871946
 20
421.8635952621583
 30
0.0
 40
0.0499999999999847
100
AcDbArc
 50
209.9999999999773
 51
270.0
  0
ARC
  5
CEC
330
22
100
AcDbEntity
  8
1
 62
     7
100
AcDbCircle
 10
992.2133202871943
 20
416.9501978025368
 30
0.0
 40
0.0499999999999873
100
AcDbArc
 50
30.00000000001512
 51
90.0
  0
ARC
  5
CED
330
22
100
AcDbEntity
  8
1
 62
     7
100
AcDbCircle
 10
992.4633202871943
 20
421.8635952621583
 30
0.0
 40
0.0499999999999847
100
AcDbArc
 50
209.9999999999773
 51
270.0
  0
ARC
  5
CEE
330
22
100
AcDbEntity
  8
1
 62
     7
100
AcDbCircle
 10
992.7133202871946
 20
416.9501978025368
 30
0.0
 40
0.0499999999999873
100
AcDbArc
 50
30.00000000001512
 51
90.0
  0
ARC
  5
CEF
330
22
100
AcDbEntity
  8
1
 62
     7
100
AcDbCircle
 10
992.4633202871943
 20
421.8635952621583
 30
0.0
 40
0.049999999999967
100
AcDbArc
 50
270.0
 51
330.000000000014
  0
ARC
  5
CF0
330
22
100
AcDbEntity
  8
1
 62
     7
100
AcDbCircle
 10
991.9633202871946
 20
421.8635952621583
 30
0.0
 40
0.049999999999967
100
AcDbArc
 50
270.0
 51
330.000000000014
  0
ARC
  5
CF1
330
22
100
AcDbEntity
  8
1
 62
     7
100
AcDbCircle
 10
991.4683202871943
 20
421.8322555161962
 30
0.0
 40
0.0299999999999727
100
AcDbArc
 50
180.0
 51
330.0000000000373
  0
ARC
  5
CF2
330
22
100
AcDbEntity
  8
1
 62
     7
100
AcDbCircle
 10
992.7133202871946
 20
416.9501978025368
 30
0.0
 40
0.0500000000000109
100
AcDbArc
 50
90.0
 51
149.999999999994
  0
ARC
  5
CF3
330
22
100
AcDbEntity
  8
1
 62
     7
100
AcDbCircle
 10
992.2133202871943
 20
416.9501978025368
 30
0.0
 40
0.0500000000000109
100
AcDbArc
 50
90.0
 51
149.999999999994
  0
ARC
  5
CF4
330
22
100
AcDbEntity
  8
1
 62
     7
100
AcDbCircle
 10
991.7133202871944
 20
416.9501978025368
 30
0.0
 40
0.0499999999999873
100
AcDbArc
 50
30.00000000001512
 51
149.999999999994
  0
ARC
  5
CF5
330
22
100
AcDbEntity
  8
1
 62
     3
100
AcDbCircle
 10
1014.716055314113
 20
418.1568965323477
 30
0.0
 40
0.0999999999999999
100
AcDbArc
 50
90.0
 51
149.9999999999965
  0
ARC
  5
CF6
330
22
100
AcDbEntity
  8
1
 62
     3
100
AcDbCircle
 10
1014.830585260275
 20
418.1568965323477
 30
0.0
 40
0.1000000000000038
100
AcDbArc
 50
29.99999999999763
 51
90.0
  0
ARC
  5
CF7
330
22
100
AcDbEntity
  8
1
 62
     3
100
AcDbCircle
 10
1017.360585260275
 20
420.6568965323476
 30
0.0
 40
0.0999999999985171
100
AcDbArc
 50
270.0
 51
330.0000000006098
  0
ARC
  5
CF8
330
22
100
AcDbEntity
  8
1
 62
     3
100
AcDbCircle
 10
1017.246055314114
 20
420.6568965323476
 30
0.0
 40
0.0999999999995931
100
AcDbArc
 50
209.9999999996532
 51
270.0
  0
ARC
  5
CF9
330
22
100
AcDbEntity
  8
1
 62
     3
100
AcDbCircle
 10
1019.015875931112
 20
417.5672872294318
 30
0.0
 40
0.2500000000000019
100
AcDbArc
 50
261.4235736423301
 51
328.2911772430308
  0
ARC
  5
CFA
330
22
100
AcDbEntity
  8
1
 62
     3
100
AcDbCircle
 10
1017.87792959011
 20
416.4293408884295
 30
0.0
 40
0.2500000000000031
100
AcDbArc
 50
301.7088227569693
 51
8.576426357669431
  0
ARC
  5
CFB
330
22
100
AcDbEntity
  8
1
 62
     7
100
AcDbCircle
 10
1017.87792959011
 20
416.4293408884295
 30
0.0
 40
0.4999999999999929
100
AcDbArc
 50
301.7088227569693
 51
8.576426357669431
  0
ARC
  5
CFC
330
22
100
AcDbEntity
  8
1
 62
     7
100
AcDbCircle
 10
1019.015875931112
 20
417.5672872294318
 30
0.0
 40
0.4999999999999955
100
AcDbArc
 50
261.4235736423301
 51
328.2911772430308
  0
ARC
  5
CFD
330
22
100
AcDbEntity
  8
1
 62
     3
100
AcDbCircle
 10
1013.060764643276
 20
417.5672872294318
 30
0.0
 40
0.2499999999999979
100
AcDbArc
 50
211.7088227569691
 51
278.5764263576699
  0
ARC
  5
CFE
330
22
100
AcDbEntity
  8
1
 62
     3
100
AcDbCircle
 10
1014.198710984279
 20
416.4293408884295
 30
0.0
 40
0.2500000000000017
100
AcDbArc
 50
171.4235736423305
 51
238.2911772430326
  0
ARC
  5
CFF
330
22
100
AcDbEntity
  8
1
 62
     7
100
AcDbCircle
 10
1014.198710984279
 20
416.4293408884295
 30
0.0
 40
0.4999999999999973
100
AcDbArc
 50
171.4235736423305
 51
238.2911772430326
  0
ARC
  5
D00
330
22
100
AcDbEntity
  8
1
 62
     7
100
AcDbCircle
 10
1013.060764643276
 20
417.5672872294318
 30
0.0
 40
0.4999999999999873
100
AcDbArc
 50
211.7088227569691
 51
278.5764263576699
  0
ARC
  5
D01
330
22
100
AcDbEntity
  8
1
 62
     3
100
AcDbCircle
 10
1017.87792959011
 20
422.3844521762653
 30
0.0
 40
0.2500000000000021
100
AcDbArc
 50
20.21048023374316
 51
58.29117724303068
  0
ARC
  5
D02
330
22
100
AcDbEntity
  8
1
 62
     3
100
AcDbCircle
 10
1019.015875931112
 20
421.2465058352632
 30
0.0
 40
0.2499999999999947
100
AcDbArc
 50
69.78951976625703
 51
98.57642635766993
  0
ARC
  5
D03
330
22
100
AcDbEntity
  8
1
 62
     7
100
AcDbCircle
 10
1019.015875931112
 20
421.2465058352632
 30
0.0
 40
0.4999999999999834
100
AcDbArc
 50
31.70882275696911
 51
98.57642635766993
  0
ARC
  5
D04
330
22
100
AcDbEntity
  8
1
 62
     7
100
AcDbCircle
 10
1017.87792959011
 20
422.3844521762653
 30
0.0
 40
0.4999999999999973
100
AcDbArc
 50
351.4235736423306
 51
58.29117724303068
  0
ARC
  5
D05
330
22
100
AcDbEntity
  8
1
 62
     3
100
AcDbCircle
 10
1014.198710984279
 20
422.3844521762653
 30
0.0
 40
0.2500000000000064
100
AcDbArc
 50
121.7088227569674
 51
188.5764263576662
  0
ARC
  5
D06
330
22
100
AcDbEntity
  8
1
 62
     7
100
AcDbCircle
 10
1014.198710984279
 20
422.3844521762653
 30
0.0
 40
0.4999999999999961
100
AcDbArc
 50
121.7088227569693
 51
188.5764263576694
  0
ARC
  5
D07
330
22
100
AcDbEntity
  8
1
 62
     3
100
AcDbCircle
 10
1013.060764643277
 20
421.2465058352631
 30
0.0
 40
0.249999999999997
100
AcDbArc
 50
81.42357364233012
 51
148.2911772430309
  0
ARC
  5
D08
330
22
100
AcDbEntity
  8
1
 62
     7
100
AcDbCircle
 10
1013.060764643277
 20
421.2465058352631
 30
0.0
 40
0.4999999999999968
100
AcDbArc
 50
81.42357364233012
 51
148.2911772430309
  0
ARC
  5
D09
330
22
100
AcDbEntity
  8
1
 62
     3
100
AcDbCircle
 10
1017.87792959011
 20
422.3844521762653
 30
0.0
 40
0.2500000000000048
100
AcDbArc
 50
351.4235736423306
 51
20.21048023374316
  0
ARC
  5
D0A
330
22
100
AcDbEntity
  8
1
 62
     3
100
AcDbCircle
 10
1019.015875931112
 20
421.2465058352632
 30
0.0
 40
0.2499999999999973
100
AcDbArc
 50
31.70882275696911
 51
69.78951976625703
  0
DIMENSION
  5
D0B
102
{ACAD_REACTORS
330
14A0
102
}
330
22
100
AcDbEntity
  8
1
  6
Continuous
 62
     2
100
AcDbDimension
  2
*D0
 10
974.4383202871944
 20
410.9133457539653
 30
0.0
 11
975.8790922649726
 21
411.5660727841738
 31
0.0
 70
   160
 71
     5
 42
0.4999999999998864
 73
     0
 74
     0
 75
     0
  3
DMST_1
100
AcDbAlignedDimension
 13
973.9383202871946
 23
418.6568965323476
 33
0.0
 14
974.4383202871944
 24
415.7268965323476
 34
0.0
100
AcDbRotatedDimension
  0
DIMENSION
  5
D0C
330
22
100
AcDbEntity
  8
1
  6
Continuous
 62
     2
100
AcDbDimension
  2
*D1
 10
959.2883202871943
 20
411.4058685603517
 30
0.0
 11
960.8363144936062
 21
412.1263829689833
 31
0.0
 70
   160
 71
     5
 42
4.5
 73
     0
 74
     0
 75
     0
  3
DMST_1
100
AcDbAlignedDimension
 13
963.7883202871943
 23
417.8257577022633
 33
0.0
 14
959.2883202871943
 24
417.8257577022633
 34
0.0
100
AcDbRotatedDimension
  0
DIMENSION
  5
D0D
330
22
100
AcDbEntity
  8
1
  6
Continuous
 62
     2
100
AcDbDimension
  2
*D2
 10
1010.043060611366
 20
421.4568965323476
 30
0.0
 11
1009.496551165945
 21
420.001273691668
 31
0.0
 70
   160
 71
     5
 42
0.1999999999999886
 73
     0
 74
     0
 75
     0
  3
DMST_1
100
AcDbAlignedDimension
 13
1015.518320287194
 23
421.6568965323475
 33
0.0
 14
1015.518320287194
 24
421.4568965323476
 34
0.0
 50
90.0
100
AcDbRotatedDimension
  0
DIMENSION
  5
D0E
330
22
100
AcDbEntity
  8
1
  6
Continuous
 62
     2
100
AcDbDimension
  2
*D3
 10
1008.052874465824
 20
421.5568965323474
 30
0.0
 11
1007.612874465824
 21
419.4068965323477
 31
0.0
 70
    32
 71
     5
 42
4.29999999999995
 73
     0
 74
     0
 75
     0
  3
DMST_1
100
AcDbAlignedDimension
 13
1015.268320287194
 23
417.2568965323476
 33
0.0
 14
1015.268320287194
 24
421.5568965323474
 34
0.0
 50
90.0
100
AcDbRotatedDimension
  0
DIMENSION
  5
D0F
102
{ACAD_XDICTIONARY
360
1495
102
}
330
22
100
AcDbEntity
  8
1
  6
Continuous
 62
     2
100
AcDbDimension
  2
*D4
 10
972.8883202871946
 20
406.1733010806946
 30
0.0
 11
973.6488259870462
 21
406.7976032697845
 31
0.0
 70
   160
 71
     5
 42
1.549999999999954
 73
     0
 74
     0
 75
     0
  3
DMST_1
100
AcDbAlignedDimension
 13
974.4383202871944
 23
415.7268965323476
 33
0.0
 14
972.8883202871946
 24
417.1568965325375
 34
0.0
100
AcDbRotatedDimension
  0
DIMENSION
  5
D10
330
22
100
AcDbEntity
  8
1
  6
Continuous
 62
     2
100
AcDbDimension
  2
*D5
 10
991.0383202871946
 20
406.1751444005912
 30
0.0
 11
982.8466715381455
 21
406.9969672854538
 31
0.0
 70
   160
 71
     5
 42
16.59999999999991
 73
     0
 74
     0
 75
     0
  3
DMST_1
100
AcDbAlignedDimension
 13
974.4383202871944
 23
415.7268965323476
 33
0.0
 14
991.0383202871946
 24
415.6068965323476
 34
0.0
100
AcDbRotatedDimension
  0
DIMENSION
  5
D11
102
{ACAD_XDICTIONARY
360
16F1
102
}
330
22
100
AcDbEntity
  8
1
  6
Continuous
 62
     2
100
AcDbDimension
  2
*D6
 10
998.0257672006453
 20
420.1568965323476
 30
0.0
 11
997.260623632807
 21
422.1996352650701
 31
0.0
 70
   160
  1
%%C<>
 71
     5
 42
1.5
 73
     0
 74
     0
 75
     0
  3
DMST_1
100
AcDbAlignedDimension
 13
995.1383202871946
 23
418.6568965323476
 33
0.0
 14
995.1383202871946
 24
420.1568965323476
 34
0.0
 50
90.0
100
AcDbRotatedDimension
  0
DIMENSION
  5
D12
102
{ACAD_REACTORS
330
14CA
102
}
330
22
100
AcDbEntity
  8
1
  6
Continuous
 62
     2
100
AcDbDimension
  2
*D7
 10
992.9383202871944
 20
410.9142801318013
 30
0.0
 11
991.9054338209159
 21
411.6026055816686
 31
0.0
 70
   160
 71
     5
 42
1.899999999999749
 73
     0
 74
     1
 75
     1
  3
DMST_1
100
AcDbAlignedDimension
 13
991.0383202871946
 23
415.6068965323476
 33
0.0
 14
992.9383202871944
 24
417.0068965323476
 34
0.0
100
AcDbRotatedDimension
  0
DIMENSION
  5
D13
330
22
100
AcDbEntity
  8
1
  6
Continuous
 62
     2
100
AcDbDimension
  2
*D8
 10
991.0383202871946
 20
413.4087947231739
 30
0.0
 11
989.6239187949912
 21
413.9533839182067
 31
0.0
 70
   160
 71
     5
 42
0.3999999999999772
 73
     0
 74
     0
 75
     0
  3
DMST_1
100
AcDbAlignedDimension
 13
991.4383202871944
 23
416.4068965323476
 33
0.0
 14
991.0383202871946
 24
415.6068965323476
 34
0.0
100
AcDbRotatedDimension
  0
DIMENSION
  5
D14
102
{ACAD_XDICTIONARY
360
171C
102
}
330
22
100
AcDbEntity
  8
1
  6
Continuous
 62
     2
100
AcDbDimension
  2
*D9
 10
993.1383202871943
 20
408.4179415461131
 30
0.0
 11
994.1580143552569
 21
409.1064262778306
 31
0.0
 70
   160
 71
     5
 42
2.000000000000341
 73
     0
 74
     0
 75
     0
  3
DMST_1
100
AcDbAlignedDimension
 13
995.1383202871946
 23
418.6568965323476
 33
0.0
 14
993.1383202871943
 24
410.3970536370178
 34
0.0
100
AcDbRotatedDimension
  0
DIMENSION
  5
D15
102
{ACAD_XDICTIONARY
360
1744
102
}
330
22
100
AcDbEntity
  8
1
  6
Continuous
 62
     2
100
AcDbDimension
  2
*D10
 10
996.0383202871943
 20
406.1748893643251
 30
0.0
 11
993.5383202871943
 21
406.7546470857973
 31
0.0
 70
   160
 71
     5
 42
4.999999999999658
 73
     0
 74
     0
 75
     0
  3
DMST_1
100
AcDbAlignedDimension
 13
991.0383202871946
 23
415.6068965323476
 33
0.0
 14
996.0383202871943
 24
418.8568965323476
 34
0.0
100
AcDbRotatedDimension
  0
DIMENSION
  5
D16
102
{ACAD_XDICTIONARY
360
14C0
102
}
330
22
100
AcDbEntity
  8
1
  6
Continuous
 62
     2
100
AcDbDimension
  2
*D11
 10
993.1383202871943
 20
408.4200112480279
 30
0.0
 11
992.008055500872
 21
409.1195578682389
 31
0.0
 70
   160
 71
     5
 42
2.099999999999681
 73
     0
 74
     0
 75
     0
  3
DMST_1
100
AcDbAlignedDimension
 13
991.0383202871946
 23
415.6068965323476
 33
0.0
 14
993.1383202871943
 24
418.6568965323476
 34
0.0
100
AcDbRotatedDimension
  0
DIMENSION
  5
D17
330
22
100
AcDbEntity
  8
1
  6
Continuous
 62
     2
100
AcDbDimension
  2
*D12
 10
1015.538320287194
 20
425.4058539670301
 30
0.0
 11
1016.038320287194
 21
426.0920504640916
 31
0.0
 70
   160
 71
     5
 42
-1.0
 73
     0
 74
     0
 75
     0
  3
DMST_1
100
AcDbAlignedDimension
 13
1016.538320287194
 23
421.6568965323475
 33
0.0
 14
1015.538320287194
 24
421.6568965323475
 34
0.0
100
AcDbRotatedDimension
  0
LINE
  5
D18
330
22
100
AcDbEntity
  8
1
 62
     2
100
AcDbLine
 10
986.3150670059717
 20
423.4068965323475
 30
0.0
 11
986.3150670059717
 21
426.9755815805519
 31
0.0
  0
SOLID
  5
D19
330
22
100
AcDbEntity
  8
1
 62
     2
100
AcDbTrace
 10
986.3150670059717
 20
423.4068965323475
 30
0.0
 11
986.2240670059717
 21
424.1068965323474
 31
0.0
 12
986.4060670059714
 22
424.1068965323474
 32
0.0
 13
986.4060670059714
 23
424.1068965323474
 33
0.0
  0
TEXT
  5
D1A
330
22
100
AcDbEntity
  8
1
 62
     3
100
AcDbText
 10
986.0199484929584
 20
424.1830699872203
 30
0.0
 40
0.7000000000000002
  1
%%C8
 50
90.0
100
AcDbText
  0
TEXT
  5
D1B
330
22
100
AcDbEntity
  8
1
 62
     3
100
AcDbText
 10
985.3080363782906
 20
425.3954266819484
 30
0.0
 40
0.4900000000000003
  1
 0
 50
90.0
100
AcDbText
  0
TEXT
  5
D1C
330
22
100
AcDbEntity
  8
1
 62
     3
100
AcDbText
 10
986.067536378291
 20
425.3954266819484
 30
0.0
 40
0.4900000000000003
  1
-0.08
 50
90.0
100
AcDbText
  0
LINE
  5
D1D
330
22
100
AcDbEntity
  8
1
 62
     2
100
AcDbLine
 10
1000.505125604541
 20
416.6568965323476
 30
0.0
 11
1000.505125604541
 21
421.2408965323476
 31
0.0
  0
LINE
  5
D1E
330
22
100
AcDbEntity
  8
1
 62
     2
100
AcDbLine
 10
992.486247692978
 20
416.6568965323476
 30
0.0
 11
1000.705125604541
 21
416.6568965323476
 31
0.0
  0
SOLID
  5
D1F
330
22
100
AcDbEntity
  8
1
 62
     2
100
AcDbTrace
 10
1000.505125604541
 20
416.6568965323476
 30
0.0
 11
1000.414125604541
 21
417.3568965323476
 31
0.0
 12
1000.596125604541
 22
417.3568965323476
 32
0.0
 13
1000.596125604541
 23
417.3568965323476
 33
0.0
  0
TEXT
  5
D20
330
22
100
AcDbEntity
  8
1
 62
     3
100
AcDbText
 10
1000.035125604541
 20
418.3148965323476
 30
0.0
 40
0.7000000000000001
  1
5.5
 50
90.0
100
AcDbText
  0
TEXT
  5
D21
330
22
100
AcDbEntity
  8
1
 62
     3
100
AcDbText
 10
1000.035125604541
 20
417.5728965323476
 30
0.0
 40
0.7000000000000001
  1
M
 50
90.0
100
AcDbText
  0
TEXT
  5
D22
330
22
100
AcDbEntity
  8
1
 62
     3
100
AcDbText
 10
1000.035125604541
 20
419.7008965323474
 30
0.0
 40
0.7000000000000001
  1
x0.5
 50
90.0
100
AcDbText
  0
LINE
  5
D23
330
22
100
AcDbEntity
  8
1
 62
     2
100
AcDbLine
 10
1002.876886552367
 20
416.4068965323476
 30
0.0
 11
1002.876886552367
 21
420.9062965323473
 31
0.0
  0
LINE
  5
D24
330
22
100
AcDbEntity
  8
1
 62
     2
100
AcDbLine
 10
991.4383202871944
 20
416.4068965323476
 30
0.0
 11
1003.076886552366
 21
416.4068965323476
 31
0.0
  0
SOLID
  5
D25
330
22
100
AcDbEntity
  8
1
 62
     2
100
AcDbTrace
 10
1002.876886552367
 20
416.4068965323476
 30
0.0
 11
1002.785886552367
 21
417.1068965323476
 31
0.0
 12
1002.967886552367
 22
417.1068965323476
 32
0.0
 13
1002.967886552367
 23
417.1068965323476
 33
0.0
  0
TEXT
  5
D26
330
22
100
AcDbEntity
  8
1
 62
     3
100
AcDbText
 10
1002.460621453806
 20
417.9941650215512
 30
0.0
 40
0.7000000000000002
  1
%%C6
 50
90.0
100
AcDbText
  0
TEXT
  5
D27
330
22
100
AcDbEntity
  8
1
 62
     3
100
AcDbText
 10
1001.821287707353
 20
419.2794965323476
 30
0.0
 40
0.4900000000000003
  1
 0
 50
90.0
100
AcDbText
  0
TEXT
  5
D28
330
22
100
AcDbEntity
  8
1
 62
     3
100
AcDbText
 10
1002.580787707353
 20
419.2794965323476
 30
0.0
 40
0.4900000000000003
  1
-0.018
 50
90.0
100
AcDbText
  0
LINE
  5
D29
330
22
100
AcDbEntity
  8
0
 62
     2
100
AcDbLine
 10
974.4383202871944
 20
406.1733010806946
 30
0.0
 11
972.8883202871946
 21
406.1733010806946
 31
0.0
  0
TEXT
  5
D2A
330
22
100
AcDbEntity
  8
1
 62
     3
100
AcDbText
 10
961.6180615131945
 20
412.4759500290536
 30
0.0
 40
0.4900000000000003
  1
 0
100
AcDbText
  0
TEXT
  5
D2B
330
22
100
AcDbEntity
  8
1
 62
     3
100
AcDbText
 10
961.6180615131945
 20
411.7164500290536
 30
0.0
 40
0.4900000000000003
  1
-0.1
100
AcDbText
  0
LINE
  5
D2C
330
22
100
AcDbEntity
  8
0
 62
     2
100
AcDbLine
 10
998.0257672006453
 20
418.6568965323476
 30
0.0
 11
998.0257672006453
 21
425.1658623083523
 31
0.0
  0
TEXT
  5
D2D
330
22
100
AcDbEntity
  8
1
 62
     3
100
AcDbText
 10
997.0133120286794
 20
423.4155073186685
 30
0.0
 40
0.4900000000000003
  1
 0
 50
90.0
100
AcDbText
  0
TEXT
  5
D2E
330
22
100
AcDbEntity
  8
1
 62
     3
100
AcDbText
 10
997.7728120286794
 20
423.4155073186685
 30
0.0
 40
0.4900000000000003
  1
-0.015
 50
90.0
100
AcDbText
  0
LINE
  5
D2F
330
22
100
AcDbEntity
  8
0
 62
     2
100
AcDbLine
 10
1010.043060611366
 20
421.6568965323475
 30
0.0
 11
1010.043060611366
 21
419.37909801105
 31
0.0
  0
LINE
  5
D30
330
22
100
AcDbEntity
  8
0
 62
     2
100
AcDbLine
 10
1016.538320287194
 20
425.4058539670301
 30
0.0
 11
1015.538320287194
 21
425.4058539670301
 31
0.0
  0
LINE
  5
D31
330
22
100
AcDbEntity
  8
0
 62
     2
100
AcDbLine
 10
973.9383202871946
 20
410.9133457539653
 30
0.0
 11
976.4919278309744
 21
410.9133457539653
 31
0.0
  0
LINE
  5
D32
330
22
100
AcDbEntity
  8
0
 62
     2
100
AcDbLine
 10
991.4383202871944
 20
413.4087947231739
 30
0.0
 11
989.0604443980132
 21
413.4087947231739
 31
0.0
  0
LINE
  5
FC7
330
22
100
AcDbEntity
  8
0
  6
Continuous
 62
   255
100
AcDbLine
 10
1026.982865544064
 20
382.7995347310505
 30
0.0
 11
1026.982865544064
 21
438.1995347310508
 31
0.0
1001
AcDbBlockRepETag
1070
     1
1071
        0
1005
FC7
  0
LINE
  5
FC8
330
22
100
AcDbEntity
  8
0
  6
Continuous
 62
   255
100
AcDbLine
 10
950.3828722621433
 20
382.7995347310505
 30
0.0
 11
1026.982865544064
 21
382.7995347310505
 31
0.0
1001
AcDbBlockRepETag
1070
     1
1071
        1
1005
FC8
  0
LINE
  5
FC9
330
22
100
AcDbEntity
  8
0
  6
Continuous
 62
   255
100
AcDbLine
 10
948.3828722621431
 20
438.1995347310508
 30
0.0
 11
948.3828722621431
 21
393.7995347310505
 31
0.0
1001
AcDbBlockRepETag
1070
     1
1071
        2
1005
FC9
  0
LINE
  5
FCA
330
22
100
AcDbEntity
  8
0
  6
Continuous
 62
   255
100
AcDbLine
 10
948.3828722621431
 20
438.1995347310508
 30
0.0
 11
1026.982865544064
 21
438.1995347310508
 31
0.0
1001
AcDbBlockRepETag
1070
     1
1071
        3
1005
FCA
  0
LINE
  5
FCB
330
22
100
AcDbEntity
  8
1
 62
     4
100
AcDbLine
 10
1026.982865544064
 20
383.5995347310505
 30
0.0
 11
990.9828655440636
 21
383.5995347310505
 31
0.0
1001
AcDbBlockRepETag
1070
     1
1071
        4
1005
FCB
  0
LINE
  5
FCC
330
22
100
AcDbEntity
  8
1
  6
CENTER
 62
     2
 48
0.25
100
AcDbLine
 10
1026.331454163766
 20
386.5995347310505
 30
0.0
 11
1024.7761841732
 21
386.5995347310505
 31
0.0
1001
AcDbBlockRepETag
1070
     1
1071
        5
1005
FCC
  0
LINE
  5
FCD
330
22
100
AcDbEntity
  8
1
  6
CENTER
 62
     2
 48
0.25
100
AcDbLine
 10
1025.553819168483
 20
387.3771697263333
 30
0.0
 11
1025.553819168483
 21
385.8218997357679
 31
0.0
1001
AcDbBlockRepETag
1070
     1
1071
        6
1005
FCD
  0
LINE
  5
FCE
330
22
100
AcDbEntity
  8
1
  6
CENTER
 62
     2
 48
0.25
100
AcDbLine
 10
1024.331454163766
 20
386.5995347310505
 30
0.0
 11
1022.131454163766
 21
386.5995347310505
 31
0.0
1001
AcDbBlockRepETag
1070
     1
1071
        7
1005
FCE
  0
LINE
  5
FCF
330
22
100
AcDbEntity
  8
1
 62
   255
100
AcDbLine
 10
1022.231454163766
 20
386.9142446854573
 30
0.0
 11
1022.231454163766
 21
386.2848247766438
 31
0.0
1001
AcDbBlockRepETag
1070
     1
1071
        8
1005
FCF
  0
LINE
  5
FD0
330
22
100
AcDbEntity
  8
1
 62
   255
100
AcDbLine
 10
1024.231454163766
 20
387.2771697263333
 30
0.0
 11
1022.231454163766
 21
386.9142446854573
 31
0.0
1001
AcDbBlockRepETag
1070
     1
1071
        9
1005
FD0
  0
LINE
  5
FD1
330
22
100
AcDbEntity
  8
1
 62
   255
100
AcDbLine
 10
1022.231454163766
 20
386.2848247766438
 30
0.0
 11
1024.231454163766
 21
385.9218997357677
 31
0.0
1001
AcDbBlockRepETag
1070
     1
1071
       10
1005
FD1
  0
LINE
  5
FD2
330
22
100
AcDbEntity
  8
1
 62
   255
100
AcDbLine
 10
1024.231454163766
 20
385.9218997357677
 30
0.0
 11
1024.231454163766
 21
387.2771697263333
 31
0.0
1001
AcDbBlockRepETag
1070
     1
1071
       11
1005
FD2
  0
LINE
  5
FD3
330
22
100
AcDbEntity
  8
1
 62
     4
100
AcDbLine
 10
990.9828655440636
 20
388.9995347310505
 30
0.0
 11
990.9828655440636
 21
382.7995347310505
 31
0.0
1001
AcDbBlockRepETag
1070
     1
1071
       12
1005
FD3
  0
LINE
  5
FD4
330
22
100
AcDbEntity
  8
1
 62
     4
100
AcDbLine
 10
1001.982865544063
 20
387.5995347310505
 30
0.0
 11
1001.982865544063
 21
383.5995347310505
 31
0.0
1001
AcDbBlockRepETag
1070
     1
1071
       13
1005
FD4
  0
LINE
  5
FD5
330
22
100
AcDbEntity
  8
1
 62
     4
100
AcDbLine
 10
1026.982865544064
 20
387.5995347310505
 30
0.0
 11
990.9828655440636
 21
387.5995347310505
 31
0.0
1001
AcDbBlockRepETag
1070
     1
1071
       14
1005
FD5
  0
LINE
  5
FD6
330
22
100
AcDbEntity
  8
1
 62
     4
100
AcDbLine
 10
1015.982865544063
 20
385.5995347310503
 30
0.0
 11
1026.982865544064
 21
385.5995347310503
 31
0.0
1001
AcDbBlockRepETag
1070
     1
1071
       15
1005
FD6
  0
LINE
  5
FD7
330
22
100
AcDbEntity
  8
1
 62
     4
100
AcDbLine
 10
1015.982865544063
 20
383.5995347310505
 30
0.0
 11
1015.982865544063
 21
387.5995347310505
 31
0.0
1001
AcDbBlockRepETag
1070
     1
1071
       16
1005
FD7
  0
LINE
  5
FD8
330
22
100
AcDbEntity
  8
1
 62
   255
100
AcDbLine
 10
1021.482865544063
 20
388.9995347310505
 30
0.0
 11
1021.482865544063
 21
385.5995347310503
 31
0.0
1001
AcDbBlockRepETag
1070
     1
1071
       17
1005
FD8
  0
LINE
  5
FD9
330
22
100
AcDbEntity
  8
1
 62
     4
100
AcDbLine
 10
990.9828655440636
 20
388.9995347310505
 30
0.0
 11
1026.982865544064
 21
388.9995347310505
 31
0.0
1001
AcDbBlockRepETag
1070
     1
1071
       18
1005
FD9
  0
LINE
  5
FDA
330
22
100
AcDbEntity
  8
1
 62
   255
100
AcDbLine
 10
997.7828655440635
 20
388.9995347310505
 30
0.0
 11
997.7828655440635
 21
387.5995347310505
 31
0.0
1001
AcDbBlockRepETag
1070
     1
1071
       19
1005
FDA
  0
LINE
  5
FDB
330
22
100
AcDbEntity
  8
1
 62
   255
100
AcDbLine
 10
1004.582865544064
 20
388.9995347310505
 30
0.0
 11
1004.582865544064
 21
387.5995347310505
 31
0.0
1001
AcDbBlockRepETag
1070
     1
1071
       20
1005
FDB
  0
LINE
  5
FDC
330
22
100
AcDbEntity
  8
1
 62
   255
100
AcDbLine
 10
1011.382865544064
 20
388.9995347310505
 30
0.0
 11
1011.382865544064
 21
387.5995347310505
 31
0.0
1001
AcDbBlockRepETag
1070
     1
1071
       21
1005
FDC
  0
CIRCLE
  5
FDD
330
22
100
AcDbEntity
  8
1
 62
   255
100
AcDbCircle
 10
1025.553819168483
 20
386.5995347310505
 30
0.0
 40
0.6776349952828051
1001
AcDbBlockRepETag
1070
     1
1071
       22
1005
FDD
  0
CIRCLE
  5
FDE
330
22
100
AcDbEntity
  8
1
 62
   255
100
AcDbCircle
 10
1025.553819168483
 20
386.5995347310505
 30
0.0
 40
0.314709954406796
1001
AcDbBlockRepETag
1070
     1
1071
       23
1005
FDE
  0
TEXT
  5
FDF
330
22
100
AcDbEntity
  8
1
 62
     1
100
AcDbText
 10
992.8228655440635
 20
385.7995347310504
 30
0.0
 40
1.200000000000004
  1
Portescap
 72
     1
 11
996.4828655440635
 21
385.7995347310504
 31
0.0
100
AcDbText
1001
AcDbBlockRepETag
1070
     1
1071
       24
1005
FDF
  0
TEXT
  5
FE0
330
22
100
AcDbEntity
  8
1
 62
     3
100
AcDbText
 10
995.6728655440635
 20
384.3995347310505
 30
0.0
 40
0.6000000000000034
  1
India
 72
     1
 11
996.4828655440635
 21
384.3995347310505
 31
0.0
100
AcDbText
1001
AcDbBlockRepETag
1070
     1
1071
       25
1005
FE0
  0
TEXT
  5
FE1
330
22
100
AcDbEntity
  8
1
 62
     2
100
AcDbText
 10
991.2381280440628
 20
382.9895347310504
 30
0.0
 40
0.4200000000000025
  1
This drawing remains our property. Without written approval it may not be copied, reproduced or communicated or made available to third parties.
 41
0.925
 72
     1
 11
1008.982865544063
 21
383.1995347310503
 31
0.0
100
AcDbText
 73
     2
1001
AcDbBlockRepETag
1070
     1
1071
       26
1005
FE1
  0
TEXT
  5
FE2
330
22
100
AcDbEntity
  8
1
 62
     3
100
AcDbText
 10
1011.722865544063
 20
387.9995347310505
 30
0.0
 40
0.6000000000000034
  1
Dim and tolerances in mm
 72
     1
 11
1016.432865544063
 21
388.2995347310505
 31
0.0
100
AcDbText
 73
     2
1001
AcDbBlockRepETag
1070
     1
1071
       27
1005
FE2
  0
TEXT
  5
FE3
330
22
100
AcDbEntity
  8
1
 62
     3
100
AcDbText
 10
1016.877865544063
 20
386.2495347310505
 30
0.0
 40
0.7000000000000039
  1
Scale 5:1
 72
     1
 11
1018.732865544063
 21
386.5995347310505
 31
0.0
100
AcDbText
 73
     2
1001
AcDbBlockRepETag
1070
     1
1071
       28
1005
FE3
  0
TEXT
  5
FE4
330
22
100
AcDbEntity
  8
1
 62
     2
100
AcDbText
 10
1021.882865544063
 20
388.0995347310505
 30
0.0
 40
0.4000000000000023
  1
Edition:
 11
1021.882865544063
 21
388.2995347310505
 31
0.0
100
AcDbText
 73
     2
1001
AcDbBlockRepETag
1070
     1
1071
       29
1005
FE4
  0
TEXT
  5
FE5
330
22
100
AcDbEntity
  8
1
 62
     3
100
AcDbText
 10
1023.996817402616
 20
388.0495347310505
 30
0.0
 40
0.5000000000000028
  1
00
 11
1023.996817402616
 21
388.2995347310505
 31
0.0
100
AcDbText
 73
     2
1001
AcDbBlockRepETag
1070
     1
1071
       30
1005
FE5
  0
TEXT
  5
FE6
330
22
100
AcDbEntity
  8
1
 62
     4
100
AcDbText
 10
1005.244754865618
 20
385.7995347310504
 30
0.0
 40
0.800000000000004
  1
 08GS 61  .3
100
AcDbText
1001
AcDbBlockRepETag
1070
     1
1071
       31
1005
FE6
  0
TEXT
  5
FE7
330
22
100
AcDbEntity
  8
1
 62
     4
100
AcDbText
 10
1004.567459918556
 20
384.5995347310505
 30
0.0
 40
0.800000000000004
  1
 Outline drawing
100
AcDbText
1001
AcDbBlockRepETag
1070
     1
1071
       32
1005
FE7
  0
TEXT
  5
FE9
330
22
100
AcDbEntity
  8
1
 62
     2
100
AcDbText
 10
1004.982865544063
 20
388.0995347310505
 30
0.0
 40
0.4000000000000023
  1
Conformed :
 11
1004.982865544063
 21
388.2995347310505
 31
0.0
100
AcDbText
 73
     2
1001
AcDbBlockRepETag
1070
     1
1071
       34
1005
FE9
  0
TEXT
  5
FEA
330
22
100
AcDbEntity
  8
1
 62
     2
100
AcDbText
 10
998.1828655440635
 20
388.0995347310505
 30
0.0
 40
0.4000000000000023
  1
Checked :
 11
998.1828655440635
 21
388.2995347310505
 31
0.0
100
AcDbText
 73
     2
1001
AcDbBlockRepETag
1070
     1
1071
       35
1005
FEA
  0
TEXT
  5
FEB
330
22
100
AcDbEntity
  8
1
 62
     2
100
AcDbText
 10
991.3828655440635
 20
388.0995347310505
 30
0.0
 40
0.4000000000000023
  1
Drawn :  15.04.09 RM
 11
991.3828655440635
 21
388.2995347310505
 31
0.0
100
AcDbText
 73
     2
1001
AcDbBlockRepETag
1070
     1
1071
       36
1005
FEB
  0
LINE
  5
FEC
330
22
100
AcDbEntity
  8
0
  6
Continuous
 62
   255
100
AcDbLine
 10
950.3828722621433
 20
393.7995347310506
 30
0.0
 11
950.3828722621433
 21
382.7995347310505
 31
0.0
1001
AcDbBlockRepETag
1070
     1
1071
       37
1005
FEC
  0
LINE
  5
FED
330
22
100
AcDbEntity
  8
0
  6
Continuous
 62
   255
100
AcDbLine
 10
950.3828722621433
 20
393.7995347310506
 30
0.0
 11
948.3828722621431
 21
393.7995347310506
 31
0.0
1001
AcDbBlockRepETag
1070
     1
1071
       38
1005
FED
  0
TEXT
  5
FEF
330
22
100
AcDbEntity
  8
1
 62
     2
100
AcDbText
 10
991.1524268347656
 20
389.3878131186061
 30
0.0
 40
0.6000000000000032
  1
General tolerance : %%P0.2mm
 11
991.1524268347656
 21
389.6878131186061
 31
0.0
100
AcDbText
 73
     2
1001
AcDbBlockRepETag
1070
     1
1071
       40
1005
FEF
  0
TEXT
  5
104A
330
22
100
AcDbEntity
  8
1
 62
     4
100
AcDbText
 10
1016.782865544064
 20
384.0995347310504
 30
0.0
 40
1.000000000000085
  1
1.011.08.0009.S11
 72
     1
 11
1021.482865544064
 21
384.5995347310505
 31
0.0
100
AcDbText
 73
     2
  0
TEXT
  5
104B
330
22
100
AcDbEntity
  8
1
 62
     4
100
AcDbText
 10
948.6056437659003
 20
393.3954827008257
 30
0.0
 40
1.000000000000085
  1
1.011.08.0009.S11
 50
270.0
 72
     1
 11
949.1056437659004
 21
388.6954827008253
 31
0.0
100
AcDbText
 73
     2
  0
LINE
  5
16E2
330
22
100
AcDbEntity
  8
1
 62
     2
100
AcDbLine
 10
995.5883202871945
 20
419.9568965323476
 30
0.0
 11
995.5883202871945
 21
424.4562965323472
 31
0.0
  0
SOLID
  5
16E3
330
22
100
AcDbEntity
  8
1
 62
     2
100
AcDbTrace
 10
995.5883202871945
 20
419.9568965323476
 30
0.0
 11
995.4973202871945
 21
420.6568965323477
 31
0.0
 12
995.6793202871946
 22
420.6568965323477
 32
0.0
 13
995.6793202871946
 23
420.6568965323477
 33
0.0
  0
TEXT
  5
16E4
330
22
100
AcDbEntity
  8
1
 62
     3
100
AcDbText
 10
995.3230517893114
 20
421.0374142785504
 30
0.0
 40
0.7000000000000002
  1
%%C1.1
 50
90.0
100
AcDbText
  0
TEXT
  5
16E6
330
22
100
AcDbEntity
  8
1
 62
     3
100
AcDbText
 10
995.2058853446873
 20
422.7022903658379
 30
0.0
 40
0.4900000000000003
  1
%%P0.02
 50
90.0
100
AcDbText
  0
ENDSEC
  0
SECTION
  2
OBJECTS
  0
DICTIONARY
  5
C
330
0
100
AcDbDictionary
281
     1
  3
ACAD_COLOR
350
1B
  3
ACAD_GROUP
350
D
  3
ACAD_LAYOUT
350
19
  3
ACAD_MATERIAL
350
1A
  3
ACAD_MLEADERSTYLE
350
1172
  3
ACAD_MLINESTYLE
350
16
  3
ACAD_PLOTSETTINGS
350
18
  3
ACAD_PLOTSTYLENAME
350
E
  3
ACAD_SCALELIST
350
1150
  3
ACAD_TABLESTYLE
350
1C
  3
ACAD_VISUALSTYLE
350
113F
  3
ACDB_RECOMPOSE_DATA
350
15D4
  3
AcDbVariableDictionary
350
B3F
  0
DICTIONARY
  5
14E9
330
10
100
AcDbDictionary
280
     1
281
     1
  3
ADSK_XREC_LAYER_RECONCILED
360
14EA
  0
DICTIONARY
  5
14EB
330
31
100
AcDbDictionary
280
     1
281
     1
  3
ADSK_XREC_LAYER_RECONCILED
360
14EC
  0
DICTIONARY
  5
A77
330
22
100
AcDbDictionary
280
     1
281
     1
  3
ACAD_SORTENTS
360
A78
  0
DICTIONARY
  5
1495
330
D0F
100
AcDbDictionary
280
     1
281
     1
  3
ACAD_BREAKDATA
360
14A0
  0
DICTIONARY
  5
16F1
330
D11
100
AcDbDictionary
280
     1
281
     1
  3
ACAD_BREAKDATA
360
16FC
  0
DICTIONARY
  5
171C
330
D14
100
AcDbDictionary
280
     1
281
     1
  3
ACAD_BREAKDATA
360
1726
  0
DICTIONARY
  5
1744
330
D15
100
AcDbDictionary
280
     1
281
     1
  3
ACAD_BREAKDATA
360
174E
  0
DICTIONARY
  5
14C0
330
D16
100
AcDbDictionary
280
     1
281
     1
  3
ACAD_BREAKDATA
360
14CA
  0
DICTIONARY
  5
1B
102
{ACAD_REACTORS
330
C
102
}
330
C
100
AcDbDictionary
281
     1
  0
DICTIONARY
  5
D
102
{ACAD_REACTORS
330
C
102
}
330
C
100
AcDbDictionary
281
     1
  0
DICTIONARY
  5
19
102
{ACAD_REACTORS
330
C
102
}
330
C
100
AcDbDictionary
281
     1
  3
Layout1
350
21
  3
Model
350
25
  0
DICTIONARY
  5
1A
102
{ACAD_REACTORS
330
C
102
}
330
C
100
AcDbDictionary
281
     1
  3
ByBlock
350
B83
  3
ByLayer
350
B8C
  3
Global
350
B95
  0
DICTIONARY
  5
1172
102
{ACAD_REACTORS
330
C
102
}
330
C
100
AcDbDictionary
281
     1
  3
Standard
350
1173
  0
DICTIONARY
  5
16
102
{ACAD_REACTORS
330
C
102
}
330
C
100
AcDbDictionary
281
     1
  3
Standard
350
17
  0
DICTIONARY
  5
18
102
{ACAD_REACTORS
330
C
102
}
330
C
100
AcDbDictionary
281
     1
  0
ACDBDICTIONARYWDFLT
  5
E
102
{ACAD_REACTORS
330
C
102
}
330
C
100
AcDbDictionary
281
     1
  3
Normal
350
F
100
AcDbDictionaryWithDefault
340
F
  0
DICTIONARY
  5
1150
102
{ACAD_REACTORS
330
C
102
}
330
C
100
AcDbDictionary
281
     1
  3
A0
350
1151
  3
A1
350
1152
  3
A2
350
1153
  3
A3
350
1154
  3
A4
350
1155
  3
A5
350
1156
  3
A6
350
1157
  3
A7
350
1158
  3
A8
350
1159
  3
A9
350
115A
  3
B0
350
115B
  3
B1
350
115C
  3
B2
350
115D
  3
B3
350
115E
  3
B4
350
115F
  3
B5
350
1160
  3
B6
350
1161
  3
B7
350
1162
  3
B8
350
1163
  3
B9
350
1164
  3
C0
350
1165
  3
C1
350
1166
  3
C2
350
1167
  3
C3
350
1168
  3
C4
350
1169
  3
C5
350
116A
  3
C6
350
116B
  3
C7
350
116C
  3
C8
350
116D
  3
C9
350
116E
  3
D0
350
116F
  3
D1
350
1170
  3
D2
350
1171
  0
DICTIONARY
  5
1C
102
{ACAD_REACTORS
330
C
102
}
330
C
100
AcDbDictionary
281
     1
  3
Standard
350
1D
  0
DICTIONARY
  5
113F
102
{ACAD_REACTORS
330
C
102
}
330
C
100
AcDbDictionary
281
     1
  3
2dWireframe
350
1145
  3
3D Hidden
350
1147
  3
3dWireframe
350
1146
  3
Basic
350
1144
  3
Brighten
350
114B
  3
ColorChange
350
114F
  3
Conceptual
350
1148
  3
Dim
350
114A
  3
Facepattern
350
114E
  3
Flat
350
1140
  3
FlatWithEdges
350
1141
  3
Gouraud
350
1142
  3
GouraudWithEdges
350
1143
  3
Linepattern
350
114D
  3
Realistic
350
1149
  3
Thicken
350
114C
  0
XRECORD
  5
15D4
102
{ACAD_REACTORS
330
C
102
}
330
C
100
AcDbXrecord
280
     1
 90
        1
330
1D
  0
DICTIONARY
  5
B3F
102
{ACAD_REACTORS
330
C
102
}
330
C
100
AcDbDictionary
281
     1
  3
CANNOSCALE
350
1519
  3
CMLEADERSTYLE
350
1518
  3
CTABLESTYLE
350
B40
  3
DIMASSOC
350
113C
  3
INDEXCTL
350
151B
  3
LIGHTINGUNITS
350
1781
  3
MSLTSCALE
350
1780
  3
PROJECTNAME
350
113D
  3
SORTENTS
350
151A
  0
XRECORD
  5
14EA
102
{ACAD_REACTORS
330
14E9
102
}
330
14E9
100
AcDbXrecord
280
     1
290
     1
  0
XRECORD
  5
14EC
102
{ACAD_REACTORS
330
14EB
102
}
330
14EB
100
AcDbXrecord
280
     1
290
     1
  0
SORTENTSTABLE
  5
A78
102
{ACAD_REACTORS
330
A77
102
}
330
A77
100
AcDbSortentsTable
330
22
331
C10
  5
C63
331
CC5
  5
D18
331
D04
  5
FEB
331
C18
  5
C6B
331
C4F
  5
CA5
331
D11
  5
1028
331
BD9
  5
C2C
331
C8E
  5
CE4
331
CCD
  5
D20
331
BE1
  5
C34
331
C20
  5
C73
331
C57
  5
CAD
331
C5F
  5
CB5
331
C9E
  5
CF1
331
BE9
  5
C3C
331
C28
  5
C7B
331
CD5
  5
D28
331
CDD
  5
D30
331
C67
  5
CBD
331
CA6
  5
CF9
331
D29
  5
1040
331
FC9
  5
C03
331
FD1
  5
C0B
331
D31
  5
1048
331
BF1
  5
C44
331
C30
  5
C83
331
CE5
  5
FCC
331
C38
  5
C8B
331
C6F
  5
CC5
331
BF9
  5
C4C
331
CAE
  5
D01
331
CB6
  5
D09
331
CED
  5
FD4
331
C01
  5
C54
331
C40
  5
C93
331
C77
  5
CCD
331
D1C
  5
1033
331
D24
  5
103B
331
D0E
  5
1025
331
C7F
  5
CD5
331
C09
  5
C5C
331
CBE
  5
D11
331
CF5
  5
FDC
331
C87
  5
CDD
331
CFD
  5
FE4
331
FD9
  5
C13
331
FE1
  5
C1B
331
FE9
  5
C23
331
C11
  5
C64
331
C48
  5
C9E
331
D05
  5
FEC
331
C50
  5
CA6
331
C8F
  5
CE5
331
D12
  5
1029
331
BDA
  5
C2D
331
C19
  5
C6C
331
CC6
  5
D19
331
CCE
  5
D21
331
C21
  5
C74
331
C58
  5
CAE
331
BE2
  5
C35
331
CD6
  5
D29
331
C29
  5
C7C
331
C60
  5
CB6
331
BEA
  5
C3D
331
C9F
  5
CF2
331
CA7
  5
CFA
331
CDE
  5
D31
331
D2A
  5
1041
331
FCA
  5
C04
331
FD2
  5
C0C
331
D32
  5
1049
331
BF2
  5
C45
331
C31
  5
C84
331
C68
  5
CBE
331
C70
  5
CC6
331
CAF
  5
D02
331
BFA
  5
C4D
331
C39
  5
C8C
331
CE6
  5
FCD
331
CEE
  5
FD5
331
D1D
  5
1034
331
C78
  5
CCE
331
CB7
  5
D0A
331
C02
  5
C55
331
C41
  5
C94
331
CF6
  5
FDD
331
D25
  5
103C
331
D0F
  5
1026
331
C80
  5
CD6
331
C0A
  5
C5D
331
CBF
  5
D12
331
CFE
  5
FE5
331
FDA
  5
C14
331
FE2
  5
C1C
331
FEA
  5
C24
331
C12
  5
C65
331
C49
  5
C9F
331
C88
  5
CDE
331
C90
  5
CE6
331
CC7
  5
D1A
331
C1A
  5
C6D
331
C51
  5
CA7
331
D06
  5
FED
331
D13
  5
102A
331
BDB
  5
C2E
331
CCF
  5
D22
331
BE3
  5
C36
331
C22
  5
C75
331
C59
  5
CAF
331
C61
  5
CB7
331
CA0
  5
CF3
331
BEB
  5
C3E
331
C2A
  5
C7D
331
CD7
  5
D2A
331
CDF
  5
D32
331
D2B
  5
1042
331
FCB
  5
C05
331
FD3
  5
C0D
331
C32
  5
C85
331
C69
  5
CBF
331
BF3
  5
C46
331
CA8
  5
CFB
331
CE7
  5
FCE
331
C3A
  5
C8D
331
C71
  5
CC7
331
BFB
  5
C4E
331
CB0
  5
D03
331
D08
  5
FEF
331
CB8
  5
D0B
331
CEF
  5
FD6
331
C03
  5
C56
331
C42
  5
C95
331
C79
  5
CCF
331
D1E
  5
1035
331
D26
  5
103D
331
C81
  5
CD7
331
C0B
  5
C5E
331
CF7
  5
FDE
331
CFF
  5
FE6
331
FDB
  5
C15
331
FE3
  5
C1D
331
FEB
  5
C25
331
C89
  5
CDF
331
CC0
  5
D13
331
C13
  5
C66
331
C4A
  5
CA0
331
D07
  5
FEE
331
C52
  5
CA8
331
C91
  5
CE7
331
D14
  5
102B
331
BDC
  5
C2F
331
C1B
  5
C6E
331
CC8
  5
D1B
331
CD0
  5
D23
331
C23
  5
C76
331
C5A
  5
CB0
331
BE4
  5
C37
331
C99
  5
CEC
331
CA1
  5
CF4
331
CD8
  5
D2B
331
C2B
  5
C7E
331
C62
  5
CB8
331
BEC
  5
C3F
331
D2C
  5
1043
331
FCC
  5
C06
331
FD4
  5
C0E
331
CA9
  5
CFC
331
CE0
  5
FC7
331
BF4
  5
C47
331
C33
  5
C86
331
C6A
  5
CC0
331
C72
  5
CC8
331
CB1
  5
D04
331
BFC
  5
C4F
331
C3B
  5
C8E
331
CE8
  5
FCF
331
CF0
  5
FD7
331
D1F
  5
1036
331
D09
  5
1020
331
C43
  5
C99
331
C7A
  5
CD0
331
C04
  5
C57
331
CB9
  5
D0C
331
CF8
  5
FDF
331
C82
  5
CD8
331
D27
  5
103E
331
C0C
  5
C5F
331
FDC
  5
C16
331
FE4
  5
C1E
331
FEC
  5
C26
331
CC1
  5
D14
331
D00
  5
FE7
331
C14
  5
C67
331
C4B
  5
CA1
331
C8A
  5
CE0
331
C92
  5
CE8
331
CC9
  5
D1C
331
C1C
  5
C6F
331
C53
  5
CA9
331
BDD
  5
C30
331
D15
  5
102C
331
C9A
  5
CED
331
CD1
  5
D24
331
BE5
  5
C38
331
C24
  5
C77
331
C5B
  5
CB1
331
C63
  5
CB9
331
CA2
  5
CF5
331
BED
  5
C40
331
C2C
  5
C7F
331
CD9
  5
D2C
331
D2D
  5
1044
331
FCD
  5
C07
331
FD5
  5
C0F
331
CE1
  5
FC8
331
C34
  5
C87
331
C6B
  5
CC1
331
BF5
  5
C48
331
CAA
  5
CFD
331
CB2
  5
D05
331
CE9
  5
FD0
331
C3C
  5
C8F
331
C73
  5
CC9
331
D18
  5
102F
331
BFD
  5
C50
331
D0A
  5
1021
331
CBA
  5
D0D
331
CF1
  5
FD8
331
C05
  5
C58
331
C44
  5
C9A
331
C7B
  5
CD1
331
D20
  5
1037
331
C83
  5
CD9
331
C0D
  5
C60
331
CF9
  5
FE0
331
FDD
  5
C17
331
FE5
  5
C1F
331
FED
  5
C27
331
D01
  5
FE8
331
C4C
  5
CA2
331
C8B
  5
CE1
331
C15
  5
C68
331
CC2
  5
D15
331
C54
  5
CAA
331
C93
  5
CE9
331
D16
  5
102D
331
BDE
  5
C31
331
C1D
  5
C70
331
CCA
  5
D1D
331
CD2
  5
D25
331
C25
  5
C78
331
C5C
  5
CB2
331
BE6
  5
C39
331
C9B
  5
CEE
331
CA3
  5
CF6
331
CDA
  5
D2D
331
BEE
  5
C41
331
C2D
  5
C80
331
C64
  5
CBA
331
D2E
  5
1045
331
FCE
  5
C08
331
FD6
  5
C10
331
CAB
  5
CFE
331
CE2
  5
FC9
331
BF6
  5
C49
331
C35
  5
C88
331
C6C
  5
CC2
331
D19
  5
1030
331
C74
  5
CCA
331
CB3
  5
D06
331
BFE
  5
C51
331
C3D
  5
C90
331
CEA
  5
FD1
331
CF2
  5
FD9
331
D21
  5
1038
331
D0B
  5
1022
331
C45
  5
C9B
331
C7C
  5
CD2
331
C06
  5
C59
331
CBB
  5
D0E
331
CFA
  5
FE1
331
C84
  5
CDA
331
C0E
  5
C61
331
FDE
  5
C18
331
FE6
  5
C20
331
CC3
  5
D16
331
D02
  5
FE9
331
C16
  5
C69
331
C4D
  5
CA3
331
BD7
  5
C2A
331
C8C
  5
CE2
331
C94
  5
CEA
331
CCB
  5
D1E
331
C1E
  5
C71
331
C55
  5
CAB
331
BDF
  5
C32
331
D17
  5
102E
331
C5D
  5
CB3
331
C9C
  5
CEF
331
BE7
  5
C3A
331
C26
  5
C79
331
CD3
  5
D26
331
C65
  5
CBB
331
CA4
  5
CF7
331
BEF
  5
C42
331
C2E
  5
C81
331
CDB
  5
D2E
331
D2F
  5
1046
331
FC7
  5
C01
331
FCF
  5
C09
331
FD7
  5
C11
331
CE3
  5
FCA
331
C36
  5
C89
331
C6D
  5
CC3
331
BF7
  5
C4A
331
CAC
  5
CFF
331
CB4
  5
D07
331
CEB
  5
FD2
331
BFF
  5
C52
331
C3E
  5
C91
331
C75
  5
CCB
331
D1A
  5
1031
331
D22
  5
1039
331
D0C
  5
1023
331
CBC
  5
D0F
331
CF3
  5
FDA
331
C07
  5
C5A
331
C46
  5
C9C
331
C7D
  5
CD3
331
C85
  5
CDB
331
C0F
  5
C62
331
CFB
  5
FE2
331
FDF
  5
C19
331
FE7
  5
C21
331
FEF
  5
C29
331
D03
  5
FEA
331
C4E
  5
CA4
331
C8D
  5
CE3
331
D10
  5
1027
331
BD8
  5
C2B
331
C17
  5
C6A
331
CC4
  5
D17
331
CCC
  5
D1F
331
C56
  5
CAC
331
C95
  5
CEB
331
BE0
  5
C33
331
C1F
  5
C72
331
CD4
  5
D27
331
C27
  5
C7A
331
C5E
  5
CB4
331
BE8
  5
C3B
331
C9D
  5
CF0
331
CA5
  5
CF8
331
CDC
  5
D2F
331
C2F
  5
C82
331
C66
  5
CBC
331
D28
  5
103F
331
FC8
  5
C02
331
FD0
  5
C0A
331
BF0
  5
C43
331
D30
  5
1047
331
C6E
  5
CC4
331
CAD
  5
D00
331
BF8
  5
C4B
331
C37
  5
C8A
331
CE4
  5
FCB
331
D1B
  5
1032
331
C76
  5
CCC
331
CB5
  5
D08
331
C00
  5
C53
331
C3F
  5
C92
331
CEC
  5
FD3
331
CF4
  5
FDB
331
D23
  5
103A
331
D0D
  5
1024
331
C47
  5
C9D
331
C7E
  5
CD4
331
C08
  5
C5B
331
CBD
  5
D10
331
CFC
  5
FE3
331
C86
  5
CDC
331
FD8
  5
C12
331
FE0
  5
C1A
  0
BREAKDATA
  5
14A0
102
{ACAD_REACTORS
330
1495
102
}
330
1495
100
AcDbBreakData
 70
     0
330
D0F
 90
        1
100
AcDbBreakPointRef
 71
     0
 72
     0
 91
       -1
 10
0.0
 20
0.0
 30
0.0
 11
0.0
 21
0.0
 31
0.0
331
D0B
 73
     2
 92
        0
1001
ACAD
1000
AcRTDxfName
1000
BREAKDATA
  0
BREAKDATA
  5
16FC
102
{ACAD_REACTORS
330
16F1
102
}
330
16F1
100
AcDbBreakData
 70
     0
330
D11
 90
        1
100
AcDbBreakPointRef
 71
     2
 72
     0
 91
        1
 10
995.7327494722759
 20
420.1568965323476
 30
0.0
 11
995.4420515419187
 21
420.1568965323476
 31
0.0
  0
BREAKDATA
  5
1726
102
{ACAD_REACTORS
330
171C
102
}
330
171C
100
AcDbBreakData
 70
     0
330
D14
 90
        1
100
AcDbBreakPointRef
 71
     2
 72
     0
 91
        0
 10
995.1383202871946
 20
416.7577530254892
 30
0.0
 11
995.1383202871946
 21
416.2798182273504
 31
0.0
  0
BREAKDATA
  5
174E
102
{ACAD_REACTORS
330
1744
102
}
330
1744
100
AcDbBreakData
 70
     0
330
D15
 90
        1
100
AcDbBreakPointRef
 71
     2
 72
     0
 91
        1
 10
996.0383202871943
 20
416.7694664336137
 30
0.0
 11
996.0383202871943
 21
416.281526911957
 31
0.0
  0
BREAKDATA
  5
14CA
102
{ACAD_REACTORS
330
14C0
102
}
330
14C0
100
AcDbBreakData
 70
     0
330
D16
 90
        1
100
AcDbBreakPointRef
 71
     0
 72
     0
 91
       -1
 10
0.0
 20
0.0
 30
0.0
 11
0.0
 21
0.0
 31
0.0
331
D12
 73
     2
 92
        0
1001
ACAD
1000
AcRTDxfName
1000
BREAKDATA
  0
LAYOUT
  5
21
102
{ACAD_REACTORS
330
19
102
}
330
19
100
AcDbPlotSettings
  1

  2
HP CLJ 5550DN PCL 6
  4

  6

 40
0.0
 41
0.0
 42
0.0
 43
0.0
 44
0.0
 45
0.0
 46
0.0
 47
0.0
 48
0.0
 49
0.0
140
0.0
141
0.0
142
1.0
143
1.0
 70
   688
 72
     0
 73
     0
 74
     5
  7
C:\Documents and Settings\rajitha.minkuri\Application Data\Autodesk\AutoCAD 2006\R16.2\enu\Plot Styles\5e4.ctb
 75
    16
147
1.0
 76
     0
 77
     2
 78
   300
148
0.0
149
0.0
100
AcDbLayout
  1
Layout1
 70
     1
 71
     1
 10
0.0
 20
0.0
 11
12.0
 21
9.0
 12
0.0
 22
0.0
 32
0.0
 14
1.000000000000000E+20
 24
1.000000000000000E+20
 34
1.000000000000000E+20
 15
-1.000000000000000E+20
 25
-1.000000000000000E+20
 35
-1.000000000000000E+20
146
0.0
 13
0.0
 23
0.0
 33
0.0
 16
1.0
 26
0.0
 36
0.0
 17
0.0
 27
1.0
 37
0.0
 76
     0
330
1E
  0
LAYOUT
  5
25
102
{ACAD_REACTORS
330
19
102
}
330
19
100
AcDbPlotSettings
  1

  2
HP CLJ 5550DN PCL 6
  4
Letter
  6

 40
5.027082920074462
 41
5.027070522308346
 42
5.027099609375
 43
5.027084350585936
 44
279.3999938964844
 45
215.8999938964844
 46
0.0
 47
0.0
 48
0.0
 49
0.0
140
0.0
141
0.0
142
1.0
143
9.941580069375456
 70
 11952
 72
     0
 73
     0
 74
     0
  7
C:\Documents and Settings\rajitha.minkuri\Application Data\Autodesk\AutoCAD 2006\R16.2\enu\Plot Styles\5e4.ctb
 75
     0
147
0.1005876322497719
 76
     0
 77
     2
 78
   300
148
-23746.17868761603
149
-9714.994526021342
100
AcDbLayout
  1
Model
 70
     1
 71
     0
 10
0.0
 20
0.0
 11
12.0
 21
9.0
 12
0.0
 22
0.0
 32
0.0
 14
0.0
 24
0.0
 34
0.0
 15
0.0
 25
0.0
 35
0.0
146
0.0
 13
0.0
 23
0.0
 33
0.0
 16
1.0
 26
0.0
 36
0.0
 17
0.0
 27
1.0
 37
0.0
 76
     0
330
22
331
16B9
1001
ACAD_PSEXT
1000
HP CLJ 5550DN PCL 6
1000
HP Color LaserJet 5550 PCL 6
1000
hpcolorLaserJet5550
1000

1070
     0
  0
MATERIAL
  5
B83
102
{ACAD_XDICTIONARY
360
B84
102
}
102
{ACAD_REACTORS
330
1A
102
}
330
1A
100
AcDbMaterial
  1
ByBlock
 72
     0
 43
0.0208333333333333
 43
0.0
 43
0.0
 43
0.0
 43
0.0
 43
0.0208333333333333
 43
0.0
 43
0.0
 43
0.0
 43
0.0
 43
1.0
 43
0.0
 43
0.0
 43
0.0
 43
0.0
 43
1.0
 77
     0
 47
0.0208333333333333
 47
0.0
 47
0.0
 47
0.0
 47
0.0
 47
0.0208333333333333
 47
0.0
 47
0.0
 47
0.0
 47
0.0
 47
1.0
 47
0.0
 47
0.0
 47
0.0
 47
0.0
 47
1.0
171
     0
 49
0.0208333333333333
 49
0.0
 49
0.0
 49
0.0
 49
0.0
 49
0.0208333333333333
 49
0.0
 49
0.0
 49
0.0
 49
0.0
 49
1.0
 49
0.0
 49
0.0
 49
0.0
 49
0.0
 49
1.0
175
     0
142
0.0208333333333333
142
0.0
142
0.0
142
0.0
142
0.0
142
0.0208333333333333
142
0.0
142
0.0
142
0.0
142
0.0
142
1.0
142
0.0
142
0.0
142
0.0
142
0.0
142
1.0
179
     0
144
0.0208333333333333
144
0.0
144
0.0
144
0.0
144
0.0
144
0.0208333333333333
144
0.0
144
0.0
144
0.0
144
0.0
144
1.0
144
0.0
144
0.0
144
0.0
144
0.0
144
1.0
147
0.0208333333333333
147
0.0
147
0.0
147
0.0
147
0.0
147
0.0208333333333333
147
0.0
147
0.0
147
0.0
147
0.0
147
1.0
147
0.0
147
0.0
147
0.0
147
0.0
147
1.0
  0
MATERIAL
  5
B8C
102
{ACAD_XDICTIONARY
360
B8D
102
}
102
{ACAD_REACTORS
330
1A
102
}
330
1A
100
AcDbMaterial
  1
ByLayer
 72
     0
 43
0.0208333333333333
 43
0.0
 43
0.0
 43
0.0
 43
0.0
 43
0.0208333333333333
 43
0.0
 43
0.0
 43
0.0
 43
0.0
 43
1.0
 43
0.0
 43
0.0
 43
0.0
 43
0.0
 43
1.0
 77
     0
 47
0.0208333333333333
 47
0.0
 47
0.0
 47
0.0
 47
0.0
 47
0.0208333333333333
 47
0.0
 47
0.0
 47
0.0
 47
0.0
 47
1.0
 47
0.0
 47
0.0
 47
0.0
 47
0.0
 47
1.0
171
     0
 49
0.0208333333333333
 49
0.0
 49
0.0
 49
0.0
 49
0.0
 49
0.0208333333333333
 49
0.0
 49
0.0
 49
0.0
 49
0.0
 49
1.0
 49
0.0
 49
0.0
 49
0.0
 49
0.0
 49
1.0
175
     0
142
0.0208333333333333
142
0.0
142
0.0
142
0.0
142
0.0
142
0.0208333333333333
142
0.0
142
0.0
142
0.0
142
0.0
142
1.0
142
0.0
142
0.0
142
0.0
142
0.0
142
1.0
179
     0
144
0.0208333333333333
144
0.0
144
0.0
144
0.0
144
0.0
144
0.0208333333333333
144
0.0
144
0.0
144
0.0
144
0.0
144
1.0
144
0.0
144
0.0
144
0.0
144
0.0
144
1.0
147
0.0208333333333333
147
0.0
147
0.0
147
0.0
147
0.0
147
0.0208333333333333
147
0.0
147
0.0
147
0.0
147
0.0
147
1.0
147
0.0
147
0.0
147
0.0
147
0.0
147
1.0
  0
MATERIAL
  5
B95
102
{ACAD_XDICTIONARY
360
B96
102
}
102
{ACAD_REACTORS
330
1A
102
}
330
1A
100
AcDbMaterial
  1
Global
 72
     0
 43
0.0208333333333333
 43
0.0
 43
0.0
 43
0.0
 43
0.0
 43
0.0208333333333333
 43
0.0
 43
0.0
 43
0.0
 43
0.0
 43
1.0
 43
0.0
 43
0.0
 43
0.0
 43
0.0
 43
1.0
 77
     0
 47
0.0208333333333333
 47
0.0
 47
0.0
 47
0.0
 47
0.0
 47
0.0208333333333333
 47
0.0
 47
0.0
 47
0.0
 47
0.0
 47
1.0
 47
0.0
 47
0.0
 47
0.0
 47
0.0
 47
1.0
171
     0
 49
0.0208333333333333
 49
0.0
 49
0.0
 49
0.0
 49
0.0
 49
0.0208333333333333
 49
0.0
 49
0.0
 49
0.0
 49
0.0
 49
1.0
 49
0.0
 49
0.0
 49
0.0
 49
0.0
 49
1.0
175
     0
142
0.0208333333333333
142
0.0
142
0.0
142
0.0
142
0.0
142
0.0208333333333333
142
0.0
142
0.0
142
0.0
142
0.0
142
1.0
142
0.0
142
0.0
142
0.0
142
0.0
142
1.0
179
     0
144
0.0208333333333333
144
0.0
144
0.0
144
0.0
144
0.0
144
0.0208333333333333
144
0.0
144
0.0
144
0.0
144
0.0
144
1.0
144
0.0
144
0.0
144
0.0
144
0.0
144
1.0
147
0.0208333333333333
147
0.0
147
0.0
147
0.0
147
0.0
147
0.0208333333333333
147
0.0
147
0.0
147
0.0
147
0.0
147
1.0
147
0.0
147
0.0
147
0.0
147
0.0
147
1.0
  0
MLEADERSTYLE
  5
1173
102
{ACAD_REACTORS
330
1172
102
}
330
1172
100
AcDbMLeaderStyle
170
     2
171
     1
172
     0
 90
        2
 40
0.0
 41
0.0
173
     1
 91
-1056964608
340
13
 92
       -2
290
     1
 42
0.09
291
     1
 43
0.36
  3
Standard
 44
0.18
300

342
11
174
     1
178
     6
175
     1
176
     0
 93
-1056964608
 45
0.18
292
     0
297
     0
 46
0.18
 94
-1056964608
 47
1.0
 49
1.0
140
1.0
293
     1
141
0.0
294
     1
177
     0
142
1.0
295
     0
296
     0
143
0.125
1001
ACAD_MLEADERVER
1070
     2
1001
ACAD
1000
AcRTDxfName
1000
MLEADERSTYLE
  0
MLINESTYLE
  5
17
102
{ACAD_REACTORS
330
16
102
}
330
16
100
AcDbMlineStyle
  2
STANDARD
 70
     0
  3

 62
   256
 51
90.0
 52
90.0
 71
     2
 49
0.5
 62
   256
  6
BYLAYER
 49
-0.5
 62
   256
  6
BYLAYER
  0
ACDBPLACEHOLDER
  5
F
102
{ACAD_REACTORS
330
E
102
}
330
E
  0
SCALE
  5
1151
102
{ACAD_REACTORS
330
1150
102
}
330
1150
100
AcDbScale
 70
     0
300
1:1
140
1.0
141
1.0
290
     1
1001
ACAD
1000
AcRTDxfName
1000
SCALE
  0
SCALE
  5
1152
102
{ACAD_REACTORS
330
1150
102
}
330
1150
100
AcDbScale
 70
     0
300
1:2
140
1.0
141
2.0
290
     0
1001
ACAD
1000
AcRTDxfName
1000
SCALE
  0
SCALE
  5
1153
102
{ACAD_REACTORS
330
1150
102
}
330
1150
100
AcDbScale
 70
     0
300
1:4
140
1.0
141
4.0
290
     0
1001
ACAD
1000
AcRTDxfName
1000
SCALE
  0
SCALE
  5
1154
102
{ACAD_REACTORS
330
1150
102
}
330
1150
100
AcDbScale
 70
     0
300
1:5
140
1.0
141
5.0
290
     0
1001
ACAD
1000
AcRTDxfName
1000
SCALE
  0
SCALE
  5
1155
102
{ACAD_REACTORS
330
1150
102
}
330
1150
100
AcDbScale
 70
     0
300
1:8
140
1.0
141
8.0
290
     0
1001
ACAD
1000
AcRTDxfName
1000
SCALE
  0
SCALE
  5
1156
102
{ACAD_REACTORS
330
1150
102
}
330
1150
100
AcDbScale
 70
     0
300
1:10
140
1.0
141
10.0
290
     0
1001
ACAD
1000
AcRTDxfName
1000
SCALE
  0
SCALE
  5
1157
102
{ACAD_REACTORS
330
1150
102
}
330
1150
100
AcDbScale
 70
     0
300
1:16
140
1.0
141
16.0
290
     0
1001
ACAD
1000
AcRTDxfName
1000
SCALE
  0
SCALE
  5
1158
102
{ACAD_REACTORS
330
1150
102
}
330
1150
100
AcDbScale
 70
     0
300
1:20
140
1.0
141
20.0
290
     0
1001
ACAD
1000
AcRTDxfName
1000
SCALE
  0
SCALE
  5
1159
102
{ACAD_REACTORS
330
1150
102
}
330
1150
100
AcDbScale
 70
     0
300
1:30
140
1.0
141
30.0
290
     0
1001
ACAD
1000
AcRTDxfName
1000
SCALE
  0
SCALE
  5
115A
102
{ACAD_REACTORS
330
1150
102
}
330
1150
100
AcDbScale
 70
     0
300
1:40
140
1.0
141
40.0
290
     0
1001
ACAD
1000
AcRTDxfName
1000
SCALE
  0
SCALE
  5
115B
102
{ACAD_REACTORS
330
1150
102
}
330
1150
100
AcDbScale
 70
     0
300
1:50
140
1.0
141
50.0
290
     0
1001
ACAD
1000
AcRTDxfName
1000
SCALE
  0
SCALE
  5
115C
102
{ACAD_REACTORS
330
1150
102
}
330
1150
100
AcDbScale
 70
     0
300
1:100
140
1.0
141
100.0
290
     0
1001
ACAD
1000
AcRTDxfName
1000
SCALE
  0
SCALE
  5
115D
102
{ACAD_REACTORS
330
1150
102
}
330
1150
100
AcDbScale
 70
     0
300
2:1
140
2.0
141
1.0
290
     0
1001
ACAD
1000
AcRTDxfName
1000
SCALE
  0
SCALE
  5
115E
102
{ACAD_REACTORS
330
1150
102
}
330
1150
100
AcDbScale
 70
     0
300
4:1
140
4.0
141
1.0
290
     0
1001
ACAD
1000
AcRTDxfName
1000
SCALE
  0
SCALE
  5
115F
102
{ACAD_REACTORS
330
1150
102
}
330
1150
100
AcDbScale
 70
     0
300
8:1
140
8.0
141
1.0
290
     0
1001
ACAD
1000
AcRTDxfName
1000
SCALE
  0
SCALE
  5
1160
102
{ACAD_REACTORS
330
1150
102
}
330
1150
100
AcDbScale
 70
     0
300
10:1
140
10.0
141
1.0
290
     0
1001
ACAD
1000
AcRTDxfName
1000
SCALE
  0
SCALE
  5
1161
102
{ACAD_REACTORS
330
1150
102
}
330
1150
100
AcDbScale
 70
     0
300
100:1
140
100.0
141
1.0
290
     0
1001
ACAD
1000
AcRTDxfName
1000
SCALE
  0
SCALE
  5
1162
102
{ACAD_REACTORS
330
1150
102
}
330
1150
100
AcDbScale
 70
     0
300
1/128" = 1'-0"
140
0.0078125
141
12.0
290
     0
1001
ACAD
1000
AcRTDxfName
1000
SCALE
  0
SCALE
  5
1163
102
{ACAD_REACTORS
330
1150
102
}
330
1150
100
AcDbScale
 70
     0
300
1/64" = 1'-0"
140
0.015625
141
12.0
290
     0
1001
ACAD
1000
AcRTDxfName
1000
SCALE
  0
SCALE
  5
1164
102
{ACAD_REACTORS
330
1150
102
}
330
1150
100
AcDbScale
 70
     0
300
1/32" = 1'-0"
140
0.03125
141
12.0
290
     0
1001
ACAD
1000
AcRTDxfName
1000
SCALE
  0
SCALE
  5
1165
102
{ACAD_REACTORS
330
1150
102
}
330
1150
100
AcDbScale
 70
     0
300
1/16" = 1'-0"
140
0.0625
141
12.0
290
     0
1001
ACAD
1000
AcRTDxfName
1000
SCALE
  0
SCALE
  5
1166
102
{ACAD_REACTORS
330
1150
102
}
330
1150
100
AcDbScale
 70
     0
300
3/32" = 1'-0"
140
0.09375
141
12.0
290
     0
1001
ACAD
1000
AcRTDxfName
1000
SCALE
  0
SCALE
  5
1167
102
{ACAD_REACTORS
330
1150
102
}
330
1150
100
AcDbScale
 70
     0
300
1/8" = 1'-0"
140
0.125
141
12.0
290
     0
1001
ACAD
1000
AcRTDxfName
1000
SCALE
  0
SCALE
  5
1168
102
{ACAD_REACTORS
330
1150
102
}
330
1150
100
AcDbScale
 70
     0
300
3/16" = 1'-0"
140
0.1875
141
12.0
290
     0
1001
ACAD
1000
AcRTDxfName
1000
SCALE
  0
SCALE
  5
1169
102
{ACAD_REACTORS
330
1150
102
}
330
1150
100
AcDbScale
 70
     0
300
1/4" = 1'-0"
140
0.25
141
12.0
290
     0
1001
ACAD
1000
AcRTDxfName
1000
SCALE
  0
SCALE
  5
116A
102
{ACAD_REACTORS
330
1150
102
}
330
1150
100
AcDbScale
 70
     0
300
3/8" = 1'-0"
140
0.375
141
12.0
290
     0
1001
ACAD
1000
AcRTDxfName
1000
SCALE
  0
SCALE
  5
116B
102
{ACAD_REACTORS
330
1150
102
}
330
1150
100
AcDbScale
 70
     0
300
1/2" = 1'-0"
140
0.5
141
12.0
290
     0
1001
ACAD
1000
AcRTDxfName
1000
SCALE
  0
SCALE
  5
116C
102
{ACAD_REACTORS
330
1150
102
}
330
1150
100
AcDbScale
 70
     0
300
3/4" = 1'-0"
140
0.75
141
12.0
290
     0
1001
ACAD
1000
AcRTDxfName
1000
SCALE
  0
SCALE
  5
116D
102
{ACAD_REACTORS
330
1150
102
}
330
1150
100
AcDbScale
 70
     0
300
1" = 1'-0"
140
1.0
141
12.0
290
     0
1001
ACAD
1000
AcRTDxfName
1000
SCALE
  0
SCALE
  5
116E
102
{ACAD_REACTORS
330
1150
102
}
330
1150
100
AcDbScale
 70
     0
300
1-1/2" = 1'-0"
140
1.5
141
12.0
290
     0
1001
ACAD
1000
AcRTDxfName
1000
SCALE
  0
SCALE
  5
116F
102
{ACAD_REACTORS
330
1150
102
}
330
1150
100
AcDbScale
 70
     0
300
3" = 1'-0"
140
3.0
141
12.0
290
     0
1001
ACAD
1000
AcRTDxfName
1000
SCALE
  0
SCALE
  5
1170
102
{ACAD_REACTORS
330
1150
102
}
330
1150
100
AcDbScale
 70
     0
300
6" = 1'-0"
140
6.0
141
12.0
290
     0
1001
ACAD
1000
AcRTDxfName
1000
SCALE
  0
SCALE
  5
1171
102
{ACAD_REACTORS
330
1150
102
}
330
1150
100
AcDbScale
 70
     0
300
1'-0" = 1'-0"
140
12.0
141
12.0
290
     0
1001
ACAD
1000
AcRTDxfName
1000
SCALE
  0
TABLESTYLE
  5
1D
102
{ACAD_XDICTIONARY
360
15D2
102
}
102
{ACAD_REACTORS
330
1C
102
}
330
1C
100
AcDbTableStyle
  3
Standard
 70
     0
 71
     0
 40
0.06
 41
0.06
280
     0
281
     0
  7
STANDARD
140
0.18
170
     2
 62
     0
 63
     7
283
     0
 90
        4
 91
        0
  1

274
    -2
284
     1
 64
     0
275
    -2
285
     1
 65
     0
276
    -2
286
     1
 66
     0
277
    -2
287
     1
 67
     0
278
    -2
288
     1
 68
     0
279
    -2
289
     1
 69
     0
  7
STANDARD
140
0.25
170
     5
 62
     0
 63
     7
283
     0
 90
        4
 91
        0
  1

274
    -2
284
     1
 64
     0
275
    -2
285
     1
 65
     0
276
    -2
286
     1
 66
     0
277
    -2
287
     1
 67
     0
278
    -2
288
     1
 68
     0
279
    -2
289
     1
 69
     0
  7
STANDARD
140
0.18
170
     5
 62
     0
 63
     7
283
     0
 90
        4
 91
        0
  1

274
    -2
284
     1
 64
     0
275
    -2
285
     1
 65
     0
276
    -2
286
     1
 66
     0
277
    -2
287
     1
 67
     0
278
    -2
288
     1
 68
     0
279
    -2
289
     1
 69
     0
  0
VISUALSTYLE
  5
1145
102
{ACAD_REACTORS
330
113F
102
}
330
113F
100
AcDbVisualStyle
  2
2dWireframe
 70
     4
 71
     0
 72
     2
 73
     0
 90
        0
 40
-0.6
 41
-30.0
 62
     5
 63
     7
 74
     1
 91
        4
 64
     7
 65
   257
 75
     1
175
     1
 42
1.0
 92
        0
 66
   257
 43
1.0
 76
     1
 77
     6
 78
     2
 67
     7
 79
     5
170
     0
171
     0
290
     0
174
     0
 93
        1
 44
0.0
173
     0
291
     0
 45
0.0
1001
ACAD
1000
AcRTDxfName
1000
VISUALSTYLE
  0
VISUALSTYLE
  5
1147
102
{ACAD_REACTORS
330
113F
102
}
330
113F
100
AcDbVisualStyle
  2
3D Hidden
 70
     6
 71
     1
 72
     2
 73
     2
 90
        0
 40
-0.6
 41
-30.0
 62
     5
 63
     7
 74
     2
 91
        2
 64
     7
 65
   257
 75
     2
175
     1
 42
40.0
 92
        0
 66
   257
 43
1.0
 76
     1
 77
     6
 78
     2
 67
     7
 79
     3
170
     0
171
     0
290
     0
174
     0
 93
        1
 44
0.0
173
     0
291
     0
 45
0.0
1001
ACAD
1000
AcRTDxfName
1000
VISUALSTYLE
  0
VISUALSTYLE
  5
1146
102
{ACAD_REACTORS
330
113F
102
}
330
113F
100
AcDbVisualStyle
  2
3dWireframe
 70
     5
 71
     0
 72
     2
 73
     0
 90
        0
 40
-0.6
 41
-30.0
 62
     5
 63
     7
 74
     1
 91
        4
 64
     7
 65
   257
 75
     1
175
     1
 42
1.0
 92
        0
 66
   257
 43
1.0
 76
     1
 77
     6
 78
     2
 67
     7
 79
     5
170
     0
171
     0
290
     0
174
     0
 93
        1
 44
0.0
173
     0
291
     0
 45
0.0
1001
ACAD
1000
AcRTDxfName
1000
VISUALSTYLE
  0
VISUALSTYLE
  5
1144
102
{ACAD_REACTORS
330
113F
102
}
330
113F
100
AcDbVisualStyle
  2
Basic
 70
     7
 71
     1
 72
     0
 73
     1
 90
        0
 40
-0.6
 41
-30.0
 62
     5
 63
     7
 74
     0
 91
        4
 64
     7
 65
   257
 75
     1
175
     1
 42
1.0
 92
        8
 66
     7
 43
1.0
 76
     1
 77
     6
 78
     2
 67
     7
 79
     5
170
     0
171
     0
290
     0
174
     0
 93
        1
 44
0.0
173
     0
291
     1
 45
0.0
1001
ACAD
1000
AcRTDxfName
1000
VISUALSTYLE
  0
VISUALSTYLE
  5
114B
102
{ACAD_REACTORS
330
113F
102
}
330
113F
100
AcDbVisualStyle
  2
Brighten
 70
    12
 71
     2
 72
     2
 73
     0
 90
        0
 40
-0.6
 41
-30.0
 62
     5
 63
     7
 74
     1
 91
        4
 64
     7
 65
   257
 75
     1
175
     1
 42
1.0
 92
        8
 66
     7
 43
1.0
 76
     1
 77
     6
 78
     2
 67
     7
 79
     5
170
     0
171
     0
290
     0
174
     0
 93
        1
 44
50.0
173
     0
291
     1
 45
0.0
1001
ACAD
1000
AcRTDxfName
1000
VISUALSTYLE
  0
VISUALSTYLE
  5
114F
102
{ACAD_REACTORS
330
113F
102
}
330
113F
100
AcDbVisualStyle
  2
ColorChange
 70
    16
 71
     2
 72
     2
 73
     3
 90
        0
 40
-0.6
 41
-30.0
 62
     5
 63
     8
 74
     1
 91
        4
 64
     7
 65
   257
 75
     1
175
     1
 42
1.0
 92
        8
 66
     8
 43
1.0
 76
     1
 77
     6
 78
     2
 67
     7
 79
     5
170
     0
171
     0
290
     0
174
     0
 93
        1
 44
0.0
173
     0
291
     1
 45
0.0
1001
ACAD
1000
AcRTDxfName
1000
VISUALSTYLE
  0
VISUALSTYLE
  5
1148
102
{ACAD_REACTORS
330
113F
102
}
330
113F
100
AcDbVisualStyle
  2
Conceptual
 70
     9
 71
     3
 72
     2
 73
     0
 90
        0
 40
-0.6
 41
-30.0
 62
     5
 63
     7
 74
     2
 91
        2
 64
     7
 65
   257
 75
     1
175
     1
 42
40.0
 92
        8
 66
     7
 43
1.0
 76
     1
 77
     6
 78
     2
 67
     7
 79
     3
170
     0
171
     0
290
     0
174
     0
 93
        1
 44
0.0
173
     0
291
     0
 45
0.0
1001
ACAD
1000
AcRTDxfName
1000
VISUALSTYLE
  0
VISUALSTYLE
  5
114A
102
{ACAD_REACTORS
330
113F
102
}
330
113F
100
AcDbVisualStyle
  2
Dim
 70
    11
 71
     2
 72
     2
 73
     0
 90
        0
 40
-0.6
 41
-30.0
 62
     5
 63
     7
 74
     1
 91
        4
 64
     7
 65
   257
 75
     1
175
     1
 42
1.0
 92
        8
 66
     7
 43
1.0
 76
     1
 77
     6
 78
     2
 67
     7
 79
     5
170
     0
171
     0
290
     0
174
     0
 93
        1
 44
-50.0
173
     0
291
     1
 45
0.0
1001
ACAD
1000
AcRTDxfName
1000
VISUALSTYLE
  0
VISUALSTYLE
  5
114E
102
{ACAD_REACTORS
330
113F
102
}
330
113F
100
AcDbVisualStyle
  2
Facepattern
 70
    15
 71
     2
 72
     2
 73
     0
 90
        0
 40
-0.6
 41
-30.0
 62
     5
 63
     7
 74
     1
 91
        4
 64
     7
 65
   257
 75
     1
175
     1
 42
1.0
 92
        8
 66
     7
 43
1.0
 76
     1
 77
     6
 78
     2
 67
     7
 79
     5
170
     0
171
     0
290
     0
174
     0
 93
        1
 44
0.0
173
     0
291
     1
 45
0.0
1001
ACAD
1000
AcRTDxfName
1000
VISUALSTYLE
  0
VISUALSTYLE
  5
1140
102
{ACAD_REACTORS
330
113F
102
}
330
113F
100
AcDbVisualStyle
  2
Flat
 70
     0
 71
     2
 72
     1
 73
     1
 90
        2
 40
-0.6
 41
30.0
 62
     5
 63
     7
 74
     0
 91
        4
 64
     7
 65
   257
 75
     1
175
     1
 42
1.0
 92
        8
 66
     7
 43
1.0
 76
     1
 77
     6
 78
     2
 67
     7
 79
     5
170
     0
171
     0
290
     0
174
     0
 93
       13
 44
0.0
173
     0
291
     1
 45
0.0
1001
ACAD
1000
AcRTDxfName
1000
VISUALSTYLE
  0
VISUALSTYLE
  5
1141
102
{ACAD_REACTORS
330
113F
102
}
330
113F
100
AcDbVisualStyle
  2
FlatWithEdges
 70
     1
 71
     2
 72
     1
 73
     1
 90
        2
 40
-0.6
 41
30.0
 62
     5
 63
     7
 74
     1
 91
        4
 64
     7
 65
   257
 75
     1
175
     1
 42
1.0
 92
        0
 66
   257
 43
1.0
 76
     1
 77
     6
 78
     2
 67
     7
 79
     5
170
     0
171
     0
290
     0
174
     0
 93
       13
 44
0.0
173
     0
291
     1
 45
0.0
1001
ACAD
1000
AcRTDxfName
1000
VISUALSTYLE
  0
VISUALSTYLE
  5
1142
102
{ACAD_REACTORS
330
113F
102
}
330
113F
100
AcDbVisualStyle
  2
Gouraud
 70
     2
 71
     2
 72
     2
 73
     1
 90
        2
 40
-0.6
 41
30.0
 62
     5
 63
     7
 74
     0
 91
        4
 64
     7
 65
   257
 75
     1
175
     1
 42
1.0
 92
        0
 66
     7
 43
1.0
 76
     1
 77
     6
 78
     2
 67
     7
 79
     5
170
     0
171
     0
290
     0
174
     0
 93
       13
 44
0.0
173
     0
291
     1
 45
0.0
1001
ACAD
1000
AcRTDxfName
1000
VISUALSTYLE
  0
VISUALSTYLE
  5
1143
102
{ACAD_REACTORS
330
113F
102
}
330
113F
100
AcDbVisualStyle
  2
GouraudWithEdges
 70
     3
 71
     2
 72
     2
 73
     1
 90
        2
 40
-0.6
 41
30.0
 62
     5
 63
     7
 74
     1
 91
        4
 64
     7
 65
   257
 75
     1
175
     1
 42
1.0
 92
        0
 66
   257
 43
1.0
 76
     1
 77
     6
 78
     2
 67
     7
 79
     5
170
     0
171
     0
290
     0
174
     0
 93
       13
 44
0.0
173
     0
291
     1
 45
0.0
1001
ACAD
1000
AcRTDxfName
1000
VISUALSTYLE
  0
VISUALSTYLE
  5
114D
102
{ACAD_REACTORS
330
113F
102
}
330
113F
100
AcDbVisualStyle
  2
Linepattern
 70
    14
 71
     2
 72
     2
 73
     0
 90
        0
 40
-0.6
 41
-30.0
 62
     5
 63
     7
 74
     1
 91
        4
 64
     7
 65
   257
 75
     7
175
     7
 42
1.0
 92
        8
 66
     7
 43
1.0
 76
     1
 77
     6
 78
     2
 67
     7
 79
     5
170
     0
171
     0
290
     0
174
     0
 93
        1
 44
0.0
173
     0
291
     1
 45
0.0
1001
ACAD
1000
AcRTDxfName
1000
VISUALSTYLE
  0
VISUALSTYLE
  5
1149
102
{ACAD_REACTORS
330
113F
102
}
330
113F
100
AcDbVisualStyle
  2
Realistic
 70
     8
 71
     2
 72
     2
 73
     0
 90
        0
 40
-0.6
 41
-30.0
 62
     5
 63
     7
 74
     1
 91
        0
 64
     7
 65
   257
 75
     1
175
     1
 42
1.0
 92
        8
 66
     8
 43
1.0
 76
     1
 77
     6
 78
     2
 67
     7
 79
     5
170
     0
171
     0
290
     0
174
     0
 93
       13
 44
0.0
173
     0
291
     0
 45
0.0
1001
ACAD
1000
AcRTDxfName
1000
VISUALSTYLE
  0
VISUALSTYLE
  5
114C
102
{ACAD_REACTORS
330
113F
102
}
330
113F
100
AcDbVisualStyle
  2
Thicken
 70
    13
 71
     2
 72
     2
 73
     0
 90
        0
 40
-0.6
 41
-30.0
 62
     5
 63
     7
 74
     1
 91
        4
 64
     7
 65
   257
 75
     1
175
     1
 42
1.0
 92
       12
 66
     7
 43
1.0
 76
     1
 77
     6
 78
     2
 67
     7
 79
     5
170
     0
171
     0
290
     0
174
     0
 93
        1
 44
0.0
173
     0
291
     1
 45
0.0
1001
ACAD
1000
AcRTDxfName
1000
VISUALSTYLE
  0
DICTIONARYVAR
  5
1519
102
{ACAD_REACTORS
330
B3F
102
}
330
B3F
100
DictionaryVariables
280
     0
  1
1:1
  0
DICTIONARYVAR
  5
1518
102
{ACAD_REACTORS
330
B3F
102
}
330
B3F
100
DictionaryVariables
280
     0
  1
STANDARD
  0
DICTIONARYVAR
  5
B40
102
{ACAD_REACTORS
330
B3F
102
}
330
B3F
100
DictionaryVariables
280
     0
  1
STANDARD
  0
DICTIONARYVAR
  5
113C
102
{ACAD_REACTORS
330
B3F
102
}
330
B3F
100
DictionaryVariables
280
     0
  1
1
  0
DICTIONARYVAR
  5
151B
102
{ACAD_REACTORS
330
B3F
102
}
330
B3F
100
DictionaryVariables
280
     0
  1
0
  0
DICTIONARYVAR
  5
1781
102
{ACAD_REACTORS
330
B3F
102
}
330
B3F
100
DictionaryVariables
280
     0
  1
0
  0
DICTIONARYVAR
  5
1780
102
{ACAD_REACTORS
330
B3F
102
}
330
B3F
100
DictionaryVariables
280
     0
  1
0
  0
DICTIONARYVAR
  5
113D
102
{ACAD_REACTORS
330
B3F
102
}
330
B3F
100
DictionaryVariables
280
     0
  1

  0
DICTIONARYVAR
  5
151A
102
{ACAD_REACTORS
330
B3F
102
}
330
B3F
100
DictionaryVariables
280
     0
  1
127
  0
DICTIONARY
  5
B84
330
B83
100
AcDbDictionary
280
     1
281
     1
  3
ACAD_XREC_ROUNDTRIP
360
15DC
  3
BUMPTILE
360
B86
  3
DIFFUSETILE
360
B87
  3
OPACITYTILE
360
B88
  3
REFLECTIONTILE
360
B89
  3
REFRACTIONTILE
360
B8A
  3
SPECULARTILE
360
B8B
  0
DICTIONARY
  5
B8D
330
B8C
100
AcDbDictionary
280
     1
281
     1
  3
ACAD_XREC_ROUNDTRIP
360
15DD
  3
BUMPTILE
360
B8F
  3
DIFFUSETILE
360
B90
  3
OPACITYTILE
360
B91
  3
REFLECTIONTILE
360
B92
  3
REFRACTIONTILE
360
B93
  3
SPECULARTILE
360
B94
  0
DICTIONARY
  5
B96
330
B95
100
AcDbDictionary
280
     1
281
     1
  3
ACAD_XREC_ROUNDTRIP
360
15DE
  3
BUMPTILE
360
B98
  3
DIFFUSETILE
360
B99
  3
OPACITYTILE
360
B9A
  3
REFLECTIONTILE
360
B9B
  3
REFRACTIONTILE
360
B9C
  3
SPECULARTILE
360
B9D
  0
DICTIONARY
  5
15D2
330
1D
100
AcDbDictionary
280
     1
281
     1
  3
ACAD_ROUNDTRIP_2008_TABLESTYLE_CELLSTYLEMAP
360
1782
  0
XRECORD
  5
15DC
102
{ACAD_REACTORS
330
B84
102
}
330
B84
100
AcDbXrecord
280
     1
102
MATERIAL
148
0.0
149
0.0
149
0.0
 93
        0
 94
      127
282
     0
 72
     0
 77
     0
171
     0
175
     0
179
     0
273
     0
  0
XRECORD
  5
B86
102
{ACAD_REACTORS
330
B84
102
}
330
B84
100
AcDbXrecord
280
     1
270
     1
271
     1
  0
XRECORD
  5
B87
102
{ACAD_REACTORS
330
B84
102
}
330
B84
100
AcDbXrecord
280
     1
270
     1
271
     1
  0
XRECORD
  5
B88
102
{ACAD_REACTORS
330
B84
102
}
330
B84
100
AcDbXrecord
280
     1
270
     1
271
     1
  0
XRECORD
  5
B89
102
{ACAD_REACTORS
330
B84
102
}
330
B84
100
AcDbXrecord
280
     1
270
     1
271
     1
  0
XRECORD
  5
B8A
102
{ACAD_REACTORS
330
B84
102
}
330
B84
100
AcDbXrecord
280
     1
270
     1
271
     1
  0
XRECORD
  5
B8B
102
{ACAD_REACTORS
330
B84
102
}
330
B84
100
AcDbXrecord
280
     1
270
     1
271
     1
  0
XRECORD
  5
15DD
102
{ACAD_REACTORS
330
B8D
102
}
330
B8D
100
AcDbXrecord
280
     1
102
MATERIAL
148
0.0
149
0.0
149
0.0
 93
        0
 94
      127
282
     0
 72
     0
 77
     0
171
     0
175
     0
179
     0
273
     0
  0
XRECORD
  5
B8F
102
{ACAD_REACTORS
330
B8D
102
}
330
B8D
100
AcDbXrecord
280
     1
270
     1
271
     1
  0
XRECORD
  5
B90
102
{ACAD_REACTORS
330
B8D
102
}
330
B8D
100
AcDbXrecord
280
     1
270
     1
271
     1
  0
XRECORD
  5
B91
102
{ACAD_REACTORS
330
B8D
102
}
330
B8D
100
AcDbXrecord
280
     1
270
     1
271
     1
  0
XRECORD
  5
B92
102
{ACAD_REACTORS
330
B8D
102
}
330
B8D
100
AcDbXrecord
280
     1
270
     1
271
     1
  0
XRECORD
  5
B93
102
{ACAD_REACTORS
330
B8D
102
}
330
B8D
100
AcDbXrecord
280
     1
270
     1
271
     1
  0
XRECORD
  5
B94
102
{ACAD_REACTORS
330
B8D
102
}
330
B8D
100
AcDbXrecord
280
     1
270
     1
271
     1
  0
XRECORD
  5
15DE
102
{ACAD_REACTORS
330
B96
102
}
330
B96
100
AcDbXrecord
280
     1
102
MATERIAL
148
0.0
149
0.0
149
0.0
 93
        0
 94
      127
282
     0
 72
     0
 77
     0
171
     0
175
     0
179
     0
273
     0
  0
XRECORD
  5
B98
102
{ACAD_REACTORS
330
B96
102
}
330
B96
100
AcDbXrecord
280
     1
270
     1
271
     1
  0
XRECORD
  5
B99
102
{ACAD_REACTORS
330
B96
102
}
330
B96
100
AcDbXrecord
280
     1
270
     1
271
     1
  0
XRECORD
  5
B9A
102
{ACAD_REACTORS
330
B96
102
}
330
B96
100
AcDbXrecord
280
     1
270
     1
271
     1
  0
XRECORD
  5
B9B
102
{ACAD_REACTORS
330
B96
102
}
330
B96
100
AcDbXrecord
280
     1
270
     1
271
     1
  0
XRECORD
  5
B9C
102
{ACAD_REACTORS
330
B96
102
}
330
B96
100
AcDbXrecord
280
     1
270
     1
271
     1
  0
XRECORD
  5
B9D
102
{ACAD_REACTORS
330
B96
102
}
330
B96
100
AcDbXrecord
280
     1
270
     1
271
     1
  0
CELLSTYLEMAP
  5
1782
102
{ACAD_REACTORS
330
15D2
102
}
330
15D2
100
AcDbCellStyleMap
 90
        3
300
CELLSTYLE
  1
TABLEFORMAT_BEGIN
 90
        5
170
     1
 91
        0
 92
    32768
 62
   257
 93
        1
300
CONTENTFORMAT
  1
CONTENTFORMAT_BEGIN
 90
        0
 91
        0
 92
        4
 93
        0
300

 40
0.0
140
1.0
 94
        5
 62
     0
340
11
144
0.25
309
CONTENTFORMAT_END
171
     1
301
MARGIN
  1
CELLMARGIN_BEGIN
 40
0.06
 40
0.06
 40
0.06
 40
0.06
 40
0.18
 40
0.18
309
CELLMARGIN_END
 94
        6
 95
        1
302
GRIDFORMAT
  1
GRIDFORMAT_BEGIN
 90
        0
 91
        1
 62
     0
 92
       -2
340
0
 93
        0
 40
0.045
309
GRIDFORMAT_END
 95
        2
302
GRIDFORMAT
  1
GRIDFORMAT_BEGIN
 90
        0
 91
        1
 62
     0
 92
       -2
340
0
 93
        0
 40
0.045
309
GRIDFORMAT_END
 95
        4
302
GRIDFORMAT
  1
GRIDFORMAT_BEGIN
 90
        0
 91
        1
 62
     0
 92
       -2
340
0
 93
        0
 40
0.045
309
GRIDFORMAT_END
 95
        8
302
GRIDFORMAT
  1
GRIDFORMAT_BEGIN
 90
        0
 91
        1
 62
     0
 92
       -2
340
0
 93
        0
 40
0.045
309
GRIDFORMAT_END
 95
       16
302
GRIDFORMAT
  1
GRIDFORMAT_BEGIN
 90
        0
 91
        1
 62
     0
 92
       -2
340
0
 93
        0
 40
0.045
309
GRIDFORMAT_END
 95
       32
302
GRIDFORMAT
  1
GRIDFORMAT_BEGIN
 90
        0
 91
        1
 62
     0
 92
       -2
340
0
 93
        0
 40
0.045
309
GRIDFORMAT_END
309
TABLEFORMAT_END
  1
CELLSTYLE_BEGIN
 90
        1
 91
        1
300
_TITLE
309
CELLSTYLE_END
300
CELLSTYLE
  1
TABLEFORMAT_BEGIN
 90
        5
170
     1
 91
        0
 92
        0
 62
   257
 93
        1
300
CONTENTFORMAT
  1
CONTENTFORMAT_BEGIN
 90
        0
 91
        0
 92
        4
 93
        0
300

 40
0.0
140
1.0
 94
        5
 62
     0
340
11
144
0.18
309
CONTENTFORMAT_END
171
     1
301
MARGIN
  1
CELLMARGIN_BEGIN
 40
0.06
 40
0.06
 40
0.06
 40
0.06
 40
0.18
 40
0.18
309
CELLMARGIN_END
 94
        6
 95
        1
302
GRIDFORMAT
  1
GRIDFORMAT_BEGIN
 90
        0
 91
        1
 62
     0
 92
       -2
340
0
 93
        0
 40
0.045
309
GRIDFORMAT_END
 95
        2
302
GRIDFORMAT
  1
GRIDFORMAT_BEGIN
 90
        0
 91
        1
 62
     0
 92
       -2
340
0
 93
        0
 40
0.045
309
GRIDFORMAT_END
 95
        4
302
GRIDFORMAT
  1
GRIDFORMAT_BEGIN
 90
        0
 91
        1
 62
     0
 92
       -2
340
0
 93
        0
 40
0.045
309
GRIDFORMAT_END
 95
        8
302
GRIDFORMAT
  1
GRIDFORMAT_BEGIN
 90
        0
 91
        1
 62
     0
 92
       -2
340
0
 93
        0
 40
0.045
309
GRIDFORMAT_END
 95
       16
302
GRIDFORMAT
  1
GRIDFORMAT_BEGIN
 90
        0
 91
        1
 62
     0
 92
       -2
340
0
 93
        0
 40
0.045
309
GRIDFORMAT_END
 95
       32
302
GRIDFORMAT
  1
GRIDFORMAT_BEGIN
 90
        0
 91
        1
 62
     0
 92
       -2
340
0
 93
        0
 40
0.045
309
GRIDFORMAT_END
309
TABLEFORMAT_END
  1
CELLSTYLE_BEGIN
 90
        2
 91
        1
300
_HEADER
309
CELLSTYLE_END
300
CELLSTYLE
  1
TABLEFORMAT_BEGIN
 90
        5
170
     1
 91
        0
 92
        0
 62
   257
 93
        1
300
CONTENTFORMAT
  1
CONTENTFORMAT_BEGIN
 90
        0
 91
        0
 92
        4
 93
        0
300

 40
0.0
140
1.0
 94
        2
 62
     0
340
11
144
0.18
309
CONTENTFORMAT_END
171
     1
301
MARGIN
  1
CELLMARGIN_BEGIN
 40
0.06
 40
0.06
 40
0.06
 40
0.06
 40
0.18
 40
0.18
309
CELLMARGIN_END
 94
        6
 95
        1
302
GRIDFORMAT
  1
GRIDFORMAT_BEGIN
 90
        0
 91
        1
 62
     0
 92
       -2
340
0
 93
        0
 40
0.045
309
GRIDFORMAT_END
 95
        2
302
GRIDFORMAT
  1
GRIDFORMAT_BEGIN
 90
        0
 91
        1
 62
     0
 92
       -2
340
0
 93
        0
 40
0.045
309
GRIDFORMAT_END
 95
        4
302
GRIDFORMAT
  1
GRIDFORMAT_BEGIN
 90
        0
 91
        1
 62
     0
 92
       -2
340
0
 93
        0
 40
0.045
309
GRIDFORMAT_END
 95
        8
302
GRIDFORMAT
  1
GRIDFORMAT_BEGIN
 90
        0
 91
        1
 62
     0
 92
       -2
340
0
 93
        0
 40
0.045
309
GRIDFORMAT_END
 95
       16
302
GRIDFORMAT
  1
GRIDFORMAT_BEGIN
 90
        0
 91
        1
 62
     0
 92
       -2
340
0
 93
        0
 40
0.045
309
GRIDFORMAT_END
 95
       32
302
GRIDFORMAT
  1
GRIDFORMAT_BEGIN
 90
        0
 91
        1
 62
     0
 92
       -2
340
0
 93
        0
 40
0.045
309
GRIDFORMAT_END
309
TABLEFORMAT_END
  1
CELLSTYLE_BEGIN
 90
        3
 91
        2
300
_DATA
309
CELLSTYLE_END
  0
ENDSEC
  0
EOF
