  0
SECTION
  2
HEADER
  9
$ACADVER
  1
AC1021
  9
$ACADMAINTVER
 70
    25
  9
$DWGCODEPAGE
  3
ANSI_1252
  9
$LASTSAVEDBY
  1
Nishant.Babu
  9
$INSBASE
 10
0.0
 20
0.0
 30
0.0
  9
$EXTMIN
 10
435.8744792112365
 20
100.1727393344787
 30
-0.0000000000112498
  9
$EXTMAX
 10
593.0852512105397
 20
210.9951810622655
 30
0.0000000000002956
  9
$LIMMIN
 10
-63.96153345484666
 20
-57.2422003843465
  9
$LIMMAX
 10
131.0384665451534
 20
81.00779961565351
  9
$ORTHOMODE
 70
     0
  9
$REGENMODE
 70
     1
  9
$FILLMODE
 70
     1
  9
$QTEXTMODE
 70
     0
  9
$MIRRTEXT
 70
     0
  9
$LTSCALE
 40
1.0
  9
$ATTMODE
 70
     1
  9
$TEXTSIZE
 40
3.5
  9
$TRACEWID
 40
0.5
  9
$TEXTSTYLE
  7
STANDARD
  9
$CLAYER
  8
0
  9
$CELTYPE
  6
ByLayer
  9
$CECOLOR
 62
   256
  9
$CELTSCALE
 40
1.0
  9
$DISPSILH
 70
     0
  9
$DIMSCALE
 40
1.0
  9
$DIMASZ
 40
1.75
  9
$DIMEXO
 40
0.0
  9
$DIMDLI
 40
7.0
  9
$DIMRND
 40
0.0
  9
$DIMDLE
 40
0.0
  9
$DIMEXE
 40
0.5
  9
$DIMTP
 40
0.0
  9
$DIMTM
 40
0.0
  9
$DIMTXT
 40
1.75
  9
$DIMCEN
 40
0.0
  9
$DIMTSZ
 40
0.0
  9
$DIMTOL
 70
     0
  9
$DIMLIM
 70
     0
  9
$DIMTIH
 70
     0
  9
$DIMTOH
 70
     0
  9
$DIMSE1
 70
     0
  9
$DIMSE2
 70
     0
  9
$DIMTAD
 70
     1
  9
$DIMZIN
 70
     9
  9
$DIMBLK
  1

  9
$DIMASO
 70
     1
  9
$DIMSHO
 70
     1
  9
$DIMPOST
  1

  9
$DIMAPOST
  1

  9
$DIMALT
 70
     0
  9
$DIMALTD
 70
     2
  9
$DIMALTF
 40
25.4
  9
$DIMLFAC
 40
1.0
  9
$DIMTOFL
 70
     0
  9
$DIMTVP
 40
0.0
  9
$DIMTIX
 70
     0
  9
$DIMSOXD
 70
     0
  9
$DIMSAH
 70
     0
  9
$DIMBLK1
  1

  9
$DIMBLK2
  1

  9
$DIMSTYLE
  2
DMST_1
  9
$DIMCLRD
 70
     2
  9
$DIMCLRE
 70
     2
  9
$DIMCLRT
 70
     3
  9
$DIMTFAC
 40
1.0
  9
$DIMGAP
 40
0.09
  9
$DIMJUST
 70
     0
  9
$DIMSD1
 70
     0
  9
$DIMSD2
 70
     0
  9
$DIMTOLJ
 70
     1
  9
$DIMTZIN
 70
     0
  9
$DIMALTZ
 70
     0
  9
$DIMALTTZ
 70
     0
  9
$DIMUPT
 70
     0
  9
$DIMDEC
 70
     4
  9
$DIMTDEC
 70
     4
  9
$DIMALTU
 70
     2
  9
$DIMALTTD
 70
     2
  9
$DIMTXSTY
  7
STANDARD
  9
$DIMAUNIT
 70
     0
  9
$DIMADEC
 70
     0
  9
$DIMALTRND
 40
0.0
  9
$DIMAZIN
 70
     0
  9
$DIMDSEP
 70
    46
  9
$DIMATFIT
 70
     3
  9
$DIMFRAC
 70
     0
  9
$DIMLDRBLK
  1

  9
$DIMLUNIT
 70
     2
  9
$DIMLWD
 70
    -2
  9
$DIMLWE
 70
    -2
  9
$DIMTMOVE
 70
     2
  9
$DIMFXL
 40
1.0
  9
$DIMFXLON
 70
     0
  9
$DIMJOGANG
 40
0.7853981633974483
  9
$DIMTFILL
 70
     0
  9
$DIMTFILLCLR
 70
     0
  9
$DIMARCSYM
 70
     0
  9
$DIMLTYPE
  6

  9
$DIMLTEX1
  6

  9
$DIMLTEX2
  6

  9
$LUNITS
 70
     2
  9
$LUPREC
 70
     4
  9
$SKETCHINC
 40
0.1
  9
$FILLETRAD
 40
2.0
  9
$AUNITS
 70
     0
  9
$AUPREC
 70
     0
  9
$MENU
  1
ACAD
  9
$ELEVATION
 40
0.0
  9
$PELEVATION
 40
0.0
  9
$THICKNESS
 40
0.0
  9
$LIMCHECK
 70
     0
  9
$CHAMFERA
 40
0.0
  9
$CHAMFERB
 40
0.0
  9
$CHAMFERC
 40
0.0
  9
$CHAMFERD
 40
0.0
  9
$SKPOLY
 70
     0
  9
$TDCREATE
 40
2456521.718657813
  9
$TDUCREATE
 40
2456521.489491146
  9
$TDUPDATE
 40
2456524.409879121
  9
$TDUUPDATE
 40
2456524.180712454
  9
$TDINDWG
 40
0.0382126852
  9
$TDUSRTIMER
 40
0.0382126852
  9
$USRTIMER
 70
     1
  9
$ANGBASE
 50
0.0
  9
$ANGDIR
 70
     0
  9
$PDMODE
 70
     0
  9
$PDSIZE
 40
0.0
  9
$PLINEWID
 40
0.0
  9
$SPLFRAME
 70
     0
  9
$SPLINETYPE
 70
     6
  9
$SPLINESEGS
 70
     8
  9
$HANDSEED
  5
1134
  9
$SURFTAB1
 70
     6
  9
$SURFTAB2
 70
     6
  9
$SURFTYPE
 70
     6
  9
$SURFU
 70
     6
  9
$SURFV
 70
     6
  9
$UCSBASE
  2

  9
$UCSNAME
  2

  9
$UCSORG
 10
0.0
 20
0.0
 30
0.0
  9
$UCSXDIR
 10
1.0
 20
0.0
 30
0.0
  9
$UCSYDIR
 10
0.0
 20
1.0
 30
0.0
  9
$UCSORTHOREF
  2

  9
$UCSORTHOVIEW
 70
     0
  9
$UCSORGTOP
 10
0.0
 20
0.0
 30
0.0
  9
$UCSORGBOTTOM
 10
0.0
 20
0.0
 30
0.0
  9
$UCSORGLEFT
 10
0.0
 20
0.0
 30
0.0
  9
$UCSORGRIGHT
 10
0.0
 20
0.0
 30
0.0
  9
$UCSORGFRONT
 10
0.0
 20
0.0
 30
0.0
  9
$UCSORGBACK
 10
0.0
 20
0.0
 30
0.0
  9
$PUCSBASE
  2

  9
$PUCSNAME
  2

  9
$PUCSORG
 10
0.0
 20
0.0
 30
0.0
  9
$PUCSXDIR
 10
1.0
 20
0.0
 30
0.0
  9
$PUCSYDIR
 10
0.0
 20
1.0
 30
0.0
  9
$PUCSORTHOREF
  2

  9
$PUCSORTHOVIEW
 70
     0
  9
$PUCSORGTOP
 10
0.0
 20
0.0
 30
0.0
  9
$PUCSORGBOTTOM
 10
0.0
 20
0.0
 30
0.0
  9
$PUCSORGLEFT
 10
0.0
 20
0.0
 30
0.0
  9
$PUCSORGRIGHT
 10
0.0
 20
0.0
 30
0.0
  9
$PUCSORGFRONT
 10
0.0
 20
0.0
 30
0.0
  9
$PUCSORGBACK
 10
0.0
 20
0.0
 30
0.0
  9
$USERI1
 70
     0
  9
$USERI2
 70
     0
  9
$USERI3
 70
     0
  9
$USERI4
 70
     0
  9
$USERI5
 70
     0
  9
$USERR1
 40
0.0
  9
$USERR2
 40
0.0
  9
$USERR3
 40
0.0
  9
$USERR4
 40
0.0
  9
$USERR5
 40
0.0
  9
$WORLDVIEW
 70
     1
  9
$SHADEDGE
 70
     3
  9
$SHADEDIF
 70
    70
  9
$TILEMODE
 70
     1
  9
$MAXACTVP
 70
    64
  9
$PINSBASE
 10
0.0
 20
0.0
 30
0.0
  9
$PLIMCHECK
 70
     0
  9
$PEXTMIN
 10
1.000000000000000E+20
 20
1.000000000000000E+20
 30
1.000000000000000E+20
  9
$PEXTMAX
 10
-1.000000000000000E+20
 20
-1.000000000000000E+20
 30
-1.000000000000000E+20
  9
$PLIMMIN
 10
0.0
 20
0.0
  9
$PLIMMAX
 10
12.0
 20
9.0
  9
$UNITMODE
 70
     0
  9
$VISRETAIN
 70
     1
  9
$PLINEGEN
 70
     0
  9
$PSLTSCALE
 70
     1
  9
$TREEDEPTH
 70
  3020
  9
$CMLSTYLE
  2
Standard
  9
$CMLJUST
 70
     0
  9
$CMLSCALE
 40
1.0
  9
$PROXYGRAPHICS
 70
     1
  9
$MEASUREMENT
 70
     0
  9
$CELWEIGHT
370
    -1
  9
$ENDCAPS
280
     0
  9
$JOINSTYLE
280
     0
  9
$LWDISPLAY
290
     0
  9
$INSUNITS
 70
     4
  9
$HYPERLINKBASE
  1

  9
$STYLESHEET
  1
SSG1.ctb
  9
$XEDIT
290
     1
  9
$CEPSNTYPE
380
     0
  9
$PSTYLEMODE
290
     1
  9
$FINGERPRINTGUID
  2
{2CAB3304-11AC-4E4C-BE74-171A8E956FB7}
  9
$VERSIONGUID
  2
{880EF95C-5CCF-4CA5-AD7A-2557E3B130AF}
  9
$EXTNAMES
290
     1
  9
$PSVPSCALE
 40
0.0
  9
$OLESTARTUP
290
     0
  9
$SORTENTS
280
   127
  9
$INDEXCTL
280
     0
  9
$HIDETEXT
280
     0
  9
$XCLIPFRAME
290
     0
  9
$HALOGAP
280
     0
  9
$OBSCOLOR
 70
   257
  9
$OBSLTYPE
280
     0
  9
$INTERSECTIONDISPLAY
280
     0
  9
$INTERSECTIONCOLOR
 70
   257
  9
$DIMASSOC
280
     1
  9
$PROJECTNAME
  1

  9
$CAMERADISPLAY
290
     0
  9
$LENSLENGTH
 40
50.0
  9
$CAMERAHEIGHT
 40
0.0
  9
$STEPSPERSEC
 40
2.0
  9
$STEPSIZE
 40
6.0
  9
$3DDWFPREC
 40
2.0
  9
$PSOLWIDTH
 40
0.25
  9
$PSOLHEIGHT
 40
4.0
  9
$LOFTANG1
 40
1.570796326794896
  9
$LOFTANG2
 40
1.570796326794896
  9
$LOFTMAG1
 40
0.0
  9
$LOFTMAG2
 40
0.0
  9
$LOFTPARAM
 70
     7
  9
$LOFTNORMALS
280
     1
  9
$LATITUDE
 40
37.795
  9
$LONGITUDE
 40
-122.394
  9
$NORTHDIRECTION
 40
0.0
  9
$TIMEZONE
 70
 -8000
  9
$LIGHTGLYPHDISPLAY
280
     1
  9
$TILEMODELIGHTSYNCH
280
     1
  9
$CMATERIAL
347
11
  9
$SOLIDHIST
280
     1
  9
$SHOWHIST
280
     1
  9
$DWFFRAME
280
     2
  9
$DGNFRAME
280
     0
  9
$REALWORLDSCALE
290
     1
  9
$INTERFERECOLOR
 62
     1
  9
$INTERFEREOBJVS
345
33
  9
$INTERFEREVPVS
346
30
  9
$CSHADOW
280
     0
  9
$SHADOWPLANELOCATION
 40
0.0
  0
ENDSEC
  0
SECTION
  2
CLASSES
  0
CLASS
  1
ACDBDICTIONARYWDFLT
  2
AcDbDictionaryWithDefault
  3
ObjectDBX Classes
 90
        0
 91
        1
280
     0
281
     0
  0
CLASS
  1
MATERIAL
  2
AcDbMaterial
  3
ObjectDBX Classes
 90
     1153
 91
        3
280
     0
281
     0
  0
CLASS
  1
VISUALSTYLE
  2
AcDbVisualStyle
  3
ObjectDBX Classes
 90
     4095
 91
       19
280
     0
281
     0
  0
CLASS
  1
SCALE
  2
AcDbScale
  3
ObjectDBX Classes
 90
     1153
 91
       33
280
     0
281
     0
  0
CLASS
  1
TABLESTYLE
  2
AcDbTableStyle
  3
ObjectDBX Classes
 90
     4095
 91
        1
280
     0
281
     0
  0
CLASS
  1
MLEADERSTYLE
  2
AcDbMLeaderStyle
  3
ACDB_MLEADERSTYLE_CLASS
 90
     4095
 91
        1
280
     0
281
     0
  0
CLASS
  1
CELLSTYLEMAP
  2
AcDbCellStyleMap
  3
ObjectDBX Classes
 90
     1152
 91
       16
280
     0
281
     0
  0
CLASS
  1
DICTIONARYVAR
  2
AcDbDictionaryVar
  3
ObjectDBX Classes
 90
        0
 91
       15
280
     0
281
     0
  0
CLASS
  1
ACAD_EVALUATION_GRAPH
  2
AcDbEvalGraph
  3
ObjectDBX Classes
 90
     1153
 91
        0
280
     0
281
     0
  0
CLASS
  1
ACAECUSTOBJ
  2
AcAeEditorObj
  3
AcAeEditorObj
 90
     1024
 91
        0
280
     0
281
     0
  0
CLASS
  1
ACDB_DYNAMICBLOCKPURGEPREVENTER_VERSION
  2
AcDbDynamicBlockPurgePreventer
  3
ObjectDBX Classes
 90
     1153
 91
        0
280
     0
281
     0
  0
CLASS
  1
BREAKDATA
  2
AcDbBreakData
  3
ObjectDBX Classes
 90
     1024
 91
        3
280
     0
281
     0
  0
CLASS
  1
SORTENTSTABLE
  2
AcDbSortentsTable
  3
ObjectDBX Classes
 90
        0
 91
        8
280
     0
281
     0
  0
ENDSEC
  0
SECTION
  2
TABLES
  0
TABLE
  2
VPORT
  5
8
330
0
100
AcDbSymbolTable
 70
     1
  0
VPORT
  5
8A
330
8
100
AcDbSymbolTableRecord
100
AcDbViewportTableRecord
  2
*Active
 70
     0
 10
0.0
 20
0.0
 11
1.0
 21
1.0
 12
515.1169591746999
 22
154.8411904030349
 13
0.0
 23
0.0
 14
1.0
 24
1.0
 15
0.0
 25
0.0
 16
0.0
 26
0.0
 36
1.0
 17
0.0
 27
0.0
 37
0.0
 40
113.495966093142
 41
2.006430868167202
 42
50.0
 43
0.0
 44
0.0
 50
0.0
 51
0.0
 71
     0
 72
   100
 73
     1
 74
     1
 75
     0
 76
     0
 77
     0
 78
     0
281
     0
 65
     1
110
0.0
120
0.0
130
0.0
111
1.0
121
0.0
131
0.0
112
0.0
122
1.0
132
0.0
 79
     0
146
0.0
348
2F
 60
     3
 61
     5
292
     1
282
     1
141
0.0
142
0.0
 63
   250
421
  3355443
  0
ENDTAB
  0
TABLE
  2
LTYPE
  5
5
330
0
100
AcDbSymbolTable
 70
     9
  0
LTYPE
  5
62
330
5
100
AcDbSymbolTableRecord
100
AcDbLinetypeTableRecord
  2
ByBlock
 70
     0
  3

 72
    65
 73
     0
 40
0.0
  0
LTYPE
  5
63
330
5
100
AcDbSymbolTableRecord
100
AcDbLinetypeTableRecord
  2
ByLayer
 70
     0
  3

 72
    65
 73
     0
 40
0.0
  0
LTYPE
  5
64
330
5
100
AcDbSymbolTableRecord
100
AcDbLinetypeTableRecord
  2
CONTINUOUS
 70
     0
  3
Solid line
 72
    65
 73
     0
 40
0.0
  0
LTYPE
  5
7A
330
5
100
AcDbSymbolTableRecord
100
AcDbLinetypeTableRecord
  2
BORDER
 70
     0
  3
__ __ . __ __ .
 72
    65
 73
     6
 40
8.980263157894738
 49
2.565789473684211
 74
     0
 49
-1.282894736842105
 74
     0
 49
2.565789473684211
 74
     0
 49
-1.282894736842105
 74
     0
 49
0.0
 74
     0
 49
-1.282894736842105
 74
     0
  0
LTYPE
  5
7B
330
5
100
AcDbSymbolTableRecord
100
AcDbLinetypeTableRecord
  2
CENTER
 70
     0
  3
____ _ ____ _
 72
    65
 73
     4
 40
10.26315789473684
 49
6.414473684210526
 74
     0
 49
-1.282894736842105
 74
     0
 49
1.282894736842105
 74
     0
 49
-1.282894736842105
 74
     0
  0
LTYPE
  5
7C
330
5
100
AcDbSymbolTableRecord
100
AcDbLinetypeTableRecord
  2
DASHDOT
 70
     0
  3
__ . __ . __ .
 72
    65
 73
     4
 40
5.131578947368422
 49
2.565789473684211
 74
     0
 49
-1.282894736842105
 74
     0
 49
0.0
 74
     0
 49
-1.282894736842105
 74
     0
  0
LTYPE
  5
7D
330
5
100
AcDbSymbolTableRecord
100
AcDbLinetypeTableRecord
  2
DASHED
 70
     0
  3
__ __ __ __ __
 72
    65
 73
     2
 40
3.848684210526316
 49
2.565789473684211
 74
     0
 49
-1.282894736842105
 74
     0
  0
LTYPE
  5
7E
330
5
100
AcDbSymbolTableRecord
100
AcDbLinetypeTableRecord
  2
DIVIDE
 70
     0
  3
__ . . __ . . 
 72
    65
 73
     6
 40
6.414473684210526
 49
2.565789473684211
 74
     0
 49
-1.282894736842105
 74
     0
 49
0.0
 74
     0
 49
-1.282894736842105
 74
     0
 49
0.0
 74
     0
 49
-1.282894736842105
 74
     0
  0
LTYPE
  5
7F
330
5
100
AcDbSymbolTableRecord
100
AcDbLinetypeTableRecord
  2
DOT
 70
     0
  3
..............
 72
    65
 73
     4
 40
2.565789473684211
 49
0.0
 74
     0
 49
-1.282894736842105
 74
     0
 49
0.0
 74
     0
 49
-1.282894736842105
 74
     0
  0
LTYPE
  5
80
330
5
100
AcDbSymbolTableRecord
100
AcDbLinetypeTableRecord
  2
HIDDEN
 70
     0
  3
_ _ _ _ _ _ _
 72
    65
 73
     2
 40
1.924342105263158
 49
1.282894736842105
 74
     0
 49
-0.6414473684210528
 74
     0
  0
LTYPE
  5
81
330
5
100
AcDbSymbolTableRecord
100
AcDbLinetypeTableRecord
  2
PHANTOM
 70
     0
  3
_____ _ _ _____ _ _ 
 72
    65
 73
     6
 40
12.82894736842106
 49
6.414473684210526
 74
     0
 49
-1.282894736842105
 74
     0
 49
1.282894736842105
 74
     0
 49
-1.282894736842105
 74
     0
 49
1.282894736842105
 74
     0
 49
-1.282894736842105
 74
     0
  0
ENDTAB
  0
TABLE
  2
LAYER
  5
2
102
{ACAD_XDICTIONARY
360
CC6
102
}
330
0
100
AcDbSymbolTable
 70
     6
  0
LAYER
  5
5C
102
{ACAD_XDICTIONARY
360
1B8
102
}
330
2
100
AcDbSymbolTableRecord
100
AcDbLayerTableRecord
  2
0
 70
     0
 62
     7
  6
CONTINUOUS
370
    -3
390
F
347
21
  0
LAYER
  5
82
102
{ACAD_XDICTIONARY
360
1BA
102
}
330
2
100
AcDbSymbolTableRecord
100
AcDbLayerTableRecord
  2
1
 70
     0
 62
     7
  6
CONTINUOUS
370
    -3
390
F
347
21
  0
LAYER
  5
23D
330
2
100
AcDbSymbolTableRecord
100
AcDbLayerTableRecord
  2
Defpoints
 70
     0
 62
     7
  6
CONTINUOUS
290
     0
370
    -3
390
F
347
21
  0
LAYER
  5
CAA
330
2
100
AcDbSymbolTableRecord
100
AcDbLayerTableRecord
  2
Dark hatch1
 70
     0
 62
     3
  6
CONTINUOUS
370
    25
390
F
347
21
1001
AcAecLayerStandard
1000

1000

  0
LAYER
  5
CAB
330
2
100
AcDbSymbolTableRecord
100
AcDbLayerTableRecord
  2
DEFAULT_1
 70
     0
 62
     7
  6
CENTER
370
    -3
390
F
347
21
  0
LAYER
  5
CAC
330
2
100
AcDbSymbolTableRecord
100
AcDbLayerTableRecord
  2
02___PRT_ALL_AXES
 70
     0
 62
     7
  6
CONTINUOUS
370
    -3
390
F
347
21
  0
ENDTAB
  0
TABLE
  2
STYLE
  5
3
330
0
100
AcDbSymbolTable
 70
    14
  0
STYLE
  5
5D
330
3
100
AcDbSymbolTableRecord
100
AcDbTextStyleTableRecord
  2
STANDARD
 70
     0
 40
0.0
 41
1.0
 50
0.0
 71
     0
 42
3.5
  3
isocpeur.ttf
  4

1001
ACAD
1000
ISOCPEUR
1071
       34
  0
STYLE
  5
61
330
3
100
AcDbSymbolTableRecord
100
AcDbTextStyleTableRecord
  2
Annotative
 70
     0
 40
0.0
 41
1.0
 50
0.0
 71
     0
 42
0.2
  3

  4

1001
AcadAnnotative
1000
AnnotativeData
1002
{
1070
     1
1070
     1
1002
}
  0
STYLE
  5
83
330
3
100
AcDbSymbolTableRecord
100
AcDbTextStyleTableRecord
  2
SIMPLEX
 70
     0
 40
0.0
 41
1.0
 50
0.0
 71
     0
 42
3.5
  3
simplex
  4

  0
STYLE
  5
84
330
3
100
AcDbSymbolTableRecord
100
AcDbTextStyleTableRecord
  2
COMPLEX
 70
     0
 40
0.0
 41
1.0
 50
0.0
 71
     0
 42
3.5
  3
complex
  4

  0
STYLE
  5
85
330
3
100
AcDbSymbolTableRecord
100
AcDbTextStyleTableRecord
  2
ITALIC
 70
     0
 40
0.0
 41
1.0
 50
0.0
 71
     0
 42
3.5
  3
italic
  4

  0
STYLE
  5
CAD
330
3
100
AcDbSymbolTableRecord
100
AcDbTextStyleTableRecord
  2
SLDTEXTSTYLE0
 70
     0
 40
0.0
 41
0.605
 50
0.0
 71
     0
 42
0.0
  3
TXT
  4

  0
STYLE
  5
CAE
330
3
100
AcDbSymbolTableRecord
100
AcDbTextStyleTableRecord
  2
style1
 70
     0
 40
0.0
 41
1.0
 50
0.0
 71
     0
 42
0.2
  3
isocpeur.ttf
  4

1001
ACAD
1000
ISOCPEUR
1071
       34
  0
STYLE
  5
CAF
330
3
100
AcDbSymbolTableRecord
100
AcDbTextStyleTableRecord
  2
NEW
 70
     0
 40
0.0
 41
1.0
 50
0.0
 71
     0
 42
0.2
  3
arial.ttf
  4

1001
ACAD
1000
Arial
1071
       34
  0
ENDTAB
  0
TABLE
  2
VIEW
  5
6
330
0
100
AcDbSymbolTable
 70
     0
  0
ENDTAB
  0
TABLE
  2
UCS
  5
7
330
0
100
AcDbSymbolTable
 70
     0
  0
ENDTAB
  0
TABLE
  2
APPID
  5
9
330
0
100
AcDbSymbolTable
 70
    14
  0
APPID
  5
5E
330
9
100
AcDbSymbolTableRecord
100
AcDbRegAppTableRecord
  2
ACAD
 70
     0
  0
APPID
  5
65
330
9
100
AcDbSymbolTableRecord
100
AcDbRegAppTableRecord
  2
AcadAnnotative
 70
     0
  0
APPID
  5
6F
330
9
100
AcDbSymbolTableRecord
100
AcDbRegAppTableRecord
  2
ACAD_MLEADERVER
 70
     0
  0
APPID
  5
296
330
9
100
AcDbSymbolTableRecord
100
AcDbRegAppTableRecord
  2
ACAUTHENVIRON
 70
     0
  0
APPID
  5
320
330
9
100
AcDbSymbolTableRecord
100
AcDbRegAppTableRecord
  2
AcDbDynamicBlockTrueName
 70
     0
  0
APPID
  5
321
330
9
100
AcDbSymbolTableRecord
100
AcDbRegAppTableRecord
  2
AcDbDynamicBlockGUID
 70
     0
  0
APPID
  5
323
330
9
100
AcDbSymbolTableRecord
100
AcDbRegAppTableRecord
  2
AcDbBlockRepETag
 70
     0
  0
APPID
  5
5A0
330
9
100
AcDbSymbolTableRecord
100
AcDbRegAppTableRecord
  2
AcadAnnoPO
 70
     0
  0
APPID
  5
948
330
9
100
AcDbSymbolTableRecord
100
AcDbRegAppTableRecord
  2
ACAD_DSTYLE_DIMJAG
 70
     0
  0
APPID
  5
949
330
9
100
AcDbSymbolTableRecord
100
AcDbRegAppTableRecord
  2
ACAD_DSTYLE_DIMTALN
 70
     0
  0
APPID
  5
AE1
330
9
100
AcDbSymbolTableRecord
100
AcDbRegAppTableRecord
  2
ACAD_EXEMPT_FROM_CAD_STANDARDS
 70
     0
  0
APPID
  5
CBA
330
9
100
AcDbSymbolTableRecord
100
AcDbRegAppTableRecord
  2
ACAD_PSEXT
 70
     0
  0
APPID
  5
CBB
330
9
100
AcDbSymbolTableRecord
100
AcDbRegAppTableRecord
  2
DCO15
 70
     0
  0
APPID
  5
CBC
330
9
100
AcDbSymbolTableRecord
100
AcDbRegAppTableRecord
  2
AcAecLayerStandard
 70
     0
  0
ENDTAB
  0
TABLE
  2
DIMSTYLE
  5
A
330
0
100
AcDbSymbolTable
 70
    20
100
AcDbDimStyleTable
 71
     2
340
78
340
5F
  0
DIMSTYLE
105
5F
330
A
100
AcDbSymbolTableRecord
100
AcDbDimStyleTableRecord
  2
Standard
 70
     0
340
5D
  0
DIMSTYLE
105
60
330
A
100
AcDbSymbolTableRecord
100
AcDbDimStyleTableRecord
  2
Annotative
 70
     0
340
5D
1001
AcadAnnotative
1000
AnnotativeData
1002
{
1070
     1
1070
     1
1002
}
  0
DIMSTYLE
105
78
102
{ACAD_REACTORS
330
DE9
330
DC4
330
DC5
330
DC6
330
DC7
330
DC8
330
DC9
330
DCC
330
DEA
102
}
330
A
100
AcDbSymbolTableRecord
100
AcDbDimStyleTableRecord
  2
DMST_1
 70
     0
 41
1.75
 42
0.0
 43
7.0
 44
0.5
 73
     0
 74
     0
 77
     1
 78
     9
140
1.75
141
0.0
176
     2
177
     2
178
     3
279
     2
340
5D
1001
ACAD_DSTYLE_DIMJAG
1070
   388
1040
1.5
1001
ACAD_DSTYLE_DIMTALN
1070
   392
1070
     0
  0
DIMSTYLE
105
79
330
A
100
AcDbSymbolTableRecord
100
AcDbDimStyleTableRecord
  2
DMST_2
 70
     0
 41
1.75
 42
0.0
 43
7.0
 44
0.5
 71
     1
 73
     0
 74
     0
 77
     1
 78
     9
140
1.75
141
0.0
146
0.7
176
     1
177
     1
178
     3
279
     2
340
5D
  0
DIMSTYLE
105
CB0
330
A
100
AcDbSymbolTableRecord
100
AcDbDimStyleTableRecord
  2
DIMSTYLE_1
 70
     0
 41
4.0
 48
0.1
 71
     1
 73
     0
 74
     0
 77
     1
 78
     8
140
2.799999999999999
144
0.6666666667
146
0.75
178
     5
271
     2
272
     2
284
     8
340
5D
341
B8D
342
B8D
343
B8D
344
B8D
  0
DIMSTYLE
105
CB1
330
A
100
AcDbSymbolTableRecord
100
AcDbDimStyleTableRecord
  2
DIMSTYLE_2
 70
     0
 41
4.0
 47
0.01
 48
0.01
 73
     0
 74
     0
 77
     1
 78
     8
140
2.799999999999999
144
0.6666666667
178
     5
271
     2
272
     2
284
     8
340
5D
341
B8D
342
B8D
343
B8D
344
B8D
  0
DIMSTYLE
105
CB2
330
A
100
AcDbSymbolTableRecord
100
AcDbDimStyleTableRecord
  2
DIMSTYLE_3
 70
     0
 41
4.0
 47
0.2
 48
0.2
 71
     1
 73
     0
 74
     0
 77
     1
 78
     8
140
2.799999999999999
144
0.6666666667
178
     5
271
     2
272
     2
284
     8
340
5D
341
B8D
342
B8D
343
B8D
344
B8D
  0
DIMSTYLE
105
CB3
330
A
100
AcDbSymbolTableRecord
100
AcDbDimStyleTableRecord
  2
DIMSTYLE_4
 70
     0
 41
4.0
 47
0.1
 48
0.1
 71
     1
 73
     0
 74
     0
 77
     1
 78
     8
140
2.799999999999999
144
0.6666666667
271
     1
272
     1
284
     8
340
5D
341
B8D
342
B8D
343
B8D
344
B8D
  0
DIMSTYLE
105
CB4
330
A
100
AcDbSymbolTableRecord
100
AcDbDimStyleTableRecord
  2
DIMSTYLE_7
 70
     0
 41
4.0
 73
     0
 74
     0
 77
     1
 78
     8
140
2.799999999999999
144
0.6666666667
178
     5
271
     0
272
     0
284
     8
340
5D
341
B8D
342
B8D
343
B8D
344
B8D
  0
DIMSTYLE
105
CB5
330
A
100
AcDbSymbolTableRecord
100
AcDbDimStyleTableRecord
  2
DIMSTYLE_8
 70
     0
 41
4.0
 47
0.3
 48
0.3
 71
     1
 73
     0
 74
     0
 77
     1
 78
     8
140
2.799999999999999
144
0.6666666667
178
     5
271
     2
272
     2
284
     8
340
5D
341
B8D
342
B8D
343
B8D
344
B8D
  0
DIMSTYLE
105
CB6
330
A
100
AcDbSymbolTableRecord
100
AcDbDimStyleTableRecord
  2
DIMSTYLE_9
 70
     0
 41
4.0
 48
0.1
 71
     1
 77
     1
 78
     8
140
2.799999999999999
144
0.6666666667
146
0.75
178
     5
271
     2
272
     2
284
     8
340
5D
341
B8D
342
B8D
343
B8D
344
B8D
  0
DIMSTYLE
105
CB7
330
A
100
AcDbSymbolTableRecord
100
AcDbDimStyleTableRecord
  2
DIMSTYLE_10
 70
     0
 41
4.0
 47
0.9
 48
0.9
 71
     1
 73
     0
 74
     0
 77
     1
 78
     8
140
2.799999999999999
144
0.6666666667
271
     2
272
     2
284
     8
340
5D
341
B8D
342
B8D
343
B8D
344
B8D
  0
DIMSTYLE
105
CB8
330
A
100
AcDbSymbolTableRecord
100
AcDbDimStyleTableRecord
  2
DIMSTYLE_11
 70
     0
 41
4.0
 47
0.1
 48
0.1
 71
     1
 73
     0
 74
     0
 77
     1
 78
     8
140
2.799999999999999
144
0.6666666667
271
     2
272
     2
284
     8
340
5D
341
B8D
342
B8D
343
B8D
344
B8D
  0
DIMSTYLE
105
CB9
330
A
100
AcDbSymbolTableRecord
100
AcDbDimStyleTableRecord
  2
DIMSTYLE_12
 70
     0
 41
4.0
 47
3.0
 48
3.0
 71
     1
 73
     0
 74
     0
 77
     1
 78
     8
140
2.799999999999999
144
0.6666666667
178
     5
271
     2
272
     2
284
     8
340
5D
341
B8D
342
B8D
343
B8D
344
B8D
  0
ENDTAB
  0
TABLE
  2
BLOCK_RECORD
  5
1
330
0
100
AcDbSymbolTable
 70
    86
  0
BLOCK_RECORD
  5
74
102
{ACAD_XDICTIONARY
360
ACA
102
}
330
1
100
AcDbSymbolTableRecord
100
AcDbBlockTableRecord
  2
*Model_Space
340
77
 70
     0
280
     1
281
     0
  0
BLOCK_RECORD
  5
70
330
1
100
AcDbSymbolTableRecord
100
AcDbBlockTableRecord
  2
*Paper_Space
340
73
 70
     0
280
     1
281
     0
  0
BLOCK_RECORD
  5
8B
330
1
100
AcDbSymbolTableRecord
100
AcDbBlockTableRecord
  2
A3SN_
340
0
 70
     0
280
     1
281
     0
  0
BLOCK_RECORD
  5
13F
102
{ACAD_XDICTIONARY
360
297
102
}
330
1
100
AcDbSymbolTableRecord
100
AcDbBlockTableRecord
  2
TOP_TOP_
340
0
102
{BLKREFS
331
1B7
102
}
 70
     0
280
     1
281
     0
1001
AcDbDynamicBlockGUID
1000
{0500CC58-61FD-464F-AC48-5D2EFAFA1DB3}
1001
AcDbBlockRepETag
1070
     1
1071
        0
  0
BLOCK_RECORD
  5
AA0
330
1
100
AcDbSymbolTableRecord
100
AcDbBlockTableRecord
  2
_Oblique
340
0
102
{BLKREFS
331
AB3
331
ABF
331
101D
331
104E
102
}
 70
     0
280
     1
281
     0
  0
BLOCK_RECORD
  5
AFD
102
{ACAD_XDICTIONARY
360
AFE
102
}
330
1
100
AcDbSymbolTableRecord
100
AcDbBlockTableRecord
  2
A$C08716F59
340
0
102
{BLKREFS
331
B73
331
EF0
102
}
 70
     4
280
     1
281
     0
  0
BLOCK_RECORD
  5
B38
102
{ACAD_XDICTIONARY
360
B39
102
}
330
1
100
AcDbSymbolTableRecord
100
AcDbBlockTableRecord
  2
A$C058C21FF
340
0
 70
     4
280
     1
281
     0
  0
BLOCK_RECORD
  5
B7B
330
1
100
AcDbSymbolTableRecord
100
AcDbBlockTableRecord
  2
_Dot
340
0
 70
     0
280
     1
281
     0
  0
BLOCK_RECORD
  5
B80
102
{ACAD_XDICTIONARY
360
B81
102
}
330
1
100
AcDbSymbolTableRecord
100
AcDbBlockTableRecord
  2
A$C53560A2D
340
0
102
{BLKREFS
331
B8B
102
}
 70
     1
280
     1
281
     0
  0
BLOCK_RECORD
  5
B87
102
{ACAD_XDICTIONARY
360
B88
102
}
330
1
100
AcDbSymbolTableRecord
100
AcDbBlockTableRecord
  2
A$C25042B23
340
0
 70
     1
280
     1
281
     0
  0
BLOCK_RECORD
  5
B8D
330
1
100
AcDbSymbolTableRecord
100
AcDbBlockTableRecord
  2
_FILLED
340
0
102
{BLKREFS
331
B96
331
B97
331
D14
331
D15
331
EBB
331
EBC
102
}
 70
     0
280
     1
281
     0
  0
BLOCK_RECORD
  5
B91
330
1
100
AcDbSymbolTableRecord
100
AcDbBlockTableRecord
  2
*D65
340
0
 70
     0
280
     1
281
     0
  0
BLOCK_RECORD
  5
B9D
102
{ACAD_XDICTIONARY
360
B9E
102
}
330
1
100
AcDbSymbolTableRecord
100
AcDbBlockTableRecord
  2
A$C274A2516
340
0
 70
     4
280
     1
281
     0
  0
BLOCK_RECORD
  5
C83
102
{ACAD_XDICTIONARY
360
C84
102
}
330
1
100
AcDbSymbolTableRecord
100
AcDbBlockTableRecord
  2
A$C217E344C
340
0
 70
     4
280
     1
281
     0
  0
BLOCK_RECORD
  5
CC8
102
{ACAD_XDICTIONARY
360
D0A
102
}
330
1
100
AcDbSymbolTableRecord
100
AcDbBlockTableRecord
  2
new A3-S11
340
0
 70
     4
280
     1
281
     0
  0
BLOCK_RECORD
  5
DEB
330
1
100
AcDbSymbolTableRecord
100
AcDbBlockTableRecord
  2
*D70
340
0
 70
     0
280
     1
281
     0
  0
BLOCK_RECORD
  5
DF9
330
1
100
AcDbSymbolTableRecord
100
AcDbBlockTableRecord
  2
*D71
340
0
 70
     0
280
     1
281
     0
  0
BLOCK_RECORD
  5
E07
330
1
100
AcDbSymbolTableRecord
100
AcDbBlockTableRecord
  2
*D72
340
0
 70
     0
280
     1
281
     0
  0
BLOCK_RECORD
  5
E15
330
1
100
AcDbSymbolTableRecord
100
AcDbBlockTableRecord
  2
*D73
340
0
 70
     0
280
     1
281
     0
  0
BLOCK_RECORD
  5
E23
330
1
100
AcDbSymbolTableRecord
100
AcDbBlockTableRecord
  2
*D74
340
0
 70
     0
280
     1
281
     0
  0
BLOCK_RECORD
  5
E2F
330
1
100
AcDbSymbolTableRecord
100
AcDbBlockTableRecord
  2
*D75
340
0
 70
     0
280
     1
281
     0
  0
BLOCK_RECORD
  5
E3B
330
1
100
AcDbSymbolTableRecord
100
AcDbBlockTableRecord
  2
*D76
340
0
 70
     0
280
     1
281
     0
  0
BLOCK_RECORD
  5
E47
330
1
100
AcDbSymbolTableRecord
100
AcDbBlockTableRecord
  2
*D77
340
0
 70
     0
280
     1
281
     0
  0
BLOCK_RECORD
  5
E93
330
1
100
AcDbSymbolTableRecord
100
AcDbBlockTableRecord
  2
*D78
340
0
 70
     0
280
     1
281
     0
  0
ENDTAB
  0
ENDSEC
  0
SECTION
  2
BLOCKS
  0
BLOCK
  5
75
330
74
100
AcDbEntity
  8
0
100
AcDbBlockBegin
  2
*Model_Space
 70
     0
 10
0.0
 20
0.0
 30
0.0
  3
*Model_Space
  1

  0
ENDBLK
  5
76
330
74
100
AcDbEntity
  8
0
100
AcDbBlockEnd
  0
BLOCK
  5
71
330
70
100
AcDbEntity
 67
     1
  8
0
100
AcDbBlockBegin
  2
*Paper_Space
 70
     0
 10
0.0
 20
0.0
 30
0.0
  3
*Paper_Space
  1

  0
ENDBLK
  5
72
330
70
100
AcDbEntity
 67
     1
  8
0
100
AcDbBlockEnd
  0
BLOCK
  5
8C
330
8B
100
AcDbEntity
  8
0
100
AcDbBlockBegin
  2
A3SN_
 70
     0
 10
33.53846654515337
 20
18.6327996156535
 30
0.0
  3
A3SN_
  1

  0
LINE
  5
8D
330
8B
100
AcDbEntity
  8
1
 62
     4
100
AcDbLine
 10
228.5384665451534
 20
-129.1172003843465
 30
0.0
 11
48.53846654515351
 21
-129.1172003843465
 31
0.0
  0
LINE
  5
8E
330
8B
100
AcDbEntity
  8
1
  6
DASHDOT
 62
     2
100
AcDbLine
 10
225.2814096436644
 20
-114.1172003843465
 30
0.0
 11
217.5050596908364
 21
-114.1172003843465
 31
0.0
  0
LINE
  5
8F
330
8B
100
AcDbEntity
  8
1
  6
DASHDOT
 62
     2
100
AcDbLine
 10
221.3932346672504
 20
-110.2290254079325
 30
0.0
 11
221.3932346672504
 21
-118.0053753607605
 31
0.0
  0
LINE
  5
90
330
8B
100
AcDbEntity
  8
1
  6
DASHDOT
 62
     2
100
AcDbLine
 10
215.2814096436644
 20
-114.1172003843465
 30
0.0
 11
204.2814096436644
 21
-114.1172003843465
 31
0.0
  0
LINE
  5
91
330
8B
100
AcDbEntity
  8
1
 62
     4
100
AcDbLine
 10
48.53846654515351
 20
-102.1172003843465
 30
0.0
 11
48.53846654515336
 21
-133.1172003843465
 31
0.0
  0
LINE
  5
92
330
8B
100
AcDbEntity
  8
1
 62
     4
100
AcDbLine
 10
228.5384665451534
 20
143.3827996156535
 30
0.0
 11
-161.4615334548467
 21
143.3827996156535
 31
0.0
  0
LINE
  5
93
330
8B
100
AcDbEntity
  8
1
 62
     4
100
AcDbLine
 10
228.5384665451534
 20
-133.1172003843465
 30
0.0
 11
-151.4615334548467
 21
-133.1172003843465
 31
0.0
  0
LINE
  5
94
330
8B
100
AcDbEntity
  8
1
 62
     4
100
AcDbLine
 10
103.5384665451535
 20
-109.1172003843465
 30
0.0
 11
103.5384665451535
 21
-129.1172003843465
 31
0.0
  0
LINE
  5
95
330
8B
100
AcDbEntity
  8
1
 62
     4
100
AcDbLine
 10
228.5384665451534
 20
-109.1172003843465
 30
0.0
 11
48.53846654515328
 21
-109.1172003843465
 31
0.0
  0
LINE
  5
96
330
8B
100
AcDbEntity
  8
1
 62
     4
100
AcDbLine
 10
173.5384665451534
 20
-119.1172003843465
 30
0.0
 11
228.5384665451534
 21
-119.1172003843465
 31
0.0
  0
LINE
  5
97
330
8B
100
AcDbEntity
  8
1
 62
     4
100
AcDbLine
 10
173.5384665451534
 20
-129.1172003843465
 30
0.0
 11
173.5384665451534
 21
-109.1172003843465
 31
0.0
  0
LINE
  5
98
330
8B
100
AcDbEntity
  8
1
 62
     4
100
AcDbLine
 10
228.5384665451534
 20
-133.1172003843465
 30
0.0
 11
228.5384665451534
 21
143.3827996156535
 31
0.0
  0
LINE
  5
99
330
8B
100
AcDbEntity
  8
1
 62
     2
100
AcDbLine
 10
201.0384665451534
 20
-102.1172003843465
 30
0.0
 11
201.0384665451534
 21
-119.1172003843465
 31
0.0
  0
LINE
  5
9A
330
8B
100
AcDbEntity
  8
1
 62
     4
100
AcDbLine
 10
48.53846654515351
 20
-102.1172003843465
 30
0.0
 11
228.5384665451534
 21
-102.1172003843465
 31
0.0
  0
LINE
  5
9B
330
8B
100
AcDbEntity
  8
1
 62
     7
100
AcDbLine
 10
82.53846654515349
 20
-102.1172003843465
 30
0.0
 11
82.53846654515349
 21
-109.1172003843465
 31
0.0
  0
LINE
  5
9C
330
8B
100
AcDbEntity
  8
1
 62
     7
100
AcDbLine
 10
116.5384665451535
 20
-102.1172003843465
 30
0.0
 11
116.5384665451535
 21
-109.1172003843465
 31
0.0
  0
LINE
  5
9D
330
8B
100
AcDbEntity
  8
1
 62
     7
100
AcDbLine
 10
150.5384665451534
 20
-102.1172003843465
 30
0.0
 11
150.5384665451534
 21
-109.1172003843465
 31
0.0
  0
LINE
  5
9E
330
8B
100
AcDbEntity
  8
1
 62
     4
100
AcDbLine
 10
-161.4615334548467
 20
143.3827996156535
 30
0.0
 11
-161.4615334548467
 21
-78.1172003843465
 31
0.0
  0
LINE
  5
9F
330
8B
100
AcDbEntity
  8
1
 62
     4
100
AcDbLine
 10
-151.4615334548467
 20
-78.1172003843465
 30
0.0
 11
-151.4615334548467
 21
-133.1172003843465
 31
0.0
  0
LINE
  5
A0
330
8B
100
AcDbEntity
  8
1
 62
     4
100
AcDbLine
 10
-161.4615334548467
 20
-78.1172003843465
 30
0.0
 11
-151.4615334548467
 21
-78.1172003843465
 31
0.0
  0
LINE
  5
A1
330
8B
100
AcDbEntity
  8
1
 62
     7
100
AcDbLine
 10
204.7814096436644
 20
-112.5436506123125
 30
0.0
 11
204.7814096436644
 21
-115.6907501563805
 31
0.0
  0
LINE
  5
A2
330
8B
100
AcDbEntity
  8
1
 62
     7
100
AcDbLine
 10
214.7814096436644
 20
-110.7290254079327
 30
0.0
 11
204.7814096436644
 21
-112.5436506123125
 31
0.0
  0
LINE
  5
A3
330
8B
100
AcDbEntity
  8
1
 62
     7
100
AcDbLine
 10
204.7814096436644
 20
-115.6907501563805
 30
0.0
 11
214.7814096436644
 21
-117.5053753607605
 31
0.0
  0
LINE
  5
A4
330
8B
100
AcDbEntity
  8
1
 62
     7
100
AcDbLine
 10
214.7814096436644
 20
-117.5053753607605
 30
0.0
 11
214.7814096436644
 21
-110.7290254079327
 31
0.0
  0
CIRCLE
  5
A5
330
8B
100
AcDbEntity
  8
1
 62
     7
100
AcDbCircle
 10
221.3932346672504
 20
-114.1172003843465
 30
0.0
 40
3.388174976414006
  0
CIRCLE
  5
A6
330
8B
100
AcDbEntity
  8
1
 62
     7
100
AcDbCircle
 10
221.3932346672504
 20
-114.1172003843465
 30
0.0
 40
1.573549772033999
  0
TEXT
  5
A7
330
8B
100
AcDbEntity
  8
1
 62
     2
100
AcDbText
 10
47.43846654515337
 20
-131.1172003843465
 30
0.0
 40
1.8
  1
F.05.003.17.01 - 25.02.93
 50
90.0
 41
0.5400000000000001
 11
46.53846654515337
 21
-131.1172003843465
 31
0.0
100
AcDbText
 73
     2
  0
TEXT
  5
A8
330
8B
100
AcDbEntity
  8
1
 62
     2
100
AcDbText
 10
72.16301654515338
 20
-132.0172003843465
 30
0.0
 40
1.8
  1
Ce plan reste notre propriÅtÅ. Il ne peut, sans notre autorisation Åcrite Átre copiÅ, reproduit, communiquÅ È des tiers ou mis È leur disposition.
 41
0.8100000000000001
 72
     1
 11
138.5384665451534
 21
-131.1172003843465
 31
0.0
100
AcDbText
 73
     2
  0
TEXT
  5
A9
330
8B
100
AcDbEntity
  8
1
 62
     4
100
AcDbText
 10
62.86246654515349
 20
-118.1172003843465
 30
0.0
 40
6.0
  1
Portescap
 41
0.72
 72
     1
 11
76.0384665451535
 21
-118.1172003843465
 31
0.0
100
AcDbText
  0
TEXT
  5
AA
330
8B
100
AcDbEntity
  8
1
 62
     3
100
AcDbText
 10
63.2944665451535
 20
-125.1172003843465
 30
0.0
 40
3.0
  1
La Chaux-de-Fonds
 41
0.72
 72
     1
 11
76.0384665451535
 21
-125.1172003843465
 31
0.0
100
AcDbText
  0
TEXT
  5
AB
330
8B
100
AcDbEntity
  8
1
 62
     4
100
AcDbText
 10
116.9384665451534
 20
-117.8672003843465
 30
0.0
 40
5.0
  1
  13N 88 .1
 41
0.7200000000000001
100
AcDbText
  0
TEXT
  5
AC
330
8B
100
AcDbEntity
  8
1
 62
     4
100
AcDbText
 10
116.9384665451534
 20
-125.3672003843465
 30
0.0
 40
5.0
  1
Encombrement
 41
0.7200000000000001
100
AcDbText
  0
TEXT
  5
AD
330
8B
100
AcDbEntity
  8
1
 62
     4
100
AcDbText
 10
185.1984665451534
 20
-126.6172003843465
 30
0.0
 40
5.0
  1
1.011.13.0101.S11
 41
0.7200000000000001
 72
     1
 11
201.0384665451534
 21
-124.1172003843465
 31
0.0
100
AcDbText
 73
     2
  0
TEXT
  5
AE
330
8B
100
AcDbEntity
  8
1
 62
     2
100
AcDbText
 10
118.5384665451535
 20
-106.6172003843467
 30
0.0
 40
2.0
  1
ContrÂlÅ :
 41
0.5850000000000001
 11
118.5384665451535
 21
-105.6172003843467
 31
0.0
100
AcDbText
 73
     2
  0
TEXT
  5
AF
330
8B
100
AcDbEntity
  8
1
 62
     2
100
AcDbText
 10
84.5384665451535
 20
-106.6172003843467
 30
0.0
 40
2.0
  1
Conforme :
 41
0.5850000000000001
 11
84.5384665451535
 21
-105.6172003843467
 31
0.0
100
AcDbText
 73
     2
  0
TEXT
  5
B0
330
8B
100
AcDbEntity
  8
1
 62
     2
100
AcDbText
 10
50.5384665451535
 20
-106.6172003843465
 30
0.0
 40
2.0
  1
DessinÅ :
 41
0.5850000000000001
 11
50.5384665451535
 21
-105.6172003843465
 31
0.0
100
AcDbText
 73
     2
  0
TEXT
  5
B1
330
8B
100
AcDbEntity
  8
1
 62
     2
100
AcDbText
 10
61.10822583791687
 20
-106.8672003843465
 30
0.0
 40
2.5
  1
01.02.94 FCh
 41
0.7200000000000001
 11
61.10822583791687
 21
-105.6172003843465
 31
0.0
100
AcDbText
 73
     2
  0
TEXT
  5
B2
330
8B
100
AcDbEntity
  8
1
 62
     4
100
AcDbText
 10
-158.9615334548467
 20
-89.7772003843465
 30
0.0
 40
5.0
  1
1.011.13.0101.S11
 50
270.0
 41
0.7200000000000001
 72
     1
 11
-156.4615334548467
 21
-105.6172003843465
 31
0.0
100
AcDbText
 73
     2
  0
TEXT
  5
B3
330
8B
100
AcDbEntity
  8
1
 62
     3
100
AcDbText
 10
158.6772165451534
 20
-107.1172003843465
 30
0.0
 40
3.0
  1
Cotes et tolÅrances en mm
 41
0.675
 72
     1
 11
175.7884665451534
 21
-105.6172003843465
 31
0.0
100
AcDbText
 73
     2
  0
TEXT
  5
B4
330
8B
100
AcDbEntity
  8
1
 62
     3
100
AcDbText
 10
181.7444665451534
 20
-115.8672003843465
 30
0.0
 40
3.5
  1
Ech. 2:1
 41
0.72
 72
     1
 11
187.2884665451534
 21
-114.1172003843465
 31
0.0
100
AcDbText
 73
     2
  0
TEXT
  5
B5
330
8B
100
AcDbEntity
  8
1
 62
     2
100
AcDbText
 10
203.0384665451534
 20
-106.6172003843465
 30
0.0
 40
2.0
  1
Edition:
 41
0.5850000000000001
 11
203.0384665451534
 21
-105.6172003843465
 31
0.0
100
AcDbText
 73
     2
  0
TEXT
  5
B6
330
8B
100
AcDbEntity
  8
1
 62
     3
100
AcDbText
 10
213.6082258379168
 20
-106.8672003843465
 30
0.0
 40
2.5
  1
02
 41
0.7200000000000001
 11
213.6082258379168
 21
-105.6172003843465
 31
0.0
100
AcDbText
 73
     2
  0
ENDBLK
  5
B7
330
8B
100
AcDbEntity
  8
0
100
AcDbBlockEnd
  0
BLOCK
  5
140
330
13F
100
AcDbEntity
  8
0
100
AcDbBlockBegin
  2
TOP_TOP_
 70
     0
 10
-73.96153345484669
 20
-62.2422003843465
 30
0.0
  3
TOP_TOP_
  1

  0
ENDBLK
  5
1B6
330
13F
100
AcDbEntity
  8
0
100
AcDbBlockEnd
  0
BLOCK
  5
AA2
330
AA0
100
AcDbEntity
  8
0
100
AcDbBlockBegin
  2
_Oblique
 70
     0
 10
0.0
 20
0.0
 30
0.0
  3
_Oblique
  1

  0
LINE
  5
AA1
330
AA0
100
AcDbEntity
  8
0
  6
ByBlock
 62
     0
370
    -2
100
AcDbLine
 10
-0.5
 20
-0.5
 30
0.0
 11
0.5
 21
0.5
 31
0.0
  0
ENDBLK
  5
AA3
330
AA0
100
AcDbEntity
  8
0
100
AcDbBlockEnd
  0
BLOCK
  5
B00
330
AFD
100
AcDbEntity
  8
0
 62
   255
100
AcDbBlockBegin
  2
A$C08716F59
 70
     0
 10
0.0
 20
0.0
 30
0.0
  3
A$C08716F59
  1

  0
LINE
  5
B01
330
AFD
100
AcDbEntity
  8
0
  6
Continuous
 62
   255
100
AcDbLine
 10
0.0
 20
12.17339149400141
 30
0.0
 11
182.9999999999895
 21
12.17339149400141
 31
0.0
  0
LINE
  5
B02
330
AFD
100
AcDbEntity
  8
0
  6
Continuous
 62
   255
100
AcDbLine
 10
139.4722028839473
 20
8.115594329334285
 30
0.0
 11
182.9999999999895
 21
8.115594329334271
 31
0.0
  0
LINE
  5
B03
330
AFD
100
AcDbEntity
  8
0
  6
Continuous
 62
   255
100
AcDbLine
 10
139.4722028839473
 20
4.057797164667164
 30
0.0
 11
182.9999999999895
 21
4.05779716466715
 31
0.0
  0
MTEXT
  5
B04
330
AFD
100
AcDbEntity
  8
0
100
AcDbMText
 10
1.226077007665935
 20
16.62833710178165
 30
0.0
 40
2.494547437295386
 41
0.0
 46
0.0
 71
     1
 72
     5
  1
General tolerances ISO 2768-1 (fine)
 73
     1
 44
1.0
  0
MTEXT
  5
B05
330
AFD
100
AcDbEntity
  8
0
100
AcDbMText
 10
1.221253973245666
 20
22.7493147206207
 30
0.0
 40
2.494547437295386
 41
0.0
 46
0.0
 71
     1
 72
     5
  1
{\fISOCPEUR|b0|i0|c0|p34;\W1;Nominal dimension in mm}
  7
SLDTEXTSTYLE0
 73
     1
 44
1.0
1001
AcDbBlockRepETag
1070
     1
1071
        3
1005
0
  0
LINE
  5
B06
330
AFD
100
AcDbEntity
  8
0
  6
Continuous
 62
   255
100
AcDbLine
 10
58.34685140027523
 20
24.34678298800282
 30
0.0
 11
58.34685140027523
 21
0.0000000000000142
 31
0.0
1001
AcDbBlockRepETag
1070
     1
1071
        9
1005
0
  0
LINE
  5
B07
330
AFD
100
AcDbEntity
  8
0
  6
Continuous
 62
   255
100
AcDbLine
 10
0.0
 20
24.34678298800282
 30
0.0
 11
58.34685140027528
 21
24.34678298800282
 31
0.0
1001
AcDbBlockRepETag
1070
     1
1071
       10
1005
0
  0
LINE
  5
B08
330
AFD
100
AcDbEntity
  8
0
  6
Continuous
 62
   255
100
AcDbLine
 10
58.34685140027523
 20
24.34678298800282
 30
0.0
 11
182.9999999999895
 21
24.34678298800282
 31
0.0
1001
AcDbBlockRepETag
1070
     1
1071
       10
1005
0
  0
LINE
  5
B09
330
AFD
100
AcDbEntity
  8
0
  6
Continuous
 62
   255
100
AcDbLine
 10
79.12237616689424
 20
12.17339149400141
 30
0.0
 11
79.12237616689424
 21
24.34678298800282
 31
0.0
1001
AcDbBlockRepETag
1070
     1
1071
       14
1005
0
  0
LINE
  5
B0A
330
AFD
100
AcDbEntity
  8
0
  6
Continuous
 62
   255
100
AcDbLine
 10
99.89790093351338
 20
12.17339149400141
 30
0.0
 11
99.89790093351338
 21
24.34678298800282
 31
0.0
1001
AcDbBlockRepETag
1070
     1
1071
       14
1005
0
  0
MTEXT
  5
B0B
330
AFD
100
AcDbEntity
  8
0
100
AcDbMText
 10
168.9677353328222
 20
16.88893582326733
 30
0.0
 40
2.494547437295386
 41
0.0
 46
0.0
 71
     1
 72
     5
  1
%%p 0.3
 73
     1
 44
1.0
1001
AcDbBlockRepETag
1070
     1
1071
       24
1005
0
  0
MTEXT
  5
B0C
330
AFD
100
AcDbEntity
  8
0
100
AcDbMText
 10
147.9410418409381
 20
16.95985493722907
 30
0.0
 40
2.494547437295386
 41
0.0
 46
0.0
 71
     1
 72
     5
  1
%%p 0.2
 73
     1
 44
1.0
1001
AcDbBlockRepETag
1070
     1
1071
       25
1005
0
  0
MTEXT
  5
B0D
330
AFD
100
AcDbEntity
  8
0
100
AcDbMText
 10
126.4009074272721
 20
16.87519524493729
 30
0.0
 40
2.494547437295386
 41
0.0
 46
0.0
 71
     1
 72
     5
  1
%%p 0.15
 73
     1
 44
1.0
1001
AcDbBlockRepETag
1070
     1
1071
       26
1005
0
  0
MTEXT
  5
B0E
330
AFD
100
AcDbEntity
  8
0
100
AcDbMText
 10
105.9463212275484
 20
16.90112504597954
 30
0.0
 40
2.494547437295386
 41
0.0
 46
0.0
 71
     1
 72
     5
  1
%%p 0.1
 73
     1
 44
1.0
1001
AcDbBlockRepETag
1070
     1
1071
       27
1005
0
  0
MTEXT
  5
B0F
330
AFD
100
AcDbEntity
  8
0
100
AcDbMText
 10
84.98914242355727
 20
17.01437400608699
 30
0.0
 40
2.494547437295386
 41
0.0
 46
0.0
 71
     1
 72
     5
  1
%%p 0.05
 73
     1
 44
1.0
1001
AcDbBlockRepETag
1070
     1
1071
       28
1005
0
  0
TEXT
  5
B10
330
AFD
100
AcDbEntity
  8
0
  6
Continuous
100
AcDbText
 10
164.1615107706293
 20
20.37929673764472
 30
0.0
 40
2.494547437295386
  1
400 - 1000
100
AcDbText
1001
AcDbBlockRepETag
1070
     1
1071
       37
1005
0
  0
MTEXT
  5
B11
330
AFD
100
AcDbEntity
  8
0
100
AcDbMText
 10
144.158621869803
 20
22.96803362317041
 30
0.0
 40
2.494547437295386
 41
0.0
 46
0.0
 71
     1
 72
     5
  1
120 - 400
 73
     1
 44
1.0
1001
AcDbBlockRepETag
1070
     1
1071
       29
1005
0
  0
MTEXT
  5
B12
330
AFD
100
AcDbEntity
  8
0
100
AcDbMText
 10
124.3756636317091
 20
22.72513565785164
 30
0.0
 40
2.494547437295386
 41
0.0
 46
0.0
 71
     1
 72
     5
  1
30 - 120
 73
     1
 44
1.0
1001
AcDbBlockRepETag
1070
     1
1071
       30
1005
0
  0
MTEXT
  5
B13
330
AFD
100
AcDbEntity
  8
0
100
AcDbMText
 10
104.9462539288026
 20
22.75232551006025
 30
0.0
 40
2.494547437295386
 41
0.0
 46
0.0
 71
     1
 72
     5
  1
6 - 30
 73
     1
 44
1.0
1001
AcDbBlockRepETag
1070
     1
1071
       31
1005
0
  0
MTEXT
  5
B14
330
AFD
100
AcDbEntity
  8
0
100
AcDbMText
 10
85.07950812762828
 20
22.70556959691623
 30
0.0
 40
2.494547437295386
 41
0.0
 46
0.0
 71
     1
 72
     5
  1
3 - 6
 73
     1
 44
1.0
1001
AcDbBlockRepETag
1070
     1
1071
       32
1005
0
  0
MTEXT
  5
B15
330
AFD
100
AcDbEntity
  8
0
100
AcDbMText
 10
63.01858838858902
 20
22.78653418981571
 30
0.0
 40
2.494547437295386
 41
0.0
 46
0.0
 71
     1
 72
     5
  1
0.5 - 3
 73
     1
 44
1.0
1001
AcDbBlockRepETag
1070
     1
1071
       33
1005
0
  0
MTEXT
  5
B16
330
AFD
100
AcDbEntity
  8
0
100
AcDbMText
 10
63.43852565896918
 20
16.8478471152647
 30
0.0
 40
2.494547437295386
 41
0.0
 46
0.0
 71
     1
 72
     5
  1
%%p 0.05
 73
     1
 44
1.0
1001
AcDbBlockRepETag
1070
     1
1071
       34
1005
0
  0
LINE
  5
B17
330
AFD
100
AcDbEntity
  8
0
  6
Continuous
 62
   255
100
AcDbLine
 10
0.0
 20
18.2600872410037
 30
0.0
 11
182.9999999999897
 21
18.260087241002
 31
0.0
  0
LINE
  5
B18
330
AFD
100
AcDbEntity
  8
0
  6
Continuous
 62
   255
100
AcDbLine
 10
0.0
 20
0.0
 30
0.0
 11
182.9999999999895
 21
0.0
 31
0.0
  0
LINE
  5
B19
330
AFD
100
AcDbEntity
  8
0
  6
Continuous
 62
   255
100
AcDbLine
 10
0.0
 20
6.086695747002281
 30
0.0
 11
139.4722028839473
 21
6.086695747001002
 31
0.0
  0
MTEXT
  5
B1A
330
AFD
100
AcDbEntity
  8
0
100
AcDbMText
 10
1.201782440435636
 20
10.72252304166511
 30
0.0
 40
2.494547437295386
 41
0.0
 46
0.0
 71
     1
 72
     5
  1
{\fISOCPEUR|b0|i0|c0|p34;\W1;Shorter arm length of angle in mm}
  7
SLDTEXTSTYLE0
 73
     1
 44
1.0
1001
AcDbBlockRepETag
1070
     1
1071
        0
1005
0
  0
MTEXT
  5
B1B
330
AFD
100
AcDbEntity
  8
0
100
AcDbMText
 10
61.86525580137936
 20
10.6131426958143
 30
0.0
 40
2.494547437295386
 41
0.0
 46
0.0
 71
     1
 72
     5
  1
0 - 10
 73
     1
 44
1.0
1001
AcDbBlockRepETag
1070
     1
1071
       33
1005
0
  0
MTEXT
  5
B1C
330
AFD
100
AcDbEntity
  8
0
100
AcDbMText
 10
64.26181913627715
 20
4.674455621263291
 30
0.0
 40
2.494547437295386
 41
0.0
 46
0.0
 71
     1
 72
     5
  1
%%P 1%%D
 73
     1
 44
1.0
1001
AcDbBlockRepETag
1070
     1
1071
       34
1005
0
  0
MTEXT
  5
B1D
330
AFD
100
AcDbEntity
  8
0
100
AcDbMText
 10
77.03151478382711
 20
10.6131426958143
 30
0.0
 40
2.494547437295386
 41
0.0
 46
0.0
 71
     1
 72
     5
  1
10 - 50
 73
     1
 44
1.0
1001
AcDbBlockRepETag
1070
     1
1071
       33
1005
0
  0
MTEXT
  5
B1E
330
AFD
100
AcDbEntity
  8
0
100
AcDbMText
 10
78.88210132936956
 20
4.674455621263291
 30
0.0
 40
2.494547437295386
 41
0.0
 46
0.0
 71
     1
 72
     5
  1
%%P 0.5%%D
 73
     1
 44
1.0
1001
AcDbBlockRepETag
1070
     1
1071
       34
1005
0
  0
MTEXT
  5
B1F
330
AFD
100
AcDbEntity
  8
0
100
AcDbMText
 10
92.59088918373743
 20
10.6131426958143
 30
0.0
 40
2.494547437295386
 41
0.0
 46
0.0
 71
     1
 72
     5
  1
50 - 120
 73
     1
 44
1.0
1001
AcDbBlockRepETag
1070
     1
1071
       33
1005
0
  0
MTEXT
  5
B20
330
AFD
100
AcDbEntity
  8
0
100
AcDbMText
 10
93.18809940139329
 20
4.674455621263291
 30
0.0
 40
2.494547437295386
 41
0.0
 46
0.0
 71
     1
 72
     5
  1
%%P 0.333%%D
 73
     1
 44
1.0
1001
AcDbBlockRepETag
1070
     1
1071
       34
1005
0
  0
MTEXT
  5
B21
330
AFD
100
AcDbEntity
  8
0
100
AcDbMText
 10
107.5423679565415
 20
10.6131426958143
 30
0.0
 40
2.494547437295386
 41
0.0
 46
0.0
 71
     1
 72
     5
  1
120 - 400
 73
     1
 44
1.0
1001
AcDbBlockRepETag
1070
     1
1071
       33
1005
0
  0
MTEXT
  5
B22
330
AFD
100
AcDbEntity
  8
0
100
AcDbMText
 10
109.7564886466487
 20
4.674455621263291
 30
0.0
 40
2.494547437295386
 41
0.0
 46
0.0
 71
     1
 72
     5
  1
%%P 0.166%%D
 73
     1
 44
1.0
1001
AcDbBlockRepETag
1070
     1
1071
       34
1005
0
  0
MTEXT
  5
B23
330
AFD
100
AcDbEntity
  8
0
100
AcDbMText
 10
123.9025409958209
 20
10.6131426958143
 30
0.0
 40
2.494547437295386
 41
0.0
 46
0.0
 71
     1
 72
     5
  1
{\W0.9;400 - 1000}
 73
     1
 44
1.0
1001
AcDbBlockRepETag
1070
     1
1071
       33
1005
0
  0
MTEXT
  5
B24
330
AFD
100
AcDbEntity
  8
0
100
AcDbMText
 10
125.3174912143491
 20
4.674455621263291
 30
0.0
 40
2.494547437295386
 41
0.0
 46
0.0
 71
     1
 72
     5
  1
%%P 0.083%%D
 73
     1
 44
1.0
1001
AcDbBlockRepETag
1070
     1
1071
       34
1005
0
  0
MTEXT
  5
B25
330
AFD
100
AcDbEntity
  8
0
100
AcDbMText
 10
1.226077007665821
 20
4.82201452720912
 30
0.0
 40
2.494547437295386
 41
0.0
 46
0.0
 71
     1
 72
     5
  1
General tolerances ISO 2768-1 (fine)
 73
     1
 44
1.0
  0
LINE
  5
B26
330
AFD
100
AcDbEntity
  8
0
  6
Continuous
 62
   255
100
AcDbLine
 10
74.57192169700966
 20
12.17339149400141
 30
0.0
 11
74.57192169700966
 21
0.0000000000000142
 31
0.0
1001
AcDbBlockRepETag
1070
     1
1071
        9
1005
0
  0
LINE
  5
B27
330
AFD
100
AcDbEntity
  8
0
  6
Continuous
 62
   255
100
AcDbLine
 10
90.79699199374408
 20
12.17339149400141
 30
0.0
 11
90.79699199374408
 21
0.0000000000000142
 31
0.0
1001
AcDbBlockRepETag
1070
     1
1071
        9
1005
0
  0
LINE
  5
B28
330
AFD
100
AcDbEntity
  8
0
  6
Continuous
 62
   255
100
AcDbLine
 10
107.0220622904785
 20
12.17339149400141
 30
0.0
 11
107.0220622904785
 21
0.0000000000000142
 31
0.0
1001
AcDbBlockRepETag
1070
     1
1071
        9
1005
0
  0
LINE
  5
B29
330
AFD
100
AcDbEntity
  8
0
  6
Continuous
 62
   255
100
AcDbLine
 10
123.2471325872129
 20
12.17339149400141
 30
0.0
 11
123.2471325872129
 21
0.0000000000000142
 31
0.0
1001
AcDbBlockRepETag
1070
     1
1071
        9
1005
0
  0
LINE
  5
B2A
330
AFD
100
AcDbEntity
  8
0
  6
Continuous
 62
   255
100
AcDbLine
 10
139.4722028839473
 20
12.17339149400141
 30
0.0
 11
139.4722028839473
 21
0.0000000000000142
 31
0.0
1001
AcDbBlockRepETag
1070
     1
1071
        9
1005
0
  0
TOLERANCE
  5
B2B
330
AFD
100
AcDbEntity
  8
0
100
AcDbFcf
  3
Standard
 10
140.3018912761555
 20
10.16670485428646
 30
0.0
  1
%%v%%v%%vH1%%v%%v
1001
ACAD
1000
DSTYLE
1002
{
1070
    40
1040
0.5
1070
   140
1040
3.24
1070
   147
1040
1.62
1002
}
  0
MTEXT
  5
B2C
330
AFD
100
AcDbEntity
  8
0
100
AcDbMText
 10
144.6501712219154
 20
11.25538089487233
 30
0.0
 40
1.995637949836309
 41
0.0
 46
0.0
 71
     1
 72
     5
  1
.....
 73
     1
 44
1.0
1001
AcDbBlockRepETag
1070
     1
1071
       34
1005
0
  0
MTEXT
  5
B2D
330
AFD
100
AcDbEntity
  8
0
100
AcDbMText
 10
148.0466459170135
 20
11.25538089487233
 30
0.0
 40
1.995637949836309
 41
0.0
 46
0.0
 71
     1
 72
     5
  1
Horizontal CTQ Dimensions
 73
     1
 44
1.0
1001
AcDbBlockRepETag
1070
     1
1071
       34
1005
0
  0
TOLERANCE
  5
B2E
330
AFD
100
AcDbEntity
  8
0
100
AcDbFcf
  3
Standard
 10
140.3018912761555
 20
6.108907689619343
 30
0.0
  1
%%v%%v%%vV1%%v%%v
1001
ACAD
1000
DSTYLE
1002
{
1070
    40
1040
0.5
1070
   140
1040
3.24
1070
   147
1040
1.62
1002
}
  0
MTEXT
  5
B2F
330
AFD
100
AcDbEntity
  8
0
100
AcDbMText
 10
144.6501712219154
 20
7.197583730205209
 30
0.0
 40
1.995637949836309
 41
0.0
 46
0.0
 71
     1
 72
     5
  1
.....
 73
     1
 44
1.0
1001
AcDbBlockRepETag
1070
     1
1071
       34
1005
0
  0
MTEXT
  5
B30
330
AFD
100
AcDbEntity
  8
0
100
AcDbMText
 10
148.0466459170135
 20
7.197583730205209
 30
0.0
 40
1.995637949836309
 41
0.0
 46
0.0
 71
     1
 72
     5
  1
Vertical CTQ Dimensions
 73
     1
 44
1.0
1001
AcDbBlockRepETag
1070
     1
1071
       34
1005
0
  0
TOLERANCE
  5
B31
330
AFD
100
AcDbEntity
  8
0
100
AcDbFcf
  3
Standard
 10
140.3018912761555
 20
2.051110524952221
 30
0.0
  1
%%v%%v%%vS1%%v%%v
1001
ACAD
1000
DSTYLE
1002
{
1070
    40
1040
0.5
1070
   140
1040
3.24
1070
   147
1040
1.62
1002
}
  0
MTEXT
  5
B32
330
AFD
100
AcDbEntity
  8
0
100
AcDbMText
 10
144.6501712219154
 20
3.139786565538088
 30
0.0
 40
1.995637949836309
 41
0.0
 46
0.0
 71
     1
 72
     5
  1
.....
 73
     1
 44
1.0
1001
AcDbBlockRepETag
1070
     1
1071
       34
1005
0
  0
MTEXT
  5
B33
330
AFD
100
AcDbEntity
  8
0
100
AcDbMText
 10
148.0466459170135
 20
3.139786565538088
 30
0.0
 40
1.995637949836309
 41
0.0
 46
0.0
 71
     1
 72
     5
  1
GD&T & Other Features
 73
     1
 44
1.0
1001
AcDbBlockRepETag
1070
     1
1071
       34
1005
0
  0
LINE
  5
B34
330
AFD
100
AcDbEntity
  8
0
  6
Continuous
 62
   255
100
AcDbLine
 10
120.6734257001324
 20
12.17339149400141
 30
0.0
 11
120.6734257001324
 21
24.34678298800282
 31
0.0
1001
AcDbBlockRepETag
1070
     1
1071
       14
1005
0
  0
LINE
  5
B35
330
AFD
100
AcDbEntity
  8
0
  6
Continuous
 62
   255
100
AcDbLine
 10
141.4489504667515
 20
12.17339149400141
 30
0.0
 11
141.4489504667515
 21
24.34678298800282
 31
0.0
1001
AcDbBlockRepETag
1070
     1
1071
       14
1005
0
  0
LINE
  5
B36
330
AFD
100
AcDbEntity
  8
0
  6
Continuous
 62
   255
100
AcDbLine
 10
162.2244752333704
 20
12.17339149400141
 30
0.0
 11
162.2244752333704
 21
24.34678298800282
 31
0.0
1001
AcDbBlockRepETag
1070
     1
1071
       14
1005
0
  0
ENDBLK
  5
B37
330
AFD
100
AcDbEntity
  8
0
 62
   255
100
AcDbBlockEnd
  0
BLOCK
  5
B3B
330
B38
100
AcDbEntity
  8
0
100
AcDbBlockBegin
  2
A$C058C21FF
 70
     0
 10
0.0
 20
0.0
 30
0.0
  3
A$C058C21FF
  1

  0
LINE
  5
B3C
330
B38
100
AcDbEntity
  8
0
  6
Continuous
 62
   255
100
AcDbLine
 10
392.9999664095999
 20
-277.0
 30
0.0
 11
392.9999664095999
 21
0.0
 31
0.0
  0
LINE
  5
B3D
330
B38
100
AcDbEntity
  8
0
  6
Continuous
 62
   255
100
AcDbLine
 10
10.0
 20
-277.0
 30
0.0
 11
392.9999664095999
 21
-277.0
 31
0.0
  0
LINE
  5
B3E
330
B38
100
AcDbEntity
  8
0
  6
Continuous
 62
   255
100
AcDbLine
 10
0.0
 20
0.0
 30
0.0
 11
0.0
 21
-222.0000000000001
 31
0.0
  0
LINE
  5
B3F
330
B38
100
AcDbEntity
  8
0
  6
Continuous
 62
   255
100
AcDbLine
 10
0.0
 20
0.0
 30
0.0
 11
392.9999664095999
 21
0.0
 31
0.0
  0
LINE
  5
B40
330
B38
100
AcDbEntity
  8
1
 62
     2
100
AcDbLine
 10
212.9999664095992
 20
-240.7736213082135
 30
0.0
 11
212.9999664095992
 21
-233.1532223398645
 31
0.0
1001
AcDbBlockRepETag
1070
     1
1071
     2034
1005
0
  0
LINE
  5
B41
330
B38
100
AcDbEntity
  8
1
 62
     2
100
AcDbLine
 10
377.9999664095851
 20
-240.7736213082135
 30
0.0
 11
212.9999664095992
 21
-240.7736213082135
 31
0.0
1001
AcDbBlockRepETag
1070
     1
1071
     2035
1005
0
  0
LINE
  5
B42
330
B38
100
AcDbEntity
  8
1
 62
     2
100
AcDbLine
 10
377.9999664095851
 20
-233.1532223398645
 30
0.0
 11
377.9999664095851
 21
-240.7736213082135
 31
0.0
1001
AcDbBlockRepETag
1070
     1
1071
     2036
1005
0
  0
LINE
  5
B43
330
B38
100
AcDbEntity
  8
1
 62
     2
100
AcDbLine
 10
212.9999664095992
 20
-233.1532223398645
 30
0.0
 11
377.9999664095851
 21
-233.1532223398645
 31
0.0
1001
AcDbBlockRepETag
1070
     1
1071
     2037
1005
0
  0
TEXT
  5
B44
330
B38
100
AcDbEntity
  8
1
 62
     3
100
AcDbText
 10
214.4930914539439
 20
-238.5485951401706
 30
0.0
 40
3.299999999999733
  1
Technology: Description - no. x.xxx.xx.xxxx
100
AcDbText
1001
AcDbBlockRepETag
1070
     1
1071
     2042
1005
0
  0
LINE
  5
B45
330
B38
100
AcDbEntity
  8
0
  6
Continuous
 62
   255
100
AcDbLine
 10
10.0
 20
-222.0
 30
0.0
 11
10.0
 21
-277.0
 31
0.0
1001
AcDbBlockRepETag
1070
     1
1071
     1946
1005
0
  0
LINE
  5
B46
330
B38
100
AcDbEntity
  8
0
  6
Continuous
 62
   255
100
AcDbLine
 10
10.0
 20
-222.0
 30
0.0
 11
0.0
 21
-222.0
 31
0.0
  0
TEXT
  5
B47
330
B38
100
AcDbEntity
  8
1
 62
     4
100
AcDbText
 10
2.500000000000001
 20
-237.5000000000001
 30
0.0
 40
5.0
  1
Drg. No.
 50
270.0
 72
     1
 11
5.0
 21
-249.5000000000001
 31
0.0
100
AcDbText
 73
     2
  0
LINE
  5
B48
330
B38
100
AcDbEntity
  8
0
  6
CENTER
 62
     2
 48
0.2
370
     9
100
AcDbLine
 10
386.4999681855563
 20
-259.423144560453
 30
0.0
 11
386.4999681855563
 21
-252.4231464730208
 31
0.0
1001
AcDbBlockRepETag
1070
     1
1071
        1
1005
0
  0
LINE
  5
B49
330
B38
100
AcDbEntity
  8
0
  6
Continuous
 62
   255
100
AcDbLine
 10
383.8712940050734
 20
-262.0000040983596
 30
0.0
 11
383.8712940050734
 21
-273.0000010928959
 31
0.0
1001
AcDbBlockRepETag
1070
     1
1071
        5
1005
0
  0
LINE
  5
B4A
330
B38
100
AcDbEntity
  8
0
  6
CENTER
 62
     2
 48
0.2
370
     9
100
AcDbLine
 10
371.4999722839166
 20
-255.9231455167369
 30
0.0
 11
380.4999698249001
 21
-255.9231455167369
 31
0.0
1001
AcDbBlockRepETag
1070
     1
1071
        9
1005
0
  0
LINE
  5
B4B
330
B38
100
AcDbEntity
  8
0
  6
Continuous
 62
   255
100
AcDbLine
 10
379.9999699615125
 20
-252.8231463637312
 30
0.0
 11
371.9999721473041
 21
-254.4231459265728
 31
0.0
1001
AcDbBlockRepETag
1070
     1
1071
       10
1005
0
  0
LINE
  5
B4C
330
B38
100
AcDbEntity
  8
0
  6
Continuous
 62
   255
100
AcDbLine
 10
379.9999699615125
 20
-259.0231446697427
 30
0.0
 11
379.9999699615125
 21
-252.8231463637312
 31
0.0
1001
AcDbBlockRepETag
1070
     1
1071
       11
1005
0
  0
LINE
  5
B4D
330
B38
100
AcDbEntity
  8
0
  6
Continuous
 62
   255
100
AcDbLine
 10
371.9999721473041
 20
-257.423145106901
 30
0.0
 11
379.9999699615125
 21
-259.0231446697427
 31
0.0
1001
AcDbBlockRepETag
1070
     1
1071
       12
1005
0
  0
LINE
  5
B4E
330
B38
100
AcDbEntity
  8
0
  6
Continuous
 62
   255
100
AcDbLine
 10
371.9999721473041
 20
-254.4231459265728
 30
0.0
 11
371.9999721473041
 21
-257.423145106901
 31
0.0
1001
AcDbBlockRepETag
1070
     1
1071
       13
1005
0
  0
LINE
  5
B4F
330
B38
100
AcDbEntity
  8
0
  6
Continuous
 62
   255
100
AcDbLine
 10
352.9999773385603
 20
-262.0000040983596
 30
0.0
 11
352.9999773385601
 21
-250.0008059763035
 31
0.0
1001
AcDbBlockRepETag
1070
     1
1071
       19
1005
0
  0
LINE
  5
B50
330
B38
100
AcDbEntity
  8
0
  6
Continuous
 62
   255
100
AcDbLine
 10
318.9999866281746
 20
-262.0000040983596
 30
0.0
 11
318.9999866281746
 21
-273.0000010928959
 31
0.0
1001
AcDbBlockRepETag
1070
     1
1071
       20
1005
0
  0
LINE
  5
B51
330
B38
100
AcDbEntity
  8
0
  6
Continuous
 62
   255
100
AcDbLine
 10
352.9999773385601
 20
-262.0000040983594
 30
0.0
 11
392.9999664096001
 21
-262.0000040983596
 31
0.0
1001
AcDbBlockRepETag
1070
     1
1071
       21
1005
0
  0
LINE
  5
B52
330
B38
100
AcDbEntity
  8
0
  6
Continuous
 62
   255
100
AcDbLine
 10
245.0000068467473
 20
-262.0000040983596
 30
0.0
 11
245.0000068467473
 21
-273.0000010928959
 31
0.0
1001
AcDbBlockRepETag
1070
     1
1071
       22
1005
0
  0
LINE
  5
B53
330
B38
100
AcDbEntity
  8
0
  6
Continuous
 62
   255
100
AcDbLine
 10
257.6666700525782
 20
-256.0008059763035
 30
0.0
 11
257.6666700525779
 21
-273.0000010928959
 31
0.0
1001
AcDbBlockRepETag
1070
     1
1071
       22
1005
0
  0
LINE
  5
B54
330
B38
100
AcDbEntity
  8
0
  6
Continuous
 62
   255
100
AcDbLine
 10
210.000016409587
 20
-233.1532223398645
 30
0.0
 11
210.000016409587
 21
-277.0
 31
0.0
1001
AcDbBlockRepETag
1070
     1
1071
       26
1005
0
  0
LINE
  5
B55
330
B38
100
AcDbEntity
  8
0
  6
Continuous
 62
   255
100
AcDbLine
 10
367.9999732402
 20
-250.0008059763035
 30
0.0
 11
367.9999732402
 21
-262.0000040983596
 31
0.0
1001
AcDbBlockRepETag
1070
     1
1071
       27
1005
0
  0
LINE
  5
B56
330
B38
100
AcDbEntity
  8
0
  6
Continuous
 62
   255
100
AcDbLine
 10
185.0000232401867
 20
-257.5000053278675
 30
0.0
 11
185.0000232401869
 21
-277.0
 31
0.0
1001
AcDbBlockRepETag
1070
     1
1071
       29
1005
0
  0
LINE
  5
B57
330
B38
100
AcDbEntity
  8
0
  6
Continuous
 62
     2
370
     9
100
AcDbLine
 10
27.00001640958703
 20
-266.5000028688518
 30
0.0
 11
210.000016409587
 21
-266.5000028688518
 31
0.0
1001
AcDbBlockRepETag
1070
     1
1071
       30
1005
0
  0
LINE
  5
B58
330
B38
100
AcDbEntity
  8
0
  6
Continuous
 62
   255
100
AcDbLine
 10
27.00001640958703
 20
-271.0000016393439
 30
0.0
 11
210.000016409587
 21
-271.0000016393439
 31
0.0
1001
AcDbBlockRepETag
1070
     1
1071
       31
1005
0
  0
LINE
  5
B59
330
B38
100
AcDbEntity
  8
0
  6
Continuous
 62
   255
100
AcDbLine
 10
27.00001640958703
 20
-277.0
 30
0.0
 11
27.00001640958681
 21
-233.1532223398645
 31
0.0
1001
AcDbBlockRepETag
1070
     1
1071
       32
1005
0
  0
LINE
  5
B5A
330
B38
100
AcDbEntity
  8
0
  6
Continuous
 62
     2
370
     9
100
AcDbLine
 10
210.000016409587
 20
-262.0000040983596
 30
0.0
 11
27.00001640958703
 21
-262.0000040983596
 31
0.0
1001
AcDbBlockRepETag
1070
     1
1071
       33
1005
0
  0
LINE
  5
B5B
330
B38
100
AcDbEntity
  8
0
  6
Continuous
 62
   255
100
AcDbLine
 10
160.0000300707861
 20
-257.5000053278675
 30
0.0
 11
160.0000300707863
 21
-277.0
 31
0.0
1001
AcDbBlockRepETag
1070
     1
1071
       34
1005
0
  0
LINE
  5
B5C
330
B38
100
AcDbEntity
  8
0
  6
Continuous
 62
   255
100
AcDbLine
 10
135.0000369013846
 20
-257.5000053278675
 30
0.0
 11
135.0000369013846
 21
-277.0
 31
0.0
1001
AcDbBlockRepETag
1070
     1
1071
       35
1005
0
  0
LINE
  5
B5D
330
B38
100
AcDbEntity
  8
0
  6
Continuous
 62
   255
100
AcDbLine
 10
33.90006452432795
 20
-257.5000053278675
 30
0.0
 11
33.90006452432795
 21
-277.0
 31
0.0
1001
AcDbBlockRepETag
1070
     1
1071
       36
1005
0
  0
LINE
  5
B5E
330
B38
100
AcDbEntity
  8
0
  6
CENTER
 62
     2
 48
0.2
370
     9
100
AcDbLine
 10
382.8999691691633
 20
-255.9231455167369
 30
0.0
 11
389.9999672292731
 21
-255.9231455167369
 31
0.0
1001
AcDbBlockRepETag
1070
     1
1071
       37
1005
0
  0
LINE
  5
B5F
330
B38
100
AcDbEntity
  8
0
  6
Continuous
 62
   255
100
AcDbLine
 10
392.9999664096001
 20
-273.0000010928959
 30
0.0
 11
210.000016409587
 21
-273.0000010928959
 31
0.0
1001
AcDbBlockRepETag
1070
     1
1071
       38
1005
0
  0
CIRCLE
  5
B60
330
B38
100
AcDbEntity
  8
0
  6
Continuous
 62
   255
100
AcDbCircle
 10
386.4999681855563
 20
-255.9231455167369
 30
0.0
 40
3.099999153005696
1001
AcDbBlockRepETag
1070
     1
1071
       39
1005
0
  0
CIRCLE
  5
B61
330
B38
100
AcDbEntity
  8
0
  6
Continuous
 62
   255
100
AcDbCircle
 10
386.4999681855563
 20
-255.9231455167369
 30
0.0
 40
1.499999590164046
1001
AcDbBlockRepETag
1070
     1
1071
       40
1005
0
  0
MTEXT
  5
B62
330
B38
100
AcDbEntity
  8
0
 62
   255
100
AcDbMText
 10
356.8782500675213
 20
-252.7695148487513
 30
0.0
 40
1.999999453552061
 41
0.0
 46
0.0
 71
     1
 72
     5
  1
Scale
 73
     1
 44
1.0
1001
AcDbBlockRepETag
1070
     1
1071
       46
1005
0
  0
MTEXT
  5
B63
330
B38
100
AcDbEntity
  8
0
 62
   255
100
AcDbMText
 10
384.7939704696303
 20
-264.9195248175762
 30
0.0
 40
4.508695652173912
 41
0.0
 46
0.0
 71
     1
 72
     5
  1
{\fISOCPEUR|b0|i0|c0|p34;\W1;A3}
  7
SLDTEXTSTYLE0
 73
     1
 44
1.0
1001
AcDbBlockRepETag
1070
     1
1071
       50
1005
0
  0
TEXT
  5
B64
330
B38
100
AcDbEntity
  8
0
  6
Continuous
 62
   255
100
AcDbText
 10
213.5367887974839
 20
-275.600626952933
 30
0.0
 40
1.72391304347826
  1
This drawing remains our property. Without written approval it may not be copied, reproduced or communicated or made available to third parties.
100
AcDbText
1001
AcDbBlockRepETag
1070
     1
1071
       51
1005
0
  0
MTEXT
  5
B65
330
B38
100
AcDbEntity
  8
0
 62
   255
100
AcDbMText
 10
28.38043281742353
 20
-272.4012695934838
 30
0.0
 40
1.999999453552061
 41
0.0
 46
0.0
 71
     1
 72
     5
  1
No.
 73
     1
 44
1.0
1001
AcDbBlockRepETag
1070
     1
1071
       52
1005
0
  0
MTEXT
  5
B66
330
B38
100
AcDbEntity
  8
0
 62
   255
100
AcDbMText
 10
62.8916152131303
 20
-272.5568974675624
 30
0.0
 40
1.999999453552061
 41
0.0
 46
0.0
 71
     1
 72
     5
  1
Modifications
 73
     1
 44
1.0
1001
AcDbBlockRepETag
1070
     1
1071
       53
1005
0
  0
MTEXT
  5
B67
330
B38
100
AcDbEntity
  8
0
 62
   255
100
AcDbMText
 10
113.8766488820463
 20
-272.4090513971577
 30
0.0
 40
1.999999453552061
 41
0.0
 46
0.0
 71
     1
 72
     5
  1
Communication
 73
     1
 44
1.0
1001
AcDbBlockRepETag
1070
     1
1071
       54
1005
0
  0
MTEXT
  5
B68
330
B38
100
AcDbEntity
  8
0
 62
   255
100
AcDbMText
 10
143.9645104743263
 20
-272.4579818509886
 30
0.0
 40
1.999999453552061
 41
0.0
 46
0.0
 71
     1
 72
     5
  1
Drawn
 73
     1
 44
1.0
1001
AcDbBlockRepETag
1070
     1
1071
       55
1005
0
  0
MTEXT
  5
B69
330
B38
100
AcDbEntity
  8
0
 62
   255
100
AcDbMText
 10
191.619644925147
 20
-272.537497781863
 30
0.0
 40
1.999999453552061
 41
0.0
 46
0.0
 71
     1
 72
     5
  1
Approved
 73
     1
 44
1.0
1001
AcDbBlockRepETag
1070
     1
1071
       56
1005
0
  0
MTEXT
  5
B6A
330
B38
100
AcDbEntity
  8
0
 62
   255
100
AcDbMText
 10
336.1114445882952
 20
-264.9508328035223
 30
0.0
 40
4.508695652173912
 41
0.0
 46
0.0
 71
     1
 72
     5
  1
{\fISOCPEUR|b0|i0|c0|p34;\W1;Drg. No.}
  7
SLDTEXTSTYLE0
 73
     1
 44
1.0
1001
AcDbBlockRepETag
1070
     1
1071
       58
1005
0
  0
MTEXT
  5
B6B
330
B38
100
AcDbEntity
  8
0
 62
   255
100
AcDbMText
 10
266.8224219787517
 20
-264.9557813549702
 30
0.0
 40
4.508695652173912
 41
0.0
 46
0.0
 71
     1
 72
     5
  1
{\fISOCPEUR|b0|i0|c0|p34;\W1;Description}
  7
SLDTEXTSTYLE0
 73
     1
 44
1.0
1001
AcDbBlockRepETag
1070
     1
1071
       59
1005
0
  0
MTEXT
  5
B6C
330
B38
100
AcDbEntity
  8
0
 62
   255
100
AcDbMText
 10
358.084726654057
 20
-256.6405790150835
 30
0.0
 40
2.499999316940077
 41
0.0
 46
0.0
 71
     1
 72
     5
  1
X:1
 73
     1
 44
1.0
1001
AcDbBlockRepETag
1070
     1
1071
       60
1005
0
  0
MTEXT
  5
B6D
330
B38
100
AcDbEntity
  8
0
 62
     1
100
AcDbMText
 10
214.8544231156891
 20
-262.8294794084584
 30
0.0
 40
3.999998907104123
 41
0.0
 46
0.0
 71
     1
 72
     5
  1
{\fISOCPEUR|b0|i0|c0|p34;\W1;Portescap}
  7
SLDTEXTSTYLE0
 73
     1
 44
1.0
1001
AcDbBlockRepETag
1070
     1
1071
       65
1005
0
  0
LINE
  5
B6E
330
B38
100
AcDbEntity
  8
0
  6
Continuous
 62
   255
100
AcDbLine
 10
110.0000437319843
 20
-257.5000053278675
 30
0.0
 11
110.0000437319845
 21
-277.0
 31
0.0
1001
AcDbBlockRepETag
1070
     1
1071
       66
1005
0
  0
MTEXT
  5
B6F
330
B38
100
AcDbEntity
  8
0
 62
   255
100
AcDbMText
 10
167.3053807416859
 20
-272.4579818509886
 30
0.0
 40
1.999999453552061
 41
0.0
 46
0.0
 71
     1
 72
     5
  1
Checked
 73
     1
 44
1.0
1001
AcDbBlockRepETag
1070
     1
1071
       67
1005
0
  0
LINE
  5
B70
330
B38
100
AcDbEntity
  8
0
  6
Continuous
 62
   255
100
AcDbLine
 10
374.7426216005465
 20
-262.0000040983596
 30
0.0
 11
374.7426216005463
 21
-277.0
 31
0.0
1001
AcDbBlockRepETag
1070
     1
1071
        5
1005
0
  0
MTEXT
  5
B71
330
B38
100
AcDbEntity
  8
0
 62
   255
100
AcDbMText
 10
376.1389629657326
 20
-264.9195248175762
 30
0.0
 40
4.508695652173912
 41
0.0
 46
0.0
 71
     1
 72
     5
  1
{\fISOCPEUR|b0|i0|c0|p34;\W1;00}
  7
SLDTEXTSTYLE0
 73
     1
 44
1.0
1001
AcDbBlockRepETag
1070
     1
1071
       50
1005
0
  0
TEXT
  5
B72
330
B38
100
AcDbEntity
  8
0
  6
Continuous
 62
   255
100
AcDbText
 10
377.1554068563314
 20
-275.600626952933
 30
0.0
 40
1.72391304347826
  1
Sheet 1 of 1
100
AcDbText
1001
AcDbBlockRepETag
1070
     1
1071
       51
1005
0
  0
INSERT
  5
B73
330
B38
100
AcDbEntity
  8
0
 62
   255
100
AcDbBlockReference
  2
A$C08716F59
 10
27.00001640958681
 20
-257.5000053278673
 30
0.0
  0
LINE
  5
B74
330
B38
100
AcDbEntity
  8
0
  6
Continuous
 62
   255
100
AcDbLine
 10
245.0000068467473
 20
-269.0000021857919
 30
0.0
 11
210.000016409587
 21
-269.0000021857919
 31
0.0
1001
AcDbBlockRepETag
1070
     1
1071
       38
1005
0
  0
TEXT
  5
B75
330
B38
100
AcDbEntity
  8
0
  6
Continuous
 62
   255
100
AcDbText
 10
213.5367887974839
 20
-271.7908875797558
 30
0.0
 40
1.72391304347826
  1
PI/R&D/F/18 Rev 00
100
AcDbText
1001
AcDbBlockRepETag
1070
     1
1071
       51
1005
0
  0
MTEXT
  5
B76
330
B38
100
AcDbEntity
  8
0
  6
Continuous
 62
   255
100
AcDbMText
 10
211.8594586296933
 20
-254.9213169641921
 30
0.0
 40
2.499999316940077
 41
122.5201940634145
 46
0.0
 71
     7
 72
     1
  1
All dimensions and tolerances are in mm unless & otherwise specified.
  7
style1
 73
     1
 44
1.0
1001
AcDbBlockRepETag
1070
     1
1071
       64
1005
0
  0
LINE
  5
B77
330
B38
100
AcDbEntity
  8
0
  6
Continuous
 62
   255
100
AcDbLine
 10
210.000016409587
 20
-262.0008059763035
 30
0.0
 11
257.6666700525782
 21
-262.0008059763035
 31
0.0
1001
AcDbBlockRepETag
1070
     1
1071
        3
1005
0
  0
LINE
  5
B78
330
B38
100
AcDbEntity
  8
0
  6
Continuous
 62
   255
100
AcDbLine
 10
210.000016409587
 20
-250.0008059763035
 30
0.0
 11
392.9999664096001
 21
-250.0008059763035
 31
0.0
1001
AcDbBlockRepETag
1070
     1
1071
        3
1005
0
  0
LINE
  5
B79
330
B38
100
AcDbEntity
  8
0
  6
Continuous
 62
   255
100
AcDbLine
 10
210.000016409587
 20
-256.0008059763035
 30
0.0
 11
352.9999773385601
 21
-256.0008059763033
 31
0.0
1001
AcDbBlockRepETag
1070
     1
1071
        3
1005
0
  0
ENDBLK
  5
B7A
330
B38
100
AcDbEntity
  8
0
100
AcDbBlockEnd
  0
BLOCK
  5
B7C
330
B7B
100
AcDbEntity
  8
0
 62
   255
100
AcDbBlockBegin
  2
_Dot
 70
     0
 10
0.0
 20
0.0
 30
0.0
  3
_Dot
  1

  0
LWPOLYLINE
  5
B7D
330
B7B
100
AcDbEntity
  8
0
  6
ByBlock
 62
     0
100
AcDbPolyline
 90
        2
 70
     1
 43
0.5
 10
-0.25
 20
0.0
 42
1.0
 10
0.25
 20
0.0
 42
1.0
  0
LINE
  5
B7E
330
B7B
100
AcDbEntity
  8
0
  6
ByBlock
 62
     0
370
    -2
100
AcDbLine
 10
-0.5
 20
0.0
 30
0.0
 11
-1.0
 21
0.0
 31
0.0
  0
ENDBLK
  5
B7F
330
B7B
100
AcDbEntity
  8
0
 62
   255
100
AcDbBlockEnd
  0
BLOCK
  5
B83
330
B80
100
AcDbEntity
  8
0
 62
     1
100
AcDbBlockBegin
  2
A$C53560A2D
 70
     0
 10
0.0
 20
0.0
 30
0.0
  3
A$C53560A2D
  1

  0
HATCH
  5
B84
330
B80
100
AcDbEntity
  8
0
 62
     1
100
AcDbHatch
 10
0.0
 20
0.0
 30
0.0
210
0.0
220
0.0
230
1.0
  2
SOLID
 70
     1
 71
     0
 91
        1
 92
        7
 72
     0
 73
     1
 93
        8
 10
10.40639350736074
 20
-3.429580398453509
 10
9.8090548631219
 20
-3.429580398453495
 10
10.52161847102905
 20
-4.26222404987655
 10
9.562357823425486
 20
-5.017847907603865
 10
-0.1711005509629331
 20
-5.017847907603837
 10
-0.2076899027981653
 20
-5.086662246294196
 10
10.08230402145517
 20
-5.08666224629421
 10
11.12297052199432
 20
-4.266913789282654
 97
        0
 75
     0
 76
     1
 47
0.0237982239116982
 98
        1
 10
10.7687455105808
 20
-4.08916775948434
450
        0
451
        0
460
0.0
461
0.0
452
        0
462
0.0
453
        0
470

1001
ACAD
1010
0.0
1020
0.0
1030
0.0
  0
HATCH
  5
B85
330
B80
100
AcDbEntity
  8
0
 62
     3
100
AcDbHatch
 10
0.0
 20
0.0
 30
0.0
210
0.0
220
0.0
230
1.0
  2
SOLID
 70
     1
 71
     0
 91
       11
 92
        7
 72
     0
 73
     1
 93
        7
 10
1.491379020905242
 20
-2.772946682047759
 10
0.995217842298814
 20
-2.772946682047745
 10
-0.0788238170088675
 20
-4.792918690406423
 10
0.3668365951625674
 20
-4.792918690406409
 10
1.182574505556942
 20
-3.200386665146865
 10
1.390757209580954
 20
-4.792918690406395
 10
1.800184269306669
 20
-4.792918690406423
 97
        0
 92
        7
 72
     1
 73
     1
 93
       17
 10
3.143752721671432
 20
-3.44625859844703
 42
0.0
 10
2.816525880617575
 20
-3.446258598447073
 42
0.0
 10
2.903841276975811
 20
-3.02813051420415
 42
0.0
 10
2.485710676876635
 20
-3.16864853873723
 42
0.0
 10
2.427738889498414
 20
-3.44625859844703
 42
0.0
 10
2.156102845410657
 20
-3.44625859844703
 42
0.0
 10
2.108120116639497
 20
-3.699877260551375
 42
0.0
 10
2.37477709420176
 20
-3.699877260551375
 42
0.0
 10
2.197341484950982
 20
-4.54956488114216
 42
0.2314303255157967
 10
2.229132535142696
 20
-4.7375738797856
 42
0.2425677700453667
 10
2.562303738103139
 20
-4.840349188736823
 42
0.0
 10
2.853955581357979
 20
-4.793092213000164
 42
0.0
 10
2.904529503834567
 20
-4.550908380596794
 42
0.0
 10
2.695000291198482
 20
-4.550908380596808
 42
-0.4760549668863254
 10
2.615472085050157
 20
-4.409046856609066
 42
0.0
 10
2.763564085320922
 20
-3.699877260551403
 42
0.0
 10
3.095769992900443
 20
-3.699877260551403
 42
0.0
 97
        0
 92
        7
 72
     1
 73
     1
 93
       15
 10
3.902783104379238
 20
-3.703880319999356
 42
-0.2432435292258966
 10
4.1605810466001
 20
-3.728705991916442
 42
-0.2718544080322752
 10
4.214411423471688
 20
-3.906094591215776
 42
0.0
 10
4.02511501860107
 20
-4.8125801186696
 42
0.0
 10
4.425338595686184
 20
-4.812580118669615
 42
0.0
 10
4.618640162861424
 20
-3.843814600173104
 42
0.1442413094369809
 10
4.566882367577647
 20
-3.577394862249789
 42
0.1968270941560047
 10
4.312159611171807
 20
-3.438006898026017
 42
0.1671955009294615
 10
3.972511122600565
 20
-3.482973954396257
 42
0.0984224330473735
 10
3.770569059989043
 20
-3.640211074021848
 42
0.0
 10
3.934493518721126
 20
-2.855224430784346
 42
0.0
 10
3.53819104308144
 20
-2.85522443078436
 42
0.0
 10
3.129447181708883
 20
-4.812580118669629
 42
0.0
 10
3.525749657348569
 20
-4.812580118669629
 42
0.0
 10
3.717837455778578
 20
-3.892727417841854
 42
-0.1681505465182262
 97
        0
 92
        7
 72
     0
 73
     1
 93
        4
 10
5.6096725110404
 20
-2.855224430784303
 10
5.213370035400828
 20
-2.855224430784332
 10
4.804626174028157
 20
-4.8125801186696
 10
5.200928649667844
 20
-4.812580118669572
 97
        0
 92
        7
 72
     1
 73
     1
 93
       11
 10
6.952147240856731
 20
-3.566721980052093
 42
0.2003410362329726
 10
6.566896274917382
 20
-3.394380580118323
 42
0.1459636918781203
 10
6.221479418630622
 20
-3.437237506523857
 42
0.1329827864341785
 10
5.809957292924593
 20
-3.742009934847047
 42
0.1181218657170001
 10
5.613713825998559
 20
-4.246632228047602
 42
0.1453361361738481
 10
5.692211359379541
 20
-4.650330645507111
 42
0.1097723388638702
 10
5.927703226469532
 20
-4.840965604516455
 42
0.0801939741507773
 10
6.283139453583146
 20
-4.8800657463362
 42
0.1155273130323037
 10
6.714757499090808
 20
-4.716668932821008
 42
0.1356436716811775
 10
6.998631608933408
 20
-4.369984603229582
 42
0.1011385320105559
 10
7.113012828394801
 20
-3.973673703014938
 42
0.236317674944661
 97
        0
 92
       22
 72
     1
 73
     1
 93
       10
 10
6.677527194323886
 20
-4.138839615245061
 42
-0.0759023682782946
 10
6.566982042139159
 20
-4.423877995135413
 42
-0.2200816587143609
 10
6.300965840747892
 20
-4.599996581122823
 42
-0.1552209024106451
 10
6.095458780820706
 20
-4.534235363900407
 42
-0.2297088204471921
 10
6.019242210293441
 20
-4.338318807139089
 42
-0.0336344069359854
 10
6.05840294270996
 20
-4.066696381694796
 42
-0.0476503727704049
 10
6.143663624704515
 20
-3.862071844709262
 42
-0.1164757194866423
 10
6.339107330614126
 20
-3.691551275783936
 42
-0.2102767852864467
 10
6.596864975328571
 20
-3.697069810236698
 42
-0.1775077200810246
 10
6.697202341601666
 20
-3.873877008374407
 42
-0.1210907755229007
 97
        0
 92
        7
 72
     1
 73
     1
 93
       15
 10
7.838830780765817
 20
-3.892727417841783
 42
-0.1681505465179636
 10
8.02377642936608
 20
-3.703880319999441
 42
-0.2432435292261799
 10
8.281574371587225
 20
-3.72870599191637
 42
-0.2718544080325296
 10
8.335404748458813
 20
-3.906094591215861
 42
0.0
 10
8.146108343588196
 20
-4.812580118669558
 42
0.0
 10
8.546331920673253
 20
-4.812580118669586
 42
0.0
 10
8.739633487848607
 20
-3.843814600173075
 42
0.1869559109727573
 10
8.708571975710412
 20
-3.55414738959827
 42
0.2282764169136722
 10
8.434241485182553
 20
-3.416409065064058
 42
0.1548211452724478
 10
8.093504447587747
 20
-3.482973954396229
 42
0.0984224330473456
 10
7.891562384976282
 20
-3.640211074021777
 42
0.0
 10
7.935547234632508
 20
-3.429580398453509
 42
0.0
 10
7.539244758992822
 20
-3.429580398453509
 42
0.0
 10
7.250440506696122
 20
-4.812580118669558
 42
0.0
 10
7.646742982335752
 20
-4.812580118669572
 42
0.0
 97
        0
 92
        7
 72
     0
 73
     1
 93
        4
 10
9.625982522468632
 20
-3.429580398453524
 10
9.229680046829003
 20
-3.429580398453509
 10
8.940875794532303
 20
-4.812580118669558
 10
9.337178270172046
 20
-4.8125801186696
 97
        0
 92
        7
 72
     0
 73
     1
 93
        4
 10
9.745922131544659
 20
-2.855224430784318
 10
9.34961965590503
 20
-2.855224430784332
 10
9.27698869286246
 20
-3.203033026980861
 10
9.673291168502146
 20
-3.203033026980861
 97
        0
 92
        7
 72
     0
 73
     1
 93
        4
 10
12.03240295060681
 20
-3.429580398453509
 10
11.44364835907379
 20
-3.429580398453495
 10
10.87989922911413
 20
-3.888285852559178
 10
11.10949294143216
 20
-4.156570318460708
 97
        0
 92
        7
 72
     0
 73
     1
 93
        4
 10
11.05743489431273
 20
-4.407247884316163
 10
10.70348876138359
 20
-4.686056509542012
 10
11.02721331439767
 20
-5.064334590103314
 10
11.61975957304332
 20
-5.064334590103271
 97
        0
 75
     0
 76
     1
 47
0.0237982239116982
 98
       11
 10
1.427474595215414
 20
-3.466921616530399
 10
2.540276924309466
 20
-3.529962242013326
 10
3.403077140388461
 20
-3.872105201460513
 10
5.128677572546564
 20
-4.050614633904856
 10
6.869154243317836
 20
-3.872105201460513
 10
6.869154243317836
 20
-3.872105201460513
 10
7.657574707896685
 20
-4.18449635002436
 10
9.221850949254132
 20
-4.184360945182802
 10
9.578826617252673
 20
-3.161037064634811
 10
11.41130113635171
 20
-3.803588918816572
 10
11.19711616802232
 20
-4.874509392213795
450
        0
451
        0
460
0.0
461
0.0
452
        0
462
0.0
453
        0
470

1001
ACAD
1010
0.0
1020
0.0
1030
0.0
  0
ENDBLK
  5
B86
330
B80
100
AcDbEntity
  8
0
 62
     1
100
AcDbBlockEnd
  0
BLOCK
  5
B8A
330
B87
100
AcDbEntity
  8
0
 62
     1
100
AcDbBlockBegin
  2
A$C25042B23
 70
     0
 10
0.0
 20
0.0
 30
0.0
  3
A$C25042B23
  1

  0
INSERT
  5
B8B
330
B87
100
AcDbEntity
  8
0
 62
     1
100
AcDbBlockReference
  2
A$C53560A2D
 10
0.0000000000001137
 20
0.0
 30
0.0
  0
ENDBLK
  5
B8C
330
B87
100
AcDbEntity
  8
0
 62
     1
100
AcDbBlockEnd
  0
BLOCK
  5
B8E
330
B8D
100
AcDbEntity
  8
0
100
AcDbBlockBegin
  2
_FILLED
 70
     0
 10
0.0
 20
0.0
 30
0.0
  3
_FILLED
  1

  0
SOLID
  5
B8F
330
B8D
100
AcDbEntity
  8
0
  6
ByBlock
 62
     0
100
AcDbTrace
 10
0.0
 20
0.0
 30
0.0
 11
-1.0
 21
0.1875
 31
0.0
 12
-1.0
 22
-0.1875
 32
0.0
 13
-1.0
 23
-0.1875
 33
0.0
  0
ENDBLK
  5
B90
330
B8D
100
AcDbEntity
  8
0
  6
ByBlock
 62
     0
100
AcDbBlockEnd
  0
BLOCK
  5
B92
330
B91
100
AcDbEntity
  8
0
100
AcDbBlockBegin
  2
*D65
 70
     1
 10
0.0
 20
0.0
 30
0.0
  3
*D65
  1

  0
LINE
  5
B93
330
B91
100
AcDbEntity
  8
0
  6
Continuous
 62
     0
370
    -2
100
AcDbLine
 10
1802.555021500383
 20
-480.9336425058048
 30
0.0
 11
1802.555021500383
 21
-488.3557146914714
 31
0.0
  0
LINE
  5
B94
330
B91
100
AcDbEntity
  8
0
  6
Continuous
 62
     0
370
    -2
100
AcDbLine
 10
1847.055021181983
 20
-481.2336410539381
 30
0.0
 11
1847.055021181983
 21
-488.3557146914714
 31
0.0
  0
LINE
  5
B95
330
B91
100
AcDbEntity
  8
0
  6
Continuous
 62
     0
370
    -2
100
AcDbLine
 10
1806.555021500383
 20
-488.1757146914714
 30
0.0
 11
1843.055021181983
 21
-488.1757146914714
 31
0.0
  0
INSERT
  5
B96
330
B91
100
AcDbEntity
  8
0
  6
Continuous
 62
     0
370
    -2
100
AcDbBlockReference
  2
_FILLED
 10
1802.555021500383
 20
-488.1757146914714
 30
0.0
 41
4.0
 42
4.0
 43
4.0
 50
180.0
  0
INSERT
  5
B97
330
B91
100
AcDbEntity
  8
0
  6
Continuous
 62
     0
370
    -2
100
AcDbBlockReference
  2
_FILLED
 10
1847.055021181983
 20
-488.1757146914714
 30
0.0
 41
4.0
 42
4.0
 43
4.0
  0
MTEXT
  5
B98
330
B91
100
AcDbEntity
  8
0
  6
Continuous
 62
     5
100
AcDbMText
 10
1824.805021341183
 20
-486.6857146914714
 30
0.0
 40
2.799999999999999
 41
0.0
 46
0.0
 71
     5
 72
     1
  1
\A1;29.67±0.3
 73
     1
 44
1.0
  0
POINT
  5
B99
330
B91
100
AcDbEntity
  8
Defpoints
  6
Continuous
 62
     0
100
AcDbPoint
 10
1802.555021500383
 20
-480.8711425058048
 30
0.0
  0
POINT
  5
B9A
330
B91
100
AcDbEntity
  8
Defpoints
  6
Continuous
 62
     0
100
AcDbPoint
 10
1847.055021181983
 20
-481.1711410539381
 30
0.0
  0
POINT
  5
B9B
330
B91
100
AcDbEntity
  8
Defpoints
  6
Continuous
 62
     0
100
AcDbPoint
 10
1847.055021181983
 20
-488.1757146914714
 30
0.0
  0
ENDBLK
  5
B9C
330
B91
100
AcDbEntity
  8
0
100
AcDbBlockEnd
  0
BLOCK
  5
BA0
330
B9D
100
AcDbEntity
  8
0
100
AcDbBlockBegin
  2
A$C274A2516
 70
     0
 10
0.0
 20
0.0
 30
0.0
  3
A$C274A2516
  1

  0
DIMENSION
  5
BA1
330
B9D
100
AcDbEntity
  8
0
  6
Continuous
 62
     2
100
AcDbDimension
  2
*D65
 10
49.41318594722497
 20
1.185548929283584
 30
0.0
 11
27.1631861064252
 21
1.185548929283584
 31
0.0
 12
-1797.641835234758
 22
489.361263620755
 32
0.0
 70
   128
 71
     0
 72
     0
 41
0.0
 42
29.66666645588333
 73
     0
 74
     0
 75
     0
  3
DIMSTYLE_8
100
AcDbAlignedDimension
 13
4.913186265624972
 23
8.490121114950227
 33
0.0
 14
49.41318594722497
 24
8.19012256681691
 34
0.0
100
AcDbRotatedDimension
  0
LINE
  5
BA2
330
B9D
100
AcDbEntity
  8
0
  6
Continuous
 62
     7
100
AcDbLine
 10
4.913186265624972
 20
30.62336891321689
 30
0.0
 11
4.913186265624972
 21
9.023539983350246
 31
0.0
  0
LINE
  5
BA3
330
B9D
100
AcDbEntity
  8
0
  6
Continuous
 62
     7
100
AcDbLine
 10
5.113185485291523
 20
30.82345444728361
 30
0.0
 11
5.113185485291523
 21
8.823454449283588
 31
0.0
  0
LINE
  5
BA4
330
B9D
100
AcDbEntity
  8
0
  6
Continuous
 62
     7
100
AcDbLine
 10
4.913187226958598
 20
30.62345408315025
 30
0.0
 11
5.11318663495831
 21
30.82345346661691
 31
0.0
  0
LINE
  5
BA5
330
B9D
100
AcDbEntity
  8
0
  6
Continuous
 62
     7
100
AcDbLine
 10
4.913187226958598
 20
9.023454813416947
 30
0.0
 11
5.11318663495831
 21
8.823455429950229
 31
0.0
  0
LWPOLYLINE
  5
BA6
330
B9D
100
AcDbEntity
  8
0
  6
Continuous
 62
     7
100
AcDbPolyline
 90
        3
 70
     0
 43
0.0
 10
8.213186495558602
 20
10.47664903488356
 10
8.175811462891488
 20
10.67089466321692
 10
8.163188469091892
 20
10.85374136828358
  0
LINE
  5
BA7
330
B9D
100
AcDbEntity
  8
0
  6
Continuous
 62
     7
100
AcDbLine
 10
7.713187482491775
 20
30.82345444728361
 30
0.0
 11
7.713187482491775
 21
8.823454449283588
 31
0.0
  0
LINE
  5
BA8
330
B9D
100
AcDbEntity
  8
0
  6
Continuous
 62
     7
100
AcDbLine
 10
7.913186265624972
 20
30.62337005035028
 30
0.0
 11
7.913186265624972
 21
9.023538846216922
 31
0.0
  0
LINE
  5
BA9
330
B9D
100
AcDbEntity
  8
0
  6
Continuous
 62
     7
100
AcDbLine
 10
8.213190692692023
 20
8.823454448283598
 30
0.0
 11
8.213188470958357
 21
10.47664542421694
 31
0.0
  0
LINE
  5
BAA
330
B9D
100
AcDbEntity
  8
0
  6
Continuous
 62
     7
100
AcDbLine
 10
8.21318847575867
 20
29.17026347688358
 30
0.0
 11
8.213190692692023
 21
30.8234544482836
 31
0.0
  0
LINE
  5
BAB
330
B9D
100
AcDbEntity
  8
0
  6
Continuous
 62
     7
100
AcDbLine
 10
8.213188774424907
 20
11.17667091475027
 30
0.0
 11
8.213186622558623
 21
28.47024295441696
 31
0.0
  0
LINE
  5
BAC
330
B9D
100
AcDbEntity
  8
0
  6
Continuous
 62
     7
100
AcDbLine
 10
9.163186265624972
 20
28.92428466195026
 30
0.0
 11
9.163186265624972
 21
28.58013880015028
 31
0.0
  0
LINE
  5
BAD
330
B9D
100
AcDbEntity
  8
0
  6
Continuous
 62
     7
100
AcDbLine
 10
9.163186265624972
 20
11.06677009641692
 30
0.0
 11
9.163186265624972
 21
10.72262423461694
 31
0.0
  0
LINE
  5
BAE
330
B9D
100
AcDbEntity
  8
0
  6
Continuous
 62
     7
100
AcDbLine
 10
10.11318626562524
 20
29.46918227648359
 30
0.0
 11
10.11318626562524
 21
28.6785390486836
 31
0.0
  0
LINE
  5
BAF
330
B9D
100
AcDbEntity
  8
0
  6
Continuous
 62
     7
100
AcDbLine
 10
10.11318626562524
 20
28.58013880015028
 30
0.0
 11
10.11318626562524
 21
28.03524118561694
 31
0.0
  0
LINE
  5
BB0
330
B9D
100
AcDbEntity
  8
0
  6
Continuous
 62
     7
100
AcDbLine
 10
10.11318626562524
 20
11.61166771095025
 30
0.0
 11
10.11318626562524
 21
11.06677009641692
 31
0.0
  0
LINE
  5
BB1
330
B9D
100
AcDbEntity
  8
0
  6
Continuous
 62
     7
100
AcDbLine
 10
10.11318626562524
 20
10.1777266200836
 30
0.0
 11
10.11318626562524
 21
10.96836984788359
 31
0.0
  0
LINE
  5
BB2
330
B9D
100
AcDbEntity
  8
0
  6
Continuous
 62
     7
100
AcDbLine
 10
10.71318626562515
 20
10.1777266200836
 30
0.0
 11
10.71318626562515
 21
10.96836984788359
 31
0.0
  0
LINE
  5
BB3
330
B9D
100
AcDbEntity
  8
0
  6
Continuous
 62
     7
100
AcDbLine
 10
10.71318626562515
 20
11.06677009641692
 30
0.0
 11
10.71318626562515
 21
11.61166771095025
 31
0.0
  0
LINE
  5
BB4
330
B9D
100
AcDbEntity
  8
0
  6
Continuous
 62
     7
100
AcDbLine
 10
10.71318626562515
 20
28.03524118561694
 30
0.0
 11
10.71318626562515
 21
28.58013880015028
 31
0.0
  0
LINE
  5
BB5
330
B9D
100
AcDbEntity
  8
0
  6
Continuous
 62
     7
100
AcDbLine
 10
10.71318626562515
 20
28.6785390486836
 30
0.0
 11
10.71318626562515
 21
29.46918227648359
 31
0.0
  0
LWPOLYLINE
  5
BB6
330
B9D
100
AcDbEntity
  8
0
  6
Continuous
 62
     7
100
AcDbPolyline
 90
        3
 70
     0
 43
0.0
 10
8.163188469091892
 20
28.79316752828362
 10
8.17583730295837
 20
28.9762081701503
 10
8.213186495224817
 20
29.17025986061691
  0
LWPOLYLINE
  5
BB7
330
B9D
100
AcDbEntity
  8
0
  6
Continuous
 62
     7
100
AcDbPolyline
 90
        3
 70
     0
 43
0.0
 10
8.163188469091892
 20
10.85374136828358
 10
8.175650471758217
 20
11.02190699701691
 10
8.213186521692023
 20
11.17666580955023
  0
LWPOLYLINE
  5
BB8
330
B9D
100
AcDbEntity
  8
0
  6
Continuous
 62
     7
100
AcDbPolyline
 90
        4
 70
     0
 43
0.0
 10
8.21318847575867
 20
29.17026347688358
 10
8.377277491491895
 20
29.35729460461693
 10
8.610037768691654
 20
29.51662803501694
 10
8.764919697225195
 20
29.58531678115026
  0
LINE
  5
BB9
330
B9D
100
AcDbEntity
  8
0
  6
Continuous
 62
     7
100
AcDbLine
 10
7.913186265624972
 20
30.52345381181692
 30
0.0
 11
8.213190692692023
 21
30.82345822101689
 31
0.0
  0
LINE
  5
BBA
330
B9D
100
AcDbEntity
  8
0
  6
Continuous
 62
     7
100
AcDbLine
 10
7.913186265624972
 20
9.123458754616933
 30
0.0
 11
8.213190692692023
 21
8.823454448283598
 31
0.0
  0
LWPOLYLINE
  5
BBB
330
B9D
100
AcDbEntity
  8
0
  6
Continuous
 62
     7
100
AcDbPolyline
 90
        3
 70
     0
 43
0.0
 10
8.213186301024961
 20
28.4702436676169
 10
8.175676291091804
 20
28.62482283895025
 10
8.163188469091892
 20
28.79316752828362
  0
LINE
  5
BBC
330
B9D
100
AcDbEntity
  8
0
  6
Continuous
 62
     7
100
AcDbLine
 10
11.66318626562497
 20
10.72262423461694
 30
0.0
 11
11.66318626562497
 21
11.06677009641692
 31
0.0
  0
LINE
  5
BBD
330
B9D
100
AcDbEntity
  8
0
  6
Continuous
 62
     7
100
AcDbLine
 10
11.66318626562497
 20
28.58013880015028
 30
0.0
 11
11.66318626562497
 21
28.92428466195026
 31
0.0
  0
LWPOLYLINE
  5
BBE
330
B9D
100
AcDbEntity
  8
0
  6
Continuous
 62
     7
100
AcDbPolyline
 90
        6
 70
     0
 43
0.0
 10
12.71318626562515
 20
10.8127819610836
 10
12.67443109789155
 20
10.5988917218836
 10
12.5559666740919
 20
10.39820804301695
 10
12.36716347122501
 20
10.22491104148361
 10
12.12976482955855
 20
10.08585990861689
 10
12.05166921982481
 20
10.05490441075022
  0
LWPOLYLINE
  5
BBF
330
B9D
100
AcDbEntity
  8
0
  6
Continuous
 62
     7
100
AcDbPolyline
 90
        4
 70
     0
 43
0.0
 10
12.71318626562515
 20
28.8341269354836
 10
12.66649113462517
 20
28.58702137181694
 10
12.53107403609192
 20
28.3411981496169
 10
12.31666526162507
 20
28.10848064181693
  0
LINE
  5
BC0
330
B9D
100
AcDbEntity
  8
0
  6
Continuous
 62
     7
100
AcDbLine
 10
12.31666526162507
 20
28.10848064181693
 30
0.0
 11
12.03189305542537
 21
27.89767473495027
 31
0.0
  0
LWPOLYLINE
  5
BC1
330
B9D
100
AcDbEntity
  8
0
  6
Continuous
 62
     7
100
AcDbPolyline
 90
       21
 70
     0
 43
0.0
 10
12.01340827709191
 20
27.88626525815022
 10
12.17785728969193
 20
27.99867631768359
 10
12.31844215395858
 20
28.1212776510169
 10
12.43326170075852
 20
28.25241128548356
 10
12.52076319275829
 20
28.39030386348355
 10
12.57976332229191
 20
28.53309062461693
 10
12.60946421382505
 20
28.67884062275022
 10
12.60946421382505
 20
28.82558283928359
 10
12.57976332229191
 20
28.97133283748355
 10
12.52076319275829
 20
29.1141195985503
 10
12.43326170075852
 20
29.25201217661692
 10
12.31844215395858
 20
29.3831458110169
 10
12.17785728969193
 20
29.50574714435021
 10
12.01340827709191
 20
29.61815820388358
 10
11.82731900695853
 20
29.71885882295027
 10
11.62210601735842
 20
29.80648719828361
 10
11.40054446209205
 20
29.87985830655026
 10
11.16563058095835
 20
29.93797992935026
 10
10.92054118129181
 20
29.98006607141696
 10
10.66859067669202
 20
30.00554758995026
 10
10.41318626562497
 20
30.01407989101693
  0
LINE
  5
BC2
330
B9D
100
AcDbEntity
  8
0
  6
Continuous
 62
     7
100
AcDbLine
 10
12.03189305542537
 20
27.89767473495027
 30
0.0
 11
11.97977812602539
 21
27.86622437968361
 31
0.0
  0
LINE
  5
BC3
330
B9D
100
AcDbEntity
  8
0
  6
Continuous
 62
     7
100
AcDbLine
 10
11.98388822782499
 20
27.86866520768359
 30
0.0
 11
12.01340827709191
 21
27.88626525815022
 31
0.0
  0
LWPOLYLINE
  5
BC4
330
B9D
100
AcDbEntity
  8
0
  6
Continuous
 62
     7
100
AcDbPolyline
 90
        4
 70
     0
 43
0.0
 10
8.769914140758373
 20
10.05817810475025
 10
8.601865428958717
 20
10.13479476535025
 10
8.377584375958576
 20
10.28934797315026
 10
8.213188470958357
 20
10.47664542421694
  0
LINE
  5
BC5
330
B9D
100
AcDbEntity
  8
0
  6
Continuous
 62
     7
100
AcDbLine
 10
11.98388822782499
 20
11.7782436888836
 30
0.0
 11
11.82731900695853
 21
11.86134425741693
 31
0.0
  0
LINE
  5
BC6
330
B9D
100
AcDbEntity
  8
0
  6
Continuous
 62
     7
100
AcDbLine
 10
12.01340827709191
 20
11.76064363841692
 30
0.0
 11
11.98388822782499
 21
11.7782436888836
 31
0.0
  0
LINE
  5
BC7
330
B9D
100
AcDbEntity
  8
0
  6
Continuous
 62
     7
100
AcDbLine
 10
11.98019621955836
 20
11.78028050148356
 30
0.0
 11
12.0739060570254
 21
11.72254413188358
 31
0.0
  0
LWPOLYLINE
  5
BC8
330
B9D
100
AcDbEntity
  8
0
  6
Continuous
 62
     7
100
AcDbPolyline
 90
        5
 70
     0
 43
0.0
 10
12.0739060570254
 20
11.72254413188358
 10
12.34085617735855
 20
11.51650455168357
 10
12.53970442229183
 20
11.29378797568358
 10
12.6674515269583
 20
11.05729195595023
 10
12.71318626562515
 20
10.8127819610836
  0
LWPOLYLINE
  5
BC9
330
B9D
100
AcDbEntity
  8
0
  6
Continuous
 62
     7
100
AcDbPolyline
 90
        3
 70
     0
 43
0.0
 10
8.213188774424907
 20
11.17667091475027
 10
8.378099694958564
 20
11.40762558268358
 10
8.611091128691896
 20
11.62239074941692
  0
LINE
  5
BCA
330
B9D
100
AcDbEntity
  8
0
  6
Continuous
 62
     7
100
AcDbLine
 10
11.82731900695853
 20
27.78556463915021
 30
0.0
 11
11.98388822782499
 21
27.86866520768359
 31
0.0
  0
LWPOLYLINE
  5
BCB
330
B9D
100
AcDbEntity
  8
0
  6
Continuous
 62
     7
100
AcDbPolyline
 90
        8
 70
     0
 43
0.0
 10
11.97977812602539
 20
27.86622437968361
 10
11.68366860235846
 20
27.71753302475025
 10
11.26093544162495
 20
27.57328605748359
 10
10.77782911862505
 20
27.48484447441689
 10
10.27437961162513
 20
27.46812908748359
 10
9.778741541358158
 20
27.52504237128363
 10
9.329011910491772
 20
27.64532754215025
 10
8.951168479492025
 20
27.80833628295028
  0
LINE
  5
BCC
330
B9D
100
AcDbEntity
  8
0
  6
Continuous
 62
     7
100
AcDbLine
 10
11.62210601735842
 20
27.69793626375025
 30
0.0
 11
11.82731900695853
 21
27.78556463915021
 31
0.0
  0
LWPOLYLINE
  5
BCD
330
B9D
100
AcDbEntity
  8
0
  6
Continuous
 62
     7
100
AcDbPolyline
 90
        6
 70
     0
 43
0.0
 10
11.62210601735842
 20
11.94897263281694
 10
11.40054446209205
 20
12.0223437410836
 10
11.16563058095835
 20
12.0804653638836
 10
10.92054118129181
 20
12.12255150595024
 10
10.66859067669202
 20
12.14803302441692
 10
10.41318626562497
 20
12.1565653254836
  0
LINE
  5
BCE
330
B9D
100
AcDbEntity
  8
0
  6
Continuous
 62
     7
100
AcDbLine
 10
11.82731900695853
 20
11.86134425741693
 30
0.0
 11
11.62210601735842
 21
11.94897263281694
 31
0.0
  0
LINE
  5
BCF
330
B9D
100
AcDbEntity
  8
0
  6
Continuous
 62
     7
100
AcDbLine
 10
7.913185039758445
 20
9.023454759816956
 30
0.0
 11
7.713185951958166
 21
8.8234557004169
 31
0.0
  0
LWPOLYLINE
  5
BD0
330
B9D
100
AcDbEntity
  8
0
  6
Continuous
 62
     7
100
AcDbPolyline
 90
       21
 70
     0
 43
0.0
 10
41.41318626562497
 20
9.632829005550263
 10
41.66859067669202
 20
9.641361306616943
 10
41.9205411812918
 20
9.66684282515024
 10
42.16563058095835
 20
9.708928967216934
 10
42.40054446209206
 20
9.767050590016935
 10
42.62210601735842
 20
9.840421698283591
 10
42.82731900695853
 20
9.92805007361693
 10
43.01340827709191
 20
10.02875069268361
 10
43.17785728969193
 20
10.14116175221693
 10
43.31844215395858
 20
10.26376308555024
 10
43.43326170075852
 20
10.39489671995028
 10
43.5207631927583
 20
10.53278929801695
 10
43.57976332229191
 20
10.67557605908359
 10
43.60946421382505
 20
10.82132605728361
 10
43.60946421382505
 20
10.96806827381692
 10
43.57976332229191
 20
11.11381827195026
 10
43.5207631927583
 20
11.25660503308359
 10
43.43326170075852
 20
11.39449761108358
 10
43.31844215395858
 20
11.5256312455503
 10
43.17785728969193
 20
11.64823257888361
 10
43.01340827709191
 20
11.76064363841692
  0
LWPOLYLINE
  5
BD1
330
B9D
100
AcDbEntity
  8
0
  6
Continuous
 62
     7
100
AcDbPolyline
 90
       21
 70
     0
 43
0.0
 10
10.41318626562497
 20
9.632829005550263
 10
10.66859067669202
 20
9.641361306616943
 10
10.92054118129181
 20
9.66684282515024
 10
11.16563058095835
 20
9.708928967216934
 10
11.40054446209205
 20
9.767050590016935
 10
11.62210601735842
 20
9.840421698283591
 10
11.82731900695853
 20
9.92805007361693
 10
12.01340827709191
 20
10.02875069268361
 10
12.17785728969193
 20
10.14116175221693
 10
12.31844215395858
 20
10.26376308555024
 10
12.43326170075852
 20
10.39489671995028
 10
12.52076319275829
 20
10.53278929801695
 10
12.57976332229191
 20
10.67557605908359
 10
12.60946421382505
 20
10.82132605728361
 10
12.60946421382505
 20
10.96806827381692
 10
12.57976332229191
 20
11.11381827195026
 10
12.52076319275829
 20
11.25660503308359
 10
12.43326170075852
 20
11.39449761108358
 10
12.31844215395858
 20
11.5256312455503
 10
12.17785728969193
 20
11.64823257888361
 10
12.01340827709191
 20
11.76064363841692
  0
LINE
  5
BD2
330
B9D
100
AcDbEntity
  8
02___PRT_ALL_AXES
  6
Continuous
 62
     7
100
AcDbLine
 10
49.21318626562515
 20
8.323454448283598
 30
0.0
 11
44.11318626562525
 21
8.323454448283598
 31
0.0
  0
LINE
  5
BD3
330
B9D
100
AcDbEntity
  8
02___PRT_ALL_AXES
  6
Continuous
 62
     7
100
AcDbLine
 10
43.61319140775822
 20
8.823454448283598
 30
0.0
 11
8.213190692692023
 21
8.823454448283598
 31
0.0
  0
LINE
  5
BD4
330
B9D
100
AcDbEntity
  8
02___PRT_ALL_AXES
  6
Continuous
 62
     7
100
AcDbLine
 10
5.113185653358414
 20
8.823454448283598
 30
0.0
 11
7.713187204091809
 21
8.823454448283598
 31
0.0
  0
LINE
  5
BD5
330
B9D
100
AcDbEntity
  8
0
  6
Continuous
 62
     7
100
AcDbLine
 10
10.11318626562524
 20
10.1777266200836
 30
0.0
 11
10.71318626562515
 21
10.1777266200836
 31
0.0
  0
LINE
  5
BD6
330
B9D
100
AcDbEntity
  8
0
  6
Continuous
 62
     7
100
AcDbLine
 10
41.11318626562524
 20
10.1777266200836
 30
0.0
 11
41.71318626562515
 21
10.1777266200836
 31
0.0
  0
LINE
  5
BD7
330
B9D
100
AcDbEntity
  8
0
  6
Continuous
 62
     7
100
AcDbLine
 10
10.11318626562524
 20
10.42347223335025
 30
0.0
 11
10.71318626562515
 21
10.42347223335025
 31
0.0
  0
LINE
  5
BD8
330
B9D
100
AcDbEntity
  8
0
  6
Continuous
 62
     7
100
AcDbLine
 10
41.11318626562524
 20
10.42347223335025
 30
0.0
 11
41.71318626562515
 21
10.42347223335025
 31
0.0
  0
LINE
  5
BD9
330
B9D
100
AcDbEntity
  8
0
  6
Continuous
 62
     7
100
AcDbLine
 10
9.163186265624972
 20
10.72262423461694
 30
0.0
 11
10.11318626562524
 21
10.72262423461694
 31
0.0
  0
LINE
  5
BDA
330
B9D
100
AcDbEntity
  8
0
  6
Continuous
 62
     7
100
AcDbLine
 10
10.71318626562515
 20
10.72262423461694
 30
0.0
 11
11.66318626562497
 21
10.72262423461694
 31
0.0
  0
LINE
  5
BDB
330
B9D
100
AcDbEntity
  8
0
  6
Continuous
 62
     7
100
AcDbLine
 10
40.16318626562497
 20
10.72262423461694
 30
0.0
 11
41.11318626562524
 21
10.72262423461694
 31
0.0
  0
LINE
  5
BDC
330
B9D
100
AcDbEntity
  8
0
  6
Continuous
 62
     7
100
AcDbLine
 10
41.71318626562515
 20
10.72262423461694
 30
0.0
 11
42.66318626562497
 21
10.72262423461694
 31
0.0
  0
LINE
  5
BDD
330
B9D
100
AcDbEntity
  8
0
  6
Continuous
 62
     7
100
AcDbLine
 10
9.163186265624972
 20
10.96836984788359
 30
0.0
 11
10.11318626562524
 21
10.96836984788359
 31
0.0
  0
LINE
  5
BDE
330
B9D
100
AcDbEntity
  8
0
  6
Continuous
 62
     7
100
AcDbLine
 10
10.71318626562515
 20
10.96836984788359
 30
0.0
 11
11.66318626562497
 21
10.96836984788359
 31
0.0
  0
LINE
  5
BDF
330
B9D
100
AcDbEntity
  8
0
  6
Continuous
 62
     7
100
AcDbLine
 10
40.16318626562497
 20
10.96836984788359
 30
0.0
 11
41.11318626562524
 21
10.96836984788359
 31
0.0
  0
LINE
  5
BE0
330
B9D
100
AcDbEntity
  8
0
  6
Continuous
 62
     7
100
AcDbLine
 10
41.71318626562515
 20
10.96836984788359
 30
0.0
 11
42.66318626562497
 21
10.96836984788359
 31
0.0
  0
LINE
  5
BE1
330
B9D
100
AcDbEntity
  8
0
  6
Continuous
 62
     7
100
AcDbLine
 10
42.66318626562497
 20
11.06677009641692
 30
0.0
 11
41.71318626562515
 21
11.06677009641692
 31
0.0
  0
LINE
  5
BE2
330
B9D
100
AcDbEntity
  8
0
  6
Continuous
 62
     7
100
AcDbLine
 10
41.11318626562524
 20
11.06677009641692
 30
0.0
 11
40.16318626562497
 21
11.06677009641692
 31
0.0
  0
LINE
  5
BE3
330
B9D
100
AcDbEntity
  8
0
  6
Continuous
 62
     7
100
AcDbLine
 10
11.66318626562497
 20
11.06677009641692
 30
0.0
 11
10.71318626562515
 21
11.06677009641692
 31
0.0
  0
LINE
  5
BE4
330
B9D
100
AcDbEntity
  8
0
  6
Continuous
 62
     7
100
AcDbLine
 10
10.11318626562524
 20
11.06677009641692
 30
0.0
 11
9.163186265624972
 21
11.06677009641692
 31
0.0
  0
LINE
  5
BE5
330
B9D
100
AcDbEntity
  8
0
  6
Continuous
 62
     7
100
AcDbLine
 10
41.71318626562515
 20
11.61166771095025
 30
0.0
 11
41.11318626562524
 21
11.61166771095025
 31
0.0
  0
LINE
  5
BE6
330
B9D
100
AcDbEntity
  8
0
  6
Continuous
 62
     7
100
AcDbLine
 10
10.71318626562515
 20
11.61166771095025
 30
0.0
 11
10.11318626562524
 21
11.61166771095025
 31
0.0
  0
LWPOLYLINE
  5
BE7
330
B9D
100
AcDbEntity
  8
0
  6
Continuous
 62
     7
100
AcDbPolyline
 90
       21
 70
     0
 43
0.0
 10
10.41318626562497
 20
9.632829005550263
 10
10.15778185455838
 20
9.641361306616943
 10
9.905831350024982
 20
9.66684282515024
 10
9.660741950292049
 20
9.708928967216934
 10
9.42582806922519
 20
9.767050590016935
 10
9.20426651389198
 20
9.840421698283591
 10
8.999053524291866
 20
9.92805007361693
 10
8.812964254158487
 20
10.02875069268361
 10
8.64851524155847
 20
10.14116175221693
 10
8.507930377291813
 20
10.26376308555024
 10
8.393110830491878
 20
10.39489671995028
 10
8.305609338558497
 20
10.53278929801695
 10
8.246609209024882
 20
10.67557605908359
 10
8.21690831742535
 20
10.82132605728361
 10
8.21690831742535
 20
10.96806827381692
 10
8.246609209024882
 20
11.11381827195026
 10
8.305609338558497
 20
11.25660503308359
 10
8.393110830491878
 20
11.39449761108358
 10
8.507930377291813
 20
11.5256312455503
 10
8.64851524155847
 20
11.64823257888361
 10
8.812964254158487
 20
11.76064363841692
  0
LWPOLYLINE
  5
BE8
330
B9D
100
AcDbEntity
  8
0
  6
Continuous
 62
     7
100
AcDbPolyline
 90
       10
 70
     0
 43
0.0
 10
41.41318626562497
 20
9.632829005550263
 10
41.15778185455837
 20
9.641361306616943
 10
40.90583135002498
 20
9.66684282515024
 10
40.66074195029204
 20
9.708928967216934
 10
40.42582806922519
 20
9.767050590016935
 10
40.20426651389198
 20
9.840421698283591
 10
39.99905352429187
 20
9.92805007361693
 10
39.81296425415849
 20
10.02875069268361
 10
39.64851524155847
 20
10.14116175221693
 10
39.50793037729182
 20
10.26376308555024
  0
LINE
  5
BE9
330
B9D
100
AcDbEntity
  8
0
  6
Continuous
 62
     7
100
AcDbLine
 10
7.913185039758445
 20
30.62345413675024
 30
0.0
 11
7.713185951958166
 21
30.82345319615024
 31
0.0
  0
LINE
  5
BEA
330
B9D
100
AcDbEntity
  8
0
  6
Continuous
 62
     7
100
AcDbLine
 10
8.611091128691896
 20
11.62239074941692
 30
0.0
 11
8.846855555958427
 21
11.78085906961695
 31
0.0
  0
LINE
  5
BEB
330
B9D
100
AcDbEntity
  8
0
  6
Continuous
 62
     7
100
AcDbLine
 10
8.812964254158487
 20
11.76064363841692
 30
0.0
 11
8.842484303424953
 21
11.7782436888836
 31
0.0
  0
LWPOLYLINE
  5
BEC
330
B9D
100
AcDbEntity
  8
0
  6
Continuous
 62
     7
100
AcDbPolyline
 90
       10
 70
     0
 43
0.0
 10
8.846855555958427
 20
11.78085906961695
 10
8.909865266558426
 20
11.81646682221691
 10
9.268224909958462
 20
11.9796173426169
 10
9.669420999091926
 20
12.09903001928359
 10
10.09046133275842
 20
12.16631348475022
 10
10.51934873755863
 20
12.17995032475028
 10
10.94555498662521
 20
12.13972932795025
 10
11.35820502309161
 20
12.04646390721694
 10
11.74243219462505
 20
11.90343902028354
 10
11.98019621955836
 20
11.78028050148356
  0
LINE
  5
BED
330
B9D
100
AcDbEntity
  8
0
  6
Continuous
 62
     7
100
AcDbLine
 10
42.40054446209206
 20
27.6245651554836
 30
0.0
 11
42.62210601735842
 21
27.69793626375025
 31
0.0
  0
LINE
  5
BEE
330
B9D
100
AcDbEntity
  8
02___PRT_ALL_AXES
  6
Continuous
 62
     7
100
AcDbLine
 10
59.21318626562515
 20
12.8234544482836
 30
0.0
 11
49.41318626562497
 21
12.8234544482836
 31
0.0
  0
LINE
  5
BEF
330
B9D
100
AcDbEntity
  8
0
  6
Continuous
 62
     7
100
AcDbLine
 10
75.81325582075852
 20
13.55505757315023
 30
0.0
 11
76.2641004612251
 21
13.55505757315023
 31
0.0
  0
LINE
  5
BF0
330
B9D
100
AcDbEntity
  8
02___PRT_ALL_AXES
  6
Continuous
 62
     7
100
AcDbLine
 10
62.71318626562515
 20
15.3234544482836
 30
0.0
 11
59.61318626562524
 21
15.3234544482836
 31
0.0
  0
LINE
  5
BF1
330
B9D
100
AcDbEntity
  8
02___PRT_ALL_AXES
  6
Continuous
 62
     7
100
AcDbLine
 10
64.84464883915871
 20
15.3234544482836
 30
0.0
 11
72.54464883915852
 21
15.3234544482836
 31
0.0
  0
LWPOLYLINE
  5
BF2
330
B9D
100
AcDbEntity
  8
02___PRT_ALL_AXES
  6
Continuous
 62
     7
100
AcDbPolyline
 90
        6
 70
     0
 43
0.0
 10
39.77301669529197
 20
10.05605731708357
 10
39.64442661809199
 20
10.11192043455025
 10
39.4255164399583
 20
10.25008211135025
 10
39.2544540539584
 20
10.41807823615028
 10
39.14794905195822
 20
10.60985040681692
 10
39.11318626562525
 20
10.8127819610836
  0
LINE
  5
BF3
330
B9D
100
AcDbEntity
  8
0
  6
Continuous
 62
     7
100
AcDbLine
 10
8.999053524291866
 20
27.78556463915021
 30
0.0
 11
8.842484303424953
 21
27.86866520768359
 31
0.0
  0
LINE
  5
BF4
330
B9D
100
AcDbEntity
  8
0
  6
Continuous
 62
     7
100
AcDbLine
 10
8.951168479492025
 20
27.80833628295028
 30
0.0
 11
8.846290845491694
 21
27.86628302555028
 31
0.0
  0
LINE
  5
BF5
330
B9D
100
AcDbEntity
  8
0
  6
Continuous
 62
     7
100
AcDbLine
 10
8.842484303424953
 20
27.86866520768359
 30
0.0
 11
8.812964254158487
 21
27.88626525815022
 31
0.0
  0
LWPOLYLINE
  5
BF6
330
B9D
100
AcDbEntity
  8
0
  6
Continuous
 62
     7
100
AcDbPolyline
 90
        4
 70
     0
 43
0.0
 10
8.846290845491694
 20
27.86628302555028
 10
8.637064237225331
 20
28.0047897214169
 10
8.387900010158318
 20
28.22842845488361
 10
8.213186622558623
 20
28.47024295441696
  0
LWPOLYLINE
  5
BF7
330
B9D
100
AcDbEntity
  8
0
  6
Continuous
 62
     7
100
AcDbPolyline
 90
       21
 70
     0
 43
0.0
 10
8.812964254158487
 20
27.88626525815022
 10
8.64851524155847
 20
27.99867631768359
 10
8.507930377291813
 20
28.1212776510169
 10
8.393110830491878
 20
28.25241128548356
 10
8.305609338558497
 20
28.39030386348355
 10
8.246609209024882
 20
28.53309062461693
 10
8.21690831742535
 20
28.67884062275022
 10
8.21690831742535
 20
28.82558283928359
 10
8.246609209024882
 20
28.97133283748355
 10
8.305609338558497
 20
29.1141195985503
 10
8.393110830491878
 20
29.25201217661692
 10
8.507930377291813
 20
29.3831458110169
 10
8.64851524155847
 20
29.50574714435021
 10
8.812964254158487
 20
29.61815820388358
 10
8.999053524291866
 20
29.71885882295027
 10
9.20426651389198
 20
29.80648719828361
 10
9.42582806922519
 20
29.87985830655026
 10
9.660741950292049
 20
29.93797992935026
 10
9.905831350024982
 20
29.98006607141696
 10
10.15778185455838
 20
30.00554758995026
 10
10.41318626562497
 20
30.01407989101693
  0
LWPOLYLINE
  5
BF8
330
B9D
100
AcDbEntity
  8
0
  6
Continuous
 62
     7
100
AcDbPolyline
 90
       11
 70
     0
 43
0.0
 10
39.39311083049188
 20
29.25201217661692
 10
39.50793037729182
 20
29.3831458110169
 10
39.64851524155847
 20
29.50574714435021
 10
39.81296425415849
 20
29.61815820388358
 10
39.99905352429187
 20
29.71885882295027
 10
40.20426651389198
 20
29.80648719828361
 10
40.42582806922519
 20
29.87985830655026
 10
40.66074195029204
 20
29.93797992935026
 10
40.90583135002498
 20
29.98006607141696
 10
41.15778185455837
 20
30.00554758995026
 10
41.41318626562497
 20
30.01407989101693
  0
LINE
  5
BF9
330
B9D
100
AcDbEntity
  8
0
  6
Continuous
 62
     7
100
AcDbLine
 10
43.91318702595845
 20
31.12345368788357
 30
0.0
 11
44.11318703935831
 21
31.3234536744169
 31
0.0
  0
LWPOLYLINE
  5
BFA
330
B9D
100
AcDbEntity
  8
0
  6
Continuous
 62
     7
100
AcDbPolyline
 90
       21
 70
     0
 43
0.0
 10
43.01340827709191
 20
27.88626525815022
 10
43.17785728969193
 20
27.99867631768359
 10
43.31844215395858
 20
28.1212776510169
 10
43.43326170075852
 20
28.25241128548356
 10
43.5207631927583
 20
28.39030386348355
 10
43.57976332229191
 20
28.53309062461693
 10
43.60946421382505
 20
28.67884062275022
 10
43.60946421382505
 20
28.82558283928359
 10
43.57976332229191
 20
28.97133283748355
 10
43.5207631927583
 20
29.1141195985503
 10
43.43326170075852
 20
29.25201217661692
 10
43.31844215395858
 20
29.3831458110169
 10
43.17785728969193
 20
29.50574714435021
 10
43.01340827709191
 20
29.61815820388358
 10
42.82731900695853
 20
29.71885882295027
 10
42.62210601735842
 20
29.80648719828361
 10
42.40054446209206
 20
29.87985830655026
 10
42.16563058095835
 20
29.93797992935026
 10
41.9205411812918
 20
29.98006607141696
 10
41.66859067669202
 20
30.00554758995026
 10
41.41318626562497
 20
30.01407989101693
  0
LINE
  5
BFB
330
B9D
100
AcDbEntity
  8
02___PRT_ALL_AXES
  6
Continuous
 62
     7
100
AcDbLine
 10
43.15921761275831
 20
27.98272772895024
 30
0.0
 11
42.98023344755847
 21
27.86655554935027
 31
0.0
  0
LINE
  5
BFC
330
B9D
100
AcDbEntity
  8
0
  6
Continuous
 62
     7
100
AcDbLine
 10
42.98388822782499
 20
27.86866520768359
 30
0.0
 11
43.01340827709191
 21
27.88626525815022
 31
0.0
  0
LWPOLYLINE
  5
BFD
330
B9D
100
AcDbEntity
  8
02___PRT_ALL_AXES
  6
Continuous
 62
     7
100
AcDbPolyline
 90
        9
 70
     0
 43
0.0
 10
42.98023344755847
 20
27.86655554935027
 10
42.80901453729166
 20
27.77486596028359
 10
42.39429650742522
 20
27.61138776188358
 10
41.928421784492
 20
27.50450175335027
 10
41.43819929842493
 20
27.46540149768362
 10
40.95061893615866
 20
27.49683860835029
 10
40.48882221582516
 20
27.59439606895029
 10
40.08916822289165
 20
27.74109663588359
 10
39.8460619485586
 20
27.86641231781692
  0
LINE
  5
BFE
330
B9D
100
AcDbEntity
  8
0
  6
Continuous
 62
     7
100
AcDbLine
 10
8.842484303424953
 20
11.7782436888836
 30
0.0
 11
8.999053524291866
 21
11.86134425741693
 31
0.0
  0
LINE
  5
BFF
330
B9D
100
AcDbEntity
  8
0
  6
Continuous
 62
     7
100
AcDbLine
 10
42.82731900695853
 20
27.78556463915021
 30
0.0
 11
42.98388822782499
 21
27.86866520768359
 31
0.0
  0
LINE
  5
C00
330
B9D
100
AcDbEntity
  8
0
  6
Continuous
 62
     7
100
AcDbLine
 10
42.62210601735842
 20
27.69793626375025
 30
0.0
 11
42.82731900695853
 21
27.78556463915021
 31
0.0
  0
LWPOLYLINE
  5
C01
330
B9D
100
AcDbEntity
  8
0
  6
Continuous
 62
     7
100
AcDbPolyline
 90
        7
 70
     0
 43
0.0
 10
8.999053524291866
 20
11.86134425741693
 10
9.20426651389198
 20
11.94897263281694
 10
9.42582806922519
 20
12.0223437410836
 10
9.660741950292049
 20
12.0804653638836
 10
9.905831350024982
 20
12.12255150595024
 10
10.15778185455838
 20
12.14803302441692
 10
10.41318626562497
 20
12.1565653254836
  0
LINE
  5
C02
330
B9D
100
AcDbEntity
  8
02___PRT_ALL_AXES
  6
Continuous
 62
     7
100
AcDbLine
 10
63.96318626562515
 20
17.3234544482836
 30
0.0
 11
62.91318626562542
 21
17.3234544482836
 31
0.0
  0
LINE
  5
C03
330
B9D
100
AcDbEntity
  8
0
  6
Continuous
 62
     7
100
AcDbLine
 10
63.96318626562515
 20
17.34845444828357
 30
0.0
 11
64.54464883915853
 21
17.34845444828357
 31
0.0
  0
LINE
  5
C04
330
B9D
100
AcDbEntity
  8
DEFAULT_1
  6
CENTER
 62
     7
100
AcDbLine
 10
-0.0000000000004547
 20
19.8234544482836
 30
0.0
 11
76.70446733482504
 21
19.8234544482836
 31
0.0
  0
LINE
  5
C05
330
B9D
100
AcDbEntity
  8
DEFAULT_1
  6
CENTER
 62
     7
100
AcDbLine
 10
78.11318626562524
 20
19.8234544482836
 30
0.0
 11
78.32265226969184
 21
19.8234544482836
 31
0.0
  0
LWPOLYLINE
  5
C06
330
B9D
100
AcDbEntity
  8
0
  6
Continuous
 62
     7
100
AcDbPolyline
 90
        3
 70
     0
 43
0.0
 10
9.42582806922519
 20
27.6245651554836
 10
9.20426651389198
 20
27.69793626375025
 10
8.999053524291866
 20
27.78556463915021
  0
LWPOLYLINE
  5
C07
330
B9D
100
AcDbEntity
  8
0
  6
Continuous
 62
     7
100
AcDbPolyline
 90
        7
 70
     0
 43
0.0
 10
42.82731900695853
 20
11.86134425741693
 10
42.62210601735842
 20
11.94897263281694
 10
42.40054446209206
 20
12.0223437410836
 10
42.16563058095835
 20
12.0804653638836
 10
41.9205411812918
 20
12.12255150595024
 10
41.66859067669202
 20
12.14803302441692
 10
41.41318626562497
 20
12.1565653254836
  0
LINE
  5
C08
330
B9D
100
AcDbEntity
  8
0
  6
Continuous
 62
     7
100
AcDbLine
 10
42.98388822782499
 20
11.7782436888836
 30
0.0
 11
42.82731900695853
 21
11.86134425741693
 31
0.0
  0
LINE
  5
C09
330
B9D
100
AcDbEntity
  8
0
  6
Continuous
 62
     7
100
AcDbLine
 10
43.01340827709191
 20
11.76064363841692
 30
0.0
 11
42.98388822782499
 21
11.7782436888836
 31
0.0
  0
LWPOLYLINE
  5
C0A
330
B9D
100
AcDbEntity
  8
02___PRT_ALL_AXES
  6
Continuous
 62
     7
100
AcDbPolyline
 90
        4
 70
     0
 43
0.0
 10
42.97853385902499
 20
11.78138856748359
 10
43.24902805335841
 20
11.59573806175029
 10
43.46120142175869
 20
11.39296609455027
 10
43.61319140775822
 20
11.17665563381689
  0
LINE
  5
C0B
330
B9D
100
AcDbEntity
  8
0
  6
Continuous
 62
     7
100
AcDbLine
 10
43.91318702589205
 20
8.523455208683571
 30
0.0
 11
44.11318703935831
 21
8.323455222150244
 31
0.0
  0
LWPOLYLINE
  5
C0C
330
B9D
100
AcDbEntity
  8
0
  6
Continuous
 62
     7
100
AcDbPolyline
 90
       12
 70
     0
 43
0.0
 10
39.50793037729182
 20
10.26376308555024
 10
39.39311083049188
 20
10.39489671995028
 10
39.3056093385585
 20
10.53278929801695
 10
39.24660920902488
 20
10.67557605908359
 10
39.21690831742535
 20
10.82132605728361
 10
39.21690831742535
 20
10.96806827381692
 10
39.24660920902488
 20
11.11381827195026
 10
39.3056093385585
 20
11.25660503308359
 10
39.39311083049188
 20
11.39449761108358
 10
39.50793037729182
 20
11.5256312455503
 10
39.64851524155847
 20
11.64823257888361
 10
39.81296425415849
 20
11.76064363841692
  0
LWPOLYLINE
  5
C0D
330
B9D
100
AcDbEntity
  8
02___PRT_ALL_AXES
  6
Continuous
 62
     7
100
AcDbPolyline
 90
        6
 70
     0
 43
0.0
 10
39.11318626562525
 20
28.8341269354836
 10
39.16044855149176
 20
29.06949238961693
 10
39.29227063082499
 20
29.27403493368359
 10
39.49641674062514
 20
29.44784101315025
 10
39.76867322069166
 20
29.59390772641695
 10
39.78672640802506
 20
29.60022301515028
  0
LINE
  5
C0E
330
B9D
100
AcDbEntity
  8
02___PRT_ALL_AXES
  6
Continuous
 62
     7
100
AcDbLine
 10
43.61319140775822
 20
28.47025326275025
 30
0.0
 11
43.43241391342508
 21
28.22182367648361
 31
0.0
  0
LINE
  5
C0F
330
B9D
100
AcDbEntity
  8
02___PRT_ALL_AXES
  6
Continuous
 62
     7
100
AcDbLine
 10
43.43241391342508
 20
28.22182367648361
 30
0.0
 11
43.15921761275831
 21
27.98272772895024
 31
0.0
  0
LINE
  5
C10
330
B9D
100
AcDbEntity
  8
0
  6
Continuous
 62
     7
100
AcDbLine
 10
63.96318626562515
 20
22.29845444828356
 30
0.0
 11
64.54464883915853
 21
22.29845444828356
 31
0.0
  0
LINE
  5
C11
330
B9D
100
AcDbEntity
  8
02___PRT_ALL_AXES
  6
Continuous
 62
     7
100
AcDbLine
 10
63.96318626562515
 20
22.3234544482836
 30
0.0
 11
62.91318626562542
 21
22.3234544482836
 31
0.0
  0
LINE
  5
C12
330
B9D
100
AcDbEntity
  8
02___PRT_ALL_AXES
  6
Continuous
 62
     7
100
AcDbLine
 10
62.71318626562515
 20
24.3234544482836
 30
0.0
 11
59.61318626562524
 21
24.3234544482836
 31
0.0
  0
LINE
  5
C13
330
B9D
100
AcDbEntity
  8
02___PRT_ALL_AXES
  6
Continuous
 62
     7
100
AcDbLine
 10
64.84464883915871
 20
24.3234544482836
 30
0.0
 11
72.54464883915852
 21
24.3234544482836
 31
0.0
  0
LWPOLYLINE
  5
C14
330
B9D
100
AcDbEntity
  8
0
  6
Continuous
 62
     7
100
AcDbPolyline
 90
        6
 70
     0
 43
0.0
 10
12.04259319489165
 20
29.59820850961688
 10
12.07146388182491
 20
29.58788928708356
 10
12.3382100314252
 20
29.44227035141694
 10
12.53790027635841
 20
29.26977614608359
 10
12.66688022749167
 20
29.06718919615025
 10
12.71318626562515
 20
28.8341269354836
  0
LINE
  5
C15
330
B9D
100
AcDbEntity
  8
0
  6
Continuous
 62
     7
100
AcDbLine
 10
40.16318626562497
 20
28.92428466195026
 30
0.0
 11
40.16318626562497
 21
28.58013880015028
 31
0.0
  0
LINE
  5
C16
330
B9D
100
AcDbEntity
  8
0
  6
Continuous
 62
     7
100
AcDbLine
 10
40.16318626562497
 20
11.06677009641692
 30
0.0
 11
40.16318626562497
 21
10.72262423461694
 31
0.0
  0
LINE
  5
C17
330
B9D
100
AcDbEntity
  8
0
  6
Continuous
 62
     7
100
AcDbLine
 10
41.11318626562524
 20
29.46918227648359
 30
0.0
 11
41.11318626562524
 21
28.6785390486836
 31
0.0
  0
LINE
  5
C18
330
B9D
100
AcDbEntity
  8
0
  6
Continuous
 62
     7
100
AcDbLine
 10
41.11318626562524
 20
28.58013880015028
 30
0.0
 11
41.11318626562524
 21
28.03524118561694
 31
0.0
  0
LINE
  5
C19
330
B9D
100
AcDbEntity
  8
0
  6
Continuous
 62
     7
100
AcDbLine
 10
41.11318626562524
 20
11.61166771095025
 30
0.0
 11
41.11318626562524
 21
11.06677009641692
 31
0.0
  0
LINE
  5
C1A
330
B9D
100
AcDbEntity
  8
0
  6
Continuous
 62
     7
100
AcDbLine
 10
41.11318626562524
 20
10.1777266200836
 30
0.0
 11
41.11318626562524
 21
10.96836984788359
 31
0.0
  0
LINE
  5
C1B
330
B9D
100
AcDbEntity
  8
0
  6
Continuous
 62
     7
100
AcDbLine
 10
41.71318626562515
 20
10.1777266200836
 30
0.0
 11
41.71318626562515
 21
10.96836984788359
 31
0.0
  0
LINE
  5
C1C
330
B9D
100
AcDbEntity
  8
0
  6
Continuous
 62
     7
100
AcDbLine
 10
41.71318626562515
 20
11.06677009641692
 30
0.0
 11
41.71318626562515
 21
11.61166771095025
 31
0.0
  0
LINE
  5
C1D
330
B9D
100
AcDbEntity
  8
0
  6
Continuous
 62
     7
100
AcDbLine
 10
41.71318626562515
 20
28.03524118561694
 30
0.0
 11
41.71318626562515
 21
28.58013880015028
 31
0.0
  0
LINE
  5
C1E
330
B9D
100
AcDbEntity
  8
0
  6
Continuous
 62
     7
100
AcDbLine
 10
41.71318626562515
 20
28.6785390486836
 30
0.0
 11
41.71318626562515
 21
29.46918227648359
 31
0.0
  0
LWPOLYLINE
  5
C1F
330
B9D
100
AcDbEntity
  8
02___PRT_ALL_AXES
  6
Continuous
 62
     7
100
AcDbPolyline
 90
        4
 70
     0
 43
0.0
 10
39.11318626562525
 20
10.8127819610836
 10
39.16499459789202
 20
11.07328668095027
 10
39.30931667415871
 20
11.32446876541689
 10
39.53384360609152
 20
11.55951985668361
  0
LWPOLYLINE
  5
C20
330
B9D
100
AcDbEntity
  8
0
  6
Continuous
 62
     7
100
AcDbPolyline
 90
        5
 70
     0
 43
0.0
 10
41.41318626562497
 20
27.49034357108354
 10
41.66859067669202
 20
27.49887587215023
 10
41.9205411812918
 20
27.5243573906169
 10
42.16563058095835
 20
27.56644353268359
 10
42.40054446209206
 20
27.6245651554836
  0
LWPOLYLINE
  5
C21
330
B9D
100
AcDbEntity
  8
0
  6
Continuous
 62
     7
100
AcDbPolyline
 90
        6
 70
     0
 43
0.0
 10
10.41318626562497
 20
27.49034357108354
 10
10.66859067669202
 20
27.49887587215023
 10
10.92054118129181
 20
27.5243573906169
 10
11.16563058095835
 20
27.56644353268359
 10
11.40054446209205
 20
27.6245651554836
 10
11.62210601735842
 20
27.69793626375025
  0
LINE
  5
C22
330
B9D
100
AcDbEntity
  8
0
  6
Continuous
 62
     7
100
AcDbLine
 10
75.81325582075852
 20
26.09185132341691
 30
0.0
 11
76.2641004612251
 21
26.09185132341691
 31
0.0
  0
LINE
  5
C23
330
B9D
100
AcDbEntity
  8
02___PRT_ALL_AXES
  6
Continuous
 62
     7
100
AcDbLine
 10
59.21318626562515
 20
26.8234544482836
 30
0.0
 11
49.41318626562497
 21
26.8234544482836
 31
0.0
  0
LINE
  5
C24
330
B9D
100
AcDbEntity
  8
0
  6
Continuous
 62
     7
100
AcDbLine
 10
10.11318626562524
 20
28.03524118561694
 30
0.0
 11
10.71318626562515
 21
28.03524118561694
 31
0.0
  0
LINE
  5
C25
330
B9D
100
AcDbEntity
  8
0
  6
Continuous
 62
     7
100
AcDbLine
 10
41.11318626562524
 20
28.03524118561694
 30
0.0
 11
41.71318626562515
 21
28.03524118561694
 31
0.0
  0
LINE
  5
C26
330
B9D
100
AcDbEntity
  8
0
  6
Continuous
 62
     7
100
AcDbLine
 10
9.163186265624972
 20
28.58013880015028
 30
0.0
 11
10.11318626562524
 21
28.58013880015028
 31
0.0
  0
LINE
  5
C27
330
B9D
100
AcDbEntity
  8
0
  6
Continuous
 62
     7
100
AcDbLine
 10
10.71318626562515
 20
28.58013880015028
 30
0.0
 11
11.66318626562497
 21
28.58013880015028
 31
0.0
  0
LINE
  5
C28
330
B9D
100
AcDbEntity
  8
0
  6
Continuous
 62
     7
100
AcDbLine
 10
40.16318626562497
 20
28.58013880015028
 30
0.0
 11
41.11318626562524
 21
28.58013880015028
 31
0.0
  0
LINE
  5
C29
330
B9D
100
AcDbEntity
  8
0
  6
Continuous
 62
     7
100
AcDbLine
 10
41.71318626562515
 20
28.58013880015028
 30
0.0
 11
42.66318626562497
 21
28.58013880015028
 31
0.0
  0
LINE
  5
C2A
330
B9D
100
AcDbEntity
  8
0
  6
Continuous
 62
     7
100
AcDbLine
 10
42.66318626562497
 20
28.6785390486836
 30
0.0
 11
41.71318626562515
 21
28.6785390486836
 31
0.0
  0
LINE
  5
C2B
330
B9D
100
AcDbEntity
  8
0
  6
Continuous
 62
     7
100
AcDbLine
 10
41.11318626562524
 20
28.6785390486836
 30
0.0
 11
40.16318626562497
 21
28.6785390486836
 31
0.0
  0
LINE
  5
C2C
330
B9D
100
AcDbEntity
  8
0
  6
Continuous
 62
     7
100
AcDbLine
 10
11.66318626562497
 20
28.6785390486836
 30
0.0
 11
10.71318626562515
 21
28.6785390486836
 31
0.0
  0
LINE
  5
C2D
330
B9D
100
AcDbEntity
  8
0
  6
Continuous
 62
     7
100
AcDbLine
 10
10.11318626562524
 20
28.6785390486836
 30
0.0
 11
9.163186265624972
 21
28.6785390486836
 31
0.0
  0
LINE
  5
C2E
330
B9D
100
AcDbEntity
  8
0
  6
Continuous
 62
     7
100
AcDbLine
 10
42.66318626562497
 20
28.92428466195026
 30
0.0
 11
41.71318626562515
 21
28.92428466195026
 31
0.0
  0
LINE
  5
C2F
330
B9D
100
AcDbEntity
  8
0
  6
Continuous
 62
     7
100
AcDbLine
 10
41.11318626562524
 20
28.92428466195026
 30
0.0
 11
40.16318626562497
 21
28.92428466195026
 31
0.0
  0
LINE
  5
C30
330
B9D
100
AcDbEntity
  8
0
  6
Continuous
 62
     7
100
AcDbLine
 10
11.66318626562497
 20
28.92428466195026
 30
0.0
 11
10.71318626562515
 21
28.92428466195026
 31
0.0
  0
LINE
  5
C31
330
B9D
100
AcDbEntity
  8
0
  6
Continuous
 62
     7
100
AcDbLine
 10
10.11318626562524
 20
28.92428466195026
 30
0.0
 11
9.163186265624972
 21
28.92428466195026
 31
0.0
  0
LINE
  5
C32
330
B9D
100
AcDbEntity
  8
0
  6
Continuous
 62
     7
100
AcDbLine
 10
41.71318626562515
 20
29.22343666321694
 30
0.0
 11
41.11318626562524
 21
29.22343666321694
 31
0.0
  0
LINE
  5
C33
330
B9D
100
AcDbEntity
  8
0
  6
Continuous
 62
     7
100
AcDbLine
 10
10.71318626562515
 20
29.22343666321694
 30
0.0
 11
10.11318626562524
 21
29.22343666321694
 31
0.0
  0
LINE
  5
C34
330
B9D
100
AcDbEntity
  8
0
  6
Continuous
 62
     7
100
AcDbLine
 10
41.71318626562515
 20
29.46918227648359
 30
0.0
 11
41.11318626562524
 21
29.46918227648359
 31
0.0
  0
LINE
  5
C35
330
B9D
100
AcDbEntity
  8
0
  6
Continuous
 62
     7
100
AcDbLine
 10
10.71318626562515
 20
29.46918227648359
 30
0.0
 11
10.11318626562524
 21
29.46918227648359
 31
0.0
  0
LWPOLYLINE
  5
C36
330
B9D
100
AcDbEntity
  8
0
  6
Continuous
 62
     7
100
AcDbPolyline
 90
        5
 70
     0
 43
0.0
 10
10.41318626562497
 20
27.49034357108354
 10
10.15778185455838
 20
27.49887587215023
 10
9.905831350024982
 20
27.5243573906169
 10
9.660741950292049
 20
27.56644353268359
 10
9.42582806922519
 20
27.6245651554836
  0
LWPOLYLINE
  5
C37
330
B9D
100
AcDbEntity
  8
0
  6
Continuous
 62
     7
100
AcDbPolyline
 90
        5
 70
     0
 43
0.0
 10
41.41318626562497
 20
27.49034357108354
 10
41.15778185455837
 20
27.49887587215023
 10
40.90583135002498
 20
27.5243573906169
 10
40.66074195029204
 20
27.56644353268359
 10
40.42582806922519
 20
27.6245651554836
  0
LINE
  5
C38
330
B9D
100
AcDbEntity
  8
0
  6
Continuous
 62
     7
100
AcDbLine
 10
59.41318652195832
 20
15.43892494615028
 30
0.0
 11
59.61318652869204
 21
15.32345490395028
 31
0.0
  0
LWPOLYLINE
  5
C39
330
B9D
100
AcDbEntity
  8
02___PRT_ALL_AXES
  6
Continuous
 62
     7
100
AcDbPolyline
 90
        3
 70
     0
 43
0.0
 10
43.61319140775822
 20
11.17665563381689
 10
43.65074690562505
 20
11.02177461821696
 10
43.66318882502537
 20
10.85373746681693
  0
LINE
  5
C3A
330
B9D
100
AcDbEntity
  8
0
  6
Continuous
 62
     7
100
AcDbLine
 10
42.66318626562497
 20
10.72262423461694
 30
0.0
 11
42.66318626562497
 21
11.06677009641692
 31
0.0
  0
LINE
  5
C3B
330
B9D
100
AcDbEntity
  8
0
  6
Continuous
 62
     7
100
AcDbLine
 10
42.66318626562497
 20
28.58013880015028
 30
0.0
 11
42.66318626562497
 21
28.92428466195026
 31
0.0
  0
LINE
  5
C3C
330
B9D
100
AcDbEntity
  8
02___PRT_ALL_AXES
  6
Continuous
 62
     7
100
AcDbLine
 10
43.61319140775822
 20
28.47025326275025
 30
0.0
 11
43.61319140775822
 21
11.17665563381689
 31
0.0
  0
LINE
  5
C3D
330
B9D
100
AcDbEntity
  8
02___PRT_ALL_AXES
  6
Continuous
 62
     7
100
AcDbLine
 10
43.61319140775822
 20
30.8234544482836
 30
0.0
 11
43.61319140775822
 21
29.17025099088363
 31
0.0
  0
LINE
  5
C3E
330
B9D
100
AcDbEntity
  8
02___PRT_ALL_AXES
  6
Continuous
 62
     7
100
AcDbLine
 10
43.61319140775822
 20
10.47665790568356
 30
0.0
 11
43.61319140775822
 21
8.823454448283598
 31
0.0
  0
LINE
  5
C3F
330
B9D
100
AcDbEntity
  8
0
  6
Continuous
 62
     7
100
AcDbLine
 10
43.91318626562497
 20
31.12345444828361
 30
0.0
 11
43.91318626562497
 21
8.523454448283587
 31
0.0
  0
LINE
  5
C40
330
B9D
100
AcDbEntity
  8
0
  6
Continuous
 62
     7
100
AcDbLine
 10
44.11318626562525
 20
31.3234544482836
 30
0.0
 11
44.11318626562525
 21
8.323454448283598
 31
0.0
  0
LWPOLYLINE
  5
C41
330
B9D
100
AcDbEntity
  8
02___PRT_ALL_AXES
  6
Continuous
 62
     7
100
AcDbPolyline
 90
        3
 70
     0
 43
0.0
 10
43.66318882502537
 20
10.85373746681693
 10
43.6507402092252
 20
10.67220416781691
 10
43.61319140775822
 20
10.47665790568356
  0
LWPOLYLINE
  5
C42
330
B9D
100
AcDbEntity
  8
02___PRT_ALL_AXES
  6
Continuous
 62
     7
100
AcDbPolyline
 90
        3
 70
     0
 43
0.0
 10
43.66318882502537
 20
28.79317142975026
 10
43.65074688849154
 20
28.62513416755025
 10
43.61319140775822
 20
28.47025326275025
  0
LINE
  5
C43
330
B9D
100
AcDbEntity
  8
02___PRT_ALL_AXES
  6
Continuous
 62
     7
100
AcDbLine
 10
39.53384360609152
 20
11.55951985668361
 30
0.0
 11
39.8475691519584
 21
11.78118883388356
 31
0.0
  0
LINE
  5
C44
330
B9D
100
AcDbEntity
  8
0
  6
Continuous
 62
     7
100
AcDbLine
 10
39.81296425415849
 20
11.76064363841692
 30
0.0
 11
39.84248430342495
 21
11.7782436888836
 31
0.0
  0
LINE
  5
C45
330
B9D
100
AcDbEntity
  8
0
  6
Continuous
 62
     7
100
AcDbLine
 10
59.41318652195832
 20
24.20798395041692
 30
0.0
 11
59.61318652869204
 21
24.32345399261692
 31
0.0
  0
LINE
  5
C46
330
B9D
100
AcDbEntity
  8
0
  6
Continuous
 62
     7
100
AcDbLine
 10
64.54464808415832
 20
24.15025067495026
 30
0.0
 11
64.84464805395828
 21
24.32345580808357
 31
0.0
  0
LINE
  5
C47
330
B9D
100
AcDbEntity
  8
0
  6
Continuous
 62
     7
100
AcDbLine
 10
39.84248430342495
 20
11.7782436888836
 30
0.0
 11
39.99905352429187
 21
11.86134425741693
 31
0.0
  0
LWPOLYLINE
  5
C48
330
B9D
100
AcDbEntity
  8
02___PRT_ALL_AXES
  6
Continuous
 62
     7
100
AcDbPolyline
 90
        9
 70
     0
 43
0.0
 10
39.8475691519584
 20
11.78118883388356
 10
40.20635389162499
 20
11.95570138255021
 10
40.63169842215848
 20
12.09023600781694
 10
41.0822266723585
 20
12.16552035155024
 10
41.53168914069192
 20
12.17954458795026
 10
41.95729988995845
 20
12.13784087781692
 10
42.34391442109199
 20
12.05066546201692
 10
42.686284191092
 20
11.92825538915025
 10
42.97853385902499
 20
11.78138856748359
  0
LWPOLYLINE
  5
C49
330
B9D
100
AcDbEntity
  8
0
  6
Continuous
 62
     7
100
AcDbPolyline
 90
        7
 70
     0
 43
0.0
 10
39.99905352429187
 20
11.86134425741693
 10
40.20426651389198
 20
11.94897263281694
 10
40.42582806922519
 20
12.0223437410836
 10
40.66074195029204
 20
12.0804653638836
 10
40.90583135002498
 20
12.12255150595024
 10
41.15778185455837
 20
12.14803302441692
 10
41.41318626562497
 20
12.1565653254836
  0
LINE
  5
C4A
330
B9D
100
AcDbEntity
  8
02___PRT_ALL_AXES
  6
Continuous
 62
     7
100
AcDbLine
 10
73.77248473789177
 20
25.30813938808359
 30
0.0
 11
72.54464883915852
 21
24.79955310641691
 31
0.0
  0
LINE
  5
C4B
330
B9D
100
AcDbEntity
  8
0
  6
Continuous
 62
     7
100
AcDbLine
 10
72.54464883915852
 20
24.79955310641691
 30
0.0
 11
76.2275286377585
 21
26.32505186761688
 31
0.0
  0
LINE
  5
C4C
330
B9D
100
AcDbEntity
  8
0
  6
Continuous
 62
     7
100
AcDbLine
 10
76.70446733482504
 20
24.08722389368359
 30
0.0
 11
76.69626779875852
 21
24.08382753468362
 31
0.0
  0
LINE
  5
C4D
330
B9D
100
AcDbEntity
  8
0
  6
Continuous
 62
     7
100
AcDbLine
 10
75.81325582075852
 20
26.09185132341691
 30
0.0
 11
73.77248473789177
 21
25.25476281128357
 31
0.0
  0
LINE
  5
C4E
330
B9D
100
AcDbEntity
  8
02___PRT_ALL_AXES
  6
Continuous
 62
     7
100
AcDbLine
 10
43.61319140775822
 20
30.8234544482836
 30
0.0
 11
8.213190692692023
 21
30.8234544482836
 31
0.0
  0
LINE
  5
C4F
330
B9D
100
AcDbEntity
  8
02___PRT_ALL_AXES
  6
Continuous
 62
     7
100
AcDbLine
 10
5.113185653358414
 20
30.8234544482836
 30
0.0
 11
7.713187204091809
 21
30.8234544482836
 31
0.0
  0
LINE
  5
C50
330
B9D
100
AcDbEntity
  8
02___PRT_ALL_AXES
  6
Continuous
 62
     7
100
AcDbLine
 10
49.21318626562515
 20
31.3234544482836
 30
0.0
 11
44.11318626562525
 21
31.3234544482836
 31
0.0
  0
LINE
  5
C51
330
B9D
100
AcDbEntity
  8
0
  6
Continuous
 62
     7
100
AcDbLine
 10
40.42582806922519
 20
27.6245651554836
 30
0.0
 11
40.20426651389198
 21
27.69793626375025
 31
0.0
  0
LWPOLYLINE
  5
C52
330
B9D
100
AcDbEntity
  8
02___PRT_ALL_AXES
  6
Continuous
 62
     7
100
AcDbPolyline
 90
        5
 70
     0
 43
0.0
 10
43.03860304122508
 20
29.60093602615024
 10
43.05660348575838
 20
29.59438191215026
 10
43.28751771022507
 20
29.47515727575023
 10
43.4760371846919
 20
29.33306799728359
 10
43.61319140775822
 20
29.17025099088363
  0
LINE
  5
C53
330
B9D
100
AcDbEntity
  8
0
  6
Continuous
 62
     7
100
AcDbLine
 10
75.81325582075852
 20
13.55505757315023
 30
0.0
 11
73.77248473789177
 21
14.39214608528363
 31
0.0
  0
LINE
  5
C54
330
B9D
100
AcDbEntity
  8
02___PRT_ALL_AXES
  6
Continuous
 62
     7
100
AcDbLine
 10
73.77248473789177
 20
14.33876950848361
 30
0.0
 11
72.54464883915852
 21
14.84735579015023
 31
0.0
  0
LINE
  5
C55
330
B9D
100
AcDbEntity
  8
0
  6
Continuous
 62
     7
100
AcDbLine
 10
76.2275286377585
 20
13.32185702895026
 30
0.0
 11
72.54464883915852
 21
14.84735579015023
 31
0.0
  0
LINE
  5
C56
330
B9D
100
AcDbEntity
  8
0
  6
Continuous
 62
     7
100
AcDbLine
 10
76.69626779875852
 20
15.56308136188357
 30
0.0
 11
76.70446733482504
 21
15.55968500288355
 31
0.0
  0
LINE
  5
C57
330
B9D
100
AcDbEntity
  8
0
  6
Continuous
 62
     7
100
AcDbLine
 10
40.20426651389198
 20
27.69793626375025
 30
0.0
 11
39.99905352429187
 21
27.78556463915021
 31
0.0
  0
LINE
  5
C58
330
B9D
100
AcDbEntity
  8
0
  6
Continuous
 62
     7
100
AcDbLine
 10
39.99905352429187
 20
27.78556463915021
 30
0.0
 11
39.84248430342495
 21
27.86866520768359
 31
0.0
  0
LINE
  5
C59
330
B9D
100
AcDbEntity
  8
0
  6
Continuous
 62
     7
100
AcDbLine
 10
64.54464808409193
 20
15.49665822161688
 30
0.0
 11
64.84464805382504
 21
15.32345308855025
 31
0.0
  0
LINE
  5
C5A
330
B9D
100
AcDbEntity
  8
0
  6
Continuous
 62
     7
100
AcDbLine
 10
39.84248430342495
 20
27.86866520768359
 30
0.0
 11
39.81296425415849
 21
27.88626525815022
 31
0.0
  0
LINE
  5
C5B
330
B9D
100
AcDbEntity
  8
02___PRT_ALL_AXES
  6
Continuous
 62
     7
100
AcDbLine
 10
39.8460619485586
 20
27.86641231781692
 30
0.0
 11
39.75954476629204
 21
27.91977853595023
 31
0.0
  0
LWPOLYLINE
  5
C5C
330
B9D
100
AcDbEntity
  8
0
  6
Continuous
 62
     7
100
AcDbPolyline
 90
       11
 70
     0
 43
0.0
 10
39.81296425415849
 20
27.88626525815022
 10
39.64851524155847
 20
27.99867631768359
 10
39.50793037729182
 20
28.1212776510169
 10
39.39311083049188
 20
28.25241128548356
 10
39.3056093385585
 20
28.39030386348355
 10
39.24660920902488
 20
28.53309062461693
 10
39.21690831742535
 20
28.67884062275022
 10
39.21690831742535
 20
28.82558283928359
 10
39.24660920902488
 20
28.97133283748355
 10
39.3056093385585
 20
29.1141195985503
 10
39.39311083049188
 20
29.25201217661692
  0
LWPOLYLINE
  5
C5D
330
B9D
100
AcDbEntity
  8
02___PRT_ALL_AXES
  6
Continuous
 62
     7
100
AcDbPolyline
 90
        5
 70
     0
 43
0.0
 10
39.75954476629204
 20
27.91977853595023
 10
39.48865860949172
 20
28.12750994781692
 10
39.28553069702502
 20
28.35471486661692
 10
39.15730953762523
 20
28.59403280715026
 10
39.11318626562525
 20
28.8341269354836
  0
LWPOLYLINE
  5
C5E
330
B9D
100
AcDbEntity
  8
02___PRT_ALL_AXES
  6
Continuous
 62
     7
100
AcDbPolyline
 90
        3
 70
     0
 43
0.0
 10
43.61319140775822
 20
29.17025099088363
 10
43.65074019022495
 20
28.97470487241691
 10
43.66318882502537
 20
28.79317142975026
  0
LINE
  5
C5F
330
B9D
100
AcDbEntity
  8
0
  6
Continuous
 62
     7
100
AcDbLine
 10
49.21318626562515
 20
31.3234544482836
 30
0.0
 11
49.21318626562515
 21
8.323454448283598
 31
0.0
  0
LINE
  5
C60
330
B9D
100
AcDbEntity
  8
0
  6
Continuous
 62
     7
100
AcDbLine
 10
49.41318626562497
 20
31.12345444828361
 30
0.0
 11
49.41318626562497
 21
8.523454448283587
 31
0.0
  0
LWPOLYLINE
  5
C61
330
B9D
100
AcDbEntity
  8
02___PRT_ALL_AXES
  6
Continuous
 62
     7
100
AcDbPolyline
 90
        4
 70
     0
 43
0.0
 10
43.61319140775822
 20
10.47665790568356
 10
43.43828767595868
 20
10.28035732901691
 10
43.17980454762483
 20
10.11080966541692
 10
43.06335927129157
 20
10.0628952830836
  0
LINE
  5
C62
330
B9D
100
AcDbEntity
  8
0
  6
Continuous
 62
     7
100
AcDbLine
 10
43.91318877169169
 20
9.123451952416928
 30
0.0
 11
43.61319140775822
 21
8.823454448283598
 31
0.0
  0
LINE
  5
C63
330
B9D
100
AcDbEntity
  8
0
  6
Continuous
 62
     7
100
AcDbLine
 10
43.91318877169169
 20
30.52345694415027
 30
0.0
 11
43.61319140775822
 21
30.8234544482836
 31
0.0
  0
LINE
  5
C64
330
B9D
100
AcDbEntity
  8
0
  6
Continuous
 62
     7
100
AcDbLine
 10
49.41318538062524
 20
8.523455333483582
 30
0.0
 11
49.21318536495846
 21
8.323455349150265
 31
0.0
  0
LINE
  5
C65
330
B9D
100
AcDbEntity
  8
0
  6
Continuous
 62
     7
100
AcDbLine
 10
62.91318597202508
 20
15.43892501075021
 30
0.0
 11
62.71318596429182
 21
15.32345497028359
 31
0.0
  0
LINE
  5
C66
330
B9D
100
AcDbEntity
  8
0
  6
Continuous
 62
     7
100
AcDbLine
 10
62.91318597202508
 20
24.20798388581693
 30
0.0
 11
62.71318596429182
 21
24.32345392628355
 31
0.0
  0
LINE
  5
C67
330
B9D
100
AcDbEntity
  8
0
  6
Continuous
 62
     7
100
AcDbLine
 10
49.41318538055838
 20
31.12345356315024
 30
0.0
 11
49.21318536489207
 21
31.32345354748355
 31
0.0
  0
LINE
  5
C68
330
B9D
100
AcDbEntity
  8
0
  6
Continuous
 62
     7
100
AcDbLine
 10
59.21318626562515
 20
26.8234544482836
 30
0.0
 11
59.21318626562515
 21
12.8234544482836
 31
0.0
  0
LINE
  5
C69
330
B9D
100
AcDbEntity
  8
0
  6
Continuous
 62
     7
100
AcDbLine
 10
59.41318772909153
 20
13.02345298548357
 30
0.0
 11
59.21318777209171
 21
12.82345294241691
 31
0.0
  0
LINE
  5
C6A
330
B9D
100
AcDbEntity
  8
0
  6
Continuous
 62
     7
100
AcDbLine
 10
59.41318772889189
 20
26.62345591121692
 30
0.0
 11
59.21318777195847
 21
26.82345595428359
 31
0.0
  0
LINE
  5
C6B
330
B9D
100
AcDbEntity
  8
0
  6
Continuous
 62
     7
100
AcDbLine
 10
59.41318626562497
 20
26.62345444835023
 30
0.0
 11
59.41318626562497
 21
13.02345444821691
 31
0.0
  0
LINE
  5
C6C
330
B9D
100
AcDbEntity
  8
0
  6
Continuous
 62
     7
100
AcDbLine
 10
59.61318626562524
 20
24.3234544482836
 30
0.0
 11
59.61318626562524
 21
15.3234544482836
 31
0.0
  0
LINE
  5
C6D
330
B9D
100
AcDbEntity
  8
0
  6
Continuous
 62
     7
100
AcDbLine
 10
62.71318626562515
 20
24.3234544482836
 30
0.0
 11
62.71318626562515
 21
15.3234544482836
 31
0.0
  0
LINE
  5
C6E
330
B9D
100
AcDbEntity
  8
0
  6
Continuous
 62
     7
100
AcDbLine
 10
62.91318626562542
 20
24.20798439448362
 30
0.0
 11
62.91318626562542
 21
15.43892450208358
 31
0.0
  0
LINE
  5
C6F
330
B9D
100
AcDbEntity
  8
0
  6
Continuous
 62
     7
100
AcDbLine
 10
63.96318626562515
 20
17.3234544482836
 30
0.0
 11
63.96318626562515
 21
22.3234544482836
 31
0.0
  0
LINE
  5
C70
330
B9D
100
AcDbEntity
  8
0
  6
Continuous
 62
     7
100
AcDbLine
 10
64.54464883915853
 20
15.49665952895026
 30
0.0
 11
64.54464883915853
 21
24.15024936755026
 31
0.0
  0
LINE
  5
C71
330
B9D
100
AcDbEntity
  8
0
  6
Continuous
 62
     7
100
AcDbLine
 10
64.84464883915871
 20
15.3234544482836
 30
0.0
 11
64.84464883915871
 21
24.3234544482836
 31
0.0
  0
LINE
  5
C72
330
B9D
100
AcDbEntity
  8
0
  6
Continuous
100
AcDbLine
 10
77.61318626562524
 20
19.8234544482836
 30
0.0
 11
76.70446733482504
 21
18.52576521148359
 31
0.0
  0
LINE
  5
C73
330
B9D
100
AcDbEntity
  8
0
  6
Continuous
 62
     7
100
AcDbLine
 10
73.77248473789177
 20
14.33876950848361
 30
0.0
 11
73.80152175915873
 21
14.38023560835023
 31
0.0
  0
LINE
  5
C74
330
B9D
100
AcDbEntity
  8
0
  6
Continuous
100
AcDbLine
 10
77.61318626562524
 20
19.8234544482836
 30
0.0
 11
76.70446733482504
 21
21.12114368508361
 31
0.0
  0
LINE
  5
C75
330
B9D
100
AcDbEntity
  8
0
  6
Continuous
 62
     7
100
AcDbLine
 10
73.80152175915873
 20
25.26667328821691
 30
0.0
 11
73.77248473789177
 21
25.30813938808359
 31
0.0
  0
LINE
  5
C76
330
B9D
100
AcDbEntity
  8
02___PRT_ALL_AXES
  6
Continuous
 62
     7
100
AcDbLine
 10
72.54464883915852
 20
14.84735579015023
 30
0.0
 11
72.54464883915852
 21
24.79955310641691
 31
0.0
  0
LINE
  5
C77
330
B9D
100
AcDbEntity
  8
0
  6
Continuous
 62
     7
100
AcDbLine
 10
73.77248473789177
 20
14.33876950848361
 30
0.0
 11
73.77248473789177
 21
14.39214608528363
 31
0.0
  0
LINE
  5
C78
330
B9D
100
AcDbEntity
  8
0
  6
Continuous
 62
     7
100
AcDbLine
 10
73.77248473789177
 20
25.25476281128357
 30
0.0
 11
73.77248473789177
 21
25.30813938808359
 31
0.0
  0
LINE
  5
C79
330
B9D
100
AcDbEntity
  8
0
  6
Continuous
 62
     7
100
AcDbLine
 10
75.81325582075852
 20
26.09185132341691
 30
0.0
 11
75.81325582075852
 21
13.55505757315023
 31
0.0
  0
LINE
  5
C7A
330
B9D
100
AcDbEntity
  8
0
  6
Continuous
 62
     7
100
AcDbLine
 10
76.2641004612251
 20
26.09185132341691
 30
0.0
 11
76.2641004612251
 21
13.55505757315023
 31
0.0
  0
LINE
  5
C7B
330
B9D
100
AcDbEntity
  8
0
  6
Continuous
 62
     7
100
AcDbLine
 10
76.70446733482504
 20
24.04572918255025
 30
0.0
 11
76.70446733482504
 21
15.60117971401695
 31
0.0
  0
LINE
  5
C7C
330
B9D
100
AcDbEntity
  8
0
  6
Continuous
 62
     7
100
AcDbLine
 10
76.70446733482504
 20
15.55968500288355
 30
0.0
 11
76.2275286377585
 21
13.32185702895026
 31
0.0
  0
LINE
  5
C7D
330
B9D
100
AcDbEntity
  8
0
  6
Continuous
100
AcDbLine
 10
76.70446733482504
 20
15.55968500288355
 30
0.0
 11
77.61318626562524
 21
19.8234544482836
 31
0.0
  0
LINE
  5
C7E
330
B9D
100
AcDbEntity
  8
0
  6
Continuous
 62
     7
100
AcDbLine
 10
76.70446733482504
 20
15.60117971401695
 30
0.0
 11
76.2641004612251
 21
13.55505757315023
 31
0.0
  0
LINE
  5
C7F
330
B9D
100
AcDbEntity
  8
0
  6
Continuous
 62
     7
100
AcDbLine
 10
76.70446733482504
 20
24.04572918255025
 30
0.0
 11
76.2641004612251
 21
26.09185132341691
 31
0.0
  0
LINE
  5
C80
330
B9D
100
AcDbEntity
  8
0
  6
Continuous
 62
     7
100
AcDbLine
 10
76.2275286377585
 20
26.32505186761688
 30
0.0
 11
76.70446733482504
 21
24.08722389368359
 31
0.0
  0
LINE
  5
C81
330
B9D
100
AcDbEntity
  8
0
  6
Continuous
100
AcDbLine
 10
76.70446733482504
 20
24.08722389368359
 30
0.0
 11
77.61318626562524
 21
19.8234544482836
 31
0.0
  0
ENDBLK
  5
C82
330
B9D
100
AcDbEntity
  8
0
100
AcDbBlockEnd
  0
BLOCK
  5
C86
330
C83
100
AcDbEntity
  8
0
100
AcDbBlockBegin
  2
A$C217E344C
 70
     0
 10
0.0
 20
0.0
 30
0.0
  3
A$C217E344C
  1

  0
LINE
  5
C87
330
C83
100
AcDbEntity
  8
0
  6
Continuous
 62
     7
100
AcDbLine
 10
10.61903407103273
 20
5.231602809099399
 30
0.0
 11
10.99941157729927
 21
7.938129400232696
 31
0.0
  0
LINE
  5
C88
330
C83
100
AcDbEntity
  8
0
  6
Continuous
 62
     7
100
AcDbLine
 10
12.00058802289914
 20
15.06186996823271
 30
0.0
 11
12.38096552916613
 21
17.76839655936601
 31
0.0
  0
LINE
  5
C89
330
C83
100
AcDbEntity
  8
0
  6
Continuous
 62
     7
100
AcDbLine
 10
12.38096552916613
 20
5.231602809099399
 30
0.0
 11
12.00058802289914
 21
7.938129400232696
 31
0.0
  0
LINE
  5
C8A
330
C83
100
AcDbEntity
  8
0
  6
Continuous
 62
     7
100
AcDbLine
 10
10.99941157729927
 20
15.06186996823271
 30
0.0
 11
10.61903407103273
 21
17.76839655936601
 31
0.0
  0
CIRCLE
  5
C8B
330
C83
100
AcDbEntity
  8
0
  6
Continuous
 62
     7
100
AcDbCircle
 10
3.056252113232403
 20
6.624999684232648
 30
0.0
 40
1.349968612533333
  0
ARC
  5
C8C
330
C83
100
AcDbEntity
  8
0
  6
Continuous
 62
     2
100
AcDbCircle
 10
3.056252113232403
 20
6.624999684232648
 30
0.0
 40
1.25
100
AcDbArc
 50
255.0000000000056
 51
195.0000000000007
  0
CIRCLE
  5
C8D
330
C83
100
AcDbEntity
  8
0
  6
Continuous
 62
     7
100
AcDbCircle
 10
3.056252113232403
 20
6.624999684232648
 30
0.0
 40
1.049999999999999
  0
CIRCLE
  5
C8E
330
C83
100
AcDbEntity
  8
0
  6
Continuous
 62
     7
100
AcDbCircle
 10
11.49999980009943
 20
11.49999968423265
 30
0.0
 40
11.5
  0
CIRCLE
  5
C8F
330
C83
100
AcDbEntity
  8
0
  6
Continuous
 62
     7
100
AcDbCircle
 10
11.49999980009943
 20
11.49999968423265
 30
0.0
 40
11.29999854813333
  0
CIRCLE
  5
C90
330
C83
100
AcDbEntity
  8
0
  6
Continuous
 62
     7
100
AcDbCircle
 10
11.49999980009943
 20
11.49999968423265
 30
0.0
 40
7.0
  0
CIRCLE
  5
C91
330
C83
100
AcDbEntity
  8
0
  6
Continuous
 62
     7
100
AcDbCircle
 10
11.49999980009943
 20
11.49999968423265
 30
0.0
 40
6.800000496733333
  0
CIRCLE
  5
C92
330
C83
100
AcDbEntity
  8
0
  6
Continuous
 62
     7
100
AcDbCircle
 10
11.49999980009943
 20
11.49999968423265
 30
0.0
 40
6.700000782333333
  0
CIRCLE
  5
C93
330
C83
100
AcDbEntity
  8
0
  6
Continuous
 62
     7
100
AcDbCircle
 10
11.49999980009943
 20
11.49999968423265
 30
0.0
 40
6.5
  0
ARC
  5
C94
330
C83
100
AcDbEntity
  8
0
  6
Continuous
 62
     7
100
AcDbCircle
 10
11.49999980009943
 20
11.49999968423265
 30
0.0
 40
6.329999999999999
100
AcDbArc
 50
278.0000000000137
 51
81.99999999998622
  0
ARC
  5
C95
330
C83
100
AcDbEntity
  8
0
  6
Continuous
 62
     7
100
AcDbCircle
 10
11.49999980009943
 20
11.49999968423265
 30
0.0
 40
6.329999999999999
100
AcDbArc
 50
98.00000000001377
 51
261.9999999999862
  0
ARC
  5
C96
330
C83
100
AcDbEntity
  8
0
  6
Continuous
 62
     7
100
AcDbCircle
 10
11.49999980009943
 20
11.49999968423265
 30
0.0
 40
6.299999210733333
100
AcDbArc
 50
262.0201162354896
 51
277.9798732255151
  0
ARC
  5
C97
330
C83
100
AcDbEntity
  8
0
  6
Continuous
 62
     7
100
AcDbCircle
 10
11.49999980009943
 20
11.49999968423265
 30
0.0
 40
6.299999210733333
100
AcDbArc
 50
82.02011623548957
 51
97.97987322551509
  0
ARC
  5
C98
330
C83
100
AcDbEntity
  8
0
  6
Continuous
 62
     7
100
AcDbCircle
 10
11.49999980009943
 20
11.49999968423265
 30
0.0
 40
5.484684939799999
100
AcDbArc
 50
81.99999999998622
 51
98.00000000001377
  0
ARC
  5
C99
330
C83
100
AcDbEntity
  8
0
  6
Continuous
 62
     7
100
AcDbCircle
 10
11.49999980009943
 20
11.49999968423265
 30
0.0
 40
5.484684939799999
100
AcDbArc
 50
261.9999999999862
 51
278.0000000000137
  0
ARC
  5
C9A
330
C83
100
AcDbEntity
  8
0
  6
Continuous
 62
     7
100
AcDbCircle
 10
11.49999980009943
 20
11.49999968423265
 30
0.0
 40
4.263769445399999
100
AcDbArc
 50
98.00000000001377
 51
261.9999999999862
  0
ARC
  5
C9B
330
C83
100
AcDbEntity
  8
0
  6
Continuous
 62
     7
100
AcDbCircle
 10
11.49999980009943
 20
11.49999968423265
 30
0.0
 40
4.263769445399999
100
AcDbArc
 50
278.0000000000137
 51
81.99999999998622
  0
ARC
  5
C9C
330
C83
100
AcDbEntity
  8
0
  6
Continuous
 62
     7
100
AcDbCircle
 10
11.49999980009943
 20
11.49999968423265
 30
0.0
 40
3.596874822533333
100
AcDbArc
 50
81.99999999998622
 51
98.00000000001377
  0
ARC
  5
C9D
330
C83
100
AcDbEntity
  8
0
  6
Continuous
 62
     7
100
AcDbCircle
 10
11.49999980009943
 20
11.49999968423265
 30
0.0
 40
3.596874822533333
100
AcDbArc
 50
261.9999999999862
 51
278.0000000000137
  0
CIRCLE
  5
C9E
330
C83
100
AcDbEntity
  8
02___PRT_ALL_AXES
  6
Continuous
 62
     7
100
AcDbCircle
 10
11.49999980009943
 20
11.49999968423265
 30
0.0
 40
3.342773023466666
  0
CIRCLE
  5
C9F
330
C83
100
AcDbEntity
  8
0
  6
Continuous
 62
     7
100
AcDbCircle
 10
11.49999980009943
 20
11.49999968423265
 30
0.0
 40
2.673196196599999
  0
CIRCLE
  5
CA0
330
C83
100
AcDbEntity
  8
0
  6
Continuous
 62
     7
100
AcDbCircle
 10
11.49999980009943
 20
11.49999968423265
 30
0.0
 40
2.5
  0
CIRCLE
  5
CA1
330
C83
100
AcDbEntity
  8
0
  6
Continuous
 62
     7
100
AcDbCircle
 10
11.49999980009943
 20
11.49999968423265
 30
0.0
 40
2.474999999999999
  0
CIRCLE
  5
CA2
330
C83
100
AcDbEntity
  8
0
  6
Continuous
 62
     7
100
AcDbCircle
 10
11.49999980009943
 20
11.49999968423265
 30
0.0
 40
2.199972844133333
  0
CIRCLE
  5
CA3
330
C83
100
AcDbEntity
  8
0
  6
Continuous
 62
     7
100
AcDbCircle
 10
19.9437474870324
 20
6.624999684232648
 30
0.0
 40
1.349968612533333
  0
ARC
  5
CA4
330
C83
100
AcDbEntity
  8
0
  6
Continuous
 62
     2
100
AcDbCircle
 10
19.9437474870324
 20
6.624999684232648
 30
0.0
 40
1.25
100
AcDbArc
 50
255.0000000000056
 51
195.0000000000007
  0
CIRCLE
  5
CA5
330
C83
100
AcDbEntity
  8
0
  6
Continuous
 62
     7
100
AcDbCircle
 10
19.9437474870324
 20
6.624999684232648
 30
0.0
 40
1.049999999999999
  0
CIRCLE
  5
CA6
330
C83
100
AcDbEntity
  8
0
  6
Continuous
 62
     7
100
AcDbCircle
 10
11.49999980009943
 20
21.24999968423265
 30
0.0
 40
1.349968612533333
  0
ARC
  5
CA7
330
C83
100
AcDbEntity
  8
0
  6
Continuous
 62
     2
100
AcDbCircle
 10
11.49999980009943
 20
21.24999968423265
 30
0.0
 40
1.25
100
AcDbArc
 50
255.0000000000056
 51
195.0000000000007
  0
CIRCLE
  5
CA8
330
C83
100
AcDbEntity
  8
0
  6
Continuous
 62
     7
100
AcDbCircle
 10
11.49999980009943
 20
21.24999968423265
 30
0.0
 40
1.049999999999999
  0
ENDBLK
  5
CA9
330
C83
100
AcDbEntity
  8
0
100
AcDbBlockEnd
  0
BLOCK
  5
D0C
330
CC8
100
AcDbEntity
  8
0
100
AcDbBlockBegin
  2
new A3-S11
 70
     0
 10
0.0
 20
0.0
 30
0.0
  3
new A3-S11
  1

  0
LINE
  5
EC2
330
CC8
100
AcDbEntity
  8
0
  6
Continuous
 62
   255
100
AcDbLine
 10
795.462730356111
 20
-277.0
 30
0.0
 11
795.462730356111
 21
0.0
 31
0.0
  0
LINE
  5
EC3
330
CC8
100
AcDbEntity
  8
0
  6
Continuous
 62
   255
100
AcDbLine
 10
412.4627639465111
 20
-277.0
 30
0.0
 11
795.462730356111
 21
-277.0
 31
0.0
  0
LINE
  5
EC4
330
CC8
100
AcDbEntity
  8
0
  6
Continuous
 62
   255
100
AcDbLine
 10
402.4627639465111
 20
0.0
 30
0.0
 11
402.4627639465111
 21
-222.0000000000001
 31
0.0
  0
LINE
  5
EC5
330
CC8
100
AcDbEntity
  8
0
  6
Continuous
 62
   255
100
AcDbLine
 10
402.4627639465111
 20
0.0
 30
0.0
 11
795.462730356111
 21
0.0
 31
0.0
  0
LINE
  5
EC6
330
CC8
100
AcDbEntity
  8
1
 62
     2
100
AcDbLine
 10
615.4627303561103
 20
-240.7736213082135
 30
0.0
 11
615.4627303561103
 21
-233.1532223398645
 31
0.0
1001
AcDbBlockRepETag
1070
     1
1071
     2034
1005
0
  0
LINE
  5
EC7
330
CC8
100
AcDbEntity
  8
1
 62
     2
100
AcDbLine
 10
755.4627303560963
 20
-240.7736213082135
 30
0.0
 11
615.4627303561103
 21
-240.7736213082135
 31
0.0
1001
AcDbBlockRepETag
1070
     1
1071
     2035
1005
0
  0
LINE
  5
EC8
330
CC8
100
AcDbEntity
  8
1
 62
     2
100
AcDbLine
 10
755.4627303560963
 20
-233.1532223398645
 30
0.0
 11
755.4627303560963
 21
-240.7736213082135
 31
0.0
1001
AcDbBlockRepETag
1070
     1
1071
     2036
1005
0
  0
LINE
  5
EC9
330
CC8
100
AcDbEntity
  8
1
 62
     2
100
AcDbLine
 10
615.4627303561103
 20
-233.1532223398645
 30
0.0
 11
755.4627303560963
 21
-233.1532223398645
 31
0.0
1001
AcDbBlockRepETag
1070
     1
1071
     2037
1005
0
  0
LINE
  5
ECA
330
CC8
100
AcDbEntity
  8
0
  6
Continuous
 62
   255
100
AcDbLine
 10
412.4627639465111
 20
-222.0
 30
0.0
 11
412.4627639465111
 21
-277.0
 31
0.0
1001
AcDbBlockRepETag
1070
     1
1071
     1946
1005
0
  0
LINE
  5
ECB
330
CC8
100
AcDbEntity
  8
0
  6
Continuous
 62
   255
100
AcDbLine
 10
412.4627639465111
 20
-222.0
 30
0.0
 11
402.4627639465111
 21
-222.0
 31
0.0
  0
LINE
  5
ECC
330
CC8
100
AcDbEntity
  8
0
  6
CENTER
 62
     2
 48
0.2
370
     9
100
AcDbLine
 10
790.0016616277157
 20
-260.4561080562671
 30
0.0
 11
790.0016616277157
 21
-253.4561099688349
 31
0.0
1001
AcDbBlockRepETag
1070
     1
1071
        1
1005
0
  0
LINE
  5
ECD
330
CC8
100
AcDbEntity
  8
0
  6
CENTER
 62
     2
 48
0.2
370
     9
100
AcDbLine
 10
775.6438450240919
 20
-256.956109012551
 30
0.0
 11
784.6438425650753
 21
-256.956109012551
 31
0.0
1001
AcDbBlockRepETag
1070
     1
1071
        9
1005
0
  0
LINE
  5
ECE
330
CC8
100
AcDbEntity
  8
0
  6
Continuous
 62
   255
100
AcDbLine
 10
784.1438427016878
 20
-253.8561098595453
 30
0.0
 11
776.1438448874794
 21
-255.4561094223869
 31
0.0
1001
AcDbBlockRepETag
1070
     1
1071
       10
1005
0
  0
LINE
  5
ECF
330
CC8
100
AcDbEntity
  8
0
  6
Continuous
 62
   255
100
AcDbLine
 10
784.1438427016878
 20
-260.0561081655568
 30
0.0
 11
784.1438427016878
 21
-253.8561098595453
 31
0.0
1001
AcDbBlockRepETag
1070
     1
1071
       11
1005
0
  0
LINE
  5
ED0
330
CC8
100
AcDbEntity
  8
0
  6
Continuous
 62
   255
100
AcDbLine
 10
776.1438448874794
 20
-258.4561086027151
 30
0.0
 11
784.1438427016878
 21
-260.0561081655568
 31
0.0
1001
AcDbBlockRepETag
1070
     1
1071
       12
1005
0
  0
LINE
  5
ED1
330
CC8
100
AcDbEntity
  8
0
  6
Continuous
 62
   255
100
AcDbLine
 10
776.1438448874794
 20
-255.4561094223869
 30
0.0
 11
776.1438448874794
 21
-258.4561086027151
 31
0.0
1001
AcDbBlockRepETag
1070
     1
1071
       13
1005
0
  0
LINE
  5
ED2
330
CC8
100
AcDbEntity
  8
0
  6
Continuous
 62
   255
100
AcDbLine
 10
732.4627505746857
 20
-255.0000010928959
 30
0.0
 11
732.4627505746857
 21
-273.0000010928959
 31
0.0
1001
AcDbBlockRepETag
1070
     1
1071
       20
1005
0
  0
LINE
  5
ED3
330
CC8
100
AcDbEntity
  8
0
  6
Continuous
 62
   255
100
AcDbLine
 10
647.4627707932584
 20
-255.0000010928961
 30
0.0
 11
647.4627707932584
 21
-273.0000010928959
 31
0.0
1001
AcDbBlockRepETag
1070
     1
1071
       22
1005
0
  0
LINE
  5
ED4
330
CC8
100
AcDbEntity
  8
0
  6
Continuous
 62
   255
100
AcDbLine
 10
612.4627803560981
 20
-233.1532223398645
 30
0.0
 11
612.4627803560981
 21
-277.0
 31
0.0
1001
AcDbBlockRepETag
1070
     1
1071
       26
1005
0
  0
LINE
  5
ED5
330
CC8
100
AcDbEntity
  8
0
  6
Continuous
 62
   255
100
AcDbLine
 10
587.4627871866977
 20
-257.5000053278675
 30
0.0
 11
587.462787186698
 21
-277.0
 31
0.0
1001
AcDbBlockRepETag
1070
     1
1071
       29
1005
0
  0
LINE
  5
ED6
330
CC8
100
AcDbEntity
  8
0
  6
Continuous
 62
     2
370
     9
100
AcDbLine
 10
429.4627803560981
 20
-266.5000028688518
 30
0.0
 11
612.4627803560981
 21
-266.5000028688518
 31
0.0
1001
AcDbBlockRepETag
1070
     1
1071
       30
1005
0
  0
LINE
  5
ED7
330
CC8
100
AcDbEntity
  8
0
  6
Continuous
 62
   255
100
AcDbLine
 10
429.4627803560981
 20
-271.0000016393439
 30
0.0
 11
612.4627803560981
 21
-271.0000016393439
 31
0.0
1001
AcDbBlockRepETag
1070
     1
1071
       31
1005
0
  0
LINE
  5
ED8
330
CC8
100
AcDbEntity
  8
0
  6
Continuous
 62
   255
100
AcDbLine
 10
429.4627803560981
 20
-277.0
 30
0.0
 11
429.4627803560979
 21
-233.1532223398645
 31
0.0
1001
AcDbBlockRepETag
1070
     1
1071
       32
1005
0
  0
LINE
  5
ED9
330
CC8
100
AcDbEntity
  8
0
  6
Continuous
 62
     2
370
     9
100
AcDbLine
 10
612.4627803560981
 20
-262.0000040983596
 30
0.0
 11
429.4627803560981
 21
-262.0000040983596
 31
0.0
1001
AcDbBlockRepETag
1070
     1
1071
       33
1005
0
  0
LINE
  5
EDA
330
CC8
100
AcDbEntity
  8
0
  6
Continuous
 62
   255
100
AcDbLine
 10
562.4627940172972
 20
-257.5000053278675
 30
0.0
 11
562.4627940172975
 21
-277.0
 31
0.0
1001
AcDbBlockRepETag
1070
     1
1071
       34
1005
0
  0
LINE
  5
EDB
330
CC8
100
AcDbEntity
  8
0
  6
Continuous
 62
   255
100
AcDbLine
 10
537.4628008478957
 20
-257.5000053278675
 30
0.0
 11
537.4628008478957
 21
-277.0
 31
0.0
1001
AcDbBlockRepETag
1070
     1
1071
       35
1005
0
  0
LINE
  5
EDC
330
CC8
100
AcDbEntity
  8
0
  6
Continuous
 62
   255
100
AcDbLine
 10
436.362828470839
 20
-257.5000053278675
 30
0.0
 11
436.362828470839
 21
-277.0
 31
0.0
1001
AcDbBlockRepETag
1070
     1
1071
       36
1005
0
  0
LINE
  5
EDD
330
CC8
100
AcDbEntity
  8
0
  6
CENTER
 62
     2
 48
0.2
370
     9
100
AcDbLine
 10
786.4016626113227
 20
-256.956109012551
 30
0.0
 11
793.5016606714325
 21
-256.956109012551
 31
0.0
1001
AcDbBlockRepETag
1070
     1
1071
       37
1005
0
  0
LINE
  5
EDE
330
CC8
100
AcDbEntity
  8
0
  6
Continuous
 62
   255
100
AcDbLine
 10
795.4627303561112
 20
-273.0000010928959
 30
0.0
 11
612.4627803560981
 21
-273.0000010928959
 31
0.0
1001
AcDbBlockRepETag
1070
     1
1071
       38
1005
0
  0
CIRCLE
  5
EDF
330
CC8
100
AcDbEntity
  8
0
  6
Continuous
 62
   255
100
AcDbCircle
 10
790.0016616277157
 20
-256.956109012551
 30
0.0
 40
3.099999153005696
1001
AcDbBlockRepETag
1070
     1
1071
       39
1005
0
  0
CIRCLE
  5
EE0
330
CC8
100
AcDbEntity
  8
0
  6
Continuous
 62
   255
100
AcDbCircle
 10
790.0016616277157
 20
-256.956109012551
 30
0.0
 40
1.499999590164046
1001
AcDbBlockRepETag
1070
     1
1071
       40
1005
0
  0
MTEXT
  5
EE1
330
CC8
100
AcDbEntity
  8
0
 62
   255
100
AcDbMText
 10
742.4886817458279
 20
-258.0961633175244
 30
0.0
 40
3.0
 41
0.0
 46
0.0
 71
     1
 72
     5
  1
Scale: X:1
 73
     1
 44
1.0
1001
AcDbBlockRepETag
1070
     1
1071
       46
1005
0
  0
MTEXT
  5
EE2
330
CC8
100
AcDbEntity
  8
0
 62
   255
100
AcDbMText
 10
785.9761987320682
 20
-266.1776207634082
 30
0.0
 40
4.5
 41
0.0
 46
0.0
 71
     1
 72
     5
  1
{\fISOCPEUR|b0|i0|c0|p34;\W1;A3}
  7
SLDTEXTSTYLE0
 73
     1
 44
1.0
1001
AcDbBlockRepETag
1070
     1
1071
       50
1005
0
  0
TEXT
  5
EE3
330
CC8
100
AcDbEntity
  8
0
  6
Continuous
 62
   255
100
AcDbText
 10
615.999552743995
 20
-275.600626952933
 30
0.0
 40
1.72391304347826
  1
This drawing remains our property. Without written approval it may not be copied, reproduced, communicated or made available to third parties.
100
AcDbText
1001
AcDbBlockRepETag
1070
     1
1071
       51
1005
0
  0
MTEXT
  5
EE4
330
CC8
100
AcDbEntity
  8
0
 62
   255
100
AcDbMText
 10
430.8431967639346
 20
-272.4012695934838
 30
0.0
 40
1.999999453552061
 41
0.0
 46
0.0
 71
     1
 72
     5
  1
No.
 73
     1
 44
1.0
1001
AcDbBlockRepETag
1070
     1
1071
       52
1005
0
  0
MTEXT
  5
EE5
330
CC8
100
AcDbEntity
  8
0
 62
   255
100
AcDbMText
 10
465.3543791596414
 20
-272.5568974675624
 30
0.0
 40
1.999999453552061
 41
0.0
 46
0.0
 71
     1
 72
     5
  1
Modifications
 73
     1
 44
1.0
1001
AcDbBlockRepETag
1070
     1
1071
       53
1005
0
  0
MTEXT
  5
EE6
330
CC8
100
AcDbEntity
  8
0
 62
   255
100
AcDbMText
 10
516.3394128285574
 20
-272.4090513971577
 30
0.0
 40
1.999999453552061
 41
0.0
 46
0.0
 71
     1
 72
     5
  1
Communication
 73
     1
 44
1.0
1001
AcDbBlockRepETag
1070
     1
1071
       54
1005
0
  0
MTEXT
  5
EE7
330
CC8
100
AcDbEntity
  8
0
 62
   255
100
AcDbMText
 10
546.4272744208374
 20
-272.4579818509886
 30
0.0
 40
1.999999453552061
 41
0.0
 46
0.0
 71
     1
 72
     5
  1
Drawn
 73
     1
 44
1.0
1001
AcDbBlockRepETag
1070
     1
1071
       55
1005
0
  0
MTEXT
  5
EE8
330
CC8
100
AcDbEntity
  8
0
 62
   255
100
AcDbMText
 10
594.082408871658
 20
-272.537497781863
 30
0.0
 40
1.999999453552061
 41
0.0
 46
0.0
 71
     1
 72
     5
  1
Approved
 73
     1
 44
1.0
1001
AcDbBlockRepETag
1070
     1
1071
       56
1005
0
  0
MTEXT
  5
EE9
330
CC8
100
AcDbEntity
  8
0
 62
   255
100
AcDbMText
 10
747.2395558258272
 20
-266.23226977527
 30
0.0
 40
4.5
 41
0.0
 46
0.0
 71
     1
 72
     5
  1
{\fISOCPEUR|b0|i0|c0|p34;\W1;\C256;Drg. No.}
  7
SLDTEXTSTYLE0
 73
     1
 44
1.0
1001
AcDbBlockRepETag
1070
     1
1071
       58
1005
0
  0
MTEXT
  5
EEA
102
{ACAD_XDICTIONARY
360
1130
102
}
330
CC8
100
AcDbEntity
  8
0
 62
   255
100
AcDbMText
 10
690.4446702144996
 20
-257.668031930731
 30
0.0
 40
4.5
 41
0.0
 46
0.0
 71
     1
 72
     5
  1
\pi-15.075;{\fISOCPEUR|b0|i0|c0|p34;\W1;Description\P\pi-21.15;Outline drawing}
  7
SLDTEXTSTYLE0
 73
     1
 44
1.0
1001
AcDbBlockRepETag
1070
     1
1071
       59
1005
0
  0
MTEXT
  5
EEB
330
CC8
100
AcDbEntity
  8
0
 62
     1
100
AcDbMText
 10
614.8696824671969
 20
-259.2996853159084
 30
0.0
 40
5.0
 41
0.0
 46
0.0
 71
     1
 72
     5
  1
{\fISOCPEUR|b0|i0|c0|p34;\W1;Portescap}
  7
SLDTEXTSTYLE0
 73
     1
 44
1.0
1001
AcDbBlockRepETag
1070
     1
1071
       65
1005
0
  0
LINE
  5
EEC
330
CC8
100
AcDbEntity
  8
0
  6
Continuous
 62
   255
100
AcDbLine
 10
512.4628076784954
 20
-257.5000053278675
 30
0.0
 11
512.4628076784956
 21
-277.0
 31
0.0
1001
AcDbBlockRepETag
1070
     1
1071
       66
1005
0
  0
MTEXT
  5
EED
330
CC8
100
AcDbEntity
  8
0
 62
   255
100
AcDbMText
 10
569.768144688197
 20
-272.4579818509886
 30
0.0
 40
1.999999453552061
 41
0.0
 46
0.0
 71
     1
 72
     5
  1
Checked
 73
     1
 44
1.0
1001
AcDbBlockRepETag
1070
     1
1071
       67
1005
0
  0
LINE
  5
EEE
330
CC8
100
AcDbEntity
  8
0
  6
Continuous
 62
   255
100
AcDbLine
 10
773.534358534004
 20
-250.0008059763035
 30
0.0
 11
773.534358534003
 21
-264.0000010928961
 31
0.0
1001
AcDbBlockRepETag
1070
     1
1071
        5
1005
0
  0
TEXT
  5
EEF
330
CC8
100
AcDbEntity
  8
0
  6
Continuous
 62
   255
100
AcDbText
 10
779.6181708028425
 20
-275.600626952933
 30
0.0
 40
1.72391304347826
  1
Sheet 1 of 1
100
AcDbText
1001
AcDbBlockRepETag
1070
     1
1071
       51
1005
0
  0
INSERT
  5
EF0
330
CC8
100
AcDbEntity
  8
0
 62
   255
100
AcDbBlockReference
  2
A$C08716F59
 10
429.4627803560979
 20
-257.5000053278673
 30
0.0
  0
LINE
  5
EF1
330
CC8
100
AcDbEntity
  8
0
  6
Continuous
 62
   255
100
AcDbLine
 10
647.4627707932584
 20
-269.0000021857919
 30
0.0
 11
612.4627803560981
 21
-269.0000021857919
 31
0.0
1001
AcDbBlockRepETag
1070
     1
1071
       38
1005
0
  0
TEXT
  5
EF2
330
CC8
100
AcDbEntity
  8
0
  6
Continuous
 62
   255
100
AcDbText
 10
615.999552743995
 20
-271.7908875797558
 30
0.0
 40
1.72391304347826
  1
PI/R&D/F/18 Rev 00
100
AcDbText
1001
AcDbBlockRepETag
1070
     1
1071
       51
1005
0
  0
MTEXT
  5
EF3
330
CC8
100
AcDbEntity
  8
0
  6
Continuous
 62
   255
100
AcDbMText
 10
614.3222225762045
 20
-248.3998440810558
 30
0.0
 40
2.1
 41
122.5201940634145
 46
0.0
 71
     7
 72
     1
  1
Unless & otherwise specified, all dimensions and tolerances are in mm.
  7
style1
 73
     1
 44
1.0
1001
AcDbBlockRepETag
1070
     1
1071
       64
1005
0
  0
LINE
  5
EF4
330
CC8
100
AcDbEntity
  8
0
  6
Continuous
 62
   255
100
AcDbLine
 10
612.4627803560981
 20
-250.0008059763035
 30
0.0
 11
795.4627303561112
 21
-250.0008059763035
 31
0.0
1001
AcDbBlockRepETag
1070
     1
1071
        3
1005
0
  0
LINE
  5
EF5
330
CC8
100
AcDbEntity
  8
0
  6
Continuous
 62
   255
100
AcDbLine
 10
773.5343585340038
 20
-255.000001092896
 30
0.0
 11
747.743499713406
 21
-255.0000010928961
 31
0.0
1001
AcDbBlockRepETag
1070
     1
1071
       38
1005
0
  0
LINE
  5
EF6
330
CC8
100
AcDbEntity
  8
0
  6
Continuous
 62
   255
100
AcDbLine
 10
795.4627303561112
 20
-264.0000010928959
 30
0.0
 11
732.4627505746859
 21
-264.0000010928962
 31
0.0
1001
AcDbBlockRepETag
1070
     1
1071
       38
1005
0
  0
MTEXT
  5
EF7
330
CC8
100
AcDbEntity
  8
1
 62
     4
100
AcDbMText
 10
408.137763946511
 20
-249.4153946635623
 30
0.0
 40
4.5
 41
49.18666449634293
 46
0.0
 71
     2
 72
     5
  1
{\C256;Drg. No.}
 11
-0.0000000000000002
 21
-1.0
 31
0.0
 73
     1
 44
1.0
  0
LINE
  5
EF8
330
CC8
100
AcDbEntity
  8
0
  6
Continuous
 62
   255
100
AcDbLine
 10
783.462730356111
 20
-273.0000010928959
 30
0.0
 11
783.4627303561108
 21
-264.000001092896
 31
0.0
  0
MTEXT
  5
EF9
330
CC8
100
AcDbEntity
  8
1
 62
     3
100
AcDbMText
 10
616.955855400455
 20
-235.2485951401709
 30
0.0
 40
3.5
 41
134.8361601943441
 46
0.0
 71
     1
 72
     5
  1
Technology: Description - no. x.xxx.xx.xxxx
 73
     1
 44
1.0
  0
LINE
  5
EFA
330
CC8
100
AcDbEntity
  8
0
  6
Continuous
 62
   255
100
AcDbLine
 10
657.5563534752002
 20
-250.0008059763033
 30
0.0
 11
657.5563534752006
 21
-255.000001092896
 31
0.0
1001
AcDbBlockRepETag
1070
     1
1071
       22
1005
0
  0
LINE
  5
EFB
330
CC8
100
AcDbEntity
  8
0
  6
Continuous
 62
   255
100
AcDbLine
 10
747.7434997134055
 20
-250.0008059763033
 30
0.0
 11
747.743499713406
 21
-255.000001092896
 31
0.0
1001
AcDbBlockRepETag
1070
     1
1071
       22
1005
0
  0
LINE
  5
EFC
330
CC8
100
AcDbEntity
  8
0
  6
Continuous
 62
   255
100
AcDbLine
 10
777.1060302804662
 20
-277.0
 30
0.0
 11
777.106030280466
 21
-273.0000010928959
 31
0.0
  0
MTEXT
  5
EFD
330
CC8
100
AcDbEntity
  8
0
 62
   255
100
AcDbMText
 10
614.2184337595852
 20
-251.1665621572582
 30
0.0
 40
2.5
 41
0.0
 46
0.0
 71
     1
 72
     5
  1
Drawn:
 73
     1
 44
1.0
1001
AcDbBlockRepETag
1070
     1
1071
       46
1005
0
  0
MTEXT
  5
EFE
330
CC8
100
AcDbEntity
  8
0
 62
   255
100
AcDbMText
 10
659.8380221434101
 20
-251.1665621572539
 30
0.0
 40
2.5
 41
0.0
 46
0.0
 71
     1
 72
     5
  1
Checked:
 73
     1
 44
1.0
1001
AcDbBlockRepETag
1070
     1
1071
       46
1005
0
  0
MTEXT
  5
EFF
330
CC8
100
AcDbEntity
  8
0
 62
   255
100
AcDbMText
 10
705.588009643413
 20
-251.1665621572539
 30
0.0
 40
2.5
 41
0.0
 46
0.0
 71
     1
 72
     5
  1
Approved:
 73
     1
 44
1.0
1001
AcDbBlockRepETag
1070
     1
1071
       46
1005
0
  0
MTEXT
  5
F00
330
CC8
100
AcDbEntity
  8
0
 62
   255
100
AcDbMText
 10
749.3687540007138
 20
-251.1665621572497
 30
0.0
 40
2.5
 41
0.0
 46
0.0
 71
     1
 72
     5
  1
Revision No: 00
 73
     1
 44
1.0
1001
AcDbBlockRepETag
1070
     1
1071
       46
1005
0
  0
LINE
  5
F01
330
CC8
100
AcDbEntity
  8
0
  6
Continuous
 62
   255
100
AcDbLine
 10
747.7434997134057
 20
-255.0000010928962
 30
0.0
 11
612.4627803560981
 21
-255.0000010928959
 31
0.0
1001
AcDbBlockRepETag
1070
     1
1071
       38
1005
0
  0
LINE
  5
F02
330
CC8
100
AcDbEntity
  8
0
  6
Continuous
 62
   255
100
AcDbLine
 10
702.6499265943025
 20
-250.0008059762993
 30
0.0
 11
702.649926594303
 21
-255.0000010928919
 31
0.0
1001
AcDbBlockRepETag
1070
     1
1071
       22
1005
0
  0
ENDBLK
  5
D0D
330
CC8
100
AcDbEntity
  8
0
100
AcDbBlockEnd
  0
BLOCK
  5
DEC
330
DEB
100
AcDbEntity
  8
0
100
AcDbBlockBegin
  2
*D70
 70
     1
 10
0.0
 20
0.0
 30
0.0
  3
*D70
  1

  0
LINE
  5
1046
330
DEB
100
AcDbEntity
  8
1
  6
Continuous
 62
     2
370
    -2
100
AcDbLine
 10
524.1828243606114
 20
169.81003479022
 30
0.0
 11
524.1828243606114
 21
153.236506202354
 31
0.0
  0
LINE
  5
1047
330
DEB
100
AcDbEntity
  8
1
  6
Continuous
 62
     2
370
    -2
100
AcDbLine
 10
520.4828243606114
 20
167.9190422316535
 30
0.0
 11
520.4828243606114
 21
158.9773572663051
 31
0.0
  0
LINE
  5
1048
330
DEB
100
AcDbEntity
  8
1
  6
Continuous
 62
     2
370
    -2
100
AcDbLine
 10
520.4828243606114
 20
158.0500163760919
 30
0.0
 11
520.4828243606114
 21
153.236506202354
 31
0.0
  0
LINE
  5
1049
330
DEB
100
AcDbEntity
  8
1
  6
Continuous
 62
     2
370
    -2
100
AcDbLine
 10
522.4328243606114
 20
153.736506202354
 30
0.0
 11
520.4828243606114
 21
153.736506202354
 31
0.0
  0
MTEXT
  5
104A
330
DEB
100
AcDbEntity
  8
1
  6
Continuous
 62
     3
100
AcDbMText
 10
526.3269366356267
 20
155.2932420403745
 30
0.0
 40
1.75
 41
0.0
 46
0.0
 71
     5
 72
     1
  1
\A1;3.7
 73
     1
 44
1.0
  0
SOLID
  5
104B
330
DEB
100
AcDbEntity
  8
1
  6
Continuous
 62
     2
100
AcDbTrace
 10
525.9328243606114
 20
154.0281728690206
 30
0.0
 11
525.9328243606114
 21
153.4448395356873
 31
0.0
 12
524.1828243606114
 22
153.736506202354
 32
0.0
 13
524.1828243606114
 23
153.736506202354
 33
0.0
  0
LINE
  5
104C
330
DEB
100
AcDbEntity
  8
1
  6
Continuous
 62
     2
370
    -2
100
AcDbLine
 10
525.9328243606114
 20
153.736506202354
 30
0.0
 11
527.6828243606114
 21
153.736506202354
 31
0.0
  0
LINE
  5
104D
330
DEB
100
AcDbEntity
  8
1
  6
Continuous
 62
     2
370
    -2
100
AcDbLine
 10
524.1828243606114
 20
153.736506202354
 30
0.0
 11
522.4328243606114
 21
153.736506202354
 31
0.0
  0
INSERT
  5
104E
330
DEB
100
AcDbEntity
  8
1
  6
Continuous
 62
     2
370
    -2
100
AcDbBlockReference
  2
_Oblique
 10
520.4828243606114
 20
153.736506202354
 30
0.0
 41
1.75
 42
1.75
 43
1.75
 50
180.0
  0
POINT
  5
104F
330
DEB
100
AcDbEntity
  8
Defpoints
  6
Continuous
 62
     0
100
AcDbPoint
 10
524.1828243606114
 20
169.81003479022
 30
0.0
  0
POINT
  5
1050
330
DEB
100
AcDbEntity
  8
Defpoints
  6
Continuous
 62
     0
100
AcDbPoint
 10
520.4828243606114
 20
167.9190422316535
 30
0.0
  0
POINT
  5
1051
330
DEB
100
AcDbEntity
  8
Defpoints
  6
Continuous
 62
     0
100
AcDbPoint
 10
520.4828243606114
 20
153.736506202354
 30
0.0
  0
ENDBLK
  5
DED
330
DEB
100
AcDbEntity
  8
0
100
AcDbBlockEnd
  0
BLOCK
  5
DFA
330
DF9
100
AcDbEntity
  8
0
100
AcDbBlockBegin
  2
*D71
 70
     1
 10
0.0
 20
0.0
 30
0.0
  3
*D71
  1

  0
LINE
  5
E60
330
DF9
100
AcDbEntity
  8
1
  6
Continuous
 62
     2
370
    -2
100
AcDbLine
 10
554.2328243606115
 20
171.3690422316535
 30
0.0
 11
547.4661770995624
 21
171.3690422316535
 31
0.0
  0
LINE
  5
E61
330
DF9
100
AcDbEntity
  8
1
  6
Continuous
 62
     2
370
    -2
100
AcDbLine
 10
554.2328243606115
 20
169.1690422316535
 30
0.0
 11
547.4661770995624
 21
169.1690422316535
 31
0.0
  0
LINE
  5
E62
330
DF9
100
AcDbEntity
  8
1
  6
Continuous
 62
     2
370
    -2
100
AcDbLine
 10
547.9661770995625
 20
173.1190422316535
 30
0.0
 11
547.9661770995625
 21
174.8690422316535
 31
0.0
  0
LINE
  5
E63
330
DF9
100
AcDbEntity
  8
1
  6
Continuous
 62
     2
370
    -2
100
AcDbLine
 10
547.9661770995625
 20
167.4190422316535
 30
0.0
 11
547.9661770995625
 21
165.6690422316535
 31
0.0
  0
MTEXT
  5
E64
330
DF9
100
AcDbEntity
  8
1
  6
Continuous
 62
     3
100
AcDbMText
 10
545.8411770995625
 20
170.2690422316536
 30
0.0
 40
1.75
 41
0.0
 46
0.0
 71
     5
 72
     1
  1
\A1;2
 11
0.0000000000000001
 21
1.0
 31
0.0
 73
     1
 44
1.0
  0
LINE
  5
E65
330
DF9
100
AcDbEntity
  8
1
  6
Continuous
 62
     2
370
    -2
100
AcDbLine
 10
547.9661770995625
 20
171.3690422316535
 30
0.0
 11
547.9661770995625
 21
169.1690422316535
 31
0.0
  0
SOLID
  5
E66
330
DF9
100
AcDbEntity
  8
1
  6
Continuous
 62
     2
100
AcDbTrace
 10
547.6745104328959
 20
173.1190422316535
 30
0.0
 11
548.2578437662291
 21
173.1190422316535
 31
0.0
 12
547.9661770995625
 22
171.3690422316535
 32
0.0
 13
547.9661770995625
 23
171.3690422316535
 33
0.0
  0
SOLID
  5
E67
330
DF9
100
AcDbEntity
  8
1
  6
Continuous
 62
     2
100
AcDbTrace
 10
547.6745104328959
 20
167.4190422316535
 30
0.0
 11
548.2578437662291
 21
167.4190422316535
 31
0.0
 12
547.9661770995625
 22
169.1690422316535
 32
0.0
 13
547.9661770995625
 23
169.1690422316535
 33
0.0
  0
POINT
  5
E68
330
DF9
100
AcDbEntity
  8
Defpoints
  6
Continuous
 62
     0
100
AcDbPoint
 10
554.2328243606115
 20
171.3690422316535
 30
0.0
  0
POINT
  5
E69
330
DF9
100
AcDbEntity
  8
Defpoints
  6
Continuous
 62
     0
100
AcDbPoint
 10
554.2328243606115
 20
169.1690422316535
 30
0.0
  0
POINT
  5
E6A
330
DF9
100
AcDbEntity
  8
Defpoints
  6
Continuous
 62
     0
100
AcDbPoint
 10
547.9661770995625
 20
169.1690422316535
 30
0.0
  0
ENDBLK
  5
DFB
330
DF9
100
AcDbEntity
  8
0
100
AcDbBlockEnd
  0
BLOCK
  5
E08
330
E07
100
AcDbEntity
  8
0
100
AcDbBlockBegin
  2
*D72
 70
     1
 10
0.0
 20
0.0
 30
0.0
  3
*D72
  1

  0
LINE
  5
E6B
330
E07
100
AcDbEntity
  8
1
  6
Continuous
 62
     2
370
    -2
100
AcDbLine
 10
518.4828243606115
 20
167.5690422316535
 30
0.0
 11
518.4828243606115
 21
158.0288360975797
 31
0.0
  0
LINE
  5
E6C
330
E07
100
AcDbEntity
  8
1
  6
Continuous
 62
     2
370
    -2
100
AcDbLine
 10
517.9828243606114
 20
164.1690422316535
 30
0.0
 11
517.9828243606114
 21
158.0288360975797
 31
0.0
  0
LINE
  5
E6D
330
E07
100
AcDbEntity
  8
1
  6
Continuous
 62
     2
370
    -2
100
AcDbLine
 10
520.2328243606115
 20
158.5288360975797
 30
0.0
 11
521.9828243606115
 21
158.5288360975797
 31
0.0
  0
LINE
  5
E6E
330
E07
100
AcDbEntity
  8
1
  6
Continuous
 62
     2
370
    -2
100
AcDbLine
 10
516.2328243606114
 20
158.5288360975797
 30
0.0
 11
514.4828243606114
 21
158.5288360975797
 31
0.0
  0
MTEXT
  5
E6F
330
E07
100
AcDbEntity
  8
1
  6
Continuous
 62
     3
100
AcDbMText
 10
515.8007755546266
 20
160.3241425005838
 30
0.0
 40
1.75
 41
0.0
 46
0.0
 71
     5
 72
     1
  1
\A1;0.5
 73
     1
 44
1.0
  0
LINE
  5
E70
330
E07
100
AcDbEntity
  8
1
  6
Continuous
 62
     2
370
    -2
100
AcDbLine
 10
518.4828243606115
 20
158.5288360975797
 30
0.0
 11
517.9828243606114
 21
158.5288360975797
 31
0.0
  0
SOLID
  5
E71
330
E07
100
AcDbEntity
  8
1
  6
Continuous
 62
     2
100
AcDbTrace
 10
520.2328243606115
 20
158.8205027642464
 30
0.0
 11
520.2328243606115
 21
158.2371694309131
 31
0.0
 12
518.4828243606115
 22
158.5288360975797
 32
0.0
 13
518.4828243606115
 23
158.5288360975797
 33
0.0
  0
SOLID
  5
E72
330
E07
100
AcDbEntity
  8
1
  6
Continuous
 62
     2
100
AcDbTrace
 10
516.2328243606114
 20
158.8205027642464
 30
0.0
 11
516.2328243606114
 21
158.2371694309131
 31
0.0
 12
517.9828243606114
 22
158.5288360975797
 32
0.0
 13
517.9828243606114
 23
158.5288360975797
 33
0.0
  0
POINT
  5
E73
330
E07
100
AcDbEntity
  8
Defpoints
  6
Continuous
 62
     0
100
AcDbPoint
 10
518.4828243606115
 20
167.5690422316535
 30
0.0
  0
POINT
  5
E74
330
E07
100
AcDbEntity
  8
Defpoints
  6
Continuous
 62
     0
100
AcDbPoint
 10
517.9828243606114
 20
164.1690422316535
 30
0.0
  0
POINT
  5
E75
330
E07
100
AcDbEntity
  8
Defpoints
  6
Continuous
 62
     0
100
AcDbPoint
 10
517.9828243606114
 20
158.5288360975797
 30
0.0
  0
ENDBLK
  5
E09
330
E07
100
AcDbEntity
  8
0
100
AcDbBlockEnd
  0
BLOCK
  5
E16
330
E15
100
AcDbEntity
  8
0
100
AcDbBlockBegin
  2
*D73
 70
     1
 10
0.0
 20
0.0
 30
0.0
  3
*D73
  1

  0
LINE
  5
1097
330
E15
100
AcDbEntity
  8
1
  6
Continuous
 62
     2
370
    -2
100
AcDbLine
 10
489.7828243606117
 20
164.4690422316535
 30
0.0
 11
489.7828243606117
 21
158.0288360975797
 31
0.0
  0
LINE
  5
1098
330
E15
100
AcDbEntity
  8
1
  6
Continuous
 62
     2
370
    -2
100
AcDbLine
 10
492.8828243606115
 20
163.9690422316534
 30
0.0
 11
492.8828243606115
 21
158.0288360975797
 31
0.0
  0
LINE
  5
1099
330
E15
100
AcDbEntity
  8
1
  6
Continuous
 62
     2
370
    -2
100
AcDbLine
 10
488.0328243606117
 20
158.5288360975797
 30
0.0
 11
486.2828243606116
 21
158.5288360975797
 31
0.0
  0
LINE
  5
109A
330
E15
100
AcDbEntity
  8
1
  6
Continuous
 62
     2
370
    -2
100
AcDbLine
 10
494.6328243606115
 20
158.5288360975797
 30
0.0
 11
496.3828243606115
 21
158.5288360975797
 31
0.0
  0
MTEXT
  5
109B
330
E15
100
AcDbEntity
  8
1
  6
Continuous
 62
     3
100
AcDbMText
 10
494.8974237249244
 20
160.3196337727497
 30
0.0
 40
1.75
 41
0.0
 46
0.0
 71
     5
 72
     1
  1
\A1;3.1
 73
     1
 44
1.0
  0
LINE
  5
109C
330
E15
100
AcDbEntity
  8
1
  6
Continuous
 62
     2
370
    -2
100
AcDbLine
 10
489.7828243606117
 20
158.5288360975797
 30
0.0
 11
492.8828243606115
 21
158.5288360975797
 31
0.0
  0
SOLID
  5
109D
330
E15
100
AcDbEntity
  8
1
  6
Continuous
 62
     2
100
AcDbTrace
 10
488.0328243606117
 20
158.8205027642464
 30
0.0
 11
488.0328243606117
 21
158.2371694309131
 31
0.0
 12
489.7828243606117
 22
158.5288360975797
 32
0.0
 13
489.7828243606117
 23
158.5288360975797
 33
0.0
  0
SOLID
  5
109E
330
E15
100
AcDbEntity
  8
1
  6
Continuous
 62
     2
100
AcDbTrace
 10
494.6328243606115
 20
158.8205027642464
 30
0.0
 11
494.6328243606115
 21
158.2371694309131
 31
0.0
 12
492.8828243606115
 22
158.5288360975797
 32
0.0
 13
492.8828243606115
 23
158.5288360975797
 33
0.0
  0
POINT
  5
109F
330
E15
100
AcDbEntity
  8
Defpoints
  6
Continuous
 62
     0
100
AcDbPoint
 10
489.7828243606117
 20
164.4690422316535
 30
0.0
  0
POINT
  5
10A0
330
E15
100
AcDbEntity
  8
Defpoints
  6
Continuous
 62
     0
100
AcDbPoint
 10
492.8828243606115
 20
163.9690422316534
 30
0.0
  0
POINT
  5
10A1
330
E15
100
AcDbEntity
  8
Defpoints
  6
Continuous
 62
     0
100
AcDbPoint
 10
492.8828243606115
 20
158.5288360975797
 30
0.0
  0
ENDBLK
  5
E17
330
E15
100
AcDbEntity
  8
0
100
AcDbBlockEnd
  0
BLOCK
  5
E24
330
E23
100
AcDbEntity
  8
0
100
AcDbBlockBegin
  2
*D74
 70
     1
 10
0.0
 20
0.0
 30
0.0
  3
*D74
  1

  0
LINE
  5
E81
330
E23
100
AcDbEntity
  8
1
  6
Continuous
 62
     2
370
    -2
100
AcDbLine
 10
564.4828243606115
 20
172.2690422316535
 30
0.0
 11
564.4828243606115
 21
182.4962710835923
 31
0.0
  0
LINE
  5
E82
330
E23
100
AcDbEntity
  8
1
  6
Continuous
 62
     2
370
    -2
100
AcDbLine
 10
554.4828243606115
 20
171.8690422316535
 30
0.0
 11
554.4828243606115
 21
182.4962710835923
 31
0.0
  0
LINE
  5
E83
330
E23
100
AcDbEntity
  8
1
  6
Continuous
 62
     2
370
    -2
100
AcDbLine
 10
562.7328243606115
 20
181.9962710835923
 30
0.0
 11
556.2328243606115
 21
181.9962710835923
 31
0.0
  0
SOLID
  5
E84
330
E23
100
AcDbEntity
  8
1
  6
Continuous
 62
     2
100
AcDbTrace
 10
562.7328243606115
 20
182.2879377502589
 30
0.0
 11
562.7328243606115
 21
181.7046044169256
 31
0.0
 12
564.4828243606115
 22
181.9962710835923
 32
0.0
 13
564.4828243606115
 23
181.9962710835923
 33
0.0
  0
SOLID
  5
E85
330
E23
100
AcDbEntity
  8
1
  6
Continuous
 62
     2
100
AcDbTrace
 10
556.2328243606115
 20
182.2879377502589
 30
0.0
 11
556.2328243606115
 21
181.7046044169256
 31
0.0
 12
554.4828243606115
 22
181.9962710835923
 32
0.0
 13
554.4828243606115
 23
181.9962710835923
 33
0.0
  0
MTEXT
  5
E86
330
E23
100
AcDbEntity
  8
1
  6
Continuous
 62
     3
100
AcDbMText
 10
559.4828243606115
 20
183.3712710835923
 30
0.0
 40
1.75
 41
0.0
 46
0.0
 71
     5
 72
     1
  1
\A1;10
 73
     1
 44
1.0
  0
POINT
  5
E87
330
E23
100
AcDbEntity
  8
Defpoints
  6
Continuous
 62
     0
100
AcDbPoint
 10
564.4828243606115
 20
172.2690422316535
 30
0.0
  0
POINT
  5
E88
330
E23
100
AcDbEntity
  8
Defpoints
  6
Continuous
 62
     0
100
AcDbPoint
 10
554.4828243606115
 20
171.8690422316535
 30
0.0
  0
POINT
  5
E89
330
E23
100
AcDbEntity
  8
Defpoints
  6
Continuous
 62
     0
100
AcDbPoint
 10
554.4828243606115
 20
181.9962710835923
 30
0.0
  0
ENDBLK
  5
E25
330
E23
100
AcDbEntity
  8
0
100
AcDbBlockEnd
  0
BLOCK
  5
E30
330
E2F
100
AcDbEntity
  8
0
100
AcDbBlockBegin
  2
*D75
 70
     1
 10
0.0
 20
0.0
 30
0.0
  3
*D75
  1

  0
LINE
  5
10CF
330
E2F
100
AcDbEntity
  8
1
  6
Continuous
 62
     2
370
    -2
100
AcDbLine
 10
517.9828243606114
 20
164.1690422316535
 30
0.0
 11
517.9828243606114
 21
148.4671999521517
 31
0.0
  0
LINE
  5
10D0
330
E2F
100
AcDbEntity
  8
1
  6
Continuous
 62
     2
370
    -2
100
AcDbLine
 10
524.1828243606114
 20
169.81003479022
 30
0.0
 11
524.1828243606114
 21
148.4671999521517
 31
0.0
  0
LINE
  5
10D1
330
E2F
100
AcDbEntity
  8
1
  6
Continuous
 62
     2
370
    -2
100
AcDbLine
 10
519.7328243606114
 20
148.9671999521517
 30
0.0
 11
522.4328243606114
 21
148.9671999521517
 31
0.0
  0
LINE
  5
10D2
330
E2F
100
AcDbEntity
  8
1
  6
Continuous
 62
     2
370
    -2
100
AcDbLine
 10
524.1828243606114
 20
148.9671999521517
 30
0.0
 11
533.0578243606114
 21
148.9671999521517
 31
0.0
  0
SOLID
  5
10D3
330
E2F
100
AcDbEntity
  8
1
  6
Continuous
 62
     2
100
AcDbTrace
 10
519.7328243606114
 20
149.2588666188183
 30
0.0
 11
519.7328243606114
 21
148.675533285485
 31
0.0
 12
517.9828243606114
 22
148.9671999521517
 32
0.0
 13
517.9828243606114
 23
148.9671999521517
 33
0.0
  0
SOLID
  5
10D4
330
E2F
100
AcDbEntity
  8
1
  6
Continuous
 62
     2
100
AcDbTrace
 10
522.4328243606114
 20
149.2588666188183
 30
0.0
 11
522.4328243606114
 21
148.675533285485
 31
0.0
 12
524.1828243606114
 22
148.9671999521517
 32
0.0
 13
524.1828243606114
 23
148.9671999521517
 33
0.0
  0
MTEXT
  5
10D5
330
E2F
100
AcDbEntity
  8
1
  6
Continuous
 62
     3
100
AcDbMText
 10
529.4953243606114
 20
150.3421999521517
 30
0.0
 40
1.75
 41
0.0
 46
0.0
 71
     5
 72
     1
  1
\A1;6.2{\H1.312500;±0.3}
 73
     1
 44
1.0
  0
POINT
  5
10D6
330
E2F
100
AcDbEntity
  8
Defpoints
  6
Continuous
 62
     0
100
AcDbPoint
 10
517.9828243606114
 20
164.1690422316535
 30
0.0
  0
POINT
  5
10D7
330
E2F
100
AcDbEntity
  8
Defpoints
  6
Continuous
 62
     0
100
AcDbPoint
 10
524.1828243606114
 20
169.81003479022
 30
0.0
  0
POINT
  5
10D8
330
E2F
100
AcDbEntity
  8
Defpoints
  6
Continuous
 62
     0
100
AcDbPoint
 10
524.1828243606114
 20
148.9671999521517
 30
0.0
  0
ENDBLK
  5
E31
330
E2F
100
AcDbEntity
  8
0
100
AcDbBlockEnd
  0
BLOCK
  5
E3C
330
E3B
100
AcDbEntity
  8
0
100
AcDbBlockBegin
  2
*D76
 70
     1
 10
0.0
 20
0.0
 30
0.0
  3
*D76
  1

  0
LINE
  5
EA2
330
E3B
100
AcDbEntity
  8
1
  6
Continuous
 62
     2
370
    -2
100
AcDbLine
 10
489.7828243606117
 20
164.4690422316535
 30
0.0
 11
489.7828243606117
 21
148.4671999521517
 31
0.0
  0
LINE
  5
EA3
330
E3B
100
AcDbEntity
  8
1
  6
Continuous
 62
     2
370
    -2
100
AcDbLine
 10
517.9828243606114
 20
164.1690422316535
 30
0.0
 11
517.9828243606114
 21
148.4671999521517
 31
0.0
  0
LINE
  5
EA4
330
E3B
100
AcDbEntity
  8
1
  6
Continuous
 62
     2
370
    -2
100
AcDbLine
 10
491.5328243606117
 20
148.9671999521517
 30
0.0
 11
516.2328243606114
 21
148.9671999521517
 31
0.0
  0
SOLID
  5
EA5
330
E3B
100
AcDbEntity
  8
1
  6
Continuous
 62
     2
100
AcDbTrace
 10
491.5328243606117
 20
149.2588666188183
 30
0.0
 11
491.5328243606117
 21
148.675533285485
 31
0.0
 12
489.7828243606117
 22
148.9671999521517
 32
0.0
 13
489.7828243606117
 23
148.9671999521517
 33
0.0
  0
SOLID
  5
EA6
330
E3B
100
AcDbEntity
  8
1
  6
Continuous
 62
     2
100
AcDbTrace
 10
516.2328243606114
 20
149.2588666188183
 30
0.0
 11
516.2328243606114
 21
148.675533285485
 31
0.0
 12
517.9828243606114
 22
148.9671999521517
 32
0.0
 13
517.9828243606114
 23
148.9671999521517
 33
0.0
  0
MTEXT
  5
EA7
330
E3B
100
AcDbEntity
  8
1
  6
Continuous
 62
     3
100
AcDbMText
 10
503.8828243606115
 20
150.3421999521517
 30
0.0
 40
1.75
 41
0.0
 46
0.0
 71
     5
 72
     1
  1
\A1;28.2
 73
     1
 44
1.0
  0
POINT
  5
EA8
330
E3B
100
AcDbEntity
  8
Defpoints
  6
Continuous
 62
     0
100
AcDbPoint
 10
489.7828243606117
 20
164.4690422316535
 30
0.0
  0
POINT
  5
EA9
330
E3B
100
AcDbEntity
  8
Defpoints
  6
Continuous
 62
     0
100
AcDbPoint
 10
517.9828243606114
 20
164.1690422316535
 30
0.0
  0
POINT
  5
EAA
330
E3B
100
AcDbEntity
  8
Defpoints
  6
Continuous
 62
     0
100
AcDbPoint
 10
517.9828243606114
 20
148.9671999521517
 30
0.0
  0
ENDBLK
  5
E3D
330
E3B
100
AcDbEntity
  8
0
100
AcDbBlockEnd
  0
BLOCK
  5
E48
330
E47
100
AcDbEntity
  8
0
100
AcDbBlockBegin
  2
*D77
 70
     1
 10
0.0
 20
0.0
 30
0.0
  3
*D77
  1

  0
LINE
  5
1016
330
E47
100
AcDbEntity
  8
1
  6
Continuous
 62
     2
370
    -2
100
AcDbLine
 10
520.4828243606114
 20
167.9190422316535
 30
0.0
 11
520.4828243606114
 21
158.9773572663051
 31
0.0
  0
LINE
  5
1017
330
E47
100
AcDbEntity
  8
1
  6
Continuous
 62
     2
370
    -2
100
AcDbLine
 10
520.4828243606114
 20
158.0500163760919
 30
0.0
 11
520.4828243606114
 21
153.236506202354
 31
0.0
  0
LINE
  5
1018
330
E47
100
AcDbEntity
  8
1
  6
Continuous
 62
     2
370
    -2
100
AcDbLine
 10
517.9828243606114
 20
164.1690422316535
 30
0.0
 11
517.9828243606114
 21
153.236506202354
 31
0.0
  0
LINE
  5
1019
330
E47
100
AcDbEntity
  8
1
  6
Continuous
 62
     2
370
    -2
100
AcDbLine
 10
520.4828243606114
 20
153.736506202354
 30
0.0
 11
522.2328243606114
 21
153.736506202354
 31
0.0
  0
LINE
  5
101A
330
E47
100
AcDbEntity
  8
1
  6
Continuous
 62
     2
370
    -2
100
AcDbLine
 10
516.2328243606114
 20
153.736506202354
 30
0.0
 11
514.4828243606114
 21
153.736506202354
 31
0.0
  0
MTEXT
  5
101B
330
E47
100
AcDbEntity
  8
1
  6
Continuous
 62
     3
100
AcDbMText
 10
515.7682364964887
 20
155.4079491849224
 30
0.0
 40
1.75
 41
0.0
 46
0.0
 71
     5
 72
     1
  1
\A1;2.5
 73
     1
 44
1.0
  0
LINE
  5
101C
330
E47
100
AcDbEntity
  8
1
  6
Continuous
 62
     2
370
    -2
100
AcDbLine
 10
520.4828243606114
 20
153.736506202354
 30
0.0
 11
517.9828243606114
 21
153.736506202354
 31
0.0
  0
INSERT
  5
101D
330
E47
100
AcDbEntity
  8
1
  6
Continuous
 62
     2
370
    -2
100
AcDbBlockReference
  2
_Oblique
 10
520.4828243606114
 20
153.736506202354
 30
0.0
 41
1.75
 42
1.75
 43
1.75
 50
180.0
  0
SOLID
  5
101E
330
E47
100
AcDbEntity
  8
1
  6
Continuous
 62
     2
100
AcDbTrace
 10
516.2328243606114
 20
154.0281728690206
 30
0.0
 11
516.2328243606114
 21
153.4448395356873
 31
0.0
 12
517.9828243606114
 22
153.736506202354
 32
0.0
 13
517.9828243606114
 23
153.736506202354
 33
0.0
  0
POINT
  5
101F
330
E47
100
AcDbEntity
  8
Defpoints
  6
Continuous
 62
     0
100
AcDbPoint
 10
520.4828243606114
 20
167.9190422316535
 30
0.0
  0
POINT
  5
1020
330
E47
100
AcDbEntity
  8
Defpoints
  6
Continuous
 62
     0
100
AcDbPoint
 10
517.9828243606114
 20
164.1690422316535
 30
0.0
  0
POINT
  5
1021
330
E47
100
AcDbEntity
  8
Defpoints
  6
Continuous
 62
     0
100
AcDbPoint
 10
517.9828243606114
 20
153.736506202354
 30
0.0
  0
ENDBLK
  5
E49
330
E47
100
AcDbEntity
  8
0
100
AcDbBlockEnd
  0
BLOCK
  5
E94
330
E93
100
AcDbEntity
  8
0
100
AcDbBlockBegin
  2
*D78
 70
     1
 10
0.0
 20
0.0
 30
0.0
  3
*D78
  1

  0
LINE
  5
E96
330
E93
100
AcDbEntity
  8
1
  6
Continuous
 62
     2
370
    -2
100
AcDbLine
 10
489.7828243606117
 20
164.4690422316535
 30
0.0
 11
489.7828243606117
 21
148.4671999521517
 31
0.0
  0
LINE
  5
E97
330
E93
100
AcDbEntity
  8
1
  6
Continuous
 62
     2
370
    -2
100
AcDbLine
 10
487.1828243606116
 20
169.8159267978987
 30
0.0
 11
487.1828243606116
 21
158.8610779424912
 31
0.0
  0
LINE
  5
E98
330
E93
100
AcDbEntity
  8
1
  6
Continuous
 62
     2
370
    -2
100
AcDbLine
 10
487.1828243606116
 20
158.1392763836003
 30
0.0
 11
487.1828243606116
 21
148.4671999521517
 31
0.0
  0
LINE
  5
E99
330
E93
100
AcDbEntity
  8
1
  6
Continuous
 62
     2
370
    -2
100
AcDbLine
 10
491.5328243606117
 20
148.9671999521517
 30
0.0
 11
493.2828243606117
 21
148.9671999521517
 31
0.0
  0
LINE
  5
E9A
330
E93
100
AcDbEntity
  8
1
  6
Continuous
 62
     2
370
    -2
100
AcDbLine
 10
485.4328243606117
 20
148.9671999521517
 30
0.0
 11
483.6828243606117
 21
148.9671999521517
 31
0.0
  0
MTEXT
  5
E9B
330
E93
100
AcDbEntity
  8
1
  6
Continuous
 62
     3
100
AcDbMText
 10
485.1092451848769
 20
150.4407763352263
 30
0.0
 40
1.75
 41
0.0
 46
0.0
 71
     5
 72
     1
  1
\A1;2.6
 73
     1
 44
1.0
  0
LINE
  5
E9C
330
E93
100
AcDbEntity
  8
1
  6
Continuous
 62
     2
370
    -2
100
AcDbLine
 10
489.7828243606117
 20
148.9671999521517
 30
0.0
 11
487.1828243606116
 21
148.9671999521517
 31
0.0
  0
SOLID
  5
E9D
330
E93
100
AcDbEntity
  8
1
  6
Continuous
 62
     2
100
AcDbTrace
 10
491.5328243606117
 20
149.2588666188183
 30
0.0
 11
491.5328243606117
 21
148.675533285485
 31
0.0
 12
489.7828243606117
 22
148.9671999521517
 32
0.0
 13
489.7828243606117
 23
148.9671999521517
 33
0.0
  0
SOLID
  5
E9E
330
E93
100
AcDbEntity
  8
1
  6
Continuous
 62
     2
100
AcDbTrace
 10
485.4328243606117
 20
149.2588666188183
 30
0.0
 11
485.4328243606117
 21
148.675533285485
 31
0.0
 12
487.1828243606116
 22
148.9671999521517
 32
0.0
 13
487.1828243606116
 23
148.9671999521517
 33
0.0
  0
POINT
  5
E9F
330
E93
100
AcDbEntity
  8
Defpoints
  6
Continuous
 62
     0
100
AcDbPoint
 10
489.7828243606117
 20
164.4690422316535
 30
0.0
  0
POINT
  5
EA0
330
E93
100
AcDbEntity
  8
Defpoints
  6
Continuous
 62
     0
100
AcDbPoint
 10
487.1828243606116
 20
169.8159267978987
 30
0.0
  0
POINT
  5
EA1
330
E93
100
AcDbEntity
  8
Defpoints
  6
Continuous
 62
     0
100
AcDbPoint
 10
487.1828243606116
 20
148.9671999521517
 30
0.0
  0
ENDBLK
  5
E95
330
E93
100
AcDbEntity
  8
0
100
AcDbBlockEnd
  0
ENDSEC
  0
SECTION
  2
ENTITIES
  0
INSERT
  5
1B7
330
74
100
AcDbEntity
  8
0
100
AcDbBlockReference
  2
TOP_TOP_
 10
0.0
 20
0.0
 30
0.0
 41
2.0
 42
2.0
 43
2.0
  0
LINE
  5
D5D
330
74
100
AcDbEntity
  8
1
  6
CENTER
 62
     2
 48
0.5
100
AcDbLine
 10
451.6828243606116
 20
170.4690422316535
 30
0.0
 11
469.6828243606116
 21
170.4690422316535
 31
0.0
  0
LINE
  5
D5E
330
74
100
AcDbEntity
  8
1
 62
     2
100
AcDbLine
 10
523.9328243606114
 20
169.9690422316534
 30
0.0
 11
523.9328243606114
 21
170.9690422316534
 31
0.0
  0
LINE
  5
D5F
330
74
100
AcDbEntity
  8
1
  6
DASHDOT
 62
     2
100
AcDbLine
 10
485.9328243606117
 20
170.2690422316535
 30
0.0
 11
493.5695235702926
 21
170.2690422316535
 31
0.0
  0
LINE
  5
D60
330
74
100
AcDbEntity
  8
1
 62
   255
100
AcDbLine
 10
492.8828243606114
 20
172.9690422316535
 30
0.0
 11
490.6828243606118
 21
172.9690422316535
 31
0.0
  0
LINE
  5
D61
330
74
100
AcDbEntity
  8
1
 62
   255
100
AcDbLine
 10
492.2328243606115
 20
169.2845459041152
 30
0.0
 11
492.2328243606115
 21
167.9690422316534
 31
0.0
  0
LINE
  5
D62
330
74
100
AcDbEntity
  8
1
 62
   255
100
AcDbLine
 10
492.2328243606115
 20
168.4690422316535
 30
0.0
 11
492.5328243606116
 21
168.4690422316535
 31
0.0
  0
LINE
  5
D63
330
74
100
AcDbEntity
  8
1
 62
   255
100
AcDbLine
 10
492.5328243606116
 20
168.4690422316535
 30
0.0
 11
492.5328243606116
 21
172.4690422316534
 31
0.0
  0
LINE
  5
D64
330
74
100
AcDbEntity
  8
1
 62
   255
100
AcDbLine
 10
492.5328243606116
 20
172.4690422316534
 30
0.0
 11
492.2328243606115
 21
172.4690422316534
 31
0.0
  0
LINE
  5
D65
330
74
100
AcDbEntity
  8
1
 62
   255
100
AcDbLine
 10
492.2328243606115
 20
172.9690422316535
 30
0.0
 11
492.2328243606115
 21
171.2535385591918
 31
0.0
  0
LINE
  5
D66
330
74
100
AcDbEntity
  8
1
 62
   255
100
AcDbLine
 10
490.6828243606118
 20
167.9690422316534
 30
0.0
 11
492.8828243606114
 21
167.9690422316534
 31
0.0
  0
LINE
  5
D67
330
74
100
AcDbEntity
  8
1
 62
   255
100
AcDbLine
 10
490.6828243606118
 20
169.2971651723979
 30
0.0
 11
492.5328243606116
 21
169.282382600981
 31
0.0
  0
LINE
  5
D68
330
74
100
AcDbEntity
  8
1
 62
   255
100
AcDbLine
 10
492.5328243606116
 20
171.255701862326
 30
0.0
 11
490.6828243606118
 21
171.240919290909
 31
0.0
  0
LINE
  5
D69
330
74
100
AcDbEntity
  8
1
 62
   255
100
AcDbLine
 10
490.6828243606118
 20
172.9690422316535
 30
0.0
 11
490.6828243606118
 21
167.9690422316534
 31
0.0
  0
LINE
  5
D6A
330
74
100
AcDbEntity
  8
1
 62
   255
100
AcDbLine
 10
487.8674931674658
 20
169.7690422316535
 30
0.0
 11
488.6981555537576
 21
169.7690422316535
 31
0.0
  0
LINE
  5
D6B
330
74
100
AcDbEntity
  8
1
 62
   255
100
AcDbLine
 10
488.6981555537576
 20
170.7690422316535
 30
0.0
 11
487.8674931674658
 21
170.7690422316535
 31
0.0
  0
LINE
  5
D6C
330
74
100
AcDbEntity
  8
1
 62
   255
100
AcDbLine
 10
489.7828243606119
 20
171.2344293815065
 30
0.0
 11
487.6792530231447
 21
171.2221449107943
 31
0.0
  0
LINE
  5
D6D
330
74
100
AcDbEntity
  8
1
 62
   255
100
AcDbLine
 10
487.6792530231447
 20
169.3159395525127
 30
0.0
 11
489.7828243606119
 21
169.3036550818005
 31
0.0
  0
LINE
  5
D6E
330
74
100
AcDbEntity
  8
1
 62
   255
100
AcDbLine
 10
489.7828243606117
 20
171.6311844268051
 30
0.0
 11
487.6792530231447
 21
171.6221449107942
 31
0.0
  0
LINE
  5
D6F
330
74
100
AcDbEntity
  8
1
 62
   255
100
AcDbLine
 10
487.1828243606116
 20
169.8159267978987
 30
0.0
 11
487.1828243606116
 21
171.1221576654082
 31
0.0
  0
LINE
  5
D70
330
74
100
AcDbEntity
  8
1
  6
DASHDOT
 62
     2
100
AcDbLine
 10
487.5357749906087
 20
170.6690422316534
 30
0.0
 11
485.9328243606117
 21
170.6690422316534
 31
0.0
  0
LINE
  5
D71
330
74
100
AcDbEntity
  8
1
 62
     2
100
AcDbLine
 10
554.5828243606114
 20
171.2690422316535
 30
0.0
 11
554.3828243606115
 21
171.2690422316535
 31
0.0
  0
LINE
  5
D72
330
74
100
AcDbEntity
  8
1
 62
     2
100
AcDbLine
 10
554.5828243606114
 20
169.2690422316535
 30
0.0
 11
554.5828243606114
 21
171.2690422316535
 31
0.0
  0
LINE
  5
D73
330
74
100
AcDbEntity
  8
1
 62
     2
100
AcDbLine
 10
554.3828243606115
 20
169.2690422316535
 30
0.0
 11
554.5828243606114
 21
169.2690422316535
 31
0.0
  0
LINE
  5
D74
330
74
100
AcDbEntity
  8
1
 62
     2
100
AcDbLine
 10
554.3828243606115
 20
171.2690422316535
 30
0.0
 11
554.3828243606115
 21
169.2690422316535
 31
0.0
  0
LINE
  5
D75
330
74
100
AcDbEntity
  8
1
 62
     2
100
AcDbLine
 10
564.5828243606114
 20
171.6690422316535
 30
0.0
 11
564.3828243606114
 21
171.6690422316535
 31
0.0
  0
LINE
  5
D76
330
74
100
AcDbEntity
  8
1
 62
     2
100
AcDbLine
 10
564.5828243606114
 20
169.6690422316535
 30
0.0
 11
564.5828243606114
 21
171.6690422316535
 31
0.0
  0
LINE
  5
D77
330
74
100
AcDbEntity
  8
1
 62
     2
100
AcDbLine
 10
564.3828243606114
 20
169.6690422316535
 30
0.0
 11
564.5828243606114
 21
169.6690422316535
 31
0.0
  0
LINE
  5
D78
330
74
100
AcDbEntity
  8
1
 62
     2
100
AcDbLine
 10
564.3828243606114
 20
171.6690422316535
 30
0.0
 11
564.3828243606114
 21
169.6690422316535
 31
0.0
  0
LINE
  5
D79
330
74
100
AcDbEntity
  8
1
  6
CENTER
 62
     2
 48
0.3
100
AcDbLine
 10
564.4828243606115
 20
172.2690422316535
 30
0.0
 11
564.4828243606115
 21
169.0690422316535
 31
0.0
  0
LINE
  5
D7A
330
74
100
AcDbEntity
  8
1
  6
CENTER
 62
     2
 48
0.3
100
AcDbLine
 10
554.4828243606115
 20
171.8690422316535
 30
0.0
 11
554.4828243606115
 21
168.6690422316535
 31
0.0
  0
LINE
  5
D7B
330
74
100
AcDbEntity
  8
1
  6
CENTER
 62
     2
 48
0.3
100
AcDbLine
 10
555.2328243606114
 20
170.2690422316535
 30
0.0
 11
553.7328243606115
 21
170.2690422316535
 31
0.0
  0
LINE
  5
D7C
330
74
100
AcDbEntity
  8
1
  6
CENTER
 62
     2
 48
0.3
100
AcDbLine
 10
563.7328243606114
 20
170.6690422316535
 30
0.0
 11
565.2328243606115
 21
170.6690422316535
 31
0.0
  0
LINE
  5
D7D
330
74
100
AcDbEntity
  8
1
  6
CENTER
 62
     2
 48
0.5
100
AcDbLine
 10
550.4828243606115
 20
170.4690422316535
 30
0.0
 11
568.4828243606114
 21
170.4690422316535
 31
0.0
  0
LINE
  5
D7E
330
74
100
AcDbEntity
  8
1
  6
CENTER
 62
     2
 48
0.5
100
AcDbLine
 10
559.4828243606115
 20
161.4690422316535
 30
0.0
 11
559.4828243606115
 21
179.4690422316534
 31
0.0
  0
LINE
  5
D7F
330
74
100
AcDbEntity
  8
1
 62
     2
100
AcDbLine
 10
554.7328243606115
 20
171.3690422316535
 30
0.0
 11
554.2328243606115
 21
171.3690422316535
 31
0.0
  0
LINE
  5
D80
330
74
100
AcDbEntity
  8
1
 62
     2
100
AcDbLine
 10
554.2328243606115
 20
171.3690422316535
 30
0.0
 11
554.2328243606115
 21
169.1690422316535
 31
0.0
  0
LINE
  5
D81
330
74
100
AcDbEntity
  8
1
 62
     2
100
AcDbLine
 10
554.2328243606115
 20
169.1690422316535
 30
0.0
 11
554.7328243606115
 21
169.1690422316535
 31
0.0
  0
LINE
  5
D82
330
74
100
AcDbEntity
  8
1
 62
     2
100
AcDbLine
 10
554.7328243606115
 20
169.1690422316535
 30
0.0
 11
554.7328243606115
 21
171.3690422316535
 31
0.0
  0
LINE
  5
D83
330
74
100
AcDbEntity
  8
1
 62
     2
100
AcDbLine
 10
564.7328243606115
 20
171.7690422316534
 30
0.0
 11
564.2328243606114
 21
171.7690422316534
 31
0.0
  0
LINE
  5
D84
330
74
100
AcDbEntity
  8
1
 62
     2
100
AcDbLine
 10
564.2328243606114
 20
171.7690422316534
 30
0.0
 11
564.2328243606114
 21
169.5690422316535
 31
0.0
  0
LINE
  5
D85
330
74
100
AcDbEntity
  8
1
 62
     2
100
AcDbLine
 10
564.2328243606114
 20
169.5690422316535
 30
0.0
 11
564.7328243606115
 21
169.5690422316535
 31
0.0
  0
LINE
  5
D86
330
74
100
AcDbEntity
  8
1
 62
     2
100
AcDbLine
 10
564.7328243606115
 20
169.5690422316535
 30
0.0
 11
564.7328243606115
 21
171.7690422316534
 31
0.0
  0
LINE
  5
D87
330
74
100
AcDbEntity
  8
1
 62
   255
100
AcDbLine
 10
490.6828243606116
 20
163.9690422316534
 30
0.0
 11
490.2828243606115
 21
163.9690422316534
 31
0.0
  0
LINE
  5
D88
330
74
100
AcDbEntity
  8
1
 62
   255
100
AcDbLine
 10
489.7828243606117
 20
164.4690422316535
 30
0.0
 11
490.2828243606115
 21
163.9690422316534
 31
0.0
  0
LINE
  5
D89
330
74
100
AcDbEntity
  8
1
 62
   255
100
AcDbLine
 10
489.7828243606117
 20
164.4690422316535
 30
0.0
 11
489.7828243606117
 21
176.4690422316534
 31
0.0
  0
LINE
  5
D8A
330
74
100
AcDbEntity
  8
1
 62
   255
100
AcDbLine
 10
490.6828243606116
 20
163.9690422316534
 30
0.0
 11
490.6828243606116
 21
164.5690422316535
 31
0.0
  0
LINE
  5
D8B
330
74
100
AcDbEntity
  8
1
 62
   255
100
AcDbLine
 10
490.6828243606116
 20
164.5690422316535
 30
0.0
 11
492.8828243606115
 21
164.5690422316535
 31
0.0
  0
LINE
  5
D8C
330
74
100
AcDbEntity
  8
1
 62
   255
100
AcDbLine
 10
490.2828243606117
 20
176.9690422316535
 30
0.0
 11
517.7828243606114
 21
176.9690422316535
 31
0.0
  0
LINE
  5
D8D
330
74
100
AcDbEntity
  8
1
 62
   255
100
AcDbLine
 10
490.2828243606117
 20
176.9690422316535
 30
0.0
 11
489.7828243606117
 21
176.4690422316534
 31
0.0
  0
LINE
  5
D8E
330
74
100
AcDbEntity
  8
1
 62
     2
100
AcDbLine
 10
490.2828243606117
 20
176.9690422316535
 30
0.0
 11
490.2828243606115
 21
163.9690422316534
 31
0.0
  0
LINE
  5
D8F
330
74
100
AcDbEntity
  8
1
 62
   255
100
AcDbLine
 10
524.1828243606114
 20
169.81003479022
 30
0.0
 11
523.9328243606114
 21
169.7190422316535
 31
0.0
  0
LINE
  5
D90
330
74
100
AcDbEntity
  8
1
 62
   255
100
AcDbLine
 10
524.1828243606114
 20
171.1280496730869
 30
0.0
 11
523.9328243606114
 21
171.2190422316534
 31
0.0
  0
LINE
  5
D91
330
74
100
AcDbEntity
  8
1
 62
   255
100
AcDbLine
 10
520.4828243606114
 20
169.7190422316535
 30
0.0
 11
523.9328243606114
 21
169.7190422316535
 31
0.0
  0
LINE
  5
D92
330
74
100
AcDbEntity
  8
1
 62
   255
100
AcDbLine
 10
524.1828243606114
 20
169.81003479022
 30
0.0
 11
524.1828243606114
 21
171.1280496730869
 31
0.0
  0
LINE
  5
D93
330
74
100
AcDbEntity
  8
1
 62
   255
100
AcDbLine
 10
523.9328243606114
 20
171.2190422316534
 30
0.0
 11
520.4828243606114
 21
171.2190422316534
 31
0.0
  0
LINE
  5
D94
330
74
100
AcDbEntity
  8
1
 62
   255
100
AcDbLine
 10
518.3828243606114
 20
167.4690422316535
 30
0.0
 11
517.9828243606114
 21
167.4690422316535
 31
0.0
  0
LINE
  5
D95
330
74
100
AcDbEntity
  8
1
 62
   255
100
AcDbLine
 10
517.9828243606114
 20
167.4690422316535
 30
0.0
 11
517.9828243606114
 21
173.4690422316534
 31
0.0
  0
LINE
  5
D96
330
74
100
AcDbEntity
  8
1
 62
     2
100
AcDbLine
 10
520.2828243606115
 20
173.2190422316534
 30
0.0
 11
520.2828243606115
 21
167.7190422316535
 31
0.0
  0
LINE
  5
D97
330
74
100
AcDbEntity
  8
1
 62
     2
100
AcDbLine
 10
518.3828243606114
 20
173.4690422316534
 30
0.0
 11
518.3828243606114
 21
167.4690422316535
 31
0.0
  0
LINE
  5
D98
330
74
100
AcDbEntity
  8
1
 62
     2
100
AcDbLine
 10
517.7828243606114
 20
163.9690422316535
 30
0.0
 11
517.7828243606114
 21
176.9690422316535
 31
0.0
  0
LINE
  5
D99
330
74
100
AcDbEntity
  8
1
 62
   255
100
AcDbLine
 10
518.3828243606114
 20
167.4690422316535
 30
0.0
 11
518.4828243606115
 21
167.5690422316535
 31
0.0
  0
LINE
  5
D9A
330
74
100
AcDbEntity
  8
1
 62
   255
100
AcDbLine
 10
518.3828243606114
 20
173.4690422316534
 30
0.0
 11
518.4828243606115
 21
173.3690422316534
 31
0.0
  0
LINE
  5
D9B
330
74
100
AcDbEntity
  8
1
 62
   255
100
AcDbLine
 10
517.9828243606114
 20
173.4690422316534
 30
0.0
 11
517.9828243606114
 21
176.7690422316535
 31
0.0
  0
LINE
  5
D9C
330
74
100
AcDbEntity
  8
1
 62
   255
100
AcDbLine
 10
518.9828243606115
 20
168.1190422316535
 30
0.0
 11
518.4828243606115
 21
168.1190422316535
 31
0.0
  0
LINE
  5
D9D
330
74
100
AcDbEntity
  8
1
 62
   255
100
AcDbLine
 10
518.4828243606115
 20
173.3690422316534
 30
0.0
 11
518.4828243606115
 21
167.5690422316535
 31
0.0
  0
LINE
  5
D9E
330
74
100
AcDbEntity
  8
1
 62
   255
100
AcDbLine
 10
517.9828243606114
 20
173.4690422316534
 30
0.0
 11
518.3828243606114
 21
173.4690422316534
 31
0.0
  0
LINE
  5
D9F
330
74
100
AcDbEntity
  8
1
 62
   255
100
AcDbLine
 10
517.7828243606114
 20
163.9690422316535
 30
0.0
 11
492.8828243606115
 21
163.9690422316534
 31
0.0
  0
LINE
  5
DA0
330
74
100
AcDbEntity
  8
1
 62
   255
100
AcDbLine
 10
520.2828243606115
 20
167.7190422316535
 30
0.0
 11
520.4828243606114
 21
167.9190422316535
 31
0.0
  0
LINE
  5
DA1
330
74
100
AcDbEntity
  8
1
 62
   255
100
AcDbLine
 10
517.7828243606114
 20
163.9690422316535
 30
0.0
 11
517.9828243606114
 21
164.1690422316535
 31
0.0
  0
LINE
  5
DA2
330
74
100
AcDbEntity
  8
1
 62
   255
100
AcDbLine
 10
517.9828243606114
 20
167.4690422316535
 30
0.0
 11
517.9828243606114
 21
164.1690422316535
 31
0.0
  0
LINE
  5
DA3
330
74
100
AcDbEntity
  8
1
 62
   255
100
AcDbLine
 10
520.4828243606114
 20
167.9190422316535
 30
0.0
 11
520.4828243606114
 21
173.0190422316535
 31
0.0
  0
LINE
  5
DA4
330
74
100
AcDbEntity
  8
1
 62
   255
100
AcDbLine
 10
518.9828243606115
 20
173.2190422316534
 30
0.0
 11
520.2828243606115
 21
173.2190422316534
 31
0.0
  0
LINE
  5
DA5
330
74
100
AcDbEntity
  8
1
 62
   255
100
AcDbLine
 10
520.4828243606114
 20
173.0190422316535
 30
0.0
 11
520.2828243606115
 21
173.2190422316534
 31
0.0
  0
LINE
  5
DA6
330
74
100
AcDbEntity
  8
1
 62
   255
100
AcDbLine
 10
517.9828243606114
 20
176.7690422316535
 30
0.0
 11
517.7828243606114
 21
176.9690422316535
 31
0.0
  0
LINE
  5
DA7
330
74
100
AcDbEntity
  8
1
 62
   255
100
AcDbLine
 10
520.2828243606115
 20
167.7190422316535
 30
0.0
 11
518.9828243606115
 21
167.7190422316535
 31
0.0
  0
LINE
  5
DA8
330
74
100
AcDbEntity
  8
1
 62
   255
100
AcDbLine
 10
518.9828243606115
 20
173.2190422316534
 30
0.0
 11
518.9828243606115
 21
167.7190422316535
 31
0.0
  0
LINE
  5
DA9
330
74
100
AcDbEntity
  8
1
 62
   255
100
AcDbLine
 10
518.4828243606115
 20
172.8190422316535
 30
0.0
 11
518.9828243606115
 21
172.8190422316535
 31
0.0
  0
LINE
  5
DAA
330
74
100
AcDbEntity
  8
1
 62
     2
100
AcDbLine
 10
520.4828243606113
 20
168.1190422316535
 30
0.0
 11
518.9828243606115
 21
168.1190422316535
 31
0.0
  0
LINE
  5
DAB
330
74
100
AcDbEntity
  8
1
 62
     2
100
AcDbLine
 10
520.4828243606113
 20
172.8190422316535
 30
0.0
 11
518.9828243606115
 21
172.8190422316535
 31
0.0
  0
LINE
  5
DAC
330
74
100
AcDbEntity
  8
1
 62
   255
100
AcDbLine
 10
492.8828243606115
 20
176.9690422316535
 30
0.0
 11
492.8828243606115
 21
163.9690422316534
 31
0.0
  0
LINE
  5
DAD
330
74
100
AcDbEntity
  8
1
  6
CENTER
 62
     2
100
AcDbLine
 10
526.6828243606114
 20
170.4690422316535
 30
0.0
 11
484.6828243606116
 21
170.4690422316535
 31
0.0
  0
LINE
  5
DAE
330
74
100
AcDbEntity
  8
1
  6
CENTER
 62
     2
 48
0.5
100
AcDbLine
 10
460.6828243606116
 20
179.4690422316534
 30
0.0
 11
460.6828243606116
 21
161.4690422316535
 31
0.0
  0
LINE
  5
DAF
330
74
100
AcDbEntity
  8
1
 62
     3
100
AcDbLine
 10
562.0828243606114
 20
166.1690422316534
 30
0.0
 11
562.0828243606114
 21
167.7690422316535
 31
0.0
  0
LINE
  5
DB0
330
74
100
AcDbEntity
  8
1
 62
     3
100
AcDbLine
 10
561.2828243606115
 20
166.9690422316534
 30
0.0
 11
562.8828243606115
 21
166.9690422316534
 31
0.0
  0
ARC
  5
DB1
330
74
100
AcDbEntity
  8
1
 62
     2
100
AcDbCircle
 10
460.6828243606116
 20
170.4690422316535
 30
0.0
 40
2.350000000000015
100
AcDbArc
 50
54.95709124720839
 51
326.3326309565404
  0
ARC
  5
DB2
330
74
100
AcDbEntity
  8
1
 62
   255
100
AcDbCircle
 10
488.2828243606117
 20
170.2690422316535
 30
0.0
 40
0.650000000000004
100
AcDbArc
 50
309.7151372318256
 51
50.28486276817432
  0
ARC
  5
DB3
330
74
100
AcDbEntity
  8
1
 62
   255
100
AcDbCircle
 10
488.2828243606117
 20
170.2690422316535
 30
0.0
 40
0.6499999999999984
100
AcDbArc
 50
129.7151372318255
 51
230.2848627681745
  0
ARC
  5
DB4
330
74
100
AcDbEntity
  8
1
 62
   255
100
AcDbCircle
 10
492.9076838808147
 20
174.7787859092323
 30
0.0
 40
0.5813582624458725
100
AcDbArc
 50
267.5492220372579
 51
92.45077796274221
  0
ARC
  5
DB5
330
74
100
AcDbEntity
  8
1
 62
   255
100
AcDbCircle
 10
492.9076838808147
 20
166.1592985540747
 30
0.0
 40
0.5813582624458813
100
AcDbArc
 50
267.5492220372579
 51
92.45077796274221
  0
CIRCLE
  5
DB6
330
74
100
AcDbEntity
  8
1
 62
   255
100
AcDbCircle
 10
460.6828243606116
 20
170.4690422316535
 30
0.0
 40
0.75
  0
CIRCLE
  5
DB7
330
74
100
AcDbEntity
  8
1
 62
   255
100
AcDbCircle
 10
559.4828243606115
 20
170.4690422316535
 30
0.0
 40
6.500000000000013
  0
CIRCLE
  5
DB8
330
74
100
AcDbEntity
  8
1
 62
     2
100
AcDbCircle
 10
559.4828243606115
 20
170.4690422316535
 30
0.0
 40
6.000000000000013
  0
CIRCLE
  5
DB9
330
74
100
AcDbEntity
  8
1
 62
   255
100
AcDbCircle
 10
460.6828243606116
 20
170.4690422316535
 30
0.0
 40
2.0
  0
CIRCLE
  5
DBA
330
74
100
AcDbEntity
  8
1
 62
   255
100
AcDbCircle
 10
460.6828243606116
 20
170.4690422316535
 30
0.0
 40
2.75
  0
CIRCLE
  5
DBB
330
74
100
AcDbEntity
  8
1
 62
   255
100
AcDbCircle
 10
460.6828243606116
 20
170.4690422316535
 30
0.0
 40
3.0
  0
CIRCLE
  5
DBC
330
74
100
AcDbEntity
  8
1
 62
   255
100
AcDbCircle
 10
460.6828243606116
 20
170.4690422316535
 30
0.0
 40
5.25
  0
CIRCLE
  5
DBD
330
74
100
AcDbEntity
  8
1
 62
     2
100
AcDbCircle
 10
460.6828243606116
 20
170.4690422316535
 30
0.0
 40
6.29999999999999
  0
CIRCLE
  5
DBE
330
74
100
AcDbEntity
  8
1
 62
   255
100
AcDbCircle
 10
460.6828243606116
 20
170.4690422316535
 30
0.0
 40
6.5
  0
CIRCLE
  5
DBF
330
74
100
AcDbEntity
  8
1
 62
   255
100
AcDbCircle
 10
559.4828243606115
 20
170.4690422316535
 30
0.0
 40
0.8499999999999943
  0
CIRCLE
  5
DC0
330
74
100
AcDbEntity
  8
1
 62
   255
100
AcDbCircle
 10
562.0828243606114
 20
166.9690422316534
 30
0.0
 40
1.000000000000007
  0
ARC
  5
DC1
330
74
100
AcDbEntity
  8
1
 62
   255
100
AcDbCircle
 10
487.6828243606117
 20
169.8159267978987
 30
0.0
 40
0.5
100
AcDbArc
 50
180.0
 51
269.590751391969
  0
ARC
  5
DC2
330
74
100
AcDbEntity
  8
1
 62
   255
100
AcDbCircle
 10
487.6828243606117
 20
170.7221576654083
 30
0.0
 40
0.4999999999999856
100
AcDbArc
 50
90.40924860803093
 51
180.0
  0
ARC
  5
DC3
330
74
100
AcDbEntity
  8
1
 62
   255
100
AcDbCircle
 10
487.6828243606117
 20
171.1221576654082
 30
0.0
 40
0.499999999999975
100
AcDbArc
 50
90.40924860803093
 51
180.0
  0
DIMENSION
  5
DC4
330
74
100
AcDbEntity
  8
1
  6
Continuous
 62
     2
100
AcDbDimension
  2
*D71
 10
547.9661770995625
 20
169.1690422316535
 30
0.0
 11
545.8411770995625
 21
170.2690422316536
 31
0.0
 70
    32
  1
2
 71
     5
 42
2.199999999999988
 73
     0
 74
     0
 75
     0
  3
DMST_1
100
AcDbAlignedDimension
 13
554.2328243606115
 23
171.3690422316535
 33
0.0
 14
554.2328243606115
 24
169.1690422316535
 34
0.0
 50
90.0
100
AcDbRotatedDimension
1001
ACAD
1000
DSTYLE
1002
{
1070
   172
1070
     1
1070
   147
1040
0.5
1070
   176
1070
     2
1070
   177
1070
     2
1002
}
  0
DIMENSION
  5
DC5
330
74
100
AcDbEntity
  8
1
  6
Continuous
 62
     2
100
AcDbDimension
  2
*D72
 10
517.9828243606114
 20
158.5288360975797
 30
0.0
 11
515.8007755546266
 21
160.3241425005838
 31
0.0
 70
   160
 71
     5
 42
0.5000000000001137
 73
     0
 74
     0
 75
     0
  3
DMST_1
100
AcDbAlignedDimension
 13
518.4828243606115
 23
167.5690422316535
 33
0.0
 14
517.9828243606114
 24
164.1690422316535
 34
0.0
100
AcDbRotatedDimension
1001
ACAD
1000
DSTYLE
1002
{
1070
   147
1040
0.5
1070
   172
1070
     1
1070
   176
1070
     2
1070
   177
1070
     2
1002
}
  0
DIMENSION
  5
DC6
330
74
100
AcDbEntity
  8
1
  6
Continuous
 62
     2
100
AcDbDimension
  2
*D73
 10
492.8828243606115
 20
158.5288360975797
 30
0.0
 11
494.8974237249244
 21
160.3196337727497
 31
0.0
 70
   160
 71
     5
 42
3.099999999999795
 73
     0
 74
     0
 75
     0
  3
DMST_1
100
AcDbAlignedDimension
 13
489.7828243606117
 23
164.4690422316535
 33
0.0
 14
492.8828243606115
 24
163.9690422316534
 34
0.0
100
AcDbRotatedDimension
1001
ACAD
1000
DSTYLE
1002
{
1070
   147
1040
0.5
1070
   172
1070
     1
1070
   176
1070
     2
1070
   177
1070
     2
1002
}
  0
DIMENSION
  5
DC7
330
74
100
AcDbEntity
  8
1
  6
Continuous
 62
     2
100
AcDbDimension
  2
*D74
 10
554.4828243606115
 20
181.9962710835923
 30
0.0
 11
559.4828243606115
 21
183.3712710835923
 31
0.0
 70
    32
 71
     5
 42
10.0
 73
     0
 74
     0
 75
     0
  3
DMST_1
100
AcDbAlignedDimension
 13
564.4828243606115
 23
172.2690422316535
 33
0.0
 14
554.4828243606115
 24
171.8690422316535
 34
0.0
100
AcDbRotatedDimension
1001
ACAD
1000
DSTYLE
1002
{
1070
   147
1040
0.5
1070
   176
1070
     2
1070
   177
1070
     2
1002
}
  0
DIMENSION
  5
DC8
330
74
100
AcDbEntity
  8
1
  6
Continuous
 62
     2
100
AcDbDimension
  2
*D75
 10
524.1828243606114
 20
148.9671999521517
 30
0.0
 11
529.4953243606114
 21
148.9671999521517
 31
0.0
 70
   160
 71
     5
 42
6.200000000000045
 73
     0
 74
     0
 75
     0
  3
DMST_1
100
AcDbAlignedDimension
 13
517.9828243606114
 23
164.1690422316535
 33
0.0
 14
524.1828243606114
 24
169.81003479022
 34
0.0
100
AcDbRotatedDimension
1001
ACAD
1000
DSTYLE
1002
{
1070
    47
1040
0.3
1070
    48
1040
0.3
1070
    71
1070
     1
1070
   146
1040
0.75
1070
   147
1040
0.5
1070
   272
1070
     1
1070
   279
1070
     0
1002
}
  0
DIMENSION
  5
DC9
102
{ACAD_XDICTIONARY
360
DCA
102
}
330
74
100
AcDbEntity
  8
1
  6
Continuous
 62
     2
100
AcDbDimension
  2
*D78
 10
487.1828243606116
 20
148.9671999521517
 30
0.0
 11
485.1092451848769
 21
150.4407763352263
 31
0.0
 70
   160
 71
     5
 42
2.600000000000022
 73
     0
 74
     0
 75
     0
  3
DMST_1
100
AcDbAlignedDimension
 13
489.7828243606117
 23
164.4690422316535
 33
0.0
 14
487.1828243606116
 24
169.8159267978987
 34
0.0
100
AcDbRotatedDimension
1001
ACAD
1000
DSTYLE
1002
{
1070
   147
1040
0.5
1070
   172
1070
     1
1070
   176
1070
     2
1070
   177
1070
     2
1002
}
  0
DIMENSION
  5
DCC
330
74
100
AcDbEntity
  8
1
  6
Continuous
 62
     2
100
AcDbDimension
  2
*D76
 10
517.9828243606114
 20
148.9671999521517
 30
0.0
 11
503.8828243606115
 21
150.3421999521517
 31
0.0
 70
    32
 71
     5
 42
28.1999999999997
 73
     0
 74
     0
 75
     0
  3
DMST_1
100
AcDbAlignedDimension
 13
489.7828243606117
 23
164.4690422316535
 33
0.0
 14
517.9828243606114
 24
164.1690422316535
 34
0.0
100
AcDbRotatedDimension
1001
ACAD
1000
DSTYLE
1002
{
1070
   147
1040
0.5
1070
   177
1070
     2
1070
   176
1070
     2
1002
}
  0
LINE
  5
DCE
330
74
100
AcDbEntity
  8
1
 62
     2
100
AcDbLine
 10
510.2897924617326
 20
176.9690422316535
 30
0.0
 11
510.2897924617326
 21
185.4606819556661
 31
0.0
  0
LINE
  5
DCF
330
74
100
AcDbEntity
  8
1
 62
     2
100
AcDbLine
 10
511.4838646633786
 20
176.9690422316535
 30
0.0
 11
509.7897924617326
 21
176.9690422316535
 31
0.0
  0
SOLID
  5
DD0
330
74
100
AcDbEntity
  8
1
 62
     2
100
AcDbTrace
 10
510.2897924617326
 20
176.9690422316535
 30
0.0
 11
510.0622924617327
 21
178.7190422316535
 31
0.0
 12
510.5172924617326
 22
178.7190422316535
 32
0.0
 13
510.5172924617326
 23
178.7190422316535
 33
0.0
  0
TEXT
  5
DD1
330
74
100
AcDbEntity
  8
1
 62
     3
100
AcDbText
 10
509.0492407322878
 20
179.9626976856229
 30
0.0
 40
1.75
  1
13
 50
90.0
100
AcDbText
  0
TEXT
  5
DD2
330
74
100
AcDbEntity
  8
1
 62
     3
100
AcDbText
 10
507.8373657322879
 20
182.6070583726565
 30
0.0
 40
1.225
  1
 0
 50
90.0
100
AcDbText
  0
TEXT
  5
DD3
330
74
100
AcDbEntity
  8
1
 62
     3
100
AcDbText
 10
509.7361157322878
 20
182.5176976856229
 30
0.0
 40
1.225
  1
-0.1
 50
90.0
100
AcDbText
  0
TEXT
  5
DD4
330
74
100
AcDbEntity
  8
1
 62
     3
100
AcDbText
 10
509.0492407322878
 20
178.2476976856229
 30
0.0
 40
1.75
  1
%%C
 50
90.0
100
AcDbText
  0
LINE
  5
DD5
330
74
100
AcDbEntity
  8
1
 62
     2
100
AcDbLine
 10
527.9690519054193
 20
173.2190422316535
 30
0.0
 11
527.9690519054193
 21
184.3460588874236
 31
0.0
  0
LINE
  5
DD6
330
74
100
AcDbEntity
  8
1
 62
     2
100
AcDbLine
 10
520.2828243606115
 20
173.2190422316535
 30
0.0
 11
528.4690519054193
 21
173.2190422316535
 31
0.0
  0
SOLID
  5
DD7
330
74
100
AcDbEntity
  8
1
 62
     2
100
AcDbTrace
 10
527.9690519054193
 20
173.2190422316535
 30
0.0
 11
527.7415519054194
 21
174.9690422316535
 31
0.0
 12
528.1965519054193
 22
174.9690422316535
 32
0.0
 13
528.1965519054193
 23
174.9690422316535
 33
0.0
  0
TEXT
  5
DD8
330
74
100
AcDbEntity
  8
1
 62
     3
100
AcDbText
 10
527.2532660207921
 20
176.1356651065711
 30
0.0
 40
1.75
  1
5.5
 50
90.0
100
AcDbText
  0
TEXT
  5
DD9
330
74
100
AcDbEntity
  8
1
 62
     3
100
AcDbText
 10
527.2532660207921
 20
174.2806651065712
 30
0.0
 40
1.75
  1
M
 50
90.0
100
AcDbText
  0
TEXT
  5
DDA
330
74
100
AcDbEntity
  8
1
 62
     3
100
AcDbText
 10
527.2532660207921
 20
179.6006651065711
 30
0.0
 40
1.75
  1
x0.5
 50
90.0
100
AcDbText
  0
LINE
  5
DDB
330
74
100
AcDbEntity
  8
1
 62
     2
100
AcDbLine
 10
532.9967352949436
 20
171.2190422316535
 30
0.0
 11
532.9967352949436
 21
182.0570226233034
 31
0.0
  0
LINE
  5
DDC
330
74
100
AcDbEntity
  8
1
 62
     2
100
AcDbLine
 10
523.9328243606114
 20
171.2190422316535
 30
0.0
 11
533.4967352949436
 21
171.2190422316535
 31
0.0
  0
SOLID
  5
DDD
330
74
100
AcDbEntity
  8
1
 62
     2
100
AcDbTrace
 10
532.9967352949436
 20
171.2190422316535
 30
0.0
 11
532.7692352949436
 21
172.9690422316535
 31
0.0
 12
533.2242352949435
 22
172.9690422316535
 32
0.0
 13
533.2242352949435
 23
172.9690422316535
 33
0.0
  0
TEXT
  5
DDE
330
74
100
AcDbEntity
  8
1
 62
     3
100
AcDbText
 10
531.6721435279697
 20
174.6510226233034
 30
0.0
 40
1.75
  1
1.5
 50
90.0
100
AcDbText
  0
TEXT
  5
DDF
330
74
100
AcDbEntity
  8
1
 62
     3
100
AcDbText
 10
530.4252685279698
 20
177.6960226233034
 30
0.0
 40
1.225
  1
-0.006
 50
90.0
100
AcDbText
  0
TEXT
  5
DE0
330
74
100
AcDbEntity
  8
1
 62
     3
100
AcDbText
 10
532.4465185279698
 20
177.6960226233034
 30
0.0
 40
1.225
  1
-0.009
 50
90.0
100
AcDbText
  0
TEXT
  5
DE1
330
74
100
AcDbEntity
  8
1
 62
     3
100
AcDbText
 10
531.6721435279697
 20
172.9360226233034
 30
0.0
 40
1.75
  1
%%C
 50
90.0
100
AcDbText
  0
LINE
  5
DE2
330
74
100
AcDbEntity
  8
1
 62
     2
100
AcDbLine
 10
522.9817439296798
 20
173.4690422316535
 30
0.0
 11
522.9817439296798
 21
183.318189625667
 31
0.0
  0
LINE
  5
DE3
330
74
100
AcDbEntity
  8
1
 62
     2
100
AcDbLine
 10
518.3828243606114
 20
173.4690422316535
 30
0.0
 11
523.4817439296798
 21
173.4690422316535
 31
0.0
  0
SOLID
  5
DE4
330
74
100
AcDbEntity
  8
1
 62
     2
100
AcDbTrace
 10
522.9817439296798
 20
173.4690422316535
 30
0.0
 11
522.7542439296797
 21
175.2190422316535
 31
0.0
 12
523.2092439296798
 22
175.2190422316535
 32
0.0
 13
523.2092439296798
 23
175.2190422316535
 33
0.0
  0
TEXT
  5
DE5
330
74
100
AcDbEntity
  8
1
 62
     3
100
AcDbText
 10
521.595936029761
 20
177.536189625667
 30
0.0
 40
1.75
  1
6
 50
90.0
100
AcDbText
  0
TEXT
  5
DE6
330
74
100
AcDbEntity
  8
1
 62
     3
100
AcDbText
 10
520.384061029761
 20
178.7680413640778
 30
0.0
 40
1.225
  1
 0
 50
90.0
100
AcDbText
  0
TEXT
  5
DE7
330
74
100
AcDbEntity
  8
1
 62
     3
100
AcDbText
 10
522.2828110297609
 20
178.6952324398789
 30
0.0
 40
1.225
  1
-0.018
 50
90.0
100
AcDbText
  0
TEXT
  5
DE8
330
74
100
AcDbEntity
  8
1
 62
     3
100
AcDbText
 10
521.595936029761
 20
175.821189625667
 30
0.0
 40
1.75
  1
%%C
 50
90.0
100
AcDbText
  0
DIMENSION
  5
DE9
102
{ACAD_XDICTIONARY
360
102D
102
}
330
74
100
AcDbEntity
  8
1
  6
Continuous
 62
     2
100
AcDbDimension
  2
*D70
 10
520.4828243606114
 20
153.736506202354
 30
0.0
 11
526.3269366356267
 21
155.2932420403745
 31
0.0
 70
   160
 71
     5
 42
3.699999999999931
 73
     0
 74
     1
 75
     0
  3
DMST_1
100
AcDbAlignedDimension
 13
524.1828243606114
 23
169.81003479022
 33
0.0
 14
520.4828243606114
 24
167.9190422316535
 34
0.0
100
AcDbRotatedDimension
1001
ACAD
1000
DSTYLE
1002
{
1070
   344
1005
AA0
1070
   173
1070
     1
1070
   343
1005
0
1070
   147
1040
0.5
1070
   172
1070
     1
1002
}
  0
DIMENSION
  5
DEA
102
{ACAD_XDICTIONARY
360
FFD
102
}
330
74
100
AcDbEntity
  8
1
  6
Continuous
 62
     2
100
AcDbDimension
  2
*D77
 10
517.9828243606114
 20
153.736506202354
 30
0.0
 11
515.7682364964887
 21
155.4079491849224
 31
0.0
 70
   160
 71
     5
 42
2.500000000000113
 73
     0
 74
     0
 75
     0
  3
DMST_1
100
AcDbAlignedDimension
 13
520.4828243606114
 23
167.9190422316535
 33
0.0
 14
517.9828243606114
 24
164.1690422316535
 34
0.0
100
AcDbRotatedDimension
1001
ACAD
1000
DSTYLE
1002
{
1070
   343
1005
AA0
1070
   173
1070
     1
1070
   344
1005
0
1070
   147
1040
0.5
1070
   172
1070
     1
1002
}
  0
LINE
  5
F05
330
74
100
AcDbEntity
  8
0
  6
Continuous
 62
   255
100
AcDbLine
 10
593.0752222597252
 20
100.1910867731438
 30
0.0
 11
593.0752222597252
 21
210.9910867731405
 31
0.0
  0
LINE
  5
F06
330
74
100
AcDbEntity
  8
0
  6
Continuous
 62
   255
100
AcDbLine
 10
585.7325422294675
 20
100.1910867731438
 30
0.0
 11
585.7325422294674
 21
101.7910863359854
 31
0.0
  0
LINE
  5
F07
330
74
100
AcDbEntity
  8
0
  6
Continuous
 62
   255
100
AcDbLine
 10
588.2752222597253
 20
101.7910863359854
 30
0.0
 11
588.2752222597253
 21
105.3910863359852
 31
0.0
  0
LINE
  5
F08
330
74
100
AcDbEntity
  8
0
  6
Continuous
 62
   255
100
AcDbLine
 10
435.87523569589
 20
100.1910867731438
 30
0.0
 11
593.0752222597252
 21
100.1910867731438
 31
0.0
  0
LINE
  5
F09
330
74
100
AcDbEntity
  8
0
  6
Continuous
 62
   255
100
AcDbLine
 10
435.8752356958899
 20
210.9910867731405
 30
0.0
 11
435.87523569589
 21
100.1910867731438
 31
0.0
  0
LINE
  5
F0A
330
74
100
AcDbEntity
  8
0
  6
Continuous
 62
   255
100
AcDbLine
 10
435.8752356958899
 20
210.9910867731405
 30
0.0
 11
593.0752222597252
 21
210.9910867731405
 31
0.0
  0
LINE
  5
F11
330
74
100
AcDbEntity
  8
0
  6
CENTER
 62
     2
 48
0.2
370
     9
100
AcDbLine
 10
590.8907947683672
 20
106.8086435506367
 30
0.0
 11
590.8907947683672
 21
109.6086427856096
 31
0.0
1001
AcDbBlockRepETag
1070
     1
1071
        1
1005
0
  0
LINE
  5
F12
330
74
100
AcDbEntity
  8
0
  6
CENTER
 62
     2
 48
0.2
370
     9
100
AcDbLine
 10
585.1476681269177
 20
108.2086431681231
 30
0.0
 11
588.747667143311
 21
108.2086431681231
 31
0.0
1001
AcDbBlockRepETag
1070
     1
1071
        9
1005
0
  0
LINE
  5
F13
330
74
100
AcDbEntity
  8
0
  6
Continuous
 62
   255
100
AcDbLine
 10
588.5476671979561
 20
109.4486428293254
 30
0.0
 11
585.3476680722727
 21
108.8086430041887
 31
0.0
1001
AcDbBlockRepETag
1070
     1
1071
       10
1005
0
  0
LINE
  5
F14
330
74
100
AcDbEntity
  8
0
  6
Continuous
 62
   255
100
AcDbLine
 10
588.5476671979561
 20
106.9686435069209
 30
0.0
 11
588.5476671979561
 21
109.4486428293254
 31
0.0
1001
AcDbBlockRepETag
1070
     1
1071
       11
1005
0
  0
LINE
  5
F15
330
74
100
AcDbEntity
  8
0
  6
Continuous
 62
   255
100
AcDbLine
 10
585.3476680722727
 20
107.6086433320575
 30
0.0
 11
588.5476671979561
 21
106.9686435069209
 31
0.0
1001
AcDbBlockRepETag
1070
     1
1071
       12
1005
0
  0
LINE
  5
F16
330
74
100
AcDbEntity
  8
0
  6
Continuous
 62
   255
100
AcDbLine
 10
585.3476680722727
 20
108.8086430041887
 30
0.0
 11
585.3476680722727
 21
107.6086433320575
 31
0.0
1001
AcDbBlockRepETag
1070
     1
1071
       13
1005
0
  0
LINE
  5
F17
330
74
100
AcDbEntity
  8
0
  6
Continuous
 62
   255
100
AcDbLine
 10
567.8752303471558
 20
108.9910863359852
 30
0.0
 11
567.8752303471558
 21
101.7910863359854
 31
0.0
1001
AcDbBlockRepETag
1070
     1
1071
       20
1005
0
  0
LINE
  5
F18
330
74
100
AcDbEntity
  8
0
  6
Continuous
 62
   255
100
AcDbLine
 10
533.8752384345859
 20
108.9910863359851
 30
0.0
 11
533.8752384345859
 21
101.7910863359854
 31
0.0
1001
AcDbBlockRepETag
1070
     1
1071
       22
1005
0
  0
LINE
  5
F19
330
74
100
AcDbEntity
  8
0
  6
Continuous
 62
   255
100
AcDbLine
 10
537.9126715073625
 20
110.9907643826221
 30
0.0
 11
537.9126715073627
 21
108.9910863359851
 31
0.0
1001
AcDbBlockRepETag
1070
     1
1071
       22
1005
0
  0
LINE
  5
F1A
330
74
100
AcDbEntity
  8
0
  6
Continuous
 62
   255
100
AcDbLine
 10
573.9875300026435
 20
110.9907643826221
 30
0.0
 11
573.9875300026437
 21
108.9910863359851
 31
0.0
1001
AcDbBlockRepETag
1070
     1
1071
       22
1005
0
  0
LINE
  5
F1B
330
74
100
AcDbEntity
  8
0
  6
Continuous
 62
   255
100
AcDbLine
 10
519.8752422597221
 20
110.9907643826221
 30
0.0
 11
519.8752422597221
 21
100.1910867731438
 31
0.0
1001
AcDbBlockRepETag
1070
     1
1071
       26
1005
0
  0
LINE
  5
F24
330
74
100
AcDbEntity
  8
0
  6
CENTER
 62
     2
 48
0.2
370
     9
100
AcDbLine
 10
589.4507951618099
 20
108.2086431681231
 30
0.0
 11
592.2907943858538
 21
108.2086431681231
 31
0.0
1001
AcDbBlockRepETag
1070
     1
1071
       37
1005
0
  0
LINE
  5
F25
330
74
100
AcDbEntity
  8
0
  6
Continuous
 62
   255
100
AcDbLine
 10
593.0752222597252
 20
101.7910863359854
 30
0.0
 11
519.8752422597221
 21
101.7910863359854
 31
0.0
1001
AcDbBlockRepETag
1070
     1
1071
       38
1005
0
  0
LINE
  5
F26
330
74
100
AcDbEntity
  8
0
  6
Continuous
 62
   255
100
AcDbLine
 10
584.3038735308826
 20
108.9910863359851
 30
0.0
 11
573.9875300026437
 21
108.9910863359851
 31
0.0
1001
AcDbBlockRepETag
1070
     1
1071
       38
1005
0
  0
LINE
  5
F27
330
74
100
AcDbEntity
  8
0
  6
Continuous
 62
   255
100
AcDbLine
 10
573.9875300026437
 20
108.991086335985
 30
0.0
 11
519.8752422597221
 21
108.9910863359852
 31
0.0
1001
AcDbBlockRepETag
1070
     1
1071
       38
1005
0
  0
LINE
  5
F28
330
74
100
AcDbEntity
  8
0
  6
Continuous
 62
   255
100
AcDbLine
 10
593.0752222597252
 20
105.3910863359853
 30
0.0
 11
567.8752303471559
 21
105.3910863359851
 31
0.0
1001
AcDbBlockRepETag
1070
     1
1071
       38
1005
0
  0
CIRCLE
  5
F29
330
74
100
AcDbEntity
  8
0
  6
Continuous
 62
   255
100
AcDbCircle
 10
590.8907947683672
 20
108.2086431681231
 30
0.0
 40
1.239999661202241
1001
AcDbBlockRepETag
1070
     1
1071
       39
1005
0
  0
CIRCLE
  5
F2A
330
74
100
AcDbEntity
  8
0
  6
Continuous
 62
   255
100
AcDbCircle
 10
590.8907947683672
 20
108.2086431681231
 30
0.0
 40
0.5999998360656005
1001
AcDbBlockRepETag
1070
     1
1071
       40
1005
0
  0
MTEXT
  5
F2B
330
74
100
AcDbEntity
  8
0
 62
   255
100
AcDbMText
 10
571.8856028156126
 20
107.7526214461338
 30
0.0
 40
1.199999999999963
 41
0.0
 46
0.0
 71
     1
 72
     5
  1
Scale: 2.5:1
 73
     1
 44
1.0
1001
AcDbBlockRepETag
1070
     1
1071
       46
1005
0
  0
MTEXT
  5
F2C
330
74
100
AcDbEntity
  8
0
 62
   255
100
AcDbMText
 10
589.2806096101081
 20
104.5200384677804
 30
0.0
 40
1.799999999999945
 41
0.0
 46
0.0
 71
     1
 72
     5
  1
{\fISOCPEUR|b0|i0|c0|p34;\W1;A3}
  7
SLDTEXTSTYLE0
 73
     1
 44
1.0
1001
AcDbBlockRepETag
1070
     1
1071
       50
1005
0
  0
TEXT
  5
F2D
330
74
100
AcDbEntity
  8
0
  6
Continuous
 62
   255
100
AcDbText
 10
521.2899512148809
 20
100.7508359919706
 30
0.0
 40
0.6895652173912836
  1
This drawing remains our property. Without written approval it may not be copied, reproduced, communicated or made available to third parties.
100
AcDbText
1001
AcDbBlockRepETag
1070
     1
1071
       51
1005
0
  0
MTEXT
  5
F33
330
74
100
AcDbEntity
  8
0
 62
   255
100
AcDbMText
 10
572.0065289647396
 20
104.4981788630357
 30
0.0
 40
1.799999999999945
 41
0.0
 46
0.0
 71
     1
 72
     5
  1
{\fISOCPEUR|b0|i0|c0|p34;\W1;\C256;1.011.13N.S25}
  7
SLDTEXTSTYLE0
 73
     1
 44
1.0
1001
AcDbBlockRepETag
1070
     1
1071
       58
1005
0
  0
MTEXT
  5
F34
102
{ACAD_XDICTIONARY
360
1132
102
}
330
74
100
AcDbEntity
  8
0
 62
   255
100
AcDbMText
 10
551.0679982030818
 20
107.9238740008512
 30
0.0
 40
1.799999999999945
 41
0.0
 46
0.0
 71
     1
 72
     5
  1
\pi-5.4;{\fISOCPEUR|b0|i0|c0|p34;\W1; 13N 88 .1\P\pi-8.46;Outline drawing}
  7
SLDTEXTSTYLE0
 73
     1
 44
1.0
1001
AcDbBlockRepETag
1070
     1
1071
       59
1005
0
  0
MTEXT
  5
F35
330
74
100
AcDbEntity
  8
0
 62
     1
100
AcDbMText
 10
520.8380031041618
 20
107.2712126467802
 30
0.0
 40
1.999999999999939
 41
0.0
 46
0.0
 71
     1
 72
     5
  1
{\fISOCPEUR|b0|i0|c0|p34;\W1;Portescap}
  7
SLDTEXTSTYLE0
 73
     1
 44
1.0
1001
AcDbBlockRepETag
1070
     1
1071
       65
1005
0
  0
LINE
  5
F38
330
74
100
AcDbEntity
  8
0
  6
Continuous
 62
   255
100
AcDbLine
 10
584.3038735308826
 20
110.9907643826221
 30
0.0
 11
584.3038735308822
 21
105.3910863359852
 31
0.0
1001
AcDbBlockRepETag
1070
     1
1071
        5
1005
0
  0
TEXT
  5
F39
330
74
100
AcDbEntity
  8
0
  6
Continuous
 62
   255
100
AcDbText
 10
586.737398438418
 20
100.7508359919706
 30
0.0
 40
0.6895652173912836
  1
Sheet 1 of 1
100
AcDbText
1001
AcDbBlockRepETag
1070
     1
1071
       51
1005
0
  0
LINE
  5
F3B
330
74
100
AcDbEntity
  8
0
  6
Continuous
 62
   255
100
AcDbLine
 10
533.8752384345859
 20
103.3910858988269
 30
0.0
 11
519.8752422597221
 21
103.3910858988269
 31
0.0
1001
AcDbBlockRepETag
1070
     1
1071
       38
1005
0
  0
TEXT
  5
F3C
330
74
100
AcDbEntity
  8
0
  6
Continuous
 62
   255
100
AcDbText
 10
521.2899512148809
 20
102.2747317412414
 30
0.0
 40
0.6895652173912836
  1
PI/R&D/F/18 Rev 00
100
AcDbText
1001
AcDbBlockRepETag
1070
     1
1071
       51
1005
0
  0
MTEXT
  5
F3D
330
74
100
AcDbEntity
  8
0
  6
Continuous
 62
   255
100
AcDbMText
 10
520.6190191477646
 20
111.6311491407211
 30
0.0
 40
0.8399999999999746
 41
49.00807762536433
 46
0.0
 71
     7
 72
     1
  1
Unless & otherwise specified, all dimensions and tolerances are in mm.
  7
style1
 73
     1
 44
1.0
1001
AcDbBlockRepETag
1070
     1
1071
       64
1005
0
  0
LINE
  5
F3E
330
74
100
AcDbEntity
  8
0
  6
Continuous
 62
   255
100
AcDbLine
 10
519.8752422597221
 20
110.9907643826221
 30
0.0
 11
593.0752222597252
 21
110.9907643826221
 31
0.0
1001
AcDbBlockRepETag
1070
     1
1071
        3
1005
0
  0
MTEXT
  5
F41
330
74
100
AcDbEntity
  8
0
 62
   255
100
AcDbMText
 10
520.577503621117
 20
110.5244619102402
 30
0.0
 40
0.9999999999999698
 41
0.0
 46
0.0
 71
     1
 72
     5
  1
Drawn: 16.08.13 NB
 73
     1
 44
1.0
1001
AcDbBlockRepETag
1070
     1
1071
       46
1005
0
  0
MTEXT
  5
F42
330
74
100
AcDbEntity
  8
0
 62
   255
100
AcDbMText
 10
538.8253389746465
 20
110.5244619102419
 30
0.0
 40
0.9999999999999698
 41
0.0
 46
0.0
 71
     1
 72
     5
  1
Checked:
 73
     1
 44
1.0
1001
AcDbBlockRepETag
1070
     1
1071
       46
1005
0
  0
MTEXT
  5
F43
330
74
100
AcDbEntity
  8
0
 62
   255
100
AcDbMText
 10
557.1253339746469
 20
110.5244619102419
 30
0.0
 40
0.9999999999999698
 41
0.0
 46
0.0
 71
     1
 72
     5
  1
Approved:
 73
     1
 44
1.0
1001
AcDbBlockRepETag
1070
     1
1071
       46
1005
0
  0
MTEXT
  5
F44
330
74
100
AcDbEntity
  8
0
 62
   255
100
AcDbMText
 10
574.6376317175668
 20
110.5244619102436
 30
0.0
 40
0.9999999999999698
 41
0.0
 46
0.0
 71
     1
 72
     5
  1
Revision No: 00
 73
     1
 44
1.0
1001
AcDbBlockRepETag
1070
     1
1071
       46
1005
0
  0
LINE
  5
F45
330
74
100
AcDbEntity
  8
0
  6
Continuous
 62
   255
100
AcDbLine
 10
555.9501007550029
 20
110.9907643826238
 30
0.0
 11
555.950100755003
 21
108.9910863359867
 31
0.0
1001
AcDbBlockRepETag
1070
     1
1071
       22
1005
0
  0
ENDSEC
  0
SECTION
  2
OBJECTS
  0
DICTIONARY
  5
C
330
0
100
AcDbDictionary
281
     1
  3
ACAD_COLOR
350
6A
  3
ACAD_GROUP
350
D
  3
ACAD_LAYOUT
350
69
  3
ACAD_MATERIAL
350
10
  3
ACAD_MLEADERSTYLE
350
6D
  3
ACAD_MLINESTYLE
350
66
  3
ACAD_PLOTSETTINGS
350
68
  3
ACAD_PLOTSTYLENAME
350
E
  3
ACAD_SCALELIST
350
3A
  3
ACAD_TABLESTYLE
350
6B
  3
ACAD_VISUALSTYLE
350
29
  3
ACDB_RECOMPOSE_DATA
350
1065
  3
AcDbVariableDictionary
350
1066
  0
DICTIONARY
  5
CC6
330
2
100
AcDbDictionary
280
     1
281
     1
  3
ACAD_LAYERSTATES
360
CC7
  0
DICTIONARY
  5
1B8
330
5C
100
AcDbDictionary
280
     1
281
     1
  3
ADSK_XREC_LAYER_RECONCILED
360
1B9
  0
DICTIONARY
  5
1BA
330
82
100
AcDbDictionary
280
     1
281
     1
  3
ADSK_XREC_LAYER_RECONCILED
360
1BB
  0
DICTIONARY
  5
ACA
330
74
100
AcDbDictionary
280
     1
281
     1
  3
ACAD_SORTENTS
360
ACB
  0
DICTIONARY
  5
297
330
13F
100
AcDbDictionary
280
     1
281
     1
  0
DICTIONARY
  5
AFE
330
AFD
100
AcDbDictionary
280
     1
281
     1
  3
ACAD_SORTENTS
360
AFF
  0
DICTIONARY
  5
B39
330
B38
100
AcDbDictionary
280
     1
281
     1
  3
ACAD_SORTENTS
360
B3A
  0
DICTIONARY
  5
B81
330
B80
100
AcDbDictionary
280
     1
281
     1
  3
ACAD_SORTENTS
360
B82
  0
DICTIONARY
  5
B88
330
B87
100
AcDbDictionary
280
     1
281
     1
  3
ACAD_SORTENTS
360
B89
  0
DICTIONARY
  5
B9E
330
B9D
100
AcDbDictionary
280
     1
281
     1
  3
ACAD_SORTENTS
360
B9F
  0
DICTIONARY
  5
C84
330
C83
100
AcDbDictionary
280
     1
281
     1
  3
ACAD_SORTENTS
360
C85
  0
DICTIONARY
  5
D0A
330
CC8
100
AcDbDictionary
280
     1
281
     1
  3
ACAD_SORTENTS
360
F03
  0
DICTIONARY
  5
1130
330
EEA
100
AcDbDictionary
280
     1
281
     1
  3
ACAD_MTEXT_2008_RT
360
1131
  0
DICTIONARY
  5
DCA
330
DC9
100
AcDbDictionary
280
     1
281
     1
  3
ACAD_BREAKDATA
360
DCB
  0
DICTIONARY
  5
102D
330
DE9
100
AcDbDictionary
280
     1
281
     1
  3
ACAD_BREAKDATA
360
1039
  0
DICTIONARY
  5
FFD
330
DEA
100
AcDbDictionary
280
     1
281
     1
  3
ACAD_BREAKDATA
360
1009
  0
DICTIONARY
  5
1132
330
F34
100
AcDbDictionary
280
     1
281
     1
  3
ACAD_MTEXT_2008_RT
360
1133
  0
DICTIONARY
  5
6A
102
{ACAD_REACTORS
330
C
102
}
330
C
100
AcDbDictionary
281
     1
  0
DICTIONARY
  5
D
102
{ACAD_REACTORS
330
C
102
}
330
C
100
AcDbDictionary
281
     1
  0
DICTIONARY
  5
69
102
{ACAD_REACTORS
330
C
102
}
330
C
100
AcDbDictionary
281
     1
  3
Layout1
350
73
  3
Model
350
77
  0
DICTIONARY
  5
10
102
{ACAD_REACTORS
330
C
102
}
330
C
100
AcDbDictionary
281
     1
  3
ByBlock
350
19
  3
ByLayer
350
11
  3
Global
350
21
  0
DICTIONARY
  5
6D
102
{ACAD_REACTORS
330
C
102
}
330
C
100
AcDbDictionary
281
     1
  3
Standard
350
6E
  0
DICTIONARY
  5
66
102
{ACAD_REACTORS
330
C
102
}
330
C
100
AcDbDictionary
281
     1
  3
Standard
350
67
  0
DICTIONARY
  5
68
102
{ACAD_REACTORS
330
C
102
}
330
C
100
AcDbDictionary
281
     1
  0
ACDBDICTIONARYWDFLT
  5
E
102
{ACAD_REACTORS
330
C
102
}
330
C
100
AcDbDictionary
281
     1
  3
Normal
350
F
100
AcDbDictionaryWithDefault
340
F
  0
DICTIONARY
  5
3A
102
{ACAD_REACTORS
330
C
102
}
330
C
100
AcDbDictionary
281
     1
  3
A0
350
3B
  3
A1
350
3C
  3
A2
350
3D
  3
A3
350
3E
  3
A4
350
3F
  3
A5
350
40
  3
A6
350
41
  3
A7
350
42
  3
A8
350
43
  3
A9
350
44
  3
B0
350
45
  3
B1
350
46
  3
B2
350
47
  3
B3
350
48
  3
B4
350
49
  3
B5
350
4A
  3
B6
350
4B
  3
B7
350
4C
  3
B8
350
4D
  3
B9
350
4E
  3
C0
350
4F
  3
C1
350
50
  3
C2
350
51
  3
C3
350
52
  3
C4
350
53
  3
C5
350
54
  3
C6
350
55
  3
C7
350
56
  3
C8
350
57
  3
C9
350
58
  3
D0
350
59
  3
D1
350
5A
  3
D2
350
5B
  0
DICTIONARY
  5
6B
102
{ACAD_REACTORS
330
C
102
}
330
C
100
AcDbDictionary
281
     1
  3
Standard
350
6C
  0
DICTIONARY
  5
29
102
{ACAD_REACTORS
330
C
102
}
330
C
100
AcDbDictionary
281
     1
  3
2dWireframe
350
2F
  3
3D Hidden
350
31
  3
3dWireframe
350
30
  3
Basic
350
2E
  3
Brighten
350
35
  3
ColorChange
350
39
  3
Conceptual
350
32
  3
Dim
350
34
  3
EdgeColorOff
350
CBD
  3
Facepattern
350
38
  3
Flat
350
2A
  3
FlatWithEdges
350
2B
  3
Gouraud
350
2C
  3
GouraudWithEdges
350
2D
  3
JitterOff
350
CC0
  3
Linepattern
350
37
  3
OverhangOff
350
CC3
  3
Realistic
350
33
  3
Thicken
350
36
  0
XRECORD
  5
1065
102
{ACAD_REACTORS
330
C
102
}
330
C
100
AcDbXrecord
280
     1
 90
        1
330
6C
330
EEA
330
F34
  0
DICTIONARY
  5
1066
102
{ACAD_REACTORS
330
C
102
}
330
C
100
AcDbDictionary
281
     1
  3
CANNOSCALE
350
106A
  3
CMLEADERSTYLE
350
1068
  3
CTABLESTYLE
350
1067
  3
LIGHTINGUNITS
350
106B
  3
MSLTSCALE
350
1069
  0
DICTIONARY
  5
CC7
102
{ACAD_REACTORS
330
CC6
102
}
330
CC6
100
AcDbDictionary
281
     1
  0
XRECORD
  5
1B9
102
{ACAD_REACTORS
330
1B8
102
}
330
1B8
100
AcDbXrecord
280
     1
290
     1
  0
XRECORD
  5
1BB
102
{ACAD_REACTORS
330
1BA
102
}
330
1BA
100
AcDbXrecord
280
     1
290
     1
  0
SORTENTSTABLE
  5
ACB
102
{ACAD_REACTORS
330
ACA
102
}
330
ACA
100
AcDbSortentsTable
330
74
331
D77
  5
DA1
331
DAE
  5
DDB
331
D7F
  5
DA9
331
DB6
  5
DE3
331
F09
  5
F58
331
D87
  5
DB1
331
DBE
  5
F05
331
DC6
  5
F13
331
F11
  5
F5A
331
F19
  5
F62
331
F29
  5
F6A
331
D8F
  5
DB9
331
DCE
  5
F18
331
DD6
  5
F28
331
D60
  5
D8A
331
D97
  5
DC1
331
D68
  5
D92
331
D9F
  5
DC9
331
DDE
  5
F35
331
DA7
  5
DD4
331
DE6
  5
F42
331
F39
  5
F73
331
F41
  5
F78
331
D70
  5
D9A
331
D78
  5
DA2
331
DAF
  5
DDC
331
DB7
  5
DE4
331
D80
  5
DAA
331
F0A
  5
F59
331
DBF
  5
F06
331
DC7
  5
F14
331
F12
  5
F5B
331
F1A
  5
F63
331
F2A
  5
F6B
331
D88
  5
DB2
331
D90
  5
DBA
331
DCF
  5
F19
331
1B7
  5
1B7
331
D61
  5
D8B
331
D98
  5
DC2
331
DD7
  5
F29
331
D69
  5
D93
331
DA0
  5
DCC
331
DDF
  5
F38
331
DE7
  5
F43
331
F42
  5
F79
331
D71
  5
D9B
331
DA8
  5
DD5
331
D79
  5
DA3
331
DB0
  5
DDD
331
D81
  5
DAB
331
DB8
  5
DE5
331
DC0
  5
F07
331
F13
  5
F5C
331
F1B
  5
F64
331
F2B
  5
F6C
331
D89
  5
DB3
331
DC8
  5
F15
331
D91
  5
DBB
331
DD0
  5
F1A
331
DD8
  5
F2A
331
D62
  5
D8C
331
D99
  5
DC3
331
D6A
  5
D94
331
DA1
  5
DCE
331
DE0
  5
F39
331
F33
  5
F6F
331
F3B
  5
F74
331
F43
  5
F7A
331
D72
  5
D9C
331
DA9
  5
DD6
331
DE8
  5
F44
331
D7A
  5
DA4
331
DB1
  5
DDE
331
D82
  5
DAC
331
DB9
  5
DE6
331
DC1
  5
F08
331
F14
  5
F5D
331
F24
  5
F65
331
F2C
  5
F6D
331
D8A
  5
DB4
331
DC9
  5
F16
331
D92
  5
DBC
331
DD1
  5
F1B
331
D63
  5
D8D
331
D9A
  5
DC4
331
DD9
  5
F2B
331
D6B
  5
D95
331
DA2
  5
DCF
331
DE1
  5
F3B
331
F34
  5
F70
331
F3C
  5
F75
331
F44
  5
F7B
331
DE9
  5
F45
331
D73
  5
D9D
331
DAA
  5
DD7
331
D7B
  5
DA5
331
DB2
  5
DDF
331
F05
  5
F54
331
D83
  5
DAD
331
DBA
  5
DE7
331
DC2
  5
F09
331
F15
  5
F5E
331
F25
  5
F66
331
F2D
  5
F6E
331
D8B
  5
DB5
331
DD2
  5
F24
331
D93
  5
DBD
331
DDA
  5
F2C
331
D64
  5
D8E
331
D9B
  5
DC5
331
D6C
  5
D96
331
DA3
  5
DD0
331
DE2
  5
F3C
331
F35
  5
F71
331
F3D
  5
F76
331
F45
  5
F7C
331
D74
  5
D9E
331
DAB
  5
DD8
331
DEA
  5
F53
331
D7C
  5
DA6
331
DB3
  5
DE0
331
F06
  5
F55
331
D84
  5
DAE
331
DBB
  5
DE8
331
DC3
  5
F0A
331
F16
  5
F5F
331
F26
  5
F67
331
D8C
  5
DB6
331
D5D
  5
D87
331
D94
  5
DBE
331
DD3
  5
F25
331
D65
  5
D8F
331
D9C
  5
DC6
331
DDB
  5
F2D
331
DE3
  5
F3D
331
D6D
  5
D97
331
DA4
  5
DD1
331
F3E
  5
F77
331
D75
  5
D9F
331
DAC
  5
DD9
331
D7D
  5
DA7
331
DB4
  5
DE1
331
F07
  5
F56
331
D85
  5
DAF
331
DBC
  5
DE9
331
DC4
  5
F11
331
F17
  5
F60
331
F27
  5
F68
331
D8D
  5
DB7
331
DCC
  5
F17
331
DD4
  5
F26
331
D5E
  5
D88
331
D95
  5
DBF
331
DDC
  5
F33
331
D66
  5
D90
331
D9D
  5
DC7
331
D6E
  5
D98
331
DA5
  5
DD2
331
DE4
  5
F3E
331
D76
  5
DA0
331
DAD
  5
DDA
331
D7E
  5
DA8
331
DB5
  5
DE2
331
F08
  5
F57
331
D86
  5
DB0
331
DBD
  5
DEA
331
DC5
  5
F12
331
F18
  5
F61
331
F28
  5
F69
331
D8E
  5
DB8
331
D5F
  5
D89
331
D96
  5
DC0
331
DD5
  5
F27
331
D67
  5
D91
331
D9E
  5
DC8
331
DDD
  5
F34
331
DE5
  5
F41
331
D6F
  5
D99
331
DA6
  5
DD3
331
F38
  5
F72
  0
SORTENTSTABLE
  5
AFF
102
{ACAD_REACTORS
330
AFE
102
}
330
AFE
100
AcDbSortentsTable
330
AFD
  0
SORTENTSTABLE
  5
B3A
102
{ACAD_REACTORS
330
B39
102
}
330
B39
100
AcDbSortentsTable
330
B38
  0
SORTENTSTABLE
  5
B82
102
{ACAD_REACTORS
330
B81
102
}
330
B81
100
AcDbSortentsTable
330
B80
  0
SORTENTSTABLE
  5
B89
102
{ACAD_REACTORS
330
B88
102
}
330
B88
100
AcDbSortentsTable
330
B87
  0
SORTENTSTABLE
  5
B9F
102
{ACAD_REACTORS
330
B9E
102
}
330
B9E
100
AcDbSortentsTable
330
B9D
  0
SORTENTSTABLE
  5
C85
102
{ACAD_REACTORS
330
C84
102
}
330
C84
100
AcDbSortentsTable
330
C83
  0
SORTENTSTABLE
  5
F03
102
{ACAD_REACTORS
330
D0A
102
}
330
D0A
100
AcDbSortentsTable
330
CC8
331
EF7
  5
EFC
331
ED8
  5
EDC
331
EE0
  5
EE7
331
EFE
  5
EFF
331
ECA
  5
ECC
331
EE8
  5
EEF
331
EF0
  5
EF7
331
ED2
  5
ED4
331
ED9
  5
EDD
331
EE1
  5
EE8
331
EC3
  5
EC5
331
EFF
  5
F00
331
ECB
  5
ECD
331
EE9
  5
EF0
331
ED3
  5
ED5
331
EF1
  5
EF8
331
EDA
  5
EDE
331
EF8
  5
EC4
331
EC4
  5
EC6
331
EE2
  5
EE9
331
F00
  5
F01
331
ECC
  5
ECE
331
EEA
  5
EF1
331
EF2
  5
EF9
331
ED4
  5
ED8
331
EDB
  5
EDF
331
EF9
  5
EFD
331
F01
  5
EE4
331
EC5
  5
EC7
331
EE3
  5
EEA
331
ECD
  5
ECF
331
EEB
  5
EF2
331
ED5
  5
ED9
331
EF3
  5
EFA
331
EDC
  5
EE0
331
EFA
  5
ED6
331
EC6
  5
EC8
331
EE4
  5
EEB
331
ECE
  5
ED0
331
EEC
  5
EF3
331
ED6
  5
EDA
331
EF4
  5
EFB
331
EDD
  5
EE1
331
EFB
  5
ED7
331
EC7
  5
EC9
331
EE5
  5
EEC
331
ECF
  5
ED1
331
EED
  5
EF4
331
ED7
  5
EDB
331
EF5
  5
EE3
331
EDE
  5
EE2
331
EFC
  5
EC3
331
EC8
  5
ECA
331
EE6
  5
EED
331
ED0
  5
ED2
331
EEE
  5
EF5
331
EF6
  5
EE5
331
EDF
  5
EE6
331
EFD
  5
EFE
331
EC9
  5
ECB
331
EE7
  5
EEE
331
ED1
  5
ED3
331
EEF
  5
EF6
  0
XRECORD
  5
1131
102
{ACAD_REACTORS
330
1130
102
}
330
1130
100
AcDbXrecord
280
     1
 40
283676.0
  1
\pxsm1,qc;{\fISOCPEUR|b0|i0|c0|p34;\W1;Description\POutline drawing}
  0
BREAKDATA
  5
DCB
102
{ACAD_REACTORS
330
DCA
102
}
330
DCA
100
AcDbBreakData
 70
     0
330
DC9
 90
        1
100
AcDbBreakPointRef
 71
     2
 72
     0
 91
        1
 10
487.1828243606116
 20
158.8610779424912
 30
0.0
 11
487.1828243606116
 21
158.1392763836003
 31
0.0
  0
BREAKDATA
  5
1039
102
{ACAD_REACTORS
330
102D
102
}
330
102D
100
AcDbBreakData
 70
     0
330
DE9
 90
        1
100
AcDbBreakPointRef
 71
     2
 72
     0
 91
        1
 10
520.4828243606114
 20
158.9773572663051
 30
0.0
 11
520.4828243606114
 21
158.0500163760919
 31
0.0
  0
BREAKDATA
  5
1009
102
{ACAD_REACTORS
330
FFD
102
}
330
FFD
100
AcDbBreakData
 70
     0
330
DEA
 90
        1
100
AcDbBreakPointRef
 71
     2
 72
     0
 91
        0
 10
520.4828243606114
 20
158.9773572663051
 30
0.0
 11
520.4828243606114
 21
158.0500163760919
 31
0.0
  0
XRECORD
  5
1133
102
{ACAD_REACTORS
330
1132
102
}
330
1132
100
AcDbXrecord
280
     1
 40
227922.0
  1
\pxsm1,qc;{\fISOCPEUR|b0|i0|c0|p34;\W1; 13N 88 .1\POutline drawing}
  0
LAYOUT
  5
73
102
{ACAD_REACTORS
330
69
102
}
330
69
100
AcDbPlotSettings
  1

  2
HP LaserJet M5035@ 6th Floor ++
  4

  6

 40
0.0
 41
0.0
 42
0.0
 43
0.0
 44
0.0
 45
0.0
 46
0.0
 47
0.0
 48
0.0
 49
0.0
140
0.0
141
0.0
142
1.0
143
1.0
 70
   688
 72
     0
 73
     0
 74
     5
  7

 75
    16
147
1.0
 76
     0
 77
     2
 78
   300
148
0.0
149
0.0
100
AcDbLayout
  1
Layout1
 70
     1
 71
     1
 10
0.0
 20
0.0
 11
12.0
 21
9.0
 12
0.0
 22
0.0
 32
0.0
 14
1.000000000000000E+20
 24
1.000000000000000E+20
 34
1.000000000000000E+20
 15
-1.000000000000000E+20
 25
-1.000000000000000E+20
 35
-1.000000000000000E+20
146
0.0
 13
0.0
 23
0.0
 33
0.0
 16
1.0
 26
0.0
 36
0.0
 17
0.0
 27
1.0
 37
0.0
 76
     0
330
70
  0
LAYOUT
  5
77
102
{ACAD_REACTORS
330
69
102
}
330
69
100
AcDbPlotSettings
  1

  2
HP LaserJet M5035@ 6th Floor ++
  4
Letter
  6

 40
6.805083274841308
 41
5.027085781097412
 42
6.805068969726562
 43
5.027069091796875
 44
215.8999938964844
 45
279.3999938964844
 46
0.0
 47
0.0
 48
0.0
 49
0.0
140
0.0
141
0.0
142
1.0
143
22.81069820805967
 70
 11952
 72
     0
 73
     1
 74
     0
  7

 75
     0
147
0.0438390789654423
 76
     0
 77
     2
 78
   300
148
-9993.390824980647
149
-2388.025394889834
100
AcDbLayout
  1
Model
 70
     1
 71
     0
 10
0.0
 20
0.0
 11
12.0
 21
9.0
 12
0.0
 22
0.0
 32
0.0
 14
0.0
 24
0.0
 34
0.0
 15
0.0
 25
0.0
 35
0.0
146
0.0
 13
0.0
 23
0.0
 33
0.0
 16
1.0
 26
0.0
 36
0.0
 17
0.0
 27
1.0
 37
0.0
 76
     0
330
74
331
8A
1001
ACAD_PSEXT
1000
HP LaserJet M5035@ 6th Floor ++
1000
HP LaserJet M5035 mfp PCL6
1000
10.156.107.7
1000

1070
     0
  0
MATERIAL
  5
19
102
{ACAD_XDICTIONARY
360
1A
102
}
102
{ACAD_REACTORS
330
10
102
}
330
10
100
AcDbMaterial
  1
ByBlock
 72
     0
 43
0.0208333333333333
 43
0.0
 43
0.0
 43
0.0
 43
0.0
 43
0.0208333333333333
 43
0.0
 43
0.0
 43
0.0
 43
0.0
 43
1.0
 43
0.0
 43
0.0
 43
0.0
 43
0.0
 43
1.0
 77
     0
 47
0.0208333333333333
 47
0.0
 47
0.0
 47
0.0
 47
0.0
 47
0.0208333333333333
 47
0.0
 47
0.0
 47
0.0
 47
0.0
 47
1.0
 47
0.0
 47
0.0
 47
0.0
 47
0.0
 47
1.0
171
     0
 49
0.0208333333333333
 49
0.0
 49
0.0
 49
0.0
 49
0.0
 49
0.0208333333333333
 49
0.0
 49
0.0
 49
0.0
 49
0.0
 49
1.0
 49
0.0
 49
0.0
 49
0.0
 49
0.0
 49
1.0
175
     0
142
0.0208333333333333
142
0.0
142
0.0
142
0.0
142
0.0
142
0.0208333333333333
142
0.0
142
0.0
142
0.0
142
0.0
142
1.0
142
0.0
142
0.0
142
0.0
142
0.0
142
1.0
179
     0
144
0.0208333333333333
144
0.0
144
0.0
144
0.0
144
0.0
144
0.0208333333333333
144
0.0
144
0.0
144
0.0
144
0.0
144
1.0
144
0.0
144
0.0
144
0.0
144
0.0
144
1.0
147
0.0208333333333333
147
0.0
147
0.0
147
0.0
147
0.0
147
0.0208333333333333
147
0.0
147
0.0
147
0.0
147
0.0
147
1.0
147
0.0
147
0.0
147
0.0
147
0.0
147
1.0
  0
MATERIAL
  5
11
102
{ACAD_XDICTIONARY
360
12
102
}
102
{ACAD_REACTORS
330
10
102
}
330
10
100
AcDbMaterial
  1
ByLayer
 72
     0
 43
0.0208333333333333
 43
0.0
 43
0.0
 43
0.0
 43
0.0
 43
0.0208333333333333
 43
0.0
 43
0.0
 43
0.0
 43
0.0
 43
1.0
 43
0.0
 43
0.0
 43
0.0
 43
0.0
 43
1.0
 77
     0
 47
0.0208333333333333
 47
0.0
 47
0.0
 47
0.0
 47
0.0
 47
0.0208333333333333
 47
0.0
 47
0.0
 47
0.0
 47
0.0
 47
1.0
 47
0.0
 47
0.0
 47
0.0
 47
0.0
 47
1.0
171
     0
 49
0.0208333333333333
 49
0.0
 49
0.0
 49
0.0
 49
0.0
 49
0.0208333333333333
 49
0.0
 49
0.0
 49
0.0
 49
0.0
 49
1.0
 49
0.0
 49
0.0
 49
0.0
 49
0.0
 49
1.0
175
     0
142
0.0208333333333333
142
0.0
142
0.0
142
0.0
142
0.0
142
0.0208333333333333
142
0.0
142
0.0
142
0.0
142
0.0
142
1.0
142
0.0
142
0.0
142
0.0
142
0.0
142
1.0
179
     0
144
0.0208333333333333
144
0.0
144
0.0
144
0.0
144
0.0
144
0.0208333333333333
144
0.0
144
0.0
144
0.0
144
0.0
144
1.0
144
0.0
144
0.0
144
0.0
144
0.0
144
1.0
147
0.0208333333333333
147
0.0
147
0.0
147
0.0
147
0.0
147
0.0208333333333333
147
0.0
147
0.0
147
0.0
147
0.0
147
1.0
147
0.0
147
0.0
147
0.0
147
0.0
147
1.0
  0
MATERIAL
  5
21
102
{ACAD_XDICTIONARY
360
22
102
}
102
{ACAD_REACTORS
330
10
102
}
330
10
100
AcDbMaterial
  1
Global
 72
     0
 43
0.0208333333333333
 43
0.0
 43
0.0
 43
0.0
 43
0.0
 43
0.0208333333333333
 43
0.0
 43
0.0
 43
0.0
 43
0.0
 43
1.0
 43
0.0
 43
0.0
 43
0.0
 43
0.0
 43
1.0
 77
     0
 47
0.0208333333333333
 47
0.0
 47
0.0
 47
0.0
 47
0.0
 47
0.0208333333333333
 47
0.0
 47
0.0
 47
0.0
 47
0.0
 47
1.0
 47
0.0
 47
0.0
 47
0.0
 47
0.0
 47
1.0
171
     0
 49
0.0208333333333333
 49
0.0
 49
0.0
 49
0.0
 49
0.0
 49
0.0208333333333333
 49
0.0
 49
0.0
 49
0.0
 49
0.0
 49
1.0
 49
0.0
 49
0.0
 49
0.0
 49
0.0
 49
1.0
175
     0
142
0.0208333333333333
142
0.0
142
0.0
142
0.0
142
0.0
142
0.0208333333333333
142
0.0
142
0.0
142
0.0
142
0.0
142
1.0
142
0.0
142
0.0
142
0.0
142
0.0
142
1.0
179
     0
144
0.0208333333333333
144
0.0
144
0.0
144
0.0
144
0.0
144
0.0208333333333333
144
0.0
144
0.0
144
0.0
144
0.0
144
1.0
144
0.0
144
0.0
144
0.0
144
0.0
144
1.0
147
0.0208333333333333
147
0.0
147
0.0
147
0.0
147
0.0
147
0.0208333333333333
147
0.0
147
0.0
147
0.0
147
0.0
147
1.0
147
0.0
147
0.0
147
0.0
147
0.0
147
1.0
  0
MLEADERSTYLE
  5
6E
102
{ACAD_REACTORS
330
6D
102
}
330
6D
100
AcDbMLeaderStyle
170
     2
171
     1
172
     0
 90
        2
 40
0.0
 41
0.0
173
     1
 91
-1056964608
340
62
 92
       -2
290
     1
 42
0.09
291
     1
 43
0.36
  3
Standard
 44
0.18
300

342
5D
174
     1
178
     6
175
     1
176
     0
 93
-1056964608
 45
0.18
292
     0
297
     0
 46
0.18
 94
-1056964608
 47
1.0
 49
1.0
140
1.0
293
     1
141
0.0
294
     1
177
     0
142
1.0
295
     0
296
     0
143
0.125
1001
ACAD_MLEADERVER
1070
     2
  0
MLINESTYLE
  5
67
102
{ACAD_REACTORS
330
66
102
}
330
66
100
AcDbMlineStyle
  2
STANDARD
 70
     0
  3

 62
   256
 51
90.0
 52
90.0
 71
     2
 49
0.5
 62
   256
  6
BYLAYER
 49
-0.5
 62
   256
  6
BYLAYER
  0
ACDBPLACEHOLDER
  5
F
102
{ACAD_REACTORS
330
E
102
}
330
E
  0
SCALE
  5
3B
102
{ACAD_REACTORS
330
3A
102
}
330
3A
100
AcDbScale
 70
     0
300
1:1
140
1.0
141
1.0
290
     1
  0
SCALE
  5
3C
102
{ACAD_REACTORS
330
3A
102
}
330
3A
100
AcDbScale
 70
     0
300
1:2
140
1.0
141
2.0
290
     0
  0
SCALE
  5
3D
102
{ACAD_REACTORS
330
3A
102
}
330
3A
100
AcDbScale
 70
     0
300
1:4
140
1.0
141
4.0
290
     0
  0
SCALE
  5
3E
102
{ACAD_REACTORS
330
3A
102
}
330
3A
100
AcDbScale
 70
     0
300
1:5
140
1.0
141
5.0
290
     0
  0
SCALE
  5
3F
102
{ACAD_REACTORS
330
3A
102
}
330
3A
100
AcDbScale
 70
     0
300
1:8
140
1.0
141
8.0
290
     0
  0
SCALE
  5
40
102
{ACAD_REACTORS
330
3A
102
}
330
3A
100
AcDbScale
 70
     0
300
1:10
140
1.0
141
10.0
290
     0
  0
SCALE
  5
41
102
{ACAD_REACTORS
330
3A
102
}
330
3A
100
AcDbScale
 70
     0
300
1:16
140
1.0
141
16.0
290
     0
  0
SCALE
  5
42
102
{ACAD_REACTORS
330
3A
102
}
330
3A
100
AcDbScale
 70
     0
300
1:20
140
1.0
141
20.0
290
     0
  0
SCALE
  5
43
102
{ACAD_REACTORS
330
3A
102
}
330
3A
100
AcDbScale
 70
     0
300
1:30
140
1.0
141
30.0
290
     0
  0
SCALE
  5
44
102
{ACAD_REACTORS
330
3A
102
}
330
3A
100
AcDbScale
 70
     0
300
1:40
140
1.0
141
40.0
290
     0
  0
SCALE
  5
45
102
{ACAD_REACTORS
330
3A
102
}
330
3A
100
AcDbScale
 70
     0
300
1:50
140
1.0
141
50.0
290
     0
  0
SCALE
  5
46
102
{ACAD_REACTORS
330
3A
102
}
330
3A
100
AcDbScale
 70
     0
300
1:100
140
1.0
141
100.0
290
     0
  0
SCALE
  5
47
102
{ACAD_REACTORS
330
3A
102
}
330
3A
100
AcDbScale
 70
     0
300
2:1
140
2.0
141
1.0
290
     0
  0
SCALE
  5
48
102
{ACAD_REACTORS
330
3A
102
}
330
3A
100
AcDbScale
 70
     0
300
4:1
140
4.0
141
1.0
290
     0
  0
SCALE
  5
49
102
{ACAD_REACTORS
330
3A
102
}
330
3A
100
AcDbScale
 70
     0
300
8:1
140
8.0
141
1.0
290
     0
  0
SCALE
  5
4A
102
{ACAD_REACTORS
330
3A
102
}
330
3A
100
AcDbScale
 70
     0
300
10:1
140
10.0
141
1.0
290
     0
  0
SCALE
  5
4B
102
{ACAD_REACTORS
330
3A
102
}
330
3A
100
AcDbScale
 70
     0
300
100:1
140
100.0
141
1.0
290
     0
  0
SCALE
  5
4C
102
{ACAD_REACTORS
330
3A
102
}
330
3A
100
AcDbScale
 70
     0
300
1/128" = 1'-0"
140
0.0078125
141
12.0
290
     0
  0
SCALE
  5
4D
102
{ACAD_REACTORS
330
3A
102
}
330
3A
100
AcDbScale
 70
     0
300
1/64" = 1'-0"
140
0.015625
141
12.0
290
     0
  0
SCALE
  5
4E
102
{ACAD_REACTORS
330
3A
102
}
330
3A
100
AcDbScale
 70
     0
300
1/32" = 1'-0"
140
0.03125
141
12.0
290
     0
  0
SCALE
  5
4F
102
{ACAD_REACTORS
330
3A
102
}
330
3A
100
AcDbScale
 70
     0
300
1/16" = 1'-0"
140
0.0625
141
12.0
290
     0
  0
SCALE
  5
50
102
{ACAD_REACTORS
330
3A
102
}
330
3A
100
AcDbScale
 70
     0
300
3/32" = 1'-0"
140
0.09375
141
12.0
290
     0
  0
SCALE
  5
51
102
{ACAD_REACTORS
330
3A
102
}
330
3A
100
AcDbScale
 70
     0
300
1/8" = 1'-0"
140
0.125
141
12.0
290
     0
  0
SCALE
  5
52
102
{ACAD_REACTORS
330
3A
102
}
330
3A
100
AcDbScale
 70
     0
300
3/16" = 1'-0"
140
0.1875
141
12.0
290
     0
  0
SCALE
  5
53
102
{ACAD_REACTORS
330
3A
102
}
330
3A
100
AcDbScale
 70
     0
300
1/4" = 1'-0"
140
0.25
141
12.0
290
     0
  0
SCALE
  5
54
102
{ACAD_REACTORS
330
3A
102
}
330
3A
100
AcDbScale
 70
     0
300
3/8" = 1'-0"
140
0.375
141
12.0
290
     0
  0
SCALE
  5
55
102
{ACAD_REACTORS
330
3A
102
}
330
3A
100
AcDbScale
 70
     0
300
1/2" = 1'-0"
140
0.5
141
12.0
290
     0
  0
SCALE
  5
56
102
{ACAD_REACTORS
330
3A
102
}
330
3A
100
AcDbScale
 70
     0
300
3/4" = 1'-0"
140
0.75
141
12.0
290
     0
  0
SCALE
  5
57
102
{ACAD_REACTORS
330
3A
102
}
330
3A
100
AcDbScale
 70
     0
300
1" = 1'-0"
140
1.0
141
12.0
290
     0
  0
SCALE
  5
58
102
{ACAD_REACTORS
330
3A
102
}
330
3A
100
AcDbScale
 70
     0
300
1-1/2" = 1'-0"
140
1.5
141
12.0
290
     0
  0
SCALE
  5
59
102
{ACAD_REACTORS
330
3A
102
}
330
3A
100
AcDbScale
 70
     0
300
3" = 1'-0"
140
3.0
141
12.0
290
     0
  0
SCALE
  5
5A
102
{ACAD_REACTORS
330
3A
102
}
330
3A
100
AcDbScale
 70
     0
300
6" = 1'-0"
140
6.0
141
12.0
290
     0
  0
SCALE
  5
5B
102
{ACAD_REACTORS
330
3A
102
}
330
3A
100
AcDbScale
 70
     0
300
1'-0" = 1'-0"
140
12.0
141
12.0
290
     0
  0
TABLESTYLE
  5
6C
102
{ACAD_XDICTIONARY
360
105F
102
}
102
{ACAD_REACTORS
330
6B
102
}
330
6B
100
AcDbTableStyle
  3
Standard
 70
     0
 71
     0
 40
0.06
 41
0.06
280
     0
281
     0
  7
STANDARD
140
0.18
170
     2
 62
     0
 63
     7
283
     0
 90
      512
 91
        0
  1

274
    -2
284
     1
 64
     0
275
    -2
285
     1
 65
     0
276
    -2
286
     1
 66
     0
277
    -2
287
     1
 67
     0
278
    -2
288
     1
 68
     0
279
    -2
289
     1
 69
     0
  7
STANDARD
140
0.25
170
     5
 62
     0
 63
     7
283
     0
 90
      512
 91
        0
  1

274
    -2
284
     1
 64
     0
275
    -2
285
     1
 65
     0
276
    -2
286
     1
 66
     0
277
    -2
287
     1
 67
     0
278
    -2
288
     1
 68
     0
279
    -2
289
     1
 69
     0
  7
STANDARD
140
0.18
170
     5
 62
     0
 63
     7
283
     0
 90
      512
 91
        0
  1

274
    -2
284
     1
 64
     0
275
    -2
285
     1
 65
     0
276
    -2
286
     1
 66
     0
277
    -2
287
     1
 67
     0
278
    -2
288
     1
 68
     0
279
    -2
289
     1
 69
     0
  0
VISUALSTYLE
  5
2F
102
{ACAD_REACTORS
330
29
102
}
330
29
100
AcDbVisualStyle
  2
2dWireframe
 70
     4
 71
     0
 72
     2
 73
     0
 90
        0
 40
-0.6
 41
-30.0
 62
     5
 63
     7
421
 16777215
 74
     1
 91
        4
 64
     7
 65
   257
 75
     1
175
     1
 42
1.0
 92
        0
 66
   257
 43
1.0
 76
     1
 77
     6
 78
     2
 67
     7
 79
     5
170
     0
171
     0
290
     0
174
     0
 93
        1
 44
0.0
173
     0
291
     0
 45
0.0
  0
VISUALSTYLE
  5
31
102
{ACAD_REACTORS
330
29
102
}
330
29
100
AcDbVisualStyle
  2
3D Hidden
 70
     6
 71
     1
 72
     2
 73
     2
 90
        0
 40
-0.6
 41
-30.0
 62
     5
 63
     7
421
 16777215
 74
     2
 91
        2
 64
     7
 65
   257
 75
     2
175
     1
 42
40.0
 92
        0
 66
   257
 43
1.0
 76
     1
 77
     6
 78
     2
 67
     7
 79
     3
170
     0
171
     0
290
     0
174
     0
 93
        1
 44
0.0
173
     0
291
     0
 45
0.0
  0
VISUALSTYLE
  5
30
102
{ACAD_REACTORS
330
29
102
}
330
29
100
AcDbVisualStyle
  2
3dWireframe
 70
     5
 71
     0
 72
     2
 73
     0
 90
        0
 40
-0.6
 41
-30.0
 62
     5
 63
     7
421
 16777215
 74
     1
 91
        4
 64
     7
 65
   257
 75
     1
175
     1
 42
1.0
 92
        0
 66
   257
 43
1.0
 76
     1
 77
     6
 78
     2
 67
     7
 79
     5
170
     0
171
     0
290
     0
174
     0
 93
        1
 44
0.0
173
     0
291
     0
 45
0.0
  0
VISUALSTYLE
  5
2E
102
{ACAD_REACTORS
330
29
102
}
330
29
100
AcDbVisualStyle
  2
Basic
 70
     7
 71
     1
 72
     0
 73
     1
 90
        0
 40
-0.6
 41
-30.0
 62
     5
 63
     7
421
 16777215
 74
     0
 91
        4
 64
     7
 65
   257
 75
     1
175
     1
 42
1.0
 92
        8
 66
     7
 43
1.0
 76
     1
 77
     6
 78
     2
 67
     7
 79
     5
170
     0
171
     0
290
     0
174
     0
 93
        1
 44
0.0
173
     0
291
     1
 45
0.0
  0
VISUALSTYLE
  5
35
102
{ACAD_REACTORS
330
29
102
}
330
29
100
AcDbVisualStyle
  2
Brighten
 70
    12
 71
     2
 72
     2
 73
     0
 90
        0
 40
-0.6
 41
-30.0
 62
     5
 63
     7
421
 16777215
 74
     1
 91
        4
 64
     7
 65
   257
 75
     1
175
     1
 42
1.0
 92
        8
 66
     7
 43
1.0
 76
     1
 77
     6
 78
     2
 67
     7
 79
     5
170
     0
171
     0
290
     0
174
     0
 93
        1
 44
50.0
173
     0
291
     1
 45
0.0
  0
VISUALSTYLE
  5
39
102
{ACAD_REACTORS
330
29
102
}
330
29
100
AcDbVisualStyle
  2
ColorChange
 70
    16
 71
     2
 72
     2
 73
     3
 90
        0
 40
-0.6
 41
-30.0
 62
     5
 63
     8
421
  8421504
 74
     1
 91
        4
 64
     7
 65
   257
 75
     1
175
     1
 42
1.0
 92
        8
 66
     8
424
  8421504
 43
1.0
 76
     1
 77
     6
 78
     2
 67
     7
 79
     5
170
     0
171
     0
290
     0
174
     0
 93
        1
 44
0.0
173
     0
291
     1
 45
0.0
  0
VISUALSTYLE
  5
32
102
{ACAD_REACTORS
330
29
102
}
330
29
100
AcDbVisualStyle
  2
Conceptual
 70
     9
 71
     3
 72
     2
 73
     0
 90
        0
 40
-0.6
 41
-30.0
 62
     5
 63
     7
421
 16777215
 74
     2
 91
        2
 64
     7
 65
   257
 75
     1
175
     1
 42
40.0
 92
        8
 66
     7
 43
1.0
 76
     1
 77
     6
 78
     2
 67
     7
 79
     3
170
     0
171
     0
290
     0
174
     0
 93
        1
 44
0.0
173
     0
291
     0
 45
0.0
  0
VISUALSTYLE
  5
34
102
{ACAD_REACTORS
330
29
102
}
330
29
100
AcDbVisualStyle
  2
Dim
 70
    11
 71
     2
 72
     2
 73
     0
 90
        0
 40
-0.6
 41
-30.0
 62
     5
 63
     7
421
 16777215
 74
     1
 91
        4
 64
     7
 65
   257
 75
     1
175
     1
 42
1.0
 92
        8
 66
     7
 43
1.0
 76
     1
 77
     6
 78
     2
 67
     7
 79
     5
170
     0
171
     0
290
     0
174
     0
 93
        1
 44
-50.0
173
     0
291
     1
 45
0.0
  0
VISUALSTYLE
  5
CBD
102
{ACAD_XDICTIONARY
360
CBE
102
}
102
{ACAD_REACTORS
330
29
102
}
330
29
100
AcDbVisualStyle
  2
EdgeColorOff
 70
    22
 71
     2
 72
     2
 73
     0
 90
        0
 40
-0.6
 41
-30.0
 62
     5
 63
     7
 74
     1
 91
        4
 64
     7
 65
   257
 75
     1
175
     1
 42
1.0
 92
        8
 66
     7
 43
1.0
 76
     1
 77
     6
 78
     2
 67
     7
 79
     5
170
     0
171
     0
290
     0
174
     0
 93
        1
 44
0.0
173
     0
291
     1
 45
0.0
  0
VISUALSTYLE
  5
38
102
{ACAD_REACTORS
330
29
102
}
330
29
100
AcDbVisualStyle
  2
Facepattern
 70
    15
 71
     2
 72
     2
 73
     0
 90
        0
 40
-0.6
 41
-30.0
 62
     5
 63
     7
421
 16777215
 74
     1
 91
        4
 64
     7
 65
   257
 75
     1
175
     1
 42
1.0
 92
        8
 66
     7
 43
1.0
 76
     1
 77
     6
 78
     2
 67
     7
 79
     5
170
     0
171
     0
290
     0
174
     0
 93
        1
 44
0.0
173
     0
291
     1
 45
0.0
  0
VISUALSTYLE
  5
2A
102
{ACAD_REACTORS
330
29
102
}
330
29
100
AcDbVisualStyle
  2
Flat
 70
     0
 71
     2
 72
     1
 73
     1
 90
        2
 40
-0.6
 41
30.0
 62
     5
 63
     7
421
 16777215
 74
     0
 91
        4
 64
     7
 65
   257
 75
     1
175
     1
 42
1.0
 92
        8
 66
     7
 43
1.0
 76
     1
 77
     6
 78
     2
 67
     7
 79
     5
170
     0
171
     0
290
     0
174
     0
 93
       13
 44
0.0
173
     0
291
     1
 45
0.0
  0
VISUALSTYLE
  5
2B
102
{ACAD_REACTORS
330
29
102
}
330
29
100
AcDbVisualStyle
  2
FlatWithEdges
 70
     1
 71
     2
 72
     1
 73
     1
 90
        2
 40
-0.6
 41
30.0
 62
     5
 63
     7
421
 16777215
 74
     1
 91
        4
 64
     7
 65
   257
 75
     1
175
     1
 42
1.0
 92
        0
 66
   257
 43
1.0
 76
     1
 77
     6
 78
     2
 67
     7
 79
     5
170
     0
171
     0
290
     0
174
     0
 93
       13
 44
0.0
173
     0
291
     1
 45
0.0
  0
VISUALSTYLE
  5
2C
102
{ACAD_REACTORS
330
29
102
}
330
29
100
AcDbVisualStyle
  2
Gouraud
 70
     2
 71
     2
 72
     2
 73
     1
 90
        2
 40
-0.6
 41
30.0
 62
     5
 63
     7
421
 16777215
 74
     0
 91
        4
 64
     7
 65
   257
 75
     1
175
     1
 42
1.0
 92
        0
 66
     7
 43
1.0
 76
     1
 77
     6
 78
     2
 67
     7
 79
     5
170
     0
171
     0
290
     0
174
     0
 93
       13
 44
0.0
173
     0
291
     1
 45
0.0
  0
VISUALSTYLE
  5
2D
102
{ACAD_REACTORS
330
29
102
}
330
29
100
AcDbVisualStyle
  2
GouraudWithEdges
 70
     3
 71
     2
 72
     2
 73
     1
 90
        2
 40
-0.6
 41
30.0
 62
     5
 63
     7
421
 16777215
 74
     1
 91
        4
 64
     7
 65
   257
 75
     1
175
     1
 42
1.0
 92
        0
 66
   257
 43
1.0
 76
     1
 77
     6
 78
     2
 67
     7
 79
     5
170
     0
171
     0
290
     0
174
     0
 93
       13
 44
0.0
173
     0
291
     1
 45
0.0
  0
VISUALSTYLE
  5
CC0
102
{ACAD_XDICTIONARY
360
CC1
102
}
102
{ACAD_REACTORS
330
29
102
}
330
29
100
AcDbVisualStyle
  2
JitterOff
 70
    20
 71
     2
 72
     2
 73
     0
 90
        0
 40
-0.6
 41
-30.0
 62
     5
 63
     7
 74
     1
 91
        4
 64
     7
 65
   257
 75
     1
175
     1
 42
1.0
 92
       10
 66
     7
 43
1.0
 76
     1
 77
     6
 78
     2
 67
     7
 79
     5
170
     0
171
     0
290
     0
174
     0
 93
        1
 44
0.0
173
     0
291
     1
 45
0.0
  0
VISUALSTYLE
  5
37
102
{ACAD_REACTORS
330
29
102
}
330
29
100
AcDbVisualStyle
  2
Linepattern
 70
    14
 71
     2
 72
     2
 73
     0
 90
        0
 40
-0.6
 41
-30.0
 62
     5
 63
     7
421
 16777215
 74
     1
 91
        4
 64
     7
 65
   257
 75
     7
175
     7
 42
1.0
 92
        8
 66
     7
 43
1.0
 76
     1
 77
     6
 78
     2
 67
     7
 79
     5
170
     0
171
     0
290
     0
174
     0
 93
        1
 44
0.0
173
     0
291
     1
 45
0.0
  0
VISUALSTYLE
  5
CC3
102
{ACAD_XDICTIONARY
360
CC4
102
}
102
{ACAD_REACTORS
330
29
102
}
330
29
100
AcDbVisualStyle
  2
OverhangOff
 70
    21
 71
     2
 72
     2
 73
     0
 90
        0
 40
-0.6
 41
-30.0
 62
     5
 63
     7
 74
     1
 91
        4
 64
     7
 65
   257
 75
     1
175
     1
 42
1.0
 92
        9
 66
     7
 43
1.0
 76
     1
 77
     6
 78
     2
 67
     7
 79
     5
170
     0
171
     0
290
     0
174
     0
 93
        1
 44
0.0
173
     0
291
     1
 45
0.0
  0
VISUALSTYLE
  5
33
102
{ACAD_REACTORS
330
29
102
}
330
29
100
AcDbVisualStyle
  2
Realistic
 70
     8
 71
     2
 72
     2
 73
     0
 90
        0
 40
-0.6
 41
-30.0
 62
     5
 63
     7
421
 16777215
 74
     1
 91
        0
 64
     7
 65
   257
 75
     1
175
     1
 42
1.0
 92
        8
 66
     8
424
  7895160
 43
1.0
 76
     1
 77
     6
 78
     2
 67
     7
 79
     5
170
     0
171
     0
290
     0
174
     0
 93
       13
 44
0.0
173
     0
291
     0
 45
0.0
  0
VISUALSTYLE
  5
36
102
{ACAD_REACTORS
330
29
102
}
330
29
100
AcDbVisualStyle
  2
Thicken
 70
    13
 71
     2
 72
     2
 73
     0
 90
        0
 40
-0.6
 41
-30.0
 62
     5
 63
     7
421
 16777215
 74
     1
 91
        4
 64
     7
 65
   257
 75
     1
175
     1
 42
1.0
 92
       12
 66
     7
 43
1.0
 76
     1
 77
     6
 78
     2
 67
     7
 79
     5
170
     0
171
     0
290
     0
174
     0
 93
        1
 44
0.0
173
     0
291
     1
 45
0.0
  0
DICTIONARYVAR
  5
106A
102
{ACAD_REACTORS
330
1066
102
}
330
1066
100
DictionaryVariables
280
     0
  1
1:1
  0
DICTIONARYVAR
  5
1068
102
{ACAD_REACTORS
330
1066
102
}
330
1066
100
DictionaryVariables
280
     0
  1
STANDARD
  0
DICTIONARYVAR
  5
1067
102
{ACAD_REACTORS
330
1066
102
}
330
1066
100
DictionaryVariables
280
     0
  1
STANDARD
  0
DICTIONARYVAR
  5
106B
102
{ACAD_REACTORS
330
1066
102
}
330
1066
100
DictionaryVariables
280
     0
  1
0
  0
DICTIONARYVAR
  5
1069
102
{ACAD_REACTORS
330
1066
102
}
330
1066
100
DictionaryVariables
280
     0
  1
0
  0
DICTIONARY
  5
1A
330
19
100
AcDbDictionary
280
     1
281
     1
  3
BUMPTILE
360
1C
  3
DIFFUSETILE
360
1B
  3
OPACITYTILE
360
1F
  3
REFLECTIONTILE
360
1E
  3
REFRACTIONTILE
360
20
  3
SPECULARTILE
360
1D
  0
DICTIONARY
  5
12
330
11
100
AcDbDictionary
280
     1
281
     1
  3
BUMPTILE
360
14
  3
DIFFUSETILE
360
13
  3
OPACITYTILE
360
17
  3
REFLECTIONTILE
360
16
  3
REFRACTIONTILE
360
18
  3
SPECULARTILE
360
15
  0
DICTIONARY
  5
22
330
21
100
AcDbDictionary
280
     1
281
     1
  3
BUMPTILE
360
24
  3
DIFFUSETILE
360
23
  3
OPACITYTILE
360
27
  3
REFLECTIONTILE
360
26
  3
REFRACTIONTILE
360
28
  3
SPECULARTILE
360
25
  0
DICTIONARY
  5
105F
330
6C
100
AcDbDictionary
280
     1
281
     1
  3
ACAD_ROUNDTRIP_2008_TABLESTYLE_CELLSTYLEMAP
360
112F
  0
DICTIONARY
  5
CBE
330
CBD
100
AcDbDictionary
280
     1
281
     1
  3
ACAD_XREC_ROUNDTRIP
360
CBF
  0
DICTIONARY
  5
CC1
330
CC0
100
AcDbDictionary
280
     1
281
     1
  3
ACAD_XREC_ROUNDTRIP
360
CC2
  0
DICTIONARY
  5
CC4
330
CC3
100
AcDbDictionary
280
     1
281
     1
  3
ACAD_XREC_ROUNDTRIP
360
CC5
  0
XRECORD
  5
1C
102
{ACAD_REACTORS
330
1A
102
}
330
1A
100
AcDbXrecord
280
     1
270
     1
271
     1
  0
XRECORD
  5
1B
102
{ACAD_REACTORS
330
1A
102
}
330
1A
100
AcDbXrecord
280
     1
270
     1
271
     1
  0
XRECORD
  5
1F
102
{ACAD_REACTORS
330
1A
102
}
330
1A
100
AcDbXrecord
280
     1
270
     1
271
     1
  0
XRECORD
  5
1E
102
{ACAD_REACTORS
330
1A
102
}
330
1A
100
AcDbXrecord
280
     1
270
     1
271
     1
  0
XRECORD
  5
20
102
{ACAD_REACTORS
330
1A
102
}
330
1A
100
AcDbXrecord
280
     1
270
     1
271
     1
  0
XRECORD
  5
1D
102
{ACAD_REACTORS
330
1A
102
}
330
1A
100
AcDbXrecord
280
     1
270
     1
271
     1
  0
XRECORD
  5
14
102
{ACAD_REACTORS
330
12
102
}
330
12
100
AcDbXrecord
280
     1
270
     1
271
     1
  0
XRECORD
  5
13
102
{ACAD_REACTORS
330
12
102
}
330
12
100
AcDbXrecord
280
     1
270
     1
271
     1
  0
XRECORD
  5
17
102
{ACAD_REACTORS
330
12
102
}
330
12
100
AcDbXrecord
280
     1
270
     1
271
     1
  0
XRECORD
  5
16
102
{ACAD_REACTORS
330
12
102
}
330
12
100
AcDbXrecord
280
     1
270
     1
271
     1
  0
XRECORD
  5
18
102
{ACAD_REACTORS
330
12
102
}
330
12
100
AcDbXrecord
280
     1
270
     1
271
     1
  0
XRECORD
  5
15
102
{ACAD_REACTORS
330
12
102
}
330
12
100
AcDbXrecord
280
     1
270
     1
271
     1
  0
XRECORD
  5
24
102
{ACAD_REACTORS
330
22
102
}
330
22
100
AcDbXrecord
280
     1
270
     1
271
     1
  0
XRECORD
  5
23
102
{ACAD_REACTORS
330
22
102
}
330
22
100
AcDbXrecord
280
     1
270
     1
271
     1
  0
XRECORD
  5
27
102
{ACAD_REACTORS
330
22
102
}
330
22
100
AcDbXrecord
280
     1
270
     1
271
     1
  0
XRECORD
  5
26
102
{ACAD_REACTORS
330
22
102
}
330
22
100
AcDbXrecord
280
     1
270
     1
271
     1
  0
XRECORD
  5
28
102
{ACAD_REACTORS
330
22
102
}
330
22
100
AcDbXrecord
280
     1
270
     1
271
     1
  0
XRECORD
  5
25
102
{ACAD_REACTORS
330
22
102
}
330
22
100
AcDbXrecord
280
     1
270
     1
271
     1
  0
CELLSTYLEMAP
  5
112F
102
{ACAD_REACTORS
330
105F
102
}
330
105F
100
AcDbCellStyleMap
 90
        3
300
CELLSTYLE
  1
TABLEFORMAT_BEGIN
 90
        5
170
     1
 91
        0
 92
    32768
 62
   257
 93
        1
300
CONTENTFORMAT
  1
CONTENTFORMAT_BEGIN
 90
        0
 91
        0
 92
      512
 93
        0
300

 40
0.0
140
1.0
 94
        5
 62
     0
340
5D
144
0.25
309
CONTENTFORMAT_END
171
     0
 94
        0
309
TABLEFORMAT_END
  1
CELLSTYLE_BEGIN
 90
        1
 91
        1
300
_TITLE
309
CELLSTYLE_END
300
CELLSTYLE
  1
TABLEFORMAT_BEGIN
 90
        5
170
     1
 91
        0
 92
        0
 62
   257
 93
        1
300
CONTENTFORMAT
  1
CONTENTFORMAT_BEGIN
 90
        0
 91
        0
 92
      512
 93
        0
300

 40
0.0
140
1.0
 94
        5
 62
     0
340
5D
144
0.18
309
CONTENTFORMAT_END
171
     0
 94
        0
309
TABLEFORMAT_END
  1
CELLSTYLE_BEGIN
 90
        2
 91
        1
300
_HEADER
309
CELLSTYLE_END
300
CELLSTYLE
  1
TABLEFORMAT_BEGIN
 90
        5
170
     1
 91
        0
 92
        0
 62
   257
 93
        1
300
CONTENTFORMAT
  1
CONTENTFORMAT_BEGIN
 90
        0
 91
        0
 92
      512
 93
        0
300

 40
0.0
140
1.0
 94
        2
 62
     0
340
5D
144
0.18
309
CONTENTFORMAT_END
171
     0
 94
        0
309
TABLEFORMAT_END
  1
CELLSTYLE_BEGIN
 90
        3
 91
        2
300
_DATA
309
CELLSTYLE_END
  0
XRECORD
  5
CBF
102
{ACAD_REACTORS
330
CBE
102
}
330
CBE
100
AcDbXrecord
280
     1
102
RTVSPropertyOp0
 70
     0
102
RTVSPropertyOp1
 70
     0
102
RTVSPropertyOp2
 70
     0
102
RTVSPropertyOp3
 70
     0
102
RTVSPropertyOp4
 70
     0
102
RTVSPropertyOp5
 70
     0
102
RTVSPropertyOp6
 70
     0
102
RTVSPropertyOp7
 70
     0
102
RTVSPropertyOp8
 70
     0
102
RTVSPropertyOp9
 70
     0
102
RTVSPropertyOp10
 70
     0
102
RTVSPropertyOp11
 70
     0
102
RTVSPropertyOp12
 70
     0
102
RTVSPropertyOp13
 70
     0
102
RTVSPropertyOp14
 70
     2
102
RTVSPropertyOp15
 70
     0
102
RTVSPropertyOp16
 70
     0
102
RTVSPropertyOp17
 70
     0
102
RTVSPropertyOp18
 70
     0
102
RTVSPropertyOp19
 70
     0
102
RTVSPropertyOp20
 70
     0
102
RTVSPropertyOp21
 70
     0
102
RTVSPropertyOp22
 70
     0
102
RTVSPropertyOp23
 70
     0
102
RTVSPropertyOp24
 70
     0
102
RTVSPropertyOp25
 70
     0
102
RTVSPropertyOp26
 70
     0
102
RTVSPropertyOp27
 70
     0
  0
XRECORD
  5
CC2
102
{ACAD_REACTORS
330
CC1
102
}
330
CC1
100
AcDbXrecord
280
     1
102
RTVSPropertyOp0
 70
     0
102
RTVSPropertyOp1
 70
     0
102
RTVSPropertyOp2
 70
     0
102
RTVSPropertyOp3
 70
     0
102
RTVSPropertyOp4
 70
     0
102
RTVSPropertyOp5
 70
     0
102
RTVSPropertyOp6
 70
     0
102
RTVSPropertyOp7
 70
     0
102
RTVSPropertyOp8
 70
     0
102
RTVSPropertyOp9
 70
     0
102
RTVSPropertyOp10
 70
     0
102
RTVSPropertyOp11
 70
     0
102
RTVSPropertyOp12
 70
     0
102
RTVSPropertyOp13
 70
     0
102
RTVSPropertyOp14
 70
     2
102
RTVSPropertyOp15
 70
     0
102
RTVSPropertyOp16
 70
     0
102
RTVSPropertyOp17
 70
     0
102
RTVSPropertyOp18
 70
     0
102
RTVSPropertyOp19
 70
     0
102
RTVSPropertyOp20
 70
     0
102
RTVSPropertyOp21
 70
     0
102
RTVSPropertyOp22
 70
     0
102
RTVSPropertyOp23
 70
     0
102
RTVSPropertyOp24
 70
     0
102
RTVSPropertyOp25
 70
     0
102
RTVSPropertyOp26
 70
     0
102
RTVSPropertyOp27
 70
     0
  0
XRECORD
  5
CC5
102
{ACAD_REACTORS
330
CC4
102
}
330
CC4
100
AcDbXrecord
280
     1
102
RTVSPropertyOp0
 70
     0
102
RTVSPropertyOp1
 70
     0
102
RTVSPropertyOp2
 70
     0
102
RTVSPropertyOp3
 70
     0
102
RTVSPropertyOp4
 70
     0
102
RTVSPropertyOp5
 70
     0
102
RTVSPropertyOp6
 70
     0
102
RTVSPropertyOp7
 70
     0
102
RTVSPropertyOp8
 70
     0
102
RTVSPropertyOp9
 70
     0
102
RTVSPropertyOp10
 70
     0
102
RTVSPropertyOp11
 70
     0
102
RTVSPropertyOp12
 70
     0
102
RTVSPropertyOp13
 70
     0
102
RTVSPropertyOp14
 70
     2
102
RTVSPropertyOp15
 70
     0
102
RTVSPropertyOp16
 70
     0
102
RTVSPropertyOp17
 70
     0
102
RTVSPropertyOp18
 70
     0
102
RTVSPropertyOp19
 70
     0
102
RTVSPropertyOp20
 70
     0
102
RTVSPropertyOp21
 70
     0
102
RTVSPropertyOp22
 70
     0
102
RTVSPropertyOp23
 70
     0
102
RTVSPropertyOp24
 70
     0
102
RTVSPropertyOp25
 70
     0
102
RTVSPropertyOp26
 70
     0
102
RTVSPropertyOp27
 70
     0
  0
ENDSEC
  0
EOF
