  0
SECTION
  2
HEADER
  9
$ACADVER
  1
AC1015
  9
$ACADMAINTVER
 70
    20
  9
$DWGCODEPAGE
  3
ANSI_1252
  9
$INSBASE
 10
0.0
 20
0.0
 30
0.0
  9
$EXTMIN
 10
244.0678035102051
 20
-7.866171314799203
 30
-0.0000000349181948
  9
$EXTMAX
 10
440.5890653847359
 20
130.6501308814185
 30
0.0000000814935747
  9
$LIMMIN
 10
4.468919679001379
 20
-111.1096944807249
  9
$LIMMAX
 10
199.4689196790015
 20
27.1403055192751
  9
$ORTHOMODE
 70
     1
  9
$REGENMODE
 70
     1
  9
$FILLMODE
 70
     1
  9
$QTEXTMODE
 70
     0
  9
$MIRRTEXT
 70
     0
  9
$LTSCALE
 40
1.0
  9
$ATTMODE
 70
     1
  9
$TEXTSIZE
 40
3.5
  9
$TRACEWID
 40
0.5
  9
$TEXTSTYLE
  7
STANDARD
  9
$CLAYER
  8
0
  9
$CELTYPE
  6
ByLayer
  9
$CECOLOR
 62
   256
  9
$CELTSCALE
 40
1.0
  9
$DISPSILH
 70
     0
  9
$DIMSCALE
 40
1.0
  9
$DIMASZ
 40
1.75
  9
$DIMEXO
 40
0.0
  9
$DIMDLI
 40
7.0
  9
$DIMRND
 40
0.0
  9
$DIMDLE
 40
0.0
  9
$DIMEXE
 40
0.5
  9
$DIMTP
 40
0.0
  9
$DIMTM
 40
0.0
  9
$DIMTXT
 40
1.75
  9
$DIMCEN
 40
0.0
  9
$DIMTSZ
 40
0.0
  9
$DIMTOL
 70
     0
  9
$DIMLIM
 70
     0
  9
$DIMTIH
 70
     0
  9
$DIMTOH
 70
     0
  9
$DIMSE1
 70
     0
  9
$DIMSE2
 70
     0
  9
$DIMTAD
 70
     1
  9
$DIMZIN
 70
     9
  9
$DIMBLK
  1

  9
$DIMASO
 70
     1
  9
$DIMSHO
 70
     1
  9
$DIMPOST
  1

  9
$DIMAPOST
  1

  9
$DIMALT
 70
     0
  9
$DIMALTD
 70
     2
  9
$DIMALTF
 40
25.4
  9
$DIMLFAC
 40
1.0
  9
$DIMTOFL
 70
     0
  9
$DIMTVP
 40
0.0
  9
$DIMTIX
 70
     0
  9
$DIMSOXD
 70
     0
  9
$DIMSAH
 70
     0
  9
$DIMBLK1
  1

  9
$DIMBLK2
  1

  9
$DIMSTYLE
  2
DMST_1
  9
$DIMCLRD
 70
     2
  9
$DIMCLRE
 70
     2
  9
$DIMCLRT
 70
     3
  9
$DIMTFAC
 40
1.0
  9
$DIMGAP
 40
0.09
  9
$DIMJUST
 70
     0
  9
$DIMSD1
 70
     0
  9
$DIMSD2
 70
     0
  9
$DIMTOLJ
 70
     1
  9
$DIMTZIN
 70
     0
  9
$DIMALTZ
 70
     0
  9
$DIMALTTZ
 70
     0
  9
$DIMUPT
 70
     0
  9
$DIMDEC
 70
     4
  9
$DIMTDEC
 70
     4
  9
$DIMALTU
 70
     2
  9
$DIMALTTD
 70
     2
  9
$DIMTXSTY
  7
STANDARD
  9
$DIMAUNIT
 70
     0
  9
$DIMADEC
 70
     0
  9
$DIMALTRND
 40
0.0
  9
$DIMAZIN
 70
     0
  9
$DIMDSEP
 70
    46
  9
$DIMATFIT
 70
     3
  9
$DIMFRAC
 70
     0
  9
$DIMLDRBLK
  1

  9
$DIMLUNIT
 70
     2
  9
$DIMLWD
 70
    -2
  9
$DIMLWE
 70
    -2
  9
$DIMTMOVE
 70
     2
  9
$LUNITS
 70
     2
  9
$LUPREC
 70
     4
  9
$SKETCHINC
 40
0.1
  9
$FILLETRAD
 40
2.0
  9
$AUNITS
 70
     0
  9
$AUPREC
 70
     0
  9
$MENU
  1
ACAD
  9
$ELEVATION
 40
0.0
  9
$PELEVATION
 40
0.0
  9
$THICKNESS
 40
0.0
  9
$LIMCHECK
 70
     0
  9
$CHAMFERA
 40
0.0
  9
$CHAMFERB
 40
0.0
  9
$CHAMFERC
 40
0.0
  9
$CHAMFERD
 40
0.0
  9
$SKPOLY
 70
     0
  9
$TDCREATE
 40
2454938.521967789
  9
$TDUCREATE
 40
2454938.292801123
  9
$TDUPDATE
 40
2454951.669845510
  9
$TDUUPDATE
 40
2454951.440678843
  9
$TDINDWG
 40
0.0167283912
  9
$TDUSRTIMER
 40
0.0167283912
  9
$USRTIMER
 70
     1
  9
$ANGBASE
 50
0.0
  9
$ANGDIR
 70
     0
  9
$PDMODE
 70
     0
  9
$PDSIZE
 40
0.0
  9
$PLINEWID
 40
0.0
  9
$SPLFRAME
 70
     0
  9
$SPLINETYPE
 70
     6
  9
$SPLINESEGS
 70
     8
  9
$HANDSEED
  5
11AC
  9
$SURFTAB1
 70
     6
  9
$SURFTAB2
 70
     6
  9
$SURFTYPE
 70
     6
  9
$SURFU
 70
     6
  9
$SURFV
 70
     6
  9
$UCSBASE
  2

  9
$UCSNAME
  2

  9
$UCSORG
 10
0.0
 20
0.0
 30
0.0
  9
$UCSXDIR
 10
1.0
 20
0.0
 30
0.0
  9
$UCSYDIR
 10
0.0
 20
1.0
 30
0.0
  9
$UCSORTHOREF
  2

  9
$UCSORTHOVIEW
 70
     0
  9
$UCSORGTOP
 10
0.0
 20
0.0
 30
0.0
  9
$UCSORGBOTTOM
 10
0.0
 20
0.0
 30
0.0
  9
$UCSORGLEFT
 10
0.0
 20
0.0
 30
0.0
  9
$UCSORGRIGHT
 10
0.0
 20
0.0
 30
0.0
  9
$UCSORGFRONT
 10
0.0
 20
0.0
 30
0.0
  9
$UCSORGBACK
 10
0.0
 20
0.0
 30
0.0
  9
$PUCSBASE
  2

  9
$PUCSNAME
  2

  9
$PUCSORG
 10
0.0
 20
0.0
 30
0.0
  9
$PUCSXDIR
 10
1.0
 20
0.0
 30
0.0
  9
$PUCSYDIR
 10
0.0
 20
1.0
 30
0.0
  9
$PUCSORTHOREF
  2

  9
$PUCSORTHOVIEW
 70
     0
  9
$PUCSORGTOP
 10
0.0
 20
0.0
 30
0.0
  9
$PUCSORGBOTTOM
 10
0.0
 20
0.0
 30
0.0
  9
$PUCSORGLEFT
 10
0.0
 20
0.0
 30
0.0
  9
$PUCSORGRIGHT
 10
0.0
 20
0.0
 30
0.0
  9
$PUCSORGFRONT
 10
0.0
 20
0.0
 30
0.0
  9
$PUCSORGBACK
 10
0.0
 20
0.0
 30
0.0
  9
$USERI1
 70
     0
  9
$USERI2
 70
     0
  9
$USERI3
 70
     0
  9
$USERI4
 70
     0
  9
$USERI5
 70
     0
  9
$USERR1
 40
0.0
  9
$USERR2
 40
0.0
  9
$USERR3
 40
0.0
  9
$USERR4
 40
0.0
  9
$USERR5
 40
0.0
  9
$WORLDVIEW
 70
     1
  9
$SHADEDGE
 70
     3
  9
$SHADEDIF
 70
    70
  9
$TILEMODE
 70
     1
  9
$MAXACTVP
 70
    64
  9
$PINSBASE
 10
0.0
 20
0.0
 30
0.0
  9
$PLIMCHECK
 70
     0
  9
$PEXTMIN
 10
1.000000000000000E+20
 20
1.000000000000000E+20
 30
1.000000000000000E+20
  9
$PEXTMAX
 10
-1.000000000000000E+20
 20
-1.000000000000000E+20
 30
-1.000000000000000E+20
  9
$PLIMMIN
 10
0.0
 20
0.0
  9
$PLIMMAX
 10
12.0
 20
9.0
  9
$UNITMODE
 70
     0
  9
$VISRETAIN
 70
     1
  9
$PLINEGEN
 70
     0
  9
$PSLTSCALE
 70
     1
  9
$TREEDEPTH
 70
  3020
  9
$CMLSTYLE
  2
Standard
  9
$CMLJUST
 70
     0
  9
$CMLSCALE
 40
1.0
  9
$PROXYGRAPHICS
 70
     1
  9
$MEASUREMENT
 70
     0
  9
$CELWEIGHT
370
    -1
  9
$ENDCAPS
280
     0
  9
$JOINSTYLE
280
     0
  9
$LWDISPLAY
290
     0
  9
$INSUNITS
 70
     0
  9
$HYPERLINKBASE
  1

  9
$STYLESHEET
  1

  9
$XEDIT
290
     1
  9
$CEPSNTYPE
380
     0
  9
$PSTYLEMODE
290
     1
  9
$FINGERPRINTGUID
  2
{FA140BDD-8C1E-45FB-8BE4-014256F7B86C}
  9
$VERSIONGUID
  2
{DDA25284-C4C7-4926-B717-A5D92F3D71D9}
  9
$EXTNAMES
290
     1
  9
$PSVPSCALE
 40
0.0
  9
$OLESTARTUP
290
     0
  0
ENDSEC
  0
SECTION
  2
CLASSES
  0
CLASS
  1
ACDBDICTIONARYWDFLT
  2
AcDbDictionaryWithDefault
  3
ObjectDBX Classes
 90
        0
280
     0
281
     0
  0
CLASS
  1
MATERIAL
  2
AcDbMaterial
  3
ObjectDBX Classes
 90
        0
280
     0
281
     0
  0
CLASS
  1
VISUALSTYLE
  2
AcDbVisualStyle
  3
ObjectDBX Classes
 90
     4095
280
     0
281
     0
  0
CLASS
  1
SCALE
  2
AcDbScale
  3
ObjectDBX Classes
 90
     1153
280
     0
281
     0
  0
CLASS
  1
TABLESTYLE
  2
AcDbTableStyle
  3
ObjectDBX Classes
 90
     2047
280
     0
281
     0
  0
CLASS
  1
MLEADERSTYLE
  2
AcDbMLeaderStyle
  3
ACDB_MLEADERSTYLE_CLASS
 90
     4095
280
     0
281
     0
  0
CLASS
  1
DICTIONARYVAR
  2
AcDbDictionaryVar
  3
ObjectDBX Classes
 90
        0
280
     0
281
     0
  0
CLASS
  1
CELLSTYLEMAP
  2
AcDbCellStyleMap
  3
ObjectDBX Classes
 90
     1152
280
     0
281
     0
  0
CLASS
  1
ACDBPLACEHOLDER
  2
AcDbPlaceHolder
  3
ObjectDBX Classes
 90
        0
280
     0
281
     0
  0
CLASS
  1
LAYOUT
  2
AcDbLayout
  3
ObjectDBX Classes
 90
        0
280
     0
281
     0
  0
CLASS
  1
ACAD_EVALUATION_GRAPH
  2
AcDbEvalGraph
  3
ObjectDBX Classes
 90
    33921
280
     0
281
     0
  0
CLASS
  1
SORTENTSTABLE
  2
AcDbSortentsTable
  3
ObjectDBX Classes
 90
        0
280
     0
281
     0
  0
CLASS
  1
ACDB_DYNAMICBLOCKPURGEPREVENTER_VERSION
  2
AcDbDynamicBlockPurgePreventer
  3
ObjectDBX Classes
 90
    33921
280
     0
281
     0
  0
CLASS
  1
ACAECUSTOBJ
  2
AcAeEditorObj
  3
AcAeEditorObj
 90
    33792
280
     0
281
     0
  0
ENDSEC
  0
SECTION
  2
TABLES
  0
TABLE
  2
VPORT
  5
8
330
0
100
AcDbSymbolTable
 70
     2
  0
VPORT
  5
11A5
330
8
100
AcDbSymbolTableRecord
100
AcDbViewportTableRecord
  2
*Active
 70
     0
 10
0.0
 20
0.0
 11
1.0
 21
1.0
 12
342.3284344474705
 22
61.39197978330964
 13
0.0
 23
0.0
 14
1.0
 24
1.0
 15
0.0
 25
0.0
 16
0.0
 26
0.0
 36
1.0
 17
0.0
 27
0.0
 37
0.0
 40
140.0726651422426
 41
1.607879924953095
 42
50.0
 43
0.0
 44
0.0
 50
0.0
 51
0.0
 71
     0
 72
   100
 73
     1
 74
     1
 75
     0
 76
     0
 77
     0
 78
     0
281
     0
 65
     1
110
0.0
120
0.0
130
0.0
111
1.0
121
0.0
131
0.0
112
0.0
122
1.0
132
0.0
 79
     0
146
0.0
  0
ENDTAB
  0
TABLE
  2
LTYPE
  5
5
330
0
100
AcDbSymbolTable
 70
     2
  0
LTYPE
  5
62
330
5
100
AcDbSymbolTableRecord
100
AcDbLinetypeTableRecord
  2
ByBlock
 70
     0
  3

 72
    65
 73
     0
 40
0.0
  0
LTYPE
  5
63
330
5
100
AcDbSymbolTableRecord
100
AcDbLinetypeTableRecord
  2
ByLayer
 70
     0
  3

 72
    65
 73
     0
 40
0.0
  0
LTYPE
  5
64
330
5
100
AcDbSymbolTableRecord
100
AcDbLinetypeTableRecord
  2
CONTINUOUS
 70
     0
  3
Solid line
 72
    65
 73
     0
 40
0.0
  0
LTYPE
  5
7D
330
5
100
AcDbSymbolTableRecord
100
AcDbLinetypeTableRecord
  2
CENTER
 70
     0
  3
____ _ ____ _
 72
    65
 73
     4
 40
10.26315789473685
 49
6.41447368421053
 74
     0
 49
-1.282894736842103
 74
     0
 49
1.282894736842103
 74
     0
 49
-1.282894736842103
 74
     0
  0
ENDTAB
  0
TABLE
  2
LAYER
  5
2
330
0
100
AcDbSymbolTable
 70
     3
  0
LAYER
  5
5C
102
{ACAD_XDICTIONARY
360
36B
102
}
330
2
100
AcDbSymbolTableRecord
100
AcDbLayerTableRecord
  2
0
 70
     0
 62
     7
  6
CONTINUOUS
370
    -3
390
F
  0
LAYER
  5
84
102
{ACAD_XDICTIONARY
360
36D
102
}
330
2
100
AcDbSymbolTableRecord
100
AcDbLayerTableRecord
  2
1
 70
     0
 62
     7
  6
CONTINUOUS
370
    -3
390
F
  0
LAYER
  5
56A
330
2
100
AcDbSymbolTableRecord
100
AcDbLayerTableRecord
  2
Defpoints
 70
     0
 62
     7
  6
CONTINUOUS
290
     0
370
    -3
390
F
  0
ENDTAB
  0
TABLE
  2
STYLE
  5
3
330
0
100
AcDbSymbolTable
 70
     1
  0
STYLE
  5
5D
330
3
100
AcDbSymbolTableRecord
100
AcDbTextStyleTableRecord
  2
STANDARD
 70
     0
 40
0.0
 41
1.0
 50
0.0
 71
     0
 42
3.5
  3
isocpeur.ttf
  4

1001
ACAD
1000
ISOCPEUR
1071
       34
  0
ENDTAB
  0
TABLE
  2
VIEW
  5
6
330
0
100
AcDbSymbolTable
 70
     0
  0
ENDTAB
  0
TABLE
  2
UCS
  5
7
330
0
100
AcDbSymbolTable
 70
     0
  0
ENDTAB
  0
TABLE
  2
APPID
  5
9
330
0
100
AcDbSymbolTable
 70
    18
  0
APPID
  5
5E
330
9
100
AcDbSymbolTableRecord
100
AcDbRegAppTableRecord
  2
ACAD
 70
     0
  0
APPID
  5
65
330
9
100
AcDbSymbolTableRecord
100
AcDbRegAppTableRecord
  2
AcadAnnotative
 70
     0
  0
APPID
  5
6F
330
9
100
AcDbSymbolTableRecord
100
AcDbRegAppTableRecord
  2
ACAD_MLEADERVER
 70
     0
  0
APPID
  5
3C3
330
9
100
AcDbSymbolTableRecord
100
AcDbRegAppTableRecord
  2
AcDbDynamicBlockTrueName
 70
     0
  0
APPID
  5
3C4
330
9
100
AcDbSymbolTableRecord
100
AcDbRegAppTableRecord
  2
AcDbDynamicBlockGUID
 70
     0
  0
APPID
  5
3C5
330
9
100
AcDbSymbolTableRecord
100
AcDbRegAppTableRecord
  2
AcDbBlockRepETag
 70
     0
  0
APPID
  5
3C6
330
9
100
AcDbSymbolTableRecord
100
AcDbRegAppTableRecord
  2
ACAD_PSEXT
 70
     0
  0
APPID
  5
3C7
330
9
100
AcDbSymbolTableRecord
100
AcDbRegAppTableRecord
  2
ACAD_DSTYLE_DIMJAG
 70
     0
  0
APPID
  5
3C8
330
9
100
AcDbSymbolTableRecord
100
AcDbRegAppTableRecord
  2
ACAD_DSTYLE_DIMTALN
 70
     0
  0
APPID
  5
40D
330
9
100
AcDbSymbolTableRecord
100
AcDbRegAppTableRecord
  2
AcadAnnoPO
 70
     0
  0
APPID
  5
600
330
9
100
AcDbSymbolTableRecord
100
AcDbRegAppTableRecord
  2
ACAUTHENVIRON
 70
     0
  0
APPID
  5
EFF
330
9
100
AcDbSymbolTableRecord
100
AcDbRegAppTableRecord
  2
ACAD_EXEMPT_FROM_CAD_STANDARDS
 70
     0
  0
APPID
  5
1114
330
9
100
AcDbSymbolTableRecord
100
AcDbRegAppTableRecord
  2
ACAD_DSTYLE_DIMTEXT_FILL
 70
     0
  0
APPID
  5
1115
330
9
100
AcDbSymbolTableRecord
100
AcDbRegAppTableRecord
  2
ACAD_DSTYLE_DIMEXT_LENGTH
 70
     0
  0
APPID
  5
1116
330
9
100
AcDbSymbolTableRecord
100
AcDbRegAppTableRecord
  2
ACAD_DSTYLE_DIMEXT_ENABLED
 70
     0
  0
APPID
  5
1117
330
9
100
AcDbSymbolTableRecord
100
AcDbRegAppTableRecord
  2
ACAD_DSTYLE_DIM_LINETYPE
 70
     0
  0
APPID
  5
1118
330
9
100
AcDbSymbolTableRecord
100
AcDbRegAppTableRecord
  2
ACAD_DSTYLE_DIM_EXT1_LINETYPE
 70
     0
  0
APPID
  5
1119
330
9
100
AcDbSymbolTableRecord
100
AcDbRegAppTableRecord
  2
ACAD_DSTYLE_DIM_EXT2_LINETYPE
 70
     0
  0
ENDTAB
  0
TABLE
  2
DIMSTYLE
  5
A
330
0
100
AcDbSymbolTable
 70
     1
100
AcDbDimStyleTable
 71
     1
340
78
  0
DIMSTYLE
105
78
102
{ACAD_REACTORS
330
D77
330
D78
330
D6E
330
D71
330
D74
330
D73
330
D72
330
D75
330
D76
330
D79
330
D6F
330
D70
102
}
330
A
100
AcDbSymbolTableRecord
100
AcDbDimStyleTableRecord
  2
DMST_1
 70
     0
 41
1.75
 42
0.0
 43
7.0
 44
0.5
 73
     0
 74
     0
 77
     1
 78
     9
140
1.75
141
0.0
176
     2
177
     2
178
     3
279
     2
340
5D
  0
ENDTAB
  0
TABLE
  2
BLOCK_RECORD
  5
1
330
0
100
AcDbSymbolTable
 70
    17
  0
BLOCK_RECORD
  5
74
102
{ACAD_XDICTIONARY
360
EFC
102
}
330
1
100
AcDbSymbolTableRecord
100
AcDbBlockTableRecord
  2
*Model_Space
340
77
  0
BLOCK_RECORD
  5
70
330
1
100
AcDbSymbolTableRecord
100
AcDbBlockTableRecord
  2
*Paper_Space
340
73
  0
BLOCK_RECORD
  5
6E7
330
1
100
AcDbSymbolTableRecord
100
AcDbBlockTableRecord
  2
*X0
340
0
102
{BLKREFS
331
C28
102
}
  0
BLOCK_RECORD
  5
6EF
330
1
100
AcDbSymbolTableRecord
100
AcDbBlockTableRecord
  2
*X1
340
0
102
{BLKREFS
331
C29
102
}
  0
BLOCK_RECORD
  5
6F7
330
1
100
AcDbSymbolTableRecord
100
AcDbBlockTableRecord
  2
*X2
340
0
102
{BLKREFS
331
C2A
102
}
  0
BLOCK_RECORD
  5
6FF
330
1
100
AcDbSymbolTableRecord
100
AcDbBlockTableRecord
  2
*X3
340
0
102
{BLKREFS
331
C2B
102
}
  0
BLOCK_RECORD
  5
706
330
1
100
AcDbSymbolTableRecord
100
AcDbBlockTableRecord
  2
*X4
340
0
102
{BLKREFS
331
C2C
102
}
  0
BLOCK_RECORD
  5
D7F
330
1
100
AcDbSymbolTableRecord
100
AcDbBlockTableRecord
  2
*D5
340
0
  0
BLOCK_RECORD
  5
D8B
330
1
100
AcDbSymbolTableRecord
100
AcDbBlockTableRecord
  2
*D6
340
0
  0
BLOCK_RECORD
  5
D98
330
1
100
AcDbSymbolTableRecord
100
AcDbBlockTableRecord
  2
*D7
340
0
  0
BLOCK_RECORD
  5
DA4
330
1
100
AcDbSymbolTableRecord
100
AcDbBlockTableRecord
  2
*D8
340
0
  0
BLOCK_RECORD
  5
DB1
330
1
100
AcDbSymbolTableRecord
100
AcDbBlockTableRecord
  2
*D9
340
0
  0
BLOCK_RECORD
  5
DBD
330
1
100
AcDbSymbolTableRecord
100
AcDbBlockTableRecord
  2
*D10
340
0
  0
BLOCK_RECORD
  5
DC9
330
1
100
AcDbSymbolTableRecord
100
AcDbBlockTableRecord
  2
*D11
340
0
  0
BLOCK_RECORD
  5
DD5
330
1
100
AcDbSymbolTableRecord
100
AcDbBlockTableRecord
  2
*D12
340
0
  0
BLOCK_RECORD
  5
DE2
330
1
100
AcDbSymbolTableRecord
100
AcDbBlockTableRecord
  2
*D13
340
0
  0
BLOCK_RECORD
  5
DEE
330
1
100
AcDbSymbolTableRecord
100
AcDbBlockTableRecord
  2
*D14
340
0
  0
BLOCK_RECORD
  5
DFA
330
1
100
AcDbSymbolTableRecord
100
AcDbBlockTableRecord
  2
*D15
340
0
  0
BLOCK_RECORD
  5
E06
330
1
100
AcDbSymbolTableRecord
100
AcDbBlockTableRecord
  2
*D16
340
0
  0
ENDTAB
  0
ENDSEC
  0
SECTION
  2
BLOCKS
  0
BLOCK
  5
75
330
74
100
AcDbEntity
  8
0
100
AcDbBlockBegin
  2
*Model_Space
 70
     0
 10
0.0
 20
0.0
 30
0.0
  3
*Model_Space
  1

  0
ENDBLK
  5
76
330
74
100
AcDbEntity
  8
0
100
AcDbBlockEnd
  0
BLOCK
  5
71
330
70
100
AcDbEntity
 67
     1
  8
0
100
AcDbBlockBegin
  2
*Paper_Space
 70
     0
 10
0.0
 20
0.0
 30
0.0
  3
*Paper_Space
  1

  0
ENDBLK
  5
72
330
70
100
AcDbEntity
 67
     1
  8
0
100
AcDbBlockEnd
  0
BLOCK
  5
6E8
330
6E7
100
AcDbEntity
  8
1
100
AcDbBlockBegin
  2
*X0
 70
     1
 10
0.0
 20
0.0
 30
0.0
  3
*X0
  1

  0
LINE
  5
6E9
330
6E7
100
AcDbEntity
  8
1
 62
     2
100
AcDbLine
 10
30.9320946119667
 20
-59.58561104719189
 30
0.0
 11
31.14840494727194
 21
-58.77832988563046
 31
0.0
  0
LINE
  5
6EA
330
6E7
100
AcDbEntity
  8
1
 62
     2
100
AcDbLine
 10
30.78152163633517
 20
-61.30666803404242
 30
0.0
 11
31.4518737293905
 21
-58.80487996379984
 31
0.0
  0
LINE
  5
6EB
330
6E7
100
AcDbEntity
  8
1
 62
     2
100
AcDbLine
 10
30.63094866070365
 20
-63.02772502089299
 30
0.0
 11
31.52523634715095
 21
-59.69019793848842
 31
0.0
  0
LINE
  5
6EC
330
6E7
100
AcDbEntity
  8
1
 62
     2
100
AcDbLine
 10
30.74475256332782
 20
-63.76211406574687
 30
0.0
 11
31.37466337151944
 21
-61.41125492533899
 31
0.0
  0
LINE
  5
6ED
330
6E7
100
AcDbEntity
  8
1
 62
     2
100
AcDbLine
 10
31.04822134544637
 20
-63.78866414391626
 30
0.0
 11
31.22409039588791
 21
-63.13231191218955
 31
0.0
  0
ENDBLK
  5
6EE
330
6E7
100
AcDbEntity
  8
0
100
AcDbBlockEnd
  0
BLOCK
  5
6F0
330
6EF
100
AcDbEntity
  8
1
100
AcDbBlockBegin
  2
*X1
 70
     1
 10
0.0
 20
0.0
 30
0.0
  3
*X1
  1

  0
LINE
  5
6F1
330
6EF
100
AcDbEntity
  8
1
 62
     2
100
AcDbLine
 10
34.17407357088805
 20
-63.78827433307256
 30
0.0
 11
33.99153823496404
 21
-63.1070431852274
 31
0.0
  0
LINE
  5
6F2
330
6EF
100
AcDbEntity
  8
1
 62
     2
100
AcDbLine
 10
34.47754235300661
 20
-63.76172425490314
 30
0.0
 11
33.84096525933248
 21
-61.38598619837674
 31
0.0
  0
LINE
  5
6F3
330
6EF
100
AcDbEntity
  8
1
 62
     2
100
AcDbLine
 10
34.584679970148
 20
-63.00245629392978
 30
0.0
 11
33.69039228370093
 21
-59.6649292115261
 31
0.0
  0
LINE
  5
6F4
330
6EF
100
AcDbEntity
  8
1
 62
     2
100
AcDbLine
 10
34.43410699451645
 20
-61.2813993070791
 30
0.0
 11
33.77042118694394
 21
-58.80449015295614
 31
0.0
  0
LINE
  5
6F5
330
6EF
100
AcDbEntity
  8
1
 62
     2
100
AcDbLine
 10
34.2835340188849
 20
-59.56034232022844
 30
0.0
 11
34.07388996906249
 21
-58.77794007478673
 31
0.0
  0
ENDBLK
  5
6F6
330
6EF
100
AcDbEntity
  8
0
100
AcDbBlockEnd
  0
BLOCK
  5
6F8
330
6F7
100
AcDbEntity
  8
1
100
AcDbBlockBegin
  2
*X2
 70
     1
 10
0.0
 20
0.0
 30
0.0
  3
*X2
  1

  0
LINE
  5
6F9
330
6F7
100
AcDbEntity
  8
1
 62
     2
100
AcDbLine
 10
162.8329630928036
 20
-58.78792873012637
 30
0.0
 11
162.8388323537378
 21
-58.766024350117
 31
0.0
  0
LINE
  5
6FA
330
6F7
100
AcDbEntity
  8
1
 62
     2
100
AcDbLine
 10
162.682390117172
 20
-60.50898571697665
 30
0.0
 11
163.1423011358563
 21
-58.79257442828639
 31
0.0
  0
LINE
  5
6FB
330
6F7
100
AcDbEntity
  8
1
 62
     2
100
AcDbLine
 10
162.5318171415406
 20
-62.23004270382693
 30
0.0
 11
163.426104827988
 21
-58.89251562142228
 31
0.0
  0
LINE
  5
6FC
330
6F7
100
AcDbEntity
  8
1
 62
     2
100
AcDbLine
 10
162.4351799697937
 20
-63.7498085302334
 30
0.0
 11
163.2755318523564
 21
-60.61357260827299
 31
0.0
  0
LINE
  5
6FD
330
6F7
100
AcDbEntity
  8
1
 62
     2
100
AcDbLine
 10
162.7386487519122
 20
-63.77635860840277
 30
0.0
 11
163.1249588767249
 21
-62.3346295951237
 31
0.0
  0
ENDBLK
  5
6FE
330
6F7
100
AcDbEntity
  8
0
100
AcDbBlockEnd
  0
BLOCK
  5
700
330
6FF
100
AcDbEntity
  8
1
100
AcDbBlockBegin
  2
*X3
 70
     1
 10
0.0
 20
0.0
 30
0.0
  3
*X3
  1

  0
LINE
  5
701
330
6FF
100
AcDbEntity
  8
1
 62
     2
100
AcDbLine
 10
166.1679697594726
 20
-63.77402979041667
 30
0.0
 11
165.7418337401695
 21
-62.18366851544247
 31
0.0
  0
LINE
  5
702
330
6FF
100
AcDbEntity
  8
1
 62
     2
100
AcDbLine
 10
166.471438541591
 20
-63.74747971224728
 30
0.0
 11
165.5912607645379
 21
-60.46261152859178
 31
0.0
  0
LINE
  5
703
330
6FF
100
AcDbEntity
  8
1
 62
     2
100
AcDbLine
 10
166.3349754753534
 20
-62.07908162414451
 30
0.0
 11
165.4608485934099
 21
-58.81679568846966
 31
0.0
  0
LINE
  5
704
330
6FF
100
AcDbEntity
  8
1
 62
     2
100
AcDbLine
 10
166.1844024997219
 20
-60.358024637294
 30
0.0
 11
165.7643173755284
 21
-58.79024561030028
 31
0.0
  0
ENDBLK
  5
705
330
6FF
100
AcDbEntity
  8
0
100
AcDbBlockEnd
  0
BLOCK
  5
707
330
706
100
AcDbEntity
  8
1
100
AcDbBlockBegin
  2
*X4
 70
     1
 10
0.0
 20
0.0
 30
0.0
  3
*X4
  1

  0
LINE
  5
708
330
706
100
AcDbEntity
  8
1
 62
     2
100
AcDbLine
 10
86.27239287313996
 20
-59.37456272582267
 30
0.0
 11
86.42662835227335
 21
-58.79894808136717
 31
0.0
  0
LINE
  5
709
330
706
100
AcDbEntity
  8
1
 62
     2
100
AcDbLine
 10
86.27239287313996
 20
-60.53367371736953
 30
0.0
 11
86.73721120639637
 21
-58.79894808136717
 31
0.0
  0
LINE
  5
70A
330
706
100
AcDbEntity
  8
1
 62
     2
100
AcDbLine
 10
86.27239287313996
 20
-61.69278470891644
 30
0.0
 11
86.87239287313998
 21
-59.45355422437504
 31
0.0
  0
LINE
  5
70B
330
706
100
AcDbEntity
  8
1
 62
     2
100
AcDbLine
 10
86.27239287313996
 20
-62.85189570046332
 30
0.0
 11
86.87239287313998
 21
-60.61266521592193
 31
0.0
  0
LINE
  5
70C
330
706
100
AcDbEntity
  8
1
 62
     2
100
AcDbLine
 10
86.32921380660981
 20
-63.79894808136718
 30
0.0
 11
86.87239287313998
 21
-61.7717762074688
 31
0.0
  0
LINE
  5
70D
330
706
100
AcDbEntity
  8
1
 62
     2
100
AcDbLine
 10
86.63979666073284
 20
-63.79894808136718
 30
0.0
 11
86.87239287313998
 21
-62.93088719901568
 31
0.0
  0
ENDBLK
  5
70E
330
706
100
AcDbEntity
  8
0
100
AcDbBlockEnd
  0
BLOCK
  5
D80
330
D7F
100
AcDbEntity
  8
0
100
AcDbBlockBegin
  2
*D5
 70
     1
 10
0.0
 20
0.0
 30
0.0
  3
*D5
  1

  0
LINE
  5
1097
330
D7F
100
AcDbEntity
  8
1
  6
Continuous
 62
     2
370
    -2
100
AcDbLine
 10
409.4365060308773
 20
80.08229012334522
 30
0.0
 11
397.8036080313665
 21
80.08229012334522
 31
0.0
  0
LINE
  5
1098
330
D7F
100
AcDbEntity
  8
1
  6
Continuous
 62
     2
370
    -2
100
AcDbLine
 10
409.4365060308773
 20
90.08229012334522
 30
0.0
 11
397.8036080313665
 21
90.08229012334522
 31
0.0
  0
LINE
  5
1099
330
D7F
100
AcDbEntity
  8
1
  6
Continuous
 62
     2
370
    -2
100
AcDbLine
 10
398.3036080313665
 20
81.83229012334519
 30
0.0
 11
398.3036080313665
 21
88.33229012334522
 31
0.0
  0
SOLID
  5
109A
330
D7F
100
AcDbEntity
  8
1
  6
Continuous
 62
     2
100
AcDbTrace
 10
398.0119413646998
 20
81.83229012334519
 30
0.0
 11
398.5952746980331
 21
81.83229012334519
 31
0.0
 12
398.3036080313665
 22
80.08229012334522
 32
0.0
 13
398.3036080313665
 23
80.08229012334522
 33
0.0
  0
SOLID
  5
109B
330
D7F
100
AcDbEntity
  8
1
  6
Continuous
 62
     2
100
AcDbTrace
 10
398.0119413646998
 20
88.33229012334522
 30
0.0
 11
398.5952746980331
 21
88.33229012334522
 31
0.0
 12
398.3036080313665
 22
90.08229012334522
 32
0.0
 13
398.3036080313665
 23
90.08229012334522
 33
0.0
  0
MTEXT
  5
109C
330
D7F
100
AcDbEntity
  8
1
  6
Continuous
 62
     3
100
AcDbMText
 10
397.3386080313665
 20
85.08229012334528
 30
0.0
 40
1.75
 41
0.0
 71
     5
 72
     1
  1
\A1;10
 11
0.0000000000000001
 21
1.0
 31
0.0
 73
     1
 44
1.0
1001
ACAD
1000
MTEXTBEGIN
1070
    73
1070
     1
1070
    44
1040
1.0
1070
    74
1070
     0
1000
MTEXTEND
  0
POINT
  5
109D
330
D7F
100
AcDbEntity
  8
Defpoints
  6
Continuous
 62
     0
100
AcDbPoint
 10
409.4365060308773
 20
80.08229012334522
 30
0.0
  0
POINT
  5
109E
330
D7F
100
AcDbEntity
  8
Defpoints
  6
Continuous
 62
     0
100
AcDbPoint
 10
409.4365060308773
 20
90.08229012334522
 30
0.0
  0
POINT
  5
109F
330
D7F
100
AcDbEntity
  8
Defpoints
  6
Continuous
 62
     0
100
AcDbPoint
 10
398.3036080313665
 20
90.08229012334522
 30
0.0
  0
ENDBLK
  5
D81
330
D7F
100
AcDbEntity
  8
0
100
AcDbBlockEnd
  0
BLOCK
  5
D8C
330
D8B
100
AcDbEntity
  8
0
100
AcDbBlockBegin
  2
*D6
 70
     1
 10
0.0
 20
0.0
 30
0.0
  3
*D6
  1

  0
LINE
  5
110A
330
D8B
100
AcDbEntity
  8
1
  6
Continuous
 62
     2
370
    -2
100
AcDbLine
 10
271.3278083438989
 20
85.08229012334529
 30
0.0
 11
271.3278083438989
 21
98.51885991768922
 31
0.0
  0
LINE
  5
110B
330
D8B
100
AcDbEntity
  8
1
  6
Continuous
 62
     2
370
    -2
100
AcDbLine
 10
272.9278083438989
 20
85.08229012334529
 30
0.0
 11
272.9278083438989
 21
98.51885991768922
 31
0.0
  0
LINE
  5
110C
330
D8B
100
AcDbEntity
  8
1
  6
Continuous
 62
     2
370
    -2
100
AcDbLine
 10
269.5778083438989
 20
98.01885991768921
 30
0.0
 11
267.8278083438989
 21
98.01885991768921
 31
0.0
  0
LINE
  5
110D
330
D8B
100
AcDbEntity
  8
1
  6
Continuous
 62
     2
370
    -2
100
AcDbLine
 10
274.6778083438989
 20
98.01885991768921
 30
0.0
 11
276.4278083438989
 21
98.01885991768921
 31
0.0
  0
MTEXT
  5
110E
330
D8B
100
AcDbEntity
  8
1
  6
Continuous
 62
     3
100
AcDbMText
 10
263.0063677551791
 20
99.71223930989754
 30
0.0
 40
1.75
 41
0.0
 71
     5
 72
     1
  1
\A1;M1.6x2.8max.
 73
     1
 44
1.0
1001
ACAD
1000
MTEXTBEGIN
1070
    73
1070
     1
1070
    44
1040
1.0
1070
    74
1070
     0
1000
MTEXTEND
  0
SOLID
  5
110F
330
D8B
100
AcDbEntity
  8
1
  6
Continuous
 62
     2
100
AcDbTrace
 10
269.5778083438989
 20
98.31052658435588
 30
0.0
 11
269.5778083438989
 21
97.72719325102254
 31
0.0
 12
271.3278083438989
 22
98.01885991768921
 32
0.0
 13
271.3278083438989
 23
98.01885991768921
 33
0.0
  0
SOLID
  5
1110
330
D8B
100
AcDbEntity
  8
1
  6
Continuous
 62
     2
100
AcDbTrace
 10
274.6778083438989
 20
98.31052658435588
 30
0.0
 11
274.6778083438989
 21
97.72719325102254
 31
0.0
 12
272.9278083438989
 22
98.01885991768921
 32
0.0
 13
272.9278083438989
 23
98.01885991768921
 33
0.0
  0
POINT
  5
1111
330
D8B
100
AcDbEntity
  8
Defpoints
  6
Continuous
 62
     0
100
AcDbPoint
 10
271.3278083438989
 20
85.08229012334529
 30
0.0
  0
POINT
  5
1112
330
D8B
100
AcDbEntity
  8
Defpoints
  6
Continuous
 62
     0
100
AcDbPoint
 10
272.9278083438989
 20
85.08229012334529
 30
0.0
  0
POINT
  5
1113
330
D8B
100
AcDbEntity
  8
Defpoints
  6
Continuous
 62
     0
100
AcDbPoint
 10
272.9278083438989
 20
98.01885991768921
 30
0.0
  0
ENDBLK
  5
D8D
330
D8B
100
AcDbEntity
  8
0
100
AcDbBlockEnd
  0
BLOCK
  5
D99
330
D98
100
AcDbEntity
  8
0
100
AcDbBlockBegin
  2
*D7
 70
     1
 10
0.0
 20
0.0
 30
0.0
  3
*D7
  1

  0
LINE
  5
10ED
330
D98
100
AcDbEntity
  8
1
  6
Continuous
 62
     2
370
    -2
100
AcDbLine
 10
282.1278083438989
 20
85.08229012334529
 30
0.0
 11
282.1278083438989
 21
105.5920824035587
 31
0.0
  0
LINE
  5
10EE
330
D98
100
AcDbEntity
  8
1
  6
Continuous
 62
     2
370
    -2
100
AcDbLine
 10
272.1278083438989
 20
85.08229012334529
 30
0.0
 11
272.1278083438989
 21
105.5920824035587
 31
0.0
  0
LINE
  5
10EF
330
D98
100
AcDbEntity
  8
1
  6
Continuous
 62
     2
370
    -2
100
AcDbLine
 10
280.3778083438989
 20
105.0920824035587
 30
0.0
 11
273.8778083438989
 21
105.0920824035587
 31
0.0
  0
MTEXT
  5
10F0
330
D98
100
AcDbEntity
  8
1
  6
Continuous
 62
     3
100
AcDbMText
 10
276.9016285249011
 20
106.4092635893651
 30
0.0
 40
1.75
 41
0.0
 71
     5
 72
     1
  1
\A1;%%C10
 73
     1
 44
1.0
1001
ACAD
1000
MTEXTBEGIN
1070
    73
1070
     1
1070
    44
1040
1.0
1070
    74
1070
     0
1000
MTEXTEND
  0
SOLID
  5
10F1
330
D98
100
AcDbEntity
  8
1
  6
Continuous
 62
     2
100
AcDbTrace
 10
280.3778083438989
 20
105.3837490702254
 30
0.0
 11
280.3778083438989
 21
104.8004157368921
 31
0.0
 12
282.1278083438989
 22
105.0920824035587
 32
0.0
 13
282.1278083438989
 23
105.0920824035587
 33
0.0
  0
SOLID
  5
10F2
330
D98
100
AcDbEntity
  8
1
  6
Continuous
 62
     2
100
AcDbTrace
 10
273.8778083438989
 20
105.3837490702254
 30
0.0
 11
273.8778083438989
 21
104.8004157368921
 31
0.0
 12
272.1278083438989
 22
105.0920824035587
 32
0.0
 13
272.1278083438989
 23
105.0920824035587
 33
0.0
  0
POINT
  5
10F3
330
D98
100
AcDbEntity
  8
Defpoints
  6
Continuous
 62
     0
100
AcDbPoint
 10
282.1278083438989
 20
85.08229012334529
 30
0.0
  0
POINT
  5
10F4
330
D98
100
AcDbEntity
  8
Defpoints
  6
Continuous
 62
     0
100
AcDbPoint
 10
272.1278083438989
 20
85.08229012334529
 30
0.0
  0
POINT
  5
10F5
330
D98
100
AcDbEntity
  8
Defpoints
  6
Continuous
 62
     0
100
AcDbPoint
 10
272.1278083438989
 20
105.0920824035587
 30
0.0
  0
ENDBLK
  5
D9A
330
D98
100
AcDbEntity
  8
0
100
AcDbBlockEnd
  0
BLOCK
  5
DA5
330
DA4
100
AcDbEntity
  8
0
100
AcDbBlockBegin
  2
*D8
 70
     1
 10
0.0
 20
0.0
 30
0.0
  3
*D8
  1

  0
LINE
  5
10A0
330
DA4
100
AcDbEntity
  8
1
  6
Continuous
 62
     2
370
    -2
100
AcDbLine
 10
410.3865060308772
 20
90.08229012334522
 30
0.0
 11
410.3865060308772
 21
101.0770205665361
 31
0.0
  0
LINE
  5
10A1
330
DA4
100
AcDbEntity
  8
1
  6
Continuous
 62
     2
370
    -2
100
AcDbLine
 10
412.1865060308773
 20
90.08229012334522
 30
0.0
 11
412.1865060308773
 21
101.0770205665361
 31
0.0
  0
LINE
  5
10A2
330
DA4
100
AcDbEntity
  8
1
  6
Continuous
 62
     2
370
    -2
100
AcDbLine
 10
408.6365060308772
 20
100.5770205665361
 30
0.0
 11
406.8865060308772
 21
100.5770205665361
 31
0.0
  0
LINE
  5
10A3
330
DA4
100
AcDbEntity
  8
1
  6
Continuous
 62
     2
370
    -2
100
AcDbLine
 10
413.9365060308773
 20
100.5770205665361
 30
0.0
 11
415.6865060308773
 21
100.5770205665361
 31
0.0
  0
MTEXT
  5
10A4
330
DA4
100
AcDbEntity
  8
1
  6
Continuous
 62
     3
100
AcDbMText
 10
419.2926303852641
 20
101.9585793651024
 30
0.0
 40
1.75
 41
0.0
 71
     5
 72
     1
  1
\A1;2x %%C1.8x4
 73
     1
 44
1.0
1001
ACAD
1000
MTEXTBEGIN
1070
    73
1070
     1
1070
    44
1040
1.0
1070
    74
1070
     0
1000
MTEXTEND
  0
SOLID
  5
10A5
330
DA4
100
AcDbEntity
  8
1
  6
Continuous
 62
     2
100
AcDbTrace
 10
408.6365060308772
 20
100.8686872332027
 30
0.0
 11
408.6365060308772
 21
100.2853538998694
 31
0.0
 12
410.3865060308772
 22
100.5770205665361
 32
0.0
 13
410.3865060308772
 23
100.5770205665361
 33
0.0
  0
SOLID
  5
10A6
330
DA4
100
AcDbEntity
  8
1
  6
Continuous
 62
     2
100
AcDbTrace
 10
413.9365060308773
 20
100.8686872332027
 30
0.0
 11
413.9365060308773
 21
100.2853538998694
 31
0.0
 12
412.1865060308773
 22
100.5770205665361
 32
0.0
 13
412.1865060308773
 23
100.5770205665361
 33
0.0
  0
POINT
  5
10A7
330
DA4
100
AcDbEntity
  8
Defpoints
  6
Continuous
 62
     0
100
AcDbPoint
 10
410.3865060308772
 20
90.08229012334522
 30
0.0
  0
POINT
  5
10A8
330
DA4
100
AcDbEntity
  8
Defpoints
  6
Continuous
 62
     0
100
AcDbPoint
 10
412.1865060308773
 20
90.08229012334522
 30
0.0
  0
POINT
  5
10A9
330
DA4
100
AcDbEntity
  8
Defpoints
  6
Continuous
 62
     0
100
AcDbPoint
 10
412.1865060308773
 20
100.5770205665361
 30
0.0
  0
ENDBLK
  5
DA6
330
DA4
100
AcDbEntity
  8
0
100
AcDbBlockEnd
  0
BLOCK
  5
DB2
330
DB1
100
AcDbEntity
  8
0
100
AcDbBlockBegin
  2
*D9
 70
     1
 10
0.0
 20
0.0
 30
0.0
  3
*D9
  1

  0
LINE
  5
10BC
330
DB1
100
AcDbEntity
  8
1
  6
Continuous
 62
     2
370
    -2
100
AcDbLine
 10
362.0055646537957
 20
77.94999501705095
 30
0.0
 11
362.0055646537957
 21
61.44459742109924
 31
0.0
  0
LINE
  5
10BD
330
DB1
100
AcDbEntity
  8
1
  6
Continuous
 62
     2
370
    -2
100
AcDbLine
 10
369.5055646537956
 20
84.45829305882226
 30
0.0
 11
369.5055646537956
 21
61.44459742109924
 31
0.0
  0
LINE
  5
10BE
330
DB1
100
AcDbEntity
  8
1
  6
Continuous
 62
     2
370
    -2
100
AcDbLine
 10
363.7555646537957
 20
61.94459742109924
 30
0.0
 11
367.7555646537957
 21
61.94459742109924
 31
0.0
  0
MTEXT
  5
10BF
330
DB1
100
AcDbEntity
  8
1
  6
Continuous
 62
     3
100
AcDbMText
 10
365.7555646537957
 20
63.96018754678914
 30
0.0
 40
1.75
 41
0.0
 71
     5
 72
     1
  1
\A1;7.5{\H0.68571x;%%P0.5}
 73
     1
 44
1.0
1001
ACAD
1000
MTEXTBEGIN
1070
    73
1070
     1
1070
    44
1040
1.0
1070
    74
1070
     0
1000
MTEXTEND
  0
SOLID
  5
10C0
330
DB1
100
AcDbEntity
  8
1
  6
Continuous
 62
     2
100
AcDbTrace
 10
363.7555646537957
 20
62.2362640877659
 30
0.0
 11
363.7555646537957
 21
61.65293075443258
 31
0.0
 12
362.0055646537957
 22
61.94459742109924
 32
0.0
 13
362.0055646537957
 23
61.94459742109924
 33
0.0
  0
SOLID
  5
10C1
330
DB1
100
AcDbEntity
  8
1
  6
Continuous
 62
     2
100
AcDbTrace
 10
367.7555646537957
 20
62.2362640877659
 30
0.0
 11
367.7555646537957
 21
61.65293075443258
 31
0.0
 12
369.5055646537956
 22
61.94459742109924
 32
0.0
 13
369.5055646537956
 23
61.94459742109924
 33
0.0
  0
POINT
  5
10C2
330
DB1
100
AcDbEntity
  8
Defpoints
  6
Continuous
 62
     0
100
AcDbPoint
 10
362.0055646537957
 20
77.94999501705095
 30
0.0
  0
POINT
  5
10C3
330
DB1
100
AcDbEntity
  8
Defpoints
  6
Continuous
 62
     0
100
AcDbPoint
 10
369.5055646537956
 20
84.45829305882226
 30
0.0
  0
POINT
  5
10C4
330
DB1
100
AcDbEntity
  8
Defpoints
  6
Continuous
 62
     0
100
AcDbPoint
 10
369.5055646537956
 20
61.94459742109924
 30
0.0
  0
ENDBLK
  5
DB3
330
DB1
100
AcDbEntity
  8
0
100
AcDbBlockEnd
  0
BLOCK
  5
DBE
330
DBD
100
AcDbEntity
  8
0
100
AcDbBlockBegin
  2
*D10
 70
     1
 10
0.0
 20
0.0
 30
0.0
  3
*D10
  1

  0
LINE
  5
10B3
330
DBD
100
AcDbEntity
  8
1
  6
Continuous
 62
     2
370
    -2
100
AcDbLine
 10
363.0055646537956
 20
82.08229012334522
 30
0.0
 11
363.0055646537956
 21
69.18561961807853
 31
0.0
  0
LINE
  5
10B4
330
DBD
100
AcDbEntity
  8
1
  6
Continuous
 62
     2
370
    -2
100
AcDbLine
 10
369.5055646537956
 20
84.45829305882226
 30
0.0
 11
369.5055646537956
 21
69.18561961807853
 31
0.0
  0
LINE
  5
10B5
330
DBD
100
AcDbEntity
  8
1
  6
Continuous
 62
     2
370
    -2
100
AcDbLine
 10
364.7555646537957
 20
69.68561961807854
 30
0.0
 11
367.7555646537957
 21
69.68561961807854
 31
0.0
  0
MTEXT
  5
10B6
330
DBD
100
AcDbEntity
  8
1
  6
Continuous
 62
     3
100
AcDbMText
 10
366.2555646537957
 20
71.1741101563631
 30
0.0
 40
1.75
 41
0.0
 71
     5
 72
     1
  1
\A1;6.5
 73
     1
 44
1.0
1001
ACAD
1000
MTEXTBEGIN
1070
    73
1070
     1
1070
    44
1040
1.0
1070
    74
1070
     0
1000
MTEXTEND
  0
SOLID
  5
10B7
330
DBD
100
AcDbEntity
  8
1
  6
Continuous
 62
     2
100
AcDbTrace
 10
364.7555646537957
 20
69.9772862847452
 30
0.0
 11
364.7555646537957
 21
69.39395295141186
 31
0.0
 12
363.0055646537956
 22
69.68561961807854
 32
0.0
 13
363.0055646537956
 23
69.68561961807854
 33
0.0
  0
SOLID
  5
10B8
330
DBD
100
AcDbEntity
  8
1
  6
Continuous
 62
     2
100
AcDbTrace
 10
367.7555646537957
 20
69.9772862847452
 30
0.0
 11
367.7555646537957
 21
69.39395295141186
 31
0.0
 12
369.5055646537956
 22
69.68561961807854
 32
0.0
 13
369.5055646537956
 23
69.68561961807854
 33
0.0
  0
POINT
  5
10B9
330
DBD
100
AcDbEntity
  8
Defpoints
  6
Continuous
 62
     0
100
AcDbPoint
 10
363.0055646537956
 20
82.08229012334522
 30
0.0
  0
POINT
  5
10BA
330
DBD
100
AcDbEntity
  8
Defpoints
  6
Continuous
 62
     0
100
AcDbPoint
 10
369.5055646537956
 20
84.45829305882226
 30
0.0
  0
POINT
  5
10BB
330
DBD
100
AcDbEntity
  8
Defpoints
  6
Continuous
 62
     0
100
AcDbPoint
 10
369.5055646537956
 20
69.68561961807854
 30
0.0
  0
ENDBLK
  5
DBF
330
DBD
100
AcDbEntity
  8
0
100
AcDbBlockEnd
  0
BLOCK
  5
DCA
330
DC9
100
AcDbEntity
  8
0
100
AcDbBlockBegin
  2
*D11
 70
     1
 10
0.0
 20
0.0
 30
0.0
  3
*D11
  1

  0
LINE
  5
10AA
330
DC9
100
AcDbEntity
  8
1
  6
Continuous
 62
     2
370
    -2
100
AcDbLine
 10
364.2055646537956
 20
82.63229012334525
 30
0.0
 11
364.2055646537956
 21
76.52814465278604
 31
0.0
  0
LINE
  5
10AB
330
DC9
100
AcDbEntity
  8
1
  6
Continuous
 62
     2
370
    -2
100
AcDbLine
 10
369.5055646537956
 20
84.45829305882226
 30
0.0
 11
369.5055646537956
 21
76.52814465278604
 31
0.0
  0
LINE
  5
10AC
330
DC9
100
AcDbEntity
  8
1
  6
Continuous
 62
     2
370
    -2
100
AcDbLine
 10
365.9555646537957
 20
77.02814465278604
 30
0.0
 11
367.7555646537957
 21
77.02814465278604
 31
0.0
  0
MTEXT
  5
10AD
330
DC9
100
AcDbEntity
  8
1
  6
Continuous
 62
     3
100
AcDbMText
 10
373.3923914985062
 20
78.24390986776871
 30
0.0
 40
1.75
 41
0.0
 71
     5
 72
     1
  1
\A1;5.3{\H0.68571x;%%P0.5}
 73
     1
 44
1.0
1001
ACAD
1000
MTEXTBEGIN
1070
    73
1070
     1
1070
    44
1040
1.0
1070
    74
1070
     0
1000
MTEXTEND
  0
SOLID
  5
10AE
330
DC9
100
AcDbEntity
  8
1
  6
Continuous
 62
     2
100
AcDbTrace
 10
365.9555646537957
 20
77.31981131945271
 30
0.0
 11
365.9555646537957
 21
76.73647798611937
 31
0.0
 12
364.2055646537956
 22
77.02814465278604
 32
0.0
 13
364.2055646537956
 23
77.02814465278604
 33
0.0
  0
SOLID
  5
10AF
330
DC9
100
AcDbEntity
  8
1
  6
Continuous
 62
     2
100
AcDbTrace
 10
367.7555646537957
 20
77.31981131945271
 30
0.0
 11
367.7555646537957
 21
76.73647798611937
 31
0.0
 12
369.5055646537956
 22
77.02814465278604
 32
0.0
 13
369.5055646537956
 23
77.02814465278604
 33
0.0
  0
POINT
  5
10B0
330
DC9
100
AcDbEntity
  8
Defpoints
  6
Continuous
 62
     0
100
AcDbPoint
 10
364.2055646537956
 20
82.63229012334525
 30
0.0
  0
POINT
  5
10B1
330
DC9
100
AcDbEntity
  8
Defpoints
  6
Continuous
 62
     0
100
AcDbPoint
 10
369.5055646537956
 20
84.45829305882226
 30
0.0
  0
POINT
  5
10B2
330
DC9
100
AcDbEntity
  8
Defpoints
  6
Continuous
 62
     0
100
AcDbPoint
 10
369.5055646537956
 20
77.02814465278604
 30
0.0
  0
ENDBLK
  5
DCB
330
DC9
100
AcDbEntity
  8
0
100
AcDbBlockEnd
  0
BLOCK
  5
DD6
330
DD5
100
AcDbEntity
  8
0
100
AcDbBlockBegin
  2
*D12
 70
     1
 10
0.0
 20
0.0
 30
0.0
  3
*D12
  1

  0
LINE
  5
10C5
330
DD5
100
AcDbEntity
  8
1
  6
Continuous
 62
     2
370
    -2
100
AcDbLine
 10
334.0055646537956
 20
77.66229012334523
 30
0.0
 11
334.0055646537956
 21
69.0882223206207
 31
0.0
  0
LINE
  5
10C6
330
DD5
100
AcDbEntity
  8
1
  6
Continuous
 62
     2
370
    -2
100
AcDbLine
 10
333.0055646537955
 20
82.28229012334523
 30
0.0
 11
333.0055646537955
 21
69.0882223206207
 31
0.0
  0
LINE
  5
10C7
330
DD5
100
AcDbEntity
  8
1
  6
Continuous
 62
     2
370
    -2
100
AcDbLine
 10
335.7555646537956
 20
69.5882223206207
 30
0.0
 11
337.5055646537955
 21
69.5882223206207
 31
0.0
  0
LINE
  5
10C8
330
DD5
100
AcDbEntity
  8
1
  6
Continuous
 62
     2
370
    -2
100
AcDbLine
 10
331.2555646537955
 20
69.5882223206207
 30
0.0
 11
329.5055646537956
 21
69.5882223206207
 31
0.0
  0
MTEXT
  5
10C9
330
DD5
100
AcDbEntity
  8
1
  6
Continuous
 62
     3
100
AcDbMText
 10
330.0023163317423
 20
71.08836038871186
 30
0.0
 40
1.75
 41
0.0
 71
     5
 72
     1
  1
\A1;1
 73
     1
 44
1.0
1001
ACAD
1000
MTEXTBEGIN
1070
    73
1070
     1
1070
    44
1040
1.0
1070
    74
1070
     0
1000
MTEXTEND
  0
SOLID
  5
10CA
330
DD5
100
AcDbEntity
  8
1
  6
Continuous
 62
     2
100
AcDbTrace
 10
335.7555646537956
 20
69.87988898728737
 30
0.0
 11
335.7555646537956
 21
69.29655565395403
 31
0.0
 12
334.0055646537956
 22
69.5882223206207
 32
0.0
 13
334.0055646537956
 23
69.5882223206207
 33
0.0
  0
SOLID
  5
10CB
330
DD5
100
AcDbEntity
  8
1
  6
Continuous
 62
     2
100
AcDbTrace
 10
331.2555646537955
 20
69.87988898728737
 30
0.0
 11
331.2555646537955
 21
69.29655565395403
 31
0.0
 12
333.0055646537955
 22
69.5882223206207
 32
0.0
 13
333.0055646537955
 23
69.5882223206207
 33
0.0
  0
POINT
  5
10CC
330
DD5
100
AcDbEntity
  8
Defpoints
  6
Continuous
 62
     0
100
AcDbPoint
 10
334.0055646537956
 20
77.66229012334523
 30
0.0
  0
POINT
  5
10CD
330
DD5
100
AcDbEntity
  8
Defpoints
  6
Continuous
 62
     0
100
AcDbPoint
 10
333.0055646537955
 20
82.28229012334523
 30
0.0
  0
POINT
  5
10CE
330
DD5
100
AcDbEntity
  8
Defpoints
  6
Continuous
 62
     0
100
AcDbPoint
 10
333.0055646537955
 20
69.5882223206207
 30
0.0
  0
ENDBLK
  5
DD7
330
DD5
100
AcDbEntity
  8
0
100
AcDbBlockEnd
  0
BLOCK
  5
DE3
330
DE2
100
AcDbEntity
  8
0
100
AcDbBlockBegin
  2
*D13
 70
     1
 10
0.0
 20
0.0
 30
0.0
  3
*D13
  1

  0
LINE
  5
10CF
330
DE2
100
AcDbEntity
  8
1
  6
Continuous
 62
     2
370
    -2
100
AcDbLine
 10
335.1555646537956
 20
40.86340036290207
 30
0.0
 11
322.8175425799832
 21
40.86340036290207
 31
0.0
  0
LINE
  5
10D0
330
DE2
100
AcDbEntity
  8
1
  6
Continuous
 62
     2
370
    -2
100
AcDbLine
 10
331.2816352448517
 20
85.08229012334522
 30
0.0
 11
322.8175425799832
 21
85.08229012334522
 31
0.0
  0
LINE
  5
10D1
330
DE2
100
AcDbEntity
  8
1
  6
Continuous
 62
     2
370
    -2
100
AcDbLine
 10
323.3175425799832
 20
42.61340036290206
 30
0.0
 11
323.3175425799832
 21
83.33229012334525
 31
0.0
  0
SOLID
  5
10D2
330
DE2
100
AcDbEntity
  8
1
  6
Continuous
 62
     2
100
AcDbTrace
 10
323.0258759133165
 20
42.61340036290206
 30
0.0
 11
323.6092092466499
 21
42.61340036290206
 31
0.0
 12
323.3175425799832
 22
40.86340036290207
 32
0.0
 13
323.3175425799832
 23
40.86340036290207
 33
0.0
  0
SOLID
  5
10D3
330
DE2
100
AcDbEntity
  8
1
  6
Continuous
 62
     2
100
AcDbTrace
 10
323.0258759133165
 20
83.33229012334525
 30
0.0
 11
323.6092092466499
 21
83.33229012334525
 31
0.0
 12
323.3175425799832
 22
85.08229012334522
 32
0.0
 13
323.3175425799832
 23
85.08229012334522
 33
0.0
  0
MTEXT
  5
10D4
330
DE2
100
AcDbEntity
  8
1
  6
Continuous
 62
     3
100
AcDbMText
 10
322.3525425799831
 20
62.9728452431237
 30
0.0
 40
1.75
 41
0.0
 71
     5
 72
     1
  1
\A1;150
 11
0.0000000000000001
 21
1.0
 31
0.0
 73
     1
 44
1.0
1001
ACAD
1000
MTEXTBEGIN
1070
    73
1070
     1
1070
    44
1040
1.0
1070
    74
1070
     0
1000
MTEXTEND
  0
POINT
  5
10D5
330
DE2
100
AcDbEntity
  8
Defpoints
  6
Continuous
 62
     0
100
AcDbPoint
 10
335.1555646537956
 20
40.86340036290207
 30
0.0
  0
POINT
  5
10D6
330
DE2
100
AcDbEntity
  8
Defpoints
  6
Continuous
 62
     0
100
AcDbPoint
 10
331.2816352448517
 20
85.08229012334522
 30
0.0
  0
POINT
  5
10D7
330
DE2
100
AcDbEntity
  8
Defpoints
  6
Continuous
 62
     0
100
AcDbPoint
 10
323.3175425799832
 20
85.08229012334522
 30
0.0
  0
ENDBLK
  5
DE4
330
DE2
100
AcDbEntity
  8
0
100
AcDbBlockEnd
  0
BLOCK
  5
DEF
330
DEE
100
AcDbEntity
  8
0
100
AcDbBlockBegin
  2
*D14
 70
     1
 10
0.0
 20
0.0
 30
0.0
  3
*D14
  1

  0
LINE
  5
FFC
330
DEE
100
AcDbEntity
  8
1
  6
Continuous
 62
     2
370
    -2
100
AcDbLine
 10
334.0055646537956
 20
77.66229012334523
 30
0.0
 11
334.0055646537956
 21
61.44639077257926
 31
0.0
  0
LINE
  5
FFD
330
DEE
100
AcDbEntity
  8
1
  6
Continuous
 62
     2
370
    -2
100
AcDbLine
 10
362.0055646537957
 20
77.94999501705095
 30
0.0
 11
362.0055646537957
 21
61.44639077257926
 31
0.0
  0
LINE
  5
FFE
330
DEE
100
AcDbEntity
  8
1
  6
Continuous
 62
     2
370
    -2
100
AcDbLine
 10
335.7555646537956
 20
61.94639077257925
 30
0.0
 11
360.2555646537957
 21
61.94639077257925
 31
0.0
  0
MTEXT
  5
FFF
330
DEE
100
AcDbEntity
  8
1
  6
Continuous
 62
     3
100
AcDbMText
 10
346.5173171463503
 20
63.19212390765915
 30
0.0
 40
1.75
 41
0.0
 71
     5
 72
     1
  1
\A1;28
 73
     1
 44
1.0
1001
ACAD
1000
MTEXTBEGIN
1070
    73
1070
     1
1070
    44
1040
1.0
1070
    74
1070
     0
1000
MTEXTEND
  0
SOLID
  5
1000
330
DEE
100
AcDbEntity
  8
1
  6
Continuous
 62
     2
100
AcDbTrace
 10
335.7555646537956
 20
62.23805743924593
 30
0.0
 11
335.7555646537956
 21
61.65472410591259
 31
0.0
 12
334.0055646537956
 22
61.94639077257925
 32
0.0
 13
334.0055646537956
 23
61.94639077257925
 33
0.0
  0
SOLID
  5
1001
330
DEE
100
AcDbEntity
  8
1
  6
Continuous
 62
     2
100
AcDbTrace
 10
360.2555646537957
 20
62.23805743924593
 30
0.0
 11
360.2555646537957
 21
61.65472410591259
 31
0.0
 12
362.0055646537957
 22
61.94639077257925
 32
0.0
 13
362.0055646537957
 23
61.94639077257925
 33
0.0
  0
POINT
  5
1002
330
DEE
100
AcDbEntity
  8
Defpoints
  6
Continuous
 62
     0
100
AcDbPoint
 10
334.0055646537956
 20
77.66229012334523
 30
0.0
  0
POINT
  5
1003
330
DEE
100
AcDbEntity
  8
Defpoints
  6
Continuous
 62
     0
100
AcDbPoint
 10
362.0055646537957
 20
77.94999501705095
 30
0.0
  0
POINT
  5
1004
330
DEE
100
AcDbEntity
  8
Defpoints
  6
Continuous
 62
     0
100
AcDbPoint
 10
362.0055646537957
 20
61.94639077257925
 30
0.0
  0
ENDBLK
  5
DF0
330
DEE
100
AcDbEntity
  8
0
100
AcDbBlockEnd
  0
BLOCK
  5
DFB
330
DFA
100
AcDbEntity
  8
0
100
AcDbBlockBegin
  2
*D15
 70
     1
 10
0.0
 20
0.0
 30
0.0
  3
*D15
  1

  0
LINE
  5
1005
330
DFA
100
AcDbEntity
  8
1
  6
Continuous
 62
     2
370
    -2
100
AcDbLine
 10
335.1555646537956
 20
40.86340036290207
 30
0.0
 11
328.2069210610063
 21
40.86340036290207
 31
0.0
  0
LINE
  5
1006
330
DFA
100
AcDbEntity
  8
1
  6
Continuous
 62
     2
370
    -2
100
AcDbLine
 10
334.9055646537956
 20
45.86340036290207
 30
0.0
 11
328.2069210610063
 21
45.86340036290207
 31
0.0
  0
LINE
  5
1007
330
DFA
100
AcDbEntity
  8
1
  6
Continuous
 62
     2
370
    -2
100
AcDbLine
 10
328.7069210610062
 20
42.61340036290206
 30
0.0
 11
328.7069210610062
 21
44.11340036290207
 31
0.0
  0
MTEXT
  5
1008
330
DFA
100
AcDbEntity
  8
1
  6
Continuous
 62
     3
100
AcDbMText
 10
327.4043720112693
 20
51.20910873264222
 30
0.0
 40
1.75
 41
0.0
 71
     5
 72
     1
  1
\A1;5 tinned
 11
0.0000000000000001
 21
1.0
 31
0.0
 73
     1
 44
1.0
1001
ACAD
1000
MTEXTBEGIN
1070
    73
1070
     1
1070
    44
1040
1.0
1070
    74
1070
     0
1000
MTEXTEND
  0
SOLID
  5
1009
330
DFA
100
AcDbEntity
  8
1
  6
Continuous
 62
     2
100
AcDbTrace
 10
328.4152543943396
 20
42.61340036290206
 30
0.0
 11
328.998587727673
 21
42.61340036290206
 31
0.0
 12
328.7069210610062
 22
40.86340036290207
 32
0.0
 13
328.7069210610062
 23
40.86340036290207
 33
0.0
  0
SOLID
  5
100A
330
DFA
100
AcDbEntity
  8
1
  6
Continuous
 62
     2
100
AcDbTrace
 10
328.4152543943396
 20
44.11340036290207
 30
0.0
 11
328.998587727673
 21
44.11340036290207
 31
0.0
 12
328.7069210610062
 22
45.86340036290207
 32
0.0
 13
328.7069210610062
 23
45.86340036290207
 33
0.0
  0
POINT
  5
100B
330
DFA
100
AcDbEntity
  8
Defpoints
  6
Continuous
 62
     0
100
AcDbPoint
 10
335.1555646537956
 20
40.86340036290207
 30
0.0
  0
POINT
  5
100C
330
DFA
100
AcDbEntity
  8
Defpoints
  6
Continuous
 62
     0
100
AcDbPoint
 10
334.9055646537956
 20
45.86340036290207
 30
0.0
  0
POINT
  5
100D
330
DFA
100
AcDbEntity
  8
Defpoints
  6
Continuous
 62
     0
100
AcDbPoint
 10
328.7069210610062
 20
45.86340036290207
 30
0.0
  0
ENDBLK
  5
DFC
330
DFA
100
AcDbEntity
  8
0
100
AcDbBlockEnd
  0
BLOCK
  5
E07
330
E06
100
AcDbEntity
  8
0
100
AcDbBlockBegin
  2
*D16
 70
     1
 10
0.0
 20
0.0
 30
0.0
  3
*D16
  1

  0
LINE
  5
10D8
330
E06
100
AcDbEntity
  8
1
  6
Continuous
 62
     2
370
    -2
100
AcDbLine
 10
266.6278083438989
 20
85.08229012334528
 30
0.0
 11
260.6985325020021
 21
85.08229012334521
 31
0.0
  0
LINE
  5
10D9
330
E06
100
AcDbEntity
  8
1
  6
Continuous
 62
     2
370
    -2
100
AcDbLine
 10
273.745892478927
 20
79.22464001829066
 30
0.0
 11
268.9131704229506
 21
70.85411987848066
 31
0.0
  0
ARC
  5
10DA
330
E06
100
AcDbEntity
  8
1
  6
Continuous
 62
     2
370
    -2
100
AcDbCircle
 10
277.127808343899
 20
85.08229012334536
 30
0.0
 40
15.9292758418969
100
AcDbArc
 50
186.2977191987981
 51
233.7022808012026
  0
SOLID
  5
10DB
330
E06
100
AcDbEntity
  8
1
  6
Continuous
 62
     2
100
AcDbTrace
 10
261.0034342322039
 20
83.31891094983594
 30
0.0
 11
261.5858868436014
 21
83.35095362846947
 31
0.0
 12
261.1985325020021
 22
85.08229012334522
 32
0.0
 13
261.1985325020021
 23
85.08229012334522
 33
0.0
  0
SOLID
  5
10DC
330
E06
100
AcDbEntity
  8
1
  6
Continuous
 62
     2
100
AcDbTrace
 10
267.8574662066887
 20
72.48825952790196
 30
0.0
 11
267.5384901272881
 21
71.9998621092479
 31
0.0
 12
269.1631704229506
 22
71.28713258037288
 32
0.0
 13
269.1631704229506
 23
71.28713258037288
 33
0.0
  0
MTEXT
  5
10DD
330
E06
100
AcDbEntity
  8
1
  6
Continuous
 62
     3
100
AcDbMText
 10
264.5592287841775
 20
77.99505653160693
 30
0.0
 40
1.75
 41
0.0
 71
     5
 72
     1
  1
\A1;6x60°
 11
0.4911774219236782
 21
-0.87105955031353
 31
0.0
 73
     1
 44
1.0
1001
ACAD
1000
MTEXTBEGIN
1070
    73
1070
     1
1070
    44
1040
1.0
1070
    74
1070
     0
1000
MTEXTEND
  0
POINT
  5
10DE
330
E06
100
AcDbEntity
  8
Defpoints
  6
Continuous
 62
     0
100
AcDbPoint
 10
264.9252751023046
 20
74.84314898089486
 30
0.0
  0
POINT
  5
10DF
330
E06
100
AcDbEntity
  8
Defpoints
  6
Continuous
 62
     0
100
AcDbPoint
 10
271.3278083438989
 20
85.08229012334529
 30
0.0
  0
POINT
  5
10E0
330
E06
100
AcDbEntity
  8
Defpoints
  6
Continuous
 62
     0
100
AcDbPoint
 10
273.745892478927
 20
79.22464001829066
 30
0.0
  0
POINT
  5
10E1
330
E06
100
AcDbEntity
  8
Defpoints
  6
Continuous
 62
     0
100
AcDbPoint
 10
280.5648154598107
 20
91.03536107408016
 30
0.0
  0
POINT
  5
10E2
330
E06
100
AcDbEntity
  8
Defpoints
  6
Continuous
 62
     0
100
AcDbPoint
 10
266.6278083438989
 20
85.08229012334528
 30
0.0
  0
ENDBLK
  5
E08
330
E06
100
AcDbEntity
  8
0
100
AcDbBlockEnd
  0
ENDSEC
  0
SECTION
  2
ENTITIES
  0
INSERT
  5
C28
330
74
100
AcDbEntity
  8
1
100
AcDbBlockReference
  2
*X0
 10
244.5188886648975
 20
104.6623484442692
 30
0.0
  0
INSERT
  5
C29
330
74
100
AcDbEntity
  8
1
100
AcDbBlockReference
  2
*X1
 10
244.5188886648975
 20
104.6623484442692
 30
0.0
  0
INSERT
  5
C2A
330
74
100
AcDbEntity
  8
1
100
AcDbBlockReference
  2
*X2
 10
246.8465060308774
 20
104.6623484442692
 30
0.0
  0
INSERT
  5
C2B
330
74
100
AcDbEntity
  8
1
100
AcDbBlockReference
  2
*X3
 10
246.8465060308774
 20
104.6623484442692
 30
0.0
  0
INSERT
  5
C2C
330
74
100
AcDbEntity
  8
1
100
AcDbBlockReference
  2
*X4
 10
248.8831717806556
 20
104.6623484442692
 30
0.0
  0
LINE
  5
C2D
330
74
100
AcDbEntity
  8
1
  6
CENTER
 62
     2
100
AcDbLine
 10
277.1278083438989
 20
95.58229012334527
 30
0.0
 11
277.1278083438989
 21
77.08229012334527
 31
0.0
  0
LINE
  5
C2E
330
74
100
AcDbEntity
  8
1
  6
CENTER
 62
     2
100
AcDbLine
 10
281.1591471703179
 20
87.40978467997285
 30
0.0
 11
283.5518460327898
 21
88.79121001231075
 31
0.0
  0
LINE
  5
C2F
330
74
100
AcDbEntity
  8
1
  6
CENTER
 62
     2
100
AcDbLine
 10
273.2476110303429
 20
87.32252308683575
 30
0.0
 11
270.6213708998819
 21
88.838783533114
 31
0.0
  0
LINE
  5
C30
330
74
100
AcDbEntity
  8
1
 62
     7
100
AcDbLine
 10
276.0278083438989
 20
62.05184545318228
 30
0.0
 11
276.0278083438989
 21
77.15827598908227
 31
0.0
  0
LINE
  5
C31
330
74
100
AcDbEntity
  8
1
 62
     7
100
AcDbLine
 10
277.1278083438989
 20
62.02029699595397
 30
0.0
 11
277.1278083438989
 21
77.08229012334527
 31
0.0
  0
LINE
  5
C32
330
74
100
AcDbEntity
  8
1
 62
     7
100
AcDbLine
 10
410.1865060308773
 20
62.05184545318224
 30
0.0
 11
410.1865060308773
 21
77.15827598908219
 31
0.0
  0
LINE
  5
C33
330
74
100
AcDbEntity
  8
1
 62
     7
100
AcDbLine
 10
410.1865060308773
 20
62.05184545318224
 30
0.0
 11
410.1865060308773
 21
77.15827598908219
 31
0.0
  0
LINE
  5
C34
330
74
100
AcDbEntity
  8
1
 62
     7
100
AcDbLine
 10
412.3865060308774
 20
77.15827598908219
 30
0.0
 11
412.3865060308774
 21
61.98874853872577
 31
0.0
  0
LINE
  5
C35
330
74
100
AcDbEntity
  8
1
 62
     7
100
AcDbLine
 10
410.1865060308773
 20
77.15827598908219
 30
0.0
 11
410.1865060308773
 21
78.38229012334522
 31
0.0
  0
LINE
  5
C36
330
74
100
AcDbEntity
  8
1
 62
     7
100
AcDbLine
 10
413.6254796686593
 20
77.43185207564093
 30
0.0
 11
413.4430734371178
 21
78.02847597570658
 31
0.0
  0
LINE
  5
C37
330
74
100
AcDbEntity
  8
1
 62
     7
100
AcDbLine
 10
410.1865060308773
 20
78.38229012334522
 30
0.0
 11
411.2865060308775
 21
78.38229012334522
 31
0.0
  0
LINE
  5
C38
330
74
100
AcDbEntity
  8
1
 62
     7
100
AcDbLine
 10
412.3865060308774
 20
78.38229012334522
 30
0.0
 11
412.9649210591361
 21
78.38229012334522
 31
0.0
  0
LINE
  5
C39
330
74
100
AcDbEntity
  8
1
 62
     3
100
AcDbLine
 10
415.1365060308774
 20
80.43229012334519
 30
0.0
 11
414.5516591080425
 21
80.43229012334519
 31
0.0
  0
LINE
  5
C3A
330
74
100
AcDbEntity
  8
1
 62
     3
100
AcDbLine
 10
408.6465060308772
 20
79.58229012334522
 30
0.0
 11
409.0865060308775
 21
79.58229012334522
 31
0.0
  0
LINE
  5
C3B
330
74
100
AcDbEntity
  8
1
 62
     3
100
AcDbLine
 10
413.9265060308775
 20
79.58229012334522
 30
0.0
 11
413.9265060308775
 21
81.58229012334521
 31
0.0
  0
LINE
  5
C3C
330
74
100
AcDbEntity
  8
1
 62
     3
100
AcDbLine
 10
408.6465060308772
 20
90.58229012334519
 30
0.0
 11
408.6465060308772
 21
88.58229012334522
 31
0.0
  0
LINE
  5
C3D
330
74
100
AcDbEntity
  8
1
 62
     3
100
AcDbLine
 10
413.9265060308775
 20
90.58229012334519
 30
0.0
 11
413.4865060308775
 21
90.58229012334519
 31
0.0
  0
LINE
  5
C3E
330
74
100
AcDbEntity
  8
1
 62
     3
100
AcDbLine
 10
414.5516591080425
 20
80.73229012334522
 30
0.0
 11
415.1365060308774
 21
80.73229012334522
 31
0.0
  0
LINE
  5
C3F
330
74
100
AcDbEntity
  8
1
 62
     2
100
AcDbLine
 10
414.5365060308773
 20
80.58229012334519
 30
0.0
 11
416.0365060308775
 21
80.58229012334519
 31
0.0
  0
LINE
  5
C40
330
74
100
AcDbEntity
  8
1
 62
     3
100
AcDbLine
 10
409.1865060308775
 20
81.58229012334521
 30
0.0
 11
409.0865060308775
 21
81.58229012334521
 31
0.0
  0
LINE
  5
C41
330
74
100
AcDbEntity
  8
1
 62
     2
100
AcDbLine
 10
409.0865060308775
 20
79.58229012334522
 30
0.0
 11
409.0865060308775
 21
81.58229012334521
 31
0.0
  0
LINE
  5
C42
330
74
100
AcDbEntity
  8
1
 62
     3
100
AcDbLine
 10
408.6465060308772
 20
81.58229012334521
 30
0.0
 11
408.6465060308772
 21
79.58229012334522
 31
0.0
  0
LINE
  5
C43
330
74
100
AcDbEntity
  8
1
 62
     3
100
AcDbLine
 10
409.0865060308775
 20
79.58229012334522
 30
0.0
 11
409.1865060308775
 21
79.58229012334522
 31
0.0
  0
LINE
  5
C44
330
74
100
AcDbEntity
  8
1
 62
     3
100
AcDbLine
 10
409.1865060308775
 20
79.58229012334522
 30
0.0
 11
409.1865060308775
 21
81.58229012334521
 31
0.0
  0
LINE
  5
C45
330
74
100
AcDbEntity
  8
1
 62
     3
100
AcDbLine
 10
409.0865060308775
 20
81.58229012334521
 30
0.0
 11
408.6465060308772
 21
81.58229012334521
 31
0.0
  0
LINE
  5
C46
330
74
100
AcDbEntity
  8
1
 62
     3
100
AcDbLine
 10
413.3865060308774
 20
79.58229012334522
 30
0.0
 11
413.4865060308775
 21
79.58229012334522
 31
0.0
  0
LINE
  5
C47
330
74
100
AcDbEntity
  8
1
 62
     3
100
AcDbLine
 10
413.9265060308775
 20
81.58229012334521
 30
0.0
 11
413.4865060308775
 21
81.58229012334521
 31
0.0
  0
LINE
  5
C48
330
74
100
AcDbEntity
  8
1
 62
     2
100
AcDbLine
 10
413.4865060308775
 20
79.58229012334522
 30
0.0
 11
413.4865060308775
 21
81.58229012334521
 31
0.0
  0
LINE
  5
C49
330
74
100
AcDbEntity
  8
1
 62
     3
100
AcDbLine
 10
413.3865060308774
 20
81.58229012334521
 30
0.0
 11
413.3865060308774
 21
79.58229012334522
 31
0.0
  0
LINE
  5
C4A
330
74
100
AcDbEntity
  8
1
 62
     3
100
AcDbLine
 10
413.4865060308775
 20
79.58229012334522
 30
0.0
 11
413.9265060308775
 21
79.58229012334522
 31
0.0
  0
LINE
  5
C4B
330
74
100
AcDbEntity
  8
1
 62
     3
100
AcDbLine
 10
413.4865060308775
 20
81.58229012334521
 30
0.0
 11
413.3865060308774
 21
81.58229012334521
 31
0.0
  0
LINE
  5
C4C
330
74
100
AcDbEntity
  8
1
 62
     3
100
AcDbLine
 10
409.0865060308775
 20
90.58229012334519
 30
0.0
 11
408.6465060308772
 21
90.58229012334519
 31
0.0
  0
LINE
  5
C4D
330
74
100
AcDbEntity
  8
1
 62
     3
100
AcDbLine
 10
409.0865060308775
 20
88.58229012334522
 30
0.0
 11
409.1865060308775
 21
88.58229012334522
 31
0.0
  0
LINE
  5
C4E
330
74
100
AcDbEntity
  8
1
 62
     2
100
AcDbLine
 10
409.0865060308775
 20
88.58229012334522
 30
0.0
 11
409.0865060308775
 21
90.58229012334519
 31
0.0
  0
LINE
  5
C4F
330
74
100
AcDbEntity
  8
1
 62
     3
100
AcDbLine
 10
413.4865060308775
 20
90.58229012334519
 30
0.0
 11
413.3865060308774
 21
90.58229012334519
 31
0.0
  0
LINE
  5
C50
330
74
100
AcDbEntity
  8
1
 62
     3
100
AcDbLine
 10
413.4865060308775
 20
88.58229012334522
 30
0.0
 11
413.9265060308775
 21
88.58229012334522
 31
0.0
  0
LINE
  5
C51
330
74
100
AcDbEntity
  8
1
 62
     2
100
AcDbLine
 10
413.4865060308775
 20
88.58229012334522
 30
0.0
 11
413.4865060308775
 21
90.58229012334519
 31
0.0
  0
LINE
  5
C52
330
74
100
AcDbEntity
  8
1
 62
     3
100
AcDbLine
 10
409.1865060308775
 20
90.58229012334519
 30
0.0
 11
409.0865060308775
 21
90.58229012334519
 31
0.0
  0
LINE
  5
C53
330
74
100
AcDbEntity
  8
1
 62
     3
100
AcDbLine
 10
409.1865060308775
 20
88.58229012334522
 30
0.0
 11
409.1865060308775
 21
90.58229012334519
 31
0.0
  0
LINE
  5
C54
330
74
100
AcDbEntity
  8
1
 62
     3
100
AcDbLine
 10
408.6465060308772
 20
88.58229012334522
 30
0.0
 11
409.0865060308775
 21
88.58229012334522
 31
0.0
  0
LINE
  5
C55
330
74
100
AcDbEntity
  8
1
 62
     3
100
AcDbLine
 10
413.3865060308774
 20
90.58229012334519
 30
0.0
 11
413.3865060308774
 21
88.58229012334522
 31
0.0
  0
LINE
  5
C56
330
74
100
AcDbEntity
  8
1
 62
     3
100
AcDbLine
 10
413.9265060308775
 20
88.58229012334522
 30
0.0
 11
413.9265060308775
 21
90.58229012334519
 31
0.0
  0
LINE
  5
C57
330
74
100
AcDbEntity
  8
1
 62
     3
100
AcDbLine
 10
413.3865060308774
 20
88.58229012334522
 30
0.0
 11
413.4865060308775
 21
88.58229012334522
 31
0.0
  0
LINE
  5
C58
330
74
100
AcDbEntity
  8
1
  6
CENTER
 62
     2
100
AcDbLine
 10
409.4365060308773
 20
90.08229012334522
 30
0.0
 11
412.1865060308773
 21
90.08229012334522
 31
0.0
  0
LINE
  5
C59
330
74
100
AcDbEntity
  8
1
  6
CENTER
 62
     2
100
AcDbLine
 10
400.7865060308773
 20
85.08229012334522
 30
0.0
 11
421.7865060308773
 21
85.08229012334522
 31
0.0
  0
LINE
  5
C5A
330
74
100
AcDbEntity
  8
1
  6
CENTER
 62
     2
100
AcDbLine
 10
412.1865060308773
 20
90.08229012334522
 30
0.0
 11
413.1365060308772
 21
90.08229012334522
 31
0.0
  0
LINE
  5
C5B
330
74
100
AcDbEntity
  8
1
  6
CENTER
 62
     2
100
AcDbLine
 10
413.1365060308772
 20
80.08229012334522
 30
0.0
 11
409.4365060308773
 21
80.08229012334522
 31
0.0
  0
LINE
  5
C5C
330
74
100
AcDbEntity
  8
1
 62
     3
100
AcDbLine
 10
405.5865060308775
 20
85.68229012334519
 30
0.0
 11
408.1865060308773
 21
85.68229012334519
 31
0.0
  0
LINE
  5
C5D
330
74
100
AcDbEntity
  8
1
 62
     3
100
AcDbLine
 10
408.1865060308773
 20
85.68229012334519
 30
0.0
 11
408.1865060308773
 21
85.98229012334522
 31
0.0
  0
LINE
  5
C5E
330
74
100
AcDbEntity
  8
1
 62
     3
100
AcDbLine
 10
408.1865060308773
 20
85.98229012334522
 30
0.0
 11
405.5865060308775
 21
85.98229012334522
 31
0.0
  0
LINE
  5
C5F
330
74
100
AcDbEntity
  8
1
 62
     3
100
AcDbLine
 10
405.5865060308775
 20
85.98229012334522
 30
0.0
 11
405.5865060308775
 21
85.68229012334519
 31
0.0
  0
LINE
  5
C60
330
74
100
AcDbEntity
  8
1
 62
     3
100
AcDbLine
 10
414.3865060308772
 20
84.18229012334519
 30
0.0
 11
416.9865060308775
 21
84.18229012334519
 31
0.0
  0
LINE
  5
C61
330
74
100
AcDbEntity
  8
1
 62
     3
100
AcDbLine
 10
416.9865060308775
 20
84.18229012334519
 30
0.0
 11
416.9865060308775
 21
84.48229012334522
 31
0.0
  0
LINE
  5
C62
330
74
100
AcDbEntity
  8
1
 62
     3
100
AcDbLine
 10
416.9865060308775
 20
84.48229012334522
 30
0.0
 11
414.3865060308772
 21
84.48229012334522
 31
0.0
  0
LINE
  5
C63
330
74
100
AcDbEntity
  8
1
 62
     3
100
AcDbLine
 10
414.3865060308772
 20
84.48229012334522
 30
0.0
 11
414.3865060308772
 21
84.18229012334519
 31
0.0
  0
LINE
  5
C64
330
74
100
AcDbEntity
  8
1
 62
     2
100
AcDbLine
 10
415.2865060308775
 20
79.83229012334527
 30
0.0
 11
415.2865060308775
 21
81.33229012334515
 31
0.0
  0
LINE
  5
C65
330
74
100
AcDbEntity
  8
1
 62
     3
100
AcDbLine
 10
415.1365060308774
 20
80.73229012334522
 30
0.0
 11
415.1365060308774
 21
81.31713704618011
 31
0.0
  0
LINE
  5
C66
330
74
100
AcDbEntity
  8
1
 62
     3
100
AcDbLine
 10
415.4365060308775
 20
80.73229012334522
 30
0.0
 11
415.4365060308775
 21
81.31713704618011
 31
0.0
  0
LINE
  5
C67
330
74
100
AcDbEntity
  8
1
 62
     3
100
AcDbLine
 10
415.4365060308775
 20
80.43229012334519
 30
0.0
 11
415.4365060308775
 21
79.84744320051031
 31
0.0
  0
LINE
  5
C68
330
74
100
AcDbEntity
  8
1
 62
     3
100
AcDbLine
 10
415.1365060308774
 20
80.43229012334519
 30
0.0
 11
415.1365060308774
 21
79.84744320051031
 31
0.0
  0
LINE
  5
C69
330
74
100
AcDbEntity
  8
1
 62
     3
100
AcDbLine
 10
415.4365060308775
 20
80.73229012334522
 30
0.0
 11
416.0213529537124
 21
80.73229012334522
 31
0.0
  0
LINE
  5
C6A
330
74
100
AcDbEntity
  8
1
 62
     3
100
AcDbLine
 10
416.0213529537124
 20
80.43229012334519
 30
0.0
 11
415.4365060308775
 21
80.43229012334519
 31
0.0
  0
LINE
  5
C6B
330
74
100
AcDbEntity
  8
1
 62
     2
100
AcDbLine
 10
415.1365060308774
 20
80.43229012334519
 30
0.0
 11
415.4365060308775
 21
80.73229012334522
 31
0.0
  0
LINE
  5
C6C
330
74
100
AcDbEntity
  8
1
 62
     2
100
AcDbLine
 10
415.4365060308775
 20
80.43229012334519
 30
0.0
 11
415.1365060308774
 21
80.73229012334522
 31
0.0
  0
LINE
  5
C6D
330
74
100
AcDbEntity
  8
1
 62
     7
100
AcDbLine
 10
408.9475323930956
 20
77.43185207564093
 30
0.0
 11
409.1299386246372
 21
78.02847597570658
 31
0.0
  0
LINE
  5
C6E
330
74
100
AcDbEntity
  8
1
 62
     7
100
AcDbLine
 10
409.6080910026186
 20
78.38229012334522
 30
0.0
 11
410.1865060308773
 21
78.38229012334522
 31
0.0
  0
LINE
  5
C6F
330
74
100
AcDbEntity
  8
1
  6
CENTER
 62
     2
100
AcDbLine
 10
411.2865060308775
 20
78.38229012334522
 30
0.0
 11
411.2865060308775
 21
95.58229012334519
 31
0.0
  0
LINE
  5
C70
330
74
100
AcDbEntity
  8
1
 62
     7
100
AcDbLine
 10
411.2865060308775
 20
78.38229012334522
 30
0.0
 11
412.3865060308774
 21
78.38229012334522
 31
0.0
  0
LINE
  5
C71
330
74
100
AcDbEntity
  8
1
  6
CENTER
 62
     2
100
AcDbLine
 10
272.9278083438989
 20
85.08229012334529
 30
0.0
 11
282.1278083438989
 21
85.08229012334529
 31
0.0
  0
LINE
  5
C72
330
74
100
AcDbEntity
  8
1
  6
CENTER
 62
     2
100
AcDbLine
 10
271.3278083438989
 20
85.08229012334529
 30
0.0
 11
272.1278083438989
 21
85.08229012334529
 31
0.0
  0
LINE
  5
C73
330
74
100
AcDbEntity
  8
1
  6
CENTER
 62
     2
100
AcDbLine
 10
272.1278083438989
 20
85.08229012334529
 30
0.0
 11
272.9278083438989
 21
85.08229012334529
 31
0.0
  0
LINE
  5
C74
330
74
100
AcDbEntity
  8
1
 62
     7
100
AcDbLine
 10
278.2278083438989
 20
77.13783747960684
 30
0.0
 11
278.2278083438989
 21
61.98874853872577
 31
0.0
  0
LINE
  5
C75
330
74
100
AcDbEntity
  8
1
 62
     7
100
AcDbLine
 10
270.6401277105755
 20
84.68229012334527
 30
0.0
 11
271.103113267303
 21
84.68229012334527
 31
0.0
  0
LINE
  5
C76
330
74
100
AcDbEntity
  8
1
 62
     7
100
AcDbLine
 10
270.6401277105755
 20
85.48229012334529
 30
0.0
 11
271.103113267303
 21
85.48229012334529
 31
0.0
  0
LINE
  5
C77
330
74
100
AcDbEntity
  8
1
 62
     7
100
AcDbLine
 10
274.230378188751
 20
90.90078636344369
 30
0.0
 11
274.4618709671148
 21
90.49982910973239
 31
0.0
  0
LINE
  5
C78
330
74
100
AcDbEntity
  8
1
 62
     7
100
AcDbLine
 10
273.5375578657234
 20
90.5007863634437
 30
0.0
 11
273.7690506440872
 21
90.0998291097324
 31
0.0
  0
LINE
  5
C79
330
74
100
AcDbEntity
  8
1
 62
     7
100
AcDbLine
 10
280.0252384990469
 20
90.90078636344369
 30
0.0
 11
279.7937457206832
 21
90.49982910973239
 31
0.0
  0
LINE
  5
C7A
330
74
100
AcDbEntity
  8
1
 62
     7
100
AcDbLine
 10
280.7180588220745
 20
90.5007863634437
 30
0.0
 11
280.4865660437107
 21
90.0998291097324
 31
0.0
  0
LINE
  5
C7B
330
74
100
AcDbEntity
  8
1
 62
     7
100
AcDbLine
 10
283.6154889772224
 20
85.48229012334525
 30
0.0
 11
283.1525034204949
 21
85.48229012334525
 31
0.0
  0
LINE
  5
C7C
330
74
100
AcDbEntity
  8
1
 62
     7
100
AcDbLine
 10
283.6154889772224
 20
84.68229012334527
 30
0.0
 11
283.1525034204949
 21
84.68229012334527
 31
0.0
  0
LINE
  5
C7D
330
74
100
AcDbEntity
  8
1
 62
     7
100
AcDbLine
 10
280.0252384990469
 20
79.26379388324685
 30
0.0
 11
279.7937457206832
 21
79.66475113695811
 31
0.0
  0
LINE
  5
C7E
330
74
100
AcDbEntity
  8
1
 62
     7
100
AcDbLine
 10
280.7180588220745
 20
79.66379388324686
 30
0.0
 11
280.4865660437107
 21
80.06475113695811
 31
0.0
  0
LINE
  5
C7F
330
74
100
AcDbEntity
  8
1
 62
     7
100
AcDbLine
 10
274.230378188751
 20
79.26379388324687
 30
0.0
 11
274.4618709671147
 21
79.66475113695811
 31
0.0
  0
LINE
  5
C80
330
74
100
AcDbEntity
  8
1
 62
     7
100
AcDbLine
 10
273.5375578657234
 20
79.66379388324688
 30
0.0
 11
273.7690506440872
 21
80.06475113695811
 31
0.0
  0
LINE
  5
C81
330
74
100
AcDbEntity
  8
1
 62
     7
100
AcDbLine
 10
412.3865060308774
 20
78.38229012334522
 30
0.0
 11
412.3865060308774
 21
77.15827598908219
 31
0.0
  0
LINE
  5
C82
330
74
100
AcDbEntity
  8
1
 62
     7
100
AcDbLine
 10
411.2865060308775
 20
78.38229012334522
 30
0.0
 11
411.2865060308775
 21
62.02029699595394
 31
0.0
  0
LINE
  5
C83
330
74
100
AcDbEntity
  8
1
  6
CENTER
 62
     2
100
AcDbLine
 10
266.6278083438989
 20
85.08229012334528
 30
0.0
 11
271.3278083438989
 21
85.08229012334529
 31
0.0
  0
LINE
  5
C84
330
74
100
AcDbEntity
  8
1
  6
CENTER
 62
     2
100
AcDbLine
 10
282.1278083438989
 20
85.08229012334529
 30
0.0
 11
287.6278083438989
 21
85.08229012334528
 31
0.0
  0
LINE
  5
C85
330
74
100
AcDbEntity
  8
1
  6
CENTER
 62
     2
100
AcDbLine
 10
273.745892478927
 20
79.22464001829067
 30
0.0
 11
280.5648154598107
 21
91.03536107408018
 31
0.0
  0
LINE
  5
C86
330
74
100
AcDbEntity
  8
1
  6
CENTER
 62
     2
100
AcDbLine
 10
280.4556744452682
 20
79.31825695498756
 30
0.0
 11
273.7005879558292
 21
91.01840996421801
 31
0.0
  0
LINE
  5
C87
330
74
100
AcDbEntity
  8
1
 62
     7
100
AcDbLine
 10
277.1278083438989
 20
60.74029699595399
 30
0.0
 11
277.1278083438989
 21
55.84813468150081
 31
0.0
  0
LINE
  5
C88
330
74
100
AcDbEntity
  8
1
 62
     7
100
AcDbLine
 10
278.2278083438989
 20
60.70874853872577
 30
0.0
 11
278.2278083438989
 21
55.8481346815008
 31
0.0
  0
LINE
  5
C89
330
74
100
AcDbEntity
  8
1
 62
     7
100
AcDbLine
 10
276.0278083438989
 20
55.84813468150088
 30
0.0
 11
276.0278083438989
 21
60.77184545318226
 31
0.0
  0
LINE
  5
C8A
330
74
100
AcDbEntity
  8
1
 62
     7
100
AcDbLine
 10
277.0094634545523
 20
53.13759108204866
 30
0.0
 11
276.3694833415473
 21
45.82258491767388
 31
0.0
  0
LINE
  5
C8B
330
74
100
AcDbEntity
  8
1
 62
     7
100
AcDbLine
 10
275.9136492866513
 20
53.23346239907113
 30
0.0
 11
275.2736691736464
 21
45.91845623469628
 31
0.0
  0
LINE
  5
C8C
330
74
100
AcDbEntity
  8
1
 62
     7
100
AcDbLine
 10
275.2736691736464
 20
45.91845623469628
 30
0.0
 11
275.5227178481693
 21
45.8966672990094
 31
0.0
  0
LINE
  5
C8D
330
74
100
AcDbEntity
  8
1
 62
     7
100
AcDbLine
 10
275.5227178481693
 20
45.8966672990094
 30
0.0
 11
275.0869391344309
 21
40.91569380855069
 31
0.0
  0
LINE
  5
C8E
330
74
100
AcDbEntity
  8
1
 62
     7
100
AcDbLine
 10
275.5227178481693
 20
45.8966672990094
 30
0.0
 11
276.1204346670244
 21
45.84437385336082
 31
0.0
  0
LINE
  5
C8F
330
74
100
AcDbEntity
  8
1
 62
     7
100
AcDbLine
 10
275.0869391344309
 20
40.91569380855069
 30
0.0
 11
275.684655953286
 21
40.86340036290207
 31
0.0
  0
LINE
  5
C90
330
74
100
AcDbEntity
  8
1
 62
     7
100
AcDbLine
 10
275.684655953286
 20
40.86340036290207
 30
0.0
 11
276.1204346670244
 21
45.84437385336082
 31
0.0
  0
LINE
  5
C91
330
74
100
AcDbEntity
  8
1
 62
     7
100
AcDbLine
 10
276.1204346670244
 20
45.84437385336082
 30
0.0
 11
276.3694833415473
 21
45.82258491767388
 31
0.0
  0
LINE
  5
C92
330
74
100
AcDbEntity
  8
1
 62
     7
100
AcDbLine
 10
277.2461532332457
 20
53.13759108204854
 30
0.0
 11
277.8861333462506
 21
45.82258491767389
 31
0.0
  0
LINE
  5
C93
330
74
100
AcDbEntity
  8
1
 62
     7
100
AcDbLine
 10
278.9819475141515
 20
45.91845623469636
 30
0.0
 11
278.3419674011466
 21
53.23346239907106
 31
0.0
  0
LINE
  5
C94
330
74
100
AcDbEntity
  8
1
 62
     7
100
AcDbLine
 10
278.9819475141515
 20
45.91845623469636
 30
0.0
 11
278.7328988396284
 21
45.8966672990094
 31
0.0
  0
LINE
  5
C95
330
74
100
AcDbEntity
  8
1
 62
     7
100
AcDbLine
 10
278.1351820207735
 20
45.84437385336082
 30
0.0
 11
278.5709607345119
 21
40.8634003629021
 31
0.0
  0
LINE
  5
C96
330
74
100
AcDbEntity
  8
1
 62
     7
100
AcDbLine
 10
278.1351820207735
 20
45.84437385336082
 30
0.0
 11
277.8861333462506
 21
45.82258491767389
 31
0.0
  0
LINE
  5
C97
330
74
100
AcDbEntity
  8
1
 62
     7
100
AcDbLine
 10
278.5709607345119
 20
40.8634003629021
 30
0.0
 11
278.8698191439393
 21
40.88954708572638
 31
0.0
  0
LINE
  5
C98
330
74
100
AcDbEntity
  8
1
 62
     7
100
AcDbLine
 10
279.1686775533668
 20
40.91569380855069
 30
0.0
 11
278.7328988396284
 21
45.8966672990094
 31
0.0
  0
LINE
  5
C99
330
74
100
AcDbEntity
  8
1
 62
     7
100
AcDbLine
 10
278.7328988396284
 20
45.8966672990094
 30
0.0
 11
278.1351820207735
 21
45.84437385336082
 31
0.0
  0
LINE
  5
C9A
330
74
100
AcDbEntity
  8
1
 62
     7
100
AcDbLine
 10
278.8698191439393
 20
40.88954708572638
 30
0.0
 11
279.1686775533668
 21
40.91569380855069
 31
0.0
  0
LINE
  5
C9B
330
74
100
AcDbEntity
  8
1
 62
     7
100
AcDbLine
 10
411.2865060308775
 20
60.74029699595396
 30
0.0
 11
411.2865060308775
 21
55.8481346815008
 31
0.0
  0
LINE
  5
C9C
330
74
100
AcDbEntity
  8
1
 62
     7
100
AcDbLine
 10
412.3865060308774
 20
60.70874853872574
 30
0.0
 11
412.3865060308774
 21
55.84813468150076
 31
0.0
  0
LINE
  5
C9D
330
74
100
AcDbEntity
  8
1
 62
     7
100
AcDbLine
 10
410.1865060308773
 20
55.84813468150085
 30
0.0
 11
410.1865060308773
 21
60.77184545318225
 31
0.0
  0
LINE
  5
C9E
330
74
100
AcDbEntity
  8
1
 62
     7
100
AcDbLine
 10
411.1681611415306
 20
53.13759108204862
 30
0.0
 11
410.5281810285259
 21
45.82258491767386
 31
0.0
  0
LINE
  5
C9F
330
74
100
AcDbEntity
  8
1
 62
     7
100
AcDbLine
 10
410.0723469736299
 20
53.2334623990711
 30
0.0
 11
409.4323668606248
 21
45.91845623469626
 31
0.0
  0
LINE
  5
CA0
330
74
100
AcDbEntity
  8
1
 62
     7
100
AcDbLine
 10
409.4323668606248
 20
45.91845623469626
 30
0.0
 11
409.6814155351474
 21
45.89666729900939
 31
0.0
  0
LINE
  5
CA1
330
74
100
AcDbEntity
  8
1
 62
     7
100
AcDbLine
 10
409.6814155351474
 20
45.89666729900939
 30
0.0
 11
409.2456368214094
 21
40.91569380855065
 31
0.0
  0
LINE
  5
CA2
330
74
100
AcDbEntity
  8
1
 62
     7
100
AcDbLine
 10
409.6814155351474
 20
45.89666729900939
 30
0.0
 11
410.279132354003
 21
45.84437385336078
 31
0.0
  0
LINE
  5
CA3
330
74
100
AcDbEntity
  8
1
 62
     7
100
AcDbLine
 10
409.2456368214094
 20
40.91569380855065
 30
0.0
 11
409.8433536402643
 21
40.86340036290203
 31
0.0
  0
LINE
  5
CA4
330
74
100
AcDbEntity
  8
1
 62
     7
100
AcDbLine
 10
409.8433536402643
 20
40.86340036290203
 30
0.0
 11
410.279132354003
 21
45.84437385336078
 31
0.0
  0
LINE
  5
CA5
330
74
100
AcDbEntity
  8
1
 62
     7
100
AcDbLine
 10
410.279132354003
 20
45.84437385336078
 30
0.0
 11
410.5281810285259
 21
45.82258491767386
 31
0.0
  0
LINE
  5
CA6
330
74
100
AcDbEntity
  8
1
 62
     7
100
AcDbLine
 10
411.4048509202241
 20
53.13759108204852
 30
0.0
 11
412.044831033229
 21
45.82258491767388
 31
0.0
  0
LINE
  5
CA7
330
74
100
AcDbEntity
  8
1
 62
     7
100
AcDbLine
 10
413.1406452011297
 20
45.91845623469631
 30
0.0
 11
412.5006650881251
 21
53.23346239907103
 31
0.0
  0
LINE
  5
CA8
330
74
100
AcDbEntity
  8
1
 62
     7
100
AcDbLine
 10
413.1406452011297
 20
45.91845623469631
 30
0.0
 11
412.8915965266069
 21
45.89666729900939
 31
0.0
  0
LINE
  5
CA9
330
74
100
AcDbEntity
  8
1
 62
     7
100
AcDbLine
 10
412.2938797077518
 20
45.84437385336078
 30
0.0
 11
412.7296584214904
 21
40.86340036290207
 31
0.0
  0
LINE
  5
CAA
330
74
100
AcDbEntity
  8
1
 62
     7
100
AcDbLine
 10
412.2938797077518
 20
45.84437385336078
 30
0.0
 11
412.044831033229
 21
45.82258491767388
 31
0.0
  0
LINE
  5
CAB
330
74
100
AcDbEntity
  8
1
 62
     7
100
AcDbLine
 10
412.7296584214904
 20
40.86340036290207
 30
0.0
 11
413.0285168309178
 21
40.88954708572638
 31
0.0
  0
LINE
  5
CAC
330
74
100
AcDbEntity
  8
1
 62
     7
100
AcDbLine
 10
413.3273752403453
 20
40.91569380855065
 30
0.0
 11
412.8915965266069
 21
45.89666729900939
 31
0.0
  0
LINE
  5
CAD
330
74
100
AcDbEntity
  8
1
 62
     7
100
AcDbLine
 10
412.8915965266069
 20
45.89666729900939
 30
0.0
 11
412.2938797077518
 21
45.84437385336078
 31
0.0
  0
LINE
  5
CAE
330
74
100
AcDbEntity
  8
1
 62
     7
100
AcDbLine
 10
413.0285168309178
 20
40.88954708572638
 30
0.0
 11
413.3273752403453
 21
40.91569380855065
 31
0.0
  0
LINE
  5
CB0
330
74
100
AcDbEntity
  8
1
 62
     7
100
AcDbLine
 10
336.0055646537956
 20
68.23073435266106
 30
0.0
 11
336.0055646537956
 21
63.0107343526611
 31
0.0
  0
LINE
  5
CB1
330
74
100
AcDbEntity
  8
1
 62
     7
100
AcDbLine
 10
334.9055646537954
 20
68.26228280988928
 30
0.0
 11
334.9055646537943
 21
63.04228280988938
 31
0.0
  0
LINE
  5
CB2
330
74
100
AcDbEntity
  8
1
 62
     7
100
AcDbLine
 10
336.0055646537956
 20
60.77073435266109
 30
0.0
 11
336.0055646537954
 21
45.86340036290207
 31
0.0
  0
LINE
  5
CB3
330
74
100
AcDbEntity
  8
1
 62
     7
100
AcDbLine
 10
334.9055646537955
 20
60.80228280988928
 30
0.0
 11
334.9055646537956
 21
45.86340036290207
 31
0.0
  0
LINE
  5
CB4
330
74
100
AcDbEntity
  8
1
 62
     7
100
AcDbLine
 10
334.9055646537956
 20
77.16229012334522
 30
0.0
 11
336.0055646537956
 21
77.16229012334522
 31
0.0
  0
LINE
  5
CB5
330
74
100
AcDbEntity
  8
1
 62
     7
100
AcDbLine
 10
334.0055646537956
 20
88.08229012334525
 30
0.0
 11
334.0055646537956
 21
92.50229012334525
 31
0.0
  0
LINE
  5
CB6
330
74
100
AcDbEntity
  8
1
 62
     7
100
AcDbLine
 10
333.0055646537955
 20
87.88229012334523
 30
0.0
 11
333.2055646537956
 21
88.08229012334525
 31
0.0
  0
LINE
  5
CB7
330
74
100
AcDbEntity
  8
1
 62
     7
100
AcDbLine
 10
333.2055646537956
 20
82.08229012334525
 30
0.0
 11
333.0055646537955
 21
82.28229012334523
 31
0.0
  0
LINE
  5
CB8
330
74
100
AcDbEntity
  8
1
 62
     7
100
AcDbLine
 10
333.2055646537956
 20
82.08229012334525
 30
0.0
 11
334.0055646537956
 21
82.08229012334525
 31
0.0
  0
LINE
  5
CB9
330
74
100
AcDbEntity
  8
1
 62
     7
100
AcDbLine
 10
333.2055646537956
 20
88.08229012334525
 30
0.0
 11
334.0055646537956
 21
88.08229012334525
 31
0.0
  0
LINE
  5
CBA
330
74
100
AcDbEntity
  8
1
 62
     7
100
AcDbLine
 10
333.0055646537955
 20
82.28229012334523
 30
0.0
 11
333.0055646537955
 21
87.88229012334523
 31
0.0
  0
LINE
  5
CBB
330
74
100
AcDbEntity
  8
1
 62
     2
100
AcDbLine
 10
333.2055646537956
 20
82.08229012334525
 30
0.0
 11
333.2055646537956
 21
88.08229012334525
 31
0.0
  0
LINE
  5
CBC
330
74
100
AcDbEntity
  8
1
 62
     7
100
AcDbLine
 10
334.0055646537956
 20
82.08229012334525
 30
0.0
 11
334.0055646537956
 21
88.08229012334525
 31
0.0
  0
LINE
  5
CBD
330
74
100
AcDbEntity
  8
1
 62
     7
100
AcDbLine
 10
335.7555646537957
 20
45.86340036290207
 30
0.0
 11
336.0055646537954
 21
45.86340036290207
 31
0.0
  0
LINE
  5
CBE
330
74
100
AcDbEntity
  8
1
 62
     7
100
AcDbLine
 10
335.7555646537957
 20
40.86340036290207
 30
0.0
 11
335.7555646537957
 21
45.86340036290207
 31
0.0
  0
LINE
  5
CBF
330
74
100
AcDbEntity
  8
1
 62
     7
100
AcDbLine
 10
335.1555646537956
 20
45.86340036290207
 30
0.0
 11
335.7555646537957
 21
45.86340036290207
 31
0.0
  0
LINE
  5
CC0
330
74
100
AcDbEntity
  8
1
 62
     7
100
AcDbLine
 10
335.1555646537956
 20
40.86340036290207
 30
0.0
 11
335.1555646537956
 21
45.86340036290207
 31
0.0
  0
LINE
  5
CC1
330
74
100
AcDbEntity
  8
1
 62
     7
100
AcDbLine
 10
335.1555646537956
 20
40.86340036290207
 30
0.0
 11
335.7555646537957
 21
40.86340036290207
 31
0.0
  0
LINE
  5
CC2
330
74
100
AcDbEntity
  8
1
 62
     7
100
AcDbLine
 10
334.9055646537956
 20
45.86340036290207
 30
0.0
 11
335.1555646537956
 21
45.86340036290207
 31
0.0
  0
LINE
  5
CC3
330
74
100
AcDbEntity
  8
1
 62
     7
100
AcDbLine
 10
336.0055646537956
 20
77.16229012334522
 30
0.0
 11
336.0055646537956
 21
77.0822901233453
 31
0.0
  0
LINE
  5
CC4
330
74
100
AcDbEntity
  8
1
 62
     7
100
AcDbLine
 10
334.5055646537957
 20
77.16229012334522
 30
0.0
 11
334.9055646537956
 21
77.16229012334522
 31
0.0
  0
LINE
  5
CC5
330
74
100
AcDbEntity
  8
1
 62
     7
100
AcDbLine
 10
334.5055646537957
 20
93.00229012334524
 30
0.0
 11
336.0055646537956
 21
93.00229012334524
 31
0.0
  0
LINE
  5
CC6
330
74
100
AcDbEntity
  8
1
 62
     7
100
AcDbLine
 10
334.0055646537956
 20
77.66229012334523
 30
0.0
 11
334.0055646537956
 21
82.08229012334525
 31
0.0
  0
LINE
  5
CC7
330
74
100
AcDbEntity
  8
1
 62
     7
100
AcDbLine
 10
361.5062498864184
 20
77.42382703892949
 30
0.0
 11
361.5062498864184
 21
92.74075320776095
 31
0.0
  0
LINE
  5
CC8
330
74
100
AcDbEntity
  8
1
 62
     7
100
AcDbLine
 10
358.8055646537956
 20
77.28229012334523
 30
0.0
 11
358.8055646537956
 21
92.88229012334523
 31
0.0
  0
LINE
  5
CC9
330
74
100
AcDbEntity
  8
1
 62
     7
100
AcDbLine
 10
361.5062498864184
 20
77.42382703892949
 30
0.0
 11
362.0055646537957
 21
77.94999501705095
 31
0.0
  0
LINE
  5
CCA
330
74
100
AcDbEntity
  8
1
 62
     7
100
AcDbLine
 10
362.0055646537957
 20
92.21458522963951
 30
0.0
 11
361.5062498864184
 21
92.74075320776095
 31
0.0
  0
LINE
  5
CCB
330
74
100
AcDbEntity
  8
1
 62
     7
100
AcDbLine
 10
358.8055646537956
 20
77.28229012334523
 30
0.0
 11
358.8055646537956
 21
77.08229012334533
 31
0.0
  0
LINE
  5
CCC
330
74
100
AcDbEntity
  8
1
 62
     7
100
AcDbLine
 10
358.8055646537956
 20
92.88229012334523
 30
0.0
 11
361.5062498864184
 21
92.74075320776095
 31
0.0
  0
LINE
  5
CCD
330
74
100
AcDbEntity
  8
1
 62
     7
100
AcDbLine
 10
334.9055646537956
 20
77.16229012334522
 30
0.0
 11
334.9055646537954
 21
70.50228280988929
 31
0.0
  0
LINE
  5
CCE
330
74
100
AcDbEntity
  8
1
 62
     7
100
AcDbLine
 10
336.0055646537956
 20
77.0822901233453
 30
0.0
 11
336.0055646537956
 21
70.47073435266106
 31
0.0
  0
LINE
  5
CCF
330
74
100
AcDbEntity
  8
1
 62
     7
100
AcDbLine
 10
358.8055646537956
 20
77.08229012334533
 30
0.0
 11
337.8055646537956
 21
77.08229012334533
 31
0.0
  0
LINE
  5
CD0
330
74
100
AcDbEntity
  8
1
 62
     7
100
AcDbLine
 10
361.5062498864184
 20
77.42382703892949
 30
0.0
 11
358.8055646537956
 21
77.28229012334523
 31
0.0
  0
LINE
  5
CD1
330
74
100
AcDbEntity
  8
1
 62
     7
100
AcDbLine
 10
336.0055646537956
 20
77.0822901233453
 30
0.0
 11
337.8055646537956
 21
77.08229012334533
 31
0.0
  0
LINE
  5
CD2
330
74
100
AcDbEntity
  8
1
 62
     7
100
AcDbLine
 10
362.0055646537957
 20
77.94999501705095
 30
0.0
 11
362.0055646537957
 21
82.08229012334522
 31
0.0
  0
LINE
  5
CD3
330
74
100
AcDbEntity
  8
1
 62
     7
100
AcDbLine
 10
358.8055646537956
 20
93.08229012334525
 30
0.0
 11
358.8055646537956
 21
92.88229012334523
 31
0.0
  0
LINE
  5
CD4
330
74
100
AcDbEntity
  8
1
 62
     7
100
AcDbLine
 10
358.8055646537956
 20
93.08229012334525
 30
0.0
 11
337.8055646537956
 21
93.08229012334525
 31
0.0
  0
LINE
  5
CD5
330
74
100
AcDbEntity
  8
1
 62
     7
100
AcDbLine
 10
337.8055646537956
 20
93.08229012334525
 30
0.0
 11
336.0055646537956
 21
93.08229012334525
 31
0.0
  0
LINE
  5
CD6
330
74
100
AcDbEntity
  8
1
 62
     7
100
AcDbLine
 10
336.0055646537956
 20
93.08229012334525
 30
0.0
 11
336.0055646537956
 21
91.8242692058976
 31
0.0
  0
LINE
  5
CD7
330
74
100
AcDbEntity
  8
1
 62
     7
100
AcDbLine
 10
337.7055646537956
 20
90.34585770361855
 30
0.0
 11
337.7055646537956
 21
91.8242692058976
 31
0.0
  0
LINE
  5
CD8
330
74
100
AcDbEntity
  8
1
 62
     7
100
AcDbLine
 10
337.7055646537956
 20
91.8242692058976
 30
0.0
 11
336.0055646537956
 21
91.8242692058976
 31
0.0
  0
LINE
  5
CD9
330
74
100
AcDbEntity
  8
1
 62
     7
100
AcDbLine
 10
336.0055646537956
 20
90.34585770361855
 30
0.0
 11
337.7055646537956
 21
90.34585770361855
 31
0.0
  0
LINE
  5
CDA
330
74
100
AcDbEntity
  8
1
 62
     7
100
AcDbLine
 10
336.0055646537956
 20
90.34585770361855
 30
0.0
 11
336.0055646537956
 21
80.92631634450274
 31
0.0
  0
LINE
  5
CDB
330
74
100
AcDbEntity
  8
1
 62
     7
100
AcDbLine
 10
336.0055646537956
 20
80.92631634450274
 30
0.0
 11
337.7055646537956
 21
80.92631634450274
 31
0.0
  0
LINE
  5
CDC
330
74
100
AcDbEntity
  8
1
 62
     7
100
AcDbLine
 10
336.0055646537956
 20
79.16441412532908
 30
0.0
 11
337.7055646537956
 21
79.16441412532908
 31
0.0
  0
LINE
  5
CDD
330
74
100
AcDbEntity
  8
1
 62
     7
100
AcDbLine
 10
336.0055646537956
 20
79.16441412532908
 30
0.0
 11
336.0055646537956
 21
77.16229012334522
 31
0.0
  0
LINE
  5
CDE
330
74
100
AcDbEntity
  8
1
 62
     7
100
AcDbLine
 10
337.7055646537956
 20
79.16441412532908
 30
0.0
 11
337.7055646537956
 21
80.92631634450274
 31
0.0
  0
LINE
  5
CDF
330
74
100
AcDbEntity
  8
1
 62
     7
100
AcDbLine
 10
337.8055646537956
 20
77.08229012334533
 30
0.0
 11
337.8055646537956
 21
93.08229012334525
 31
0.0
  0
LINE
  5
CE0
330
74
100
AcDbEntity
  8
1
 62
     7
100
AcDbLine
 10
337.7055646537956
 20
91.8242692058976
 30
0.0
 11
337.8055646537956
 21
91.8242692058976
 31
0.0
  0
LINE
  5
CE1
330
74
100
AcDbEntity
  8
1
 62
     7
100
AcDbLine
 10
337.7055646537956
 20
90.34585770361855
 30
0.0
 11
337.8055646537956
 21
90.34585770361855
 31
0.0
  0
LINE
  5
CE2
330
74
100
AcDbEntity
  8
1
 62
     7
100
AcDbLine
 10
337.7055646537956
 20
80.92631634450274
 30
0.0
 11
337.8055646537956
 21
80.92631634450274
 31
0.0
  0
LINE
  5
CE3
330
74
100
AcDbEntity
  8
1
 62
     7
100
AcDbLine
 10
337.7055646537956
 20
79.16441412532908
 30
0.0
 11
337.8055646537956
 21
79.16441412532908
 31
0.0
  0
LINE
  5
CE4
330
74
100
AcDbEntity
  8
1
 62
     7
100
AcDbLine
 10
362.0055646537957
 20
88.08229012334519
 30
0.0
 11
363.0055646537956
 21
88.08229012334519
 31
0.0
  0
LINE
  5
CE5
330
74
100
AcDbEntity
  8
1
 62
     7
100
AcDbLine
 10
362.0055646537957
 20
88.08229012334519
 30
0.0
 11
362.0055646537957
 21
92.21458522963951
 31
0.0
  0
LINE
  5
CE6
330
74
100
AcDbEntity
  8
1
 62
     7
100
AcDbLine
 10
362.0055646537957
 20
82.08229012334522
 30
0.0
 11
363.0055646537956
 21
82.08229012334522
 31
0.0
  0
LINE
  5
CE7
330
74
100
AcDbEntity
  8
1
 62
     7
100
AcDbLine
 10
362.0055646537957
 20
82.08229012334522
 30
0.0
 11
362.0055646537957
 21
88.08229012334519
 31
0.0
  0
LINE
  5
CE8
330
74
100
AcDbEntity
  8
1
 62
     7
100
AcDbLine
 10
363.0055646537956
 20
82.08229012334522
 30
0.0
 11
363.0055646537956
 21
82.63229012334525
 31
0.0
  0
LINE
  5
CE9
330
74
100
AcDbEntity
  8
1
 62
     7
100
AcDbLine
 10
369.4726656609619
 20
85.75327181890747
 30
0.0
 11
369.2638493119265
 21
85.82927475438451
 31
0.0
  0
LINE
  5
CEA
330
74
100
AcDbEntity
  8
1
 62
     7
100
AcDbLine
 10
369.5055646537956
 20
84.45829305882226
 30
0.0
 11
369.5055646537956
 21
85.70628718786819
 31
0.0
  0
LINE
  5
CEB
330
74
100
AcDbEntity
  8
1
 62
     7
100
AcDbLine
 10
363.0055646537956
 20
82.63229012334525
 30
0.0
 11
364.2055646537956
 21
82.63229012334525
 31
0.0
  0
LINE
  5
CEC
330
74
100
AcDbEntity
  8
1
 62
     7
100
AcDbLine
 10
363.0055646537956
 20
82.63229012334525
 30
0.0
 11
363.0055646537956
 21
87.53229012334525
 31
0.0
  0
LINE
  5
CED
330
74
100
AcDbEntity
  8
1
 62
     7
100
AcDbLine
 10
364.2055646537956
 20
82.63229012334525
 30
0.0
 11
364.2055646537956
 21
87.53229012334525
 31
0.0
  0
LINE
  5
CEE
330
74
100
AcDbEntity
  8
1
 62
     7
100
AcDbLine
 10
364.2055646537956
 20
87.53229012334525
 30
0.0
 11
363.0055646537956
 21
87.53229012334525
 31
0.0
  0
LINE
  5
CEF
330
74
100
AcDbEntity
  8
1
 62
     7
100
AcDbLine
 10
363.0055646537956
 20
87.53229012334525
 30
0.0
 11
363.0055646537956
 21
88.08229012334519
 31
0.0
  0
LINE
  5
CF0
330
74
100
AcDbEntity
  8
1
 62
     7
100
AcDbLine
 10
364.2055646537956
 20
84.33229012334519
 30
0.0
 11
369.2467483047602
 21
84.33229012334519
 31
0.0
  0
LINE
  5
CF1
330
74
100
AcDbEntity
  8
1
 62
     7
100
AcDbLine
 10
369.2638493119265
 20
84.33530549230594
 30
0.0
 11
369.4726656609619
 21
84.41130842778298
 31
0.0
  0
LINE
  5
CF2
330
74
100
AcDbEntity
  8
1
 62
     7
100
AcDbLine
 10
369.2467483047602
 20
85.83229012334525
 30
0.0
 11
364.2055646537956
 21
85.83229012334504
 31
0.0
  0
LINE
  5
CF3
330
74
100
AcDbEntity
  8
1
 62
     2
100
AcDbLine
 10
369.2555646537956
 20
84.53229012334523
 30
0.0
 11
369.2555646537956
 21
85.63229012334527
 31
0.0
  0
LINE
  5
CF4
330
74
100
AcDbEntity
  8
1
  6
CENTER
 62
     2
100
AcDbLine
 10
372.0055646537957
 20
85.08229012334522
 30
0.0
 11
331.2816352448517
 21
85.08229012334522
 31
0.0
  0
ARC
  5
CF5
330
74
100
AcDbEntity
  8
1
 62
     7
100
AcDbCircle
 10
411.2865060308775
 20
90.08229012334522
 30
0.0
 40
0.9000000000000055
100
AcDbArc
 50
180.0
 51
0.0
  0
ARC
  5
CF6
330
74
100
AcDbEntity
  8
1
 62
     7
100
AcDbCircle
 10
411.2865060308775
 20
90.08229012334522
 30
0.0
 40
0.9000000000000055
100
AcDbArc
 50
0.0
 51
180.0
  0
ARC
  5
CF7
330
74
100
AcDbEntity
  8
1
 62
     7
100
AcDbCircle
 10
411.2865060308775
 20
85.08229012334522
 30
0.0
 40
8.000000000000001
100
AcDbArc
 50
253.0000000000014
 51
262.096792266516
  0
ARC
  5
CF8
330
74
100
AcDbEntity
  8
1
 62
     7
100
AcDbCircle
 10
411.2865060308775
 20
85.08229012334522
 30
0.0
 40
8.000000000000001
100
AcDbArc
 50
277.9032077334839
 51
287.0000000000019
  0
ARC
  5
CF9
330
74
100
AcDbEntity
  8
1
 62
     2
100
AcDbCircle
 10
411.2865060308775
 20
85.08229012334522
 30
0.0
 40
7.420000000000016
100
AcDbArc
 50
0.0
 51
253.0000000000014
  0
ARC
  5
CFA
330
74
100
AcDbEntity
  8
1
 62
     2
100
AcDbCircle
 10
411.2865060308775
 20
85.08229012334522
 30
0.0
 40
7.420000000000013
100
AcDbArc
 50
287.0000000000019
 51
0.0
  0
ARC
  5
CFB
330
74
100
AcDbEntity
  8
1
 62
     3
100
AcDbCircle
 10
415.2865060308775
 20
80.58229012334519
 30
0.0
 40
0.75
100
AcDbArc
 50
180.0
 51
191.5369590328173
  0
ARC
  5
CFC
330
74
100
AcDbEntity
  8
1
 62
     3
100
AcDbCircle
 10
415.2865060308775
 20
80.58229012334519
 30
0.0
 40
0.7499999999999393
100
AcDbArc
 50
101.5369590328181
 51
168.4630409671834
  0
ARC
  5
CFD
330
74
100
AcDbEntity
  8
1
 62
     3
100
AcDbCircle
 10
415.2865060308775
 20
80.58229012334519
 30
0.0
 40
0.7499999999999388
100
AcDbArc
 50
168.4630409671834
 51
180.0
  0
ARC
  5
CFE
330
74
100
AcDbEntity
  8
1
 62
     3
100
AcDbCircle
 10
415.2865060308775
 20
80.58229012334519
 30
0.0
 40
0.7500000000000516
100
AcDbArc
 50
348.4630409671841
 51
0.0
  0
ARC
  5
CFF
330
74
100
AcDbEntity
  8
1
 62
     3
100
AcDbCircle
 10
415.2865060308775
 20
80.58229012334519
 30
0.0
 40
0.7499999999999393
100
AcDbArc
 50
78.46304096718185
 51
90.0
  0
ARC
  5
D00
330
74
100
AcDbEntity
  8
1
 62
     3
100
AcDbCircle
 10
415.2865060308775
 20
80.58229012334519
 30
0.0
 40
0.7499999999999463
100
AcDbArc
 50
258.4630409671819
 51
270.0
  0
ARC
  5
D01
330
74
100
AcDbEntity
  8
1
 62
     3
100
AcDbCircle
 10
415.2865060308775
 20
80.58229012334519
 30
0.0
 40
0.7499999999999396
100
AcDbArc
 50
90.0
 51
101.5369590328181
  0
ARC
  5
D02
330
74
100
AcDbEntity
  8
1
 62
     3
100
AcDbCircle
 10
415.2865060308775
 20
80.58229012334519
 30
0.0
 40
0.7500000000000501
100
AcDbArc
 50
11.53695903281505
 51
78.46304096718185
  0
ARC
  5
D03
330
74
100
AcDbEntity
  8
1
 62
     3
100
AcDbCircle
 10
415.2865060308775
 20
80.58229012334519
 30
0.0
 40
0.7499999999999503
100
AcDbArc
 50
270.0
 51
281.5369590328181
  0
ARC
  5
D04
330
74
100
AcDbEntity
  8
1
 62
     3
100
AcDbCircle
 10
415.2865060308775
 20
80.58229012334519
 30
0.0
 40
0.7499999999999402
100
AcDbArc
 50
191.5369590328173
 51
258.4630409671819
  0
ARC
  5
D05
330
74
100
AcDbEntity
  8
1
 62
     3
100
AcDbCircle
 10
415.2865060308775
 20
80.58229012334519
 30
0.0
 40
0.75
100
AcDbArc
 50
0.0
 51
11.53695903281505
  0
ARC
  5
D06
330
74
100
AcDbEntity
  8
1
 62
     3
100
AcDbCircle
 10
415.2865060308775
 20
80.58229012334519
 30
0.0
 40
0.7499999999999463
100
AcDbArc
 50
281.5369590328181
 51
348.4630409671841
  0
ARC
  5
D07
330
74
100
AcDbEntity
  8
1
 62
     7
100
AcDbCircle
 10
411.2865060308775
 20
85.08229012334522
 30
0.0
 40
8.000000000000031
100
AcDbArc
 50
287.0000000000019
 51
253.0000000000014
  0
ARC
  5
D08
330
74
100
AcDbEntity
  8
1
 62
     7
100
AcDbCircle
 10
411.2865060308775
 20
85.08229012334522
 30
0.0
 40
7.920000000000101
100
AcDbArc
 50
0.0
 51
253.0000000000014
  0
ARC
  5
D09
330
74
100
AcDbEntity
  8
1
 62
     7
100
AcDbCircle
 10
411.2865060308775
 20
85.08229012334522
 30
0.0
 40
7.920000000000034
100
AcDbArc
 50
286.9999999999985
 51
0.0
  0
ARC
  5
D0A
330
74
100
AcDbEntity
  8
1
  6
CENTER
 62
     2
100
AcDbCircle
 10
277.1278083438989
 20
85.08229012334528
 30
0.0
 40
4.999999999999988
100
AcDbArc
 50
167.3693688612848
 51
180.0
  0
ARC
  5
D0B
330
74
100
AcDbEntity
  8
1
  6
CENTER
 62
     2
100
AcDbCircle
 10
277.1278083438989
 20
85.08229012334528
 30
0.0
 40
5.000000000000033
100
AcDbArc
 50
347.3693688612855
 51
0.0
  0
ARC
  5
D0C
330
74
100
AcDbEntity
  8
1
 62
     7
100
AcDbCircle
 10
277.1278083438989
 20
85.08229012334528
 30
0.0
 40
8.000000000000023
100
AcDbArc
 50
300.0
 51
8.8279344845395
  0
ARC
  5
D0D
330
74
100
AcDbEntity
  8
1
 62
     2
100
AcDbCircle
 10
279.6278083438989
 20
80.75216310442305
 30
0.0
 40
0.8000000000000119
100
AcDbArc
 50
328.8682824929245
 51
230.7613103315465
  0
ARC
  5
D0E
330
74
100
AcDbEntity
  8
1
 62
     2
100
AcDbCircle
 10
282.1278083438989
 20
85.08229012334529
 30
0.0
 40
0.7999999999999777
100
AcDbArc
 50
24.33461583274276
 51
290.9971185052043
  0
ARC
  5
D0F
330
74
100
AcDbEntity
  8
1
 62
     2
100
AcDbCircle
 10
279.6278083438989
 20
89.41241714226746
 30
0.0
 40
0.8000000000000126
100
AcDbArc
 50
38.36360089703003
 51
306.0618539231616
  0
ARC
  5
D10
330
74
100
AcDbEntity
  8
1
 62
     2
100
AcDbCircle
 10
274.6278083438989
 20
89.41241714226746
 30
0.0
 40
0.8000000000000182
100
AcDbArc
 50
95.51608215772438
 51
4.250046175172682
  0
ARC
  5
D11
330
74
100
AcDbEntity
  8
1
 62
     2
100
AcDbCircle
 10
272.1278083438989
 20
85.08229012334529
 30
0.0
 40
0.7999999999999829
100
AcDbArc
 50
180.0
 51
0.0
  0
ARC
  5
D12
330
74
100
AcDbEntity
  8
1
 62
     2
100
AcDbCircle
 10
274.6278083438989
 20
80.75216310442305
 30
0.0
 40
0.799999999999996
100
AcDbArc
 50
215.2939371657501
 51
126.2805824386951
  0
ARC
  5
D13
330
74
100
AcDbEntity
  8
1
 62
     7
100
AcDbCircle
 10
279.6278083438989
 20
80.75216310442305
 30
0.0
 40
1.09999999999999
100
AcDbArc
 50
321.3236862634974
 51
278.676313736503
  0
ARC
  5
D14
330
74
100
AcDbEntity
  8
1
 62
     7
100
AcDbCircle
 10
282.1278083438989
 20
85.08229012334529
 30
0.0
 40
1.100000000000009
100
AcDbArc
 50
21.32368626349563
 51
338.6763137365017
  0
ARC
  5
D15
330
74
100
AcDbEntity
  8
1
 62
     7
100
AcDbCircle
 10
279.6278083438989
 20
89.41241714226746
 30
0.0
 40
1.10000000000001
100
AcDbArc
 50
81.32368626349697
 51
38.676313736503
  0
ARC
  5
D16
330
74
100
AcDbEntity
  8
1
 62
     7
100
AcDbCircle
 10
274.6278083438989
 20
89.41241714226746
 30
0.0
 40
1.09999999999999
100
AcDbArc
 50
141.3236862634969
 51
98.67631373650299
  0
ARC
  5
D17
330
74
100
AcDbEntity
  8
1
 62
     7
100
AcDbCircle
 10
272.1278083438989
 20
85.08229012334529
 30
0.0
 40
1.10000000000001
100
AcDbArc
 50
201.3236862634989
 51
158.6763137365029
  0
ARC
  5
D18
330
74
100
AcDbEntity
  8
1
 62
     7
100
AcDbCircle
 10
274.6278083438989
 20
80.75216310442305
 30
0.0
 40
1.099999999999988
100
AcDbArc
 50
261.323686263497
 51
218.676313736503
  0
ARC
  5
D19
330
74
100
AcDbEntity
  8
1
 62
     7
100
AcDbCircle
 10
277.1278083438989
 20
85.08229012334528
 30
0.0
 40
7.132295106294287
100
AcDbArc
 50
63.21500199327735
 51
3.215001993277664
  0
ARC
  5
D1A
330
74
100
AcDbEntity
  8
1
 62
     7
100
AcDbCircle
 10
277.1278083438989
 20
85.08229012334528
 30
0.0
 40
7.132295106294317
100
AcDbArc
 50
3.215001993277664
 51
63.21500199327735
  0
ARC
  5
D1B
330
74
100
AcDbEntity
  8
1
  6
CENTER
 62
     2
100
AcDbCircle
 10
277.1278083438989
 20
85.08229012334528
 30
0.0
 40
6.000000000000021
100
AcDbArc
 50
15.08827861243815
 51
45.34176975887738
  0
ARC
  5
D1C
330
74
100
AcDbEntity
  8
1
  6
CENTER
 62
     2
100
AcDbCircle
 10
277.1278083438989
 20
85.08229012334528
 30
0.0
 40
6.000000000000007
100
AcDbArc
 50
256.5346850025265
 51
284.8110873841424
  0
ARC
  5
D1D
330
74
100
AcDbEntity
  8
1
  6
CENTER
 62
     2
100
AcDbCircle
 10
277.1278083438989
 20
85.08229012334528
 30
0.0
 40
6.000000000000002
100
AcDbArc
 50
136.6403834999877
 51
163.904589552611
  0
ARC
  5
D1E
330
74
100
AcDbEntity
  8
1
 62
     7
100
AcDbCircle
 10
277.1278083438989
 20
85.08229012334528
 30
0.0
 40
6.499999999999986
100
AcDbArc
 50
157.951875430658
 51
176.471876658712
  0
ARC
  5
D1F
330
74
100
AcDbEntity
  8
1
 62
     7
100
AcDbCircle
 10
277.1278083438989
 20
85.08229012334528
 30
0.0
 40
6.499999999999992
100
AcDbArc
 50
123.5281233412863
 51
142.04812456934
  0
ARC
  5
D20
330
74
100
AcDbEntity
  8
1
 62
     7
100
AcDbCircle
 10
277.1278083438989
 20
85.08229012334528
 30
0.0
 40
6.500000000000002
100
AcDbArc
 50
63.52812334128671
 51
116.4718766587132
  0
ARC
  5
D21
330
74
100
AcDbEntity
  8
1
 62
     7
100
AcDbCircle
 10
277.1278083438989
 20
85.08229012334528
 30
0.0
 40
6.500000000000013
100
AcDbArc
 50
37.95187543065996
 51
56.47187665870998
  0
ARC
  5
D22
330
74
100
AcDbEntity
  8
1
 62
     7
100
AcDbCircle
 10
277.1278083438989
 20
85.08229012334528
 30
0.0
 40
6.500000000000026
100
AcDbArc
 50
3.528123341287978
 51
22.04812456934142
  0
ARC
  5
D23
330
74
100
AcDbEntity
  8
1
 62
     7
100
AcDbCircle
 10
277.1278083438989
 20
85.08229012334528
 30
0.0
 40
6.500000000000027
100
AcDbArc
 50
303.52812334129
 51
356.471876658712
  0
ARC
  5
D24
330
74
100
AcDbEntity
  8
1
 62
     7
100
AcDbCircle
 10
277.1278083438989
 20
85.08229012334528
 30
0.0
 40
6.500000000000002
100
AcDbArc
 50
277.9518754306593
 51
296.4718766587132
  0
ARC
  5
D25
330
74
100
AcDbEntity
  8
1
 62
     7
100
AcDbCircle
 10
277.1278083438989
 20
85.08229012334528
 30
0.0
 40
6.499999999999986
100
AcDbArc
 50
243.5281233412867
 51
262.0481245693408
  0
ARC
  5
D26
330
74
100
AcDbEntity
  8
1
 62
     7
100
AcDbCircle
 10
277.1278083438989
 20
85.08229012334528
 30
0.0
 40
6.49999999999999
100
AcDbArc
 50
183.528123341288
 51
236.4718766587135
  0
ARC
  5
D27
330
74
100
AcDbEntity
  8
1
  6
CENTER
 62
     2
100
AcDbCircle
 10
277.1278083438989
 20
85.08229012334528
 30
0.0
 40
5.000000000000028
100
AcDbArc
 50
47.36936886128467
 51
72.63063113871568
  0
ARC
  5
D28
330
74
100
AcDbEntity
  8
1
 62
     7
100
AcDbCircle
 10
277.1278083438989
 20
85.08229012334528
 30
0.0
 40
5.000000000000028
100
AcDbArc
 50
12.63063113871441
 51
30.00000000000011
  0
ARC
  5
D29
330
74
100
AcDbEntity
  8
1
 62
     7
100
AcDbCircle
 10
277.1278083438989
 20
85.08229012334528
 30
0.0
 40
4.99999999999999
100
AcDbArc
 50
72.63063113871568
 51
107.3693688612843
  0
ARC
  5
D2A
330
74
100
AcDbEntity
  8
1
 62
     7
100
AcDbCircle
 10
277.1278083438989
 20
85.08229012334528
 30
0.0
 40
5.000000000000035
100
AcDbArc
 50
30.00000000000011
 51
47.36936886128467
  0
ARC
  5
D2B
330
74
100
AcDbEntity
  8
1
  6
CENTER
 62
     2
100
AcDbCircle
 10
277.1278083438989
 20
85.08229012334528
 30
0.0
 40
5.000000000000006
100
AcDbArc
 50
107.3693688612843
 51
132.6306311387151
  0
ARC
  5
D2C
330
74
100
AcDbEntity
  8
1
  6
CENTER
 62
     2
100
AcDbCircle
 10
277.1278083438989
 20
85.08229012334528
 30
0.0
 40
5.000000000000011
100
AcDbArc
 50
0.0
 51
12.63063113871441
  0
ARC
  5
D2D
330
74
100
AcDbEntity
  8
1
 62
     7
100
AcDbCircle
 10
277.1278083438989
 20
85.08229012334528
 30
0.0
 40
5.000000000000025
100
AcDbArc
 50
312.6306311387153
 51
347.3693688612855
  0
ARC
  5
D2E
330
74
100
AcDbEntity
  8
1
  6
CENTER
 62
     2
100
AcDbCircle
 10
277.1278083438989
 20
85.08229012334528
 30
0.0
 40
5.000000000000006
100
AcDbArc
 50
287.3693688612842
 51
312.6306311387153
  0
ARC
  5
D2F
330
74
100
AcDbEntity
  8
1
 62
     7
100
AcDbCircle
 10
277.1278083438989
 20
85.08229012334528
 30
0.0
 40
5.000000000000006
100
AcDbArc
 50
252.6306311387157
 51
287.3693688612842
  0
ARC
  5
D30
330
74
100
AcDbEntity
  8
1
  6
CENTER
 62
     2
100
AcDbCircle
 10
277.1278083438989
 20
85.08229012334528
 30
0.0
 40
5.0
100
AcDbArc
 50
227.3693688612848
 51
252.6306311387157
  0
ARC
  5
D31
330
74
100
AcDbEntity
  8
1
 62
     7
100
AcDbCircle
 10
277.1278083438989
 20
85.08229012334528
 30
0.0
 40
4.999999999999992
100
AcDbArc
 50
192.6306311387144
 51
227.3693688612848
  0
ARC
  5
D32
330
74
100
AcDbEntity
  8
1
  6
CENTER
 62
     2
100
AcDbCircle
 10
277.1278083438989
 20
85.08229012334528
 30
0.0
 40
5.000000000000006
100
AcDbArc
 50
180.0
 51
192.6306311387144
  0
ARC
  5
D33
330
74
100
AcDbEntity
  8
1
 62
     7
100
AcDbCircle
 10
277.1278083438989
 20
85.08229012334528
 30
0.0
 40
4.999999999999983
100
AcDbArc
 50
132.6306311387151
 51
167.3693688612848
  0
ARC
  5
D34
330
74
100
AcDbEntity
  8
1
 62
     7
100
AcDbCircle
 10
277.1278083438989
 20
85.08229012334528
 30
0.0
 40
8.00000000000003
100
AcDbArc
 50
8.8279344845395
 51
300.0
  0
ARC
  5
D35
330
74
100
AcDbEntity
  8
1
 62
     2
100
AcDbCircle
 10
272.1278083438989
 20
85.08229012334529
 30
0.0
 40
0.7999999999999831
100
AcDbArc
 50
148.7128689732407
 51
180.0
  0
ARC
  5
D36
330
74
100
AcDbEntity
  8
1
 62
     2
100
AcDbCircle
 10
272.1278083438989
 20
85.08229012334529
 30
0.0
 40
0.7999999999999972
100
AcDbArc
 50
0.0
 51
62.96148776393874
  0
ARC
  5
D37
330
74
100
AcDbEntity
  8
1
 62
     7
100
AcDbCircle
 10
337.8055646537956
 20
91.08506345475808
 30
0.0
 40
0.75
100
AcDbArc
 50
270.0
 51
90.0
  0
ARC
  5
D38
330
74
100
AcDbEntity
  8
1
 62
     7
100
AcDbCircle
 10
337.8055646537956
 20
80.04536523491593
 30
0.0
 40
0.75
100
AcDbArc
 50
270.0
 51
90.0
  0
CIRCLE
  5
D39
330
74
100
AcDbEntity
  8
1
 62
     2
100
AcDbCircle
 10
411.2865060308775
 20
85.08229012334522
 30
0.0
 40
0.6590074414335163
  0
CIRCLE
  5
D3A
330
74
100
AcDbEntity
  8
1
 62
     7
100
AcDbCircle
 10
411.2865060308775
 20
80.08229012334522
 30
0.0
 40
0.9000000000000055
  0
CIRCLE
  5
D3B
330
74
100
AcDbEntity
  8
1
 62
     3
100
AcDbCircle
 10
411.2865060308775
 20
85.08229012334522
 30
0.0
 40
2.800000000000095
  0
CIRCLE
  5
D3C
330
74
100
AcDbEntity
  8
1
 62
     3
100
AcDbCircle
 10
411.2865060308775
 20
85.08229012334522
 30
0.0
 40
3.0
  0
CIRCLE
  5
D3D
330
74
100
AcDbEntity
  8
1
 62
     7
100
AcDbCircle
 10
411.2865060308775
 20
85.08229012334522
 30
0.0
 40
0.75
  0
CIRCLE
  5
D3E
330
74
100
AcDbEntity
  8
1
 62
     7
100
AcDbCircle
 10
411.2865060308775
 20
90.08229012334522
 30
0.0
 40
1.599999999999994
  0
CIRCLE
  5
D3F
330
74
100
AcDbEntity
  8
1
 62
     7
100
AcDbCircle
 10
411.2865060308775
 20
80.08229012334522
 30
0.0
 40
1.599999999999994
  0
CIRCLE
  5
D40
330
74
100
AcDbEntity
  8
1
 62
     3
100
AcDbCircle
 10
279.6278083438989
 20
80.75216310442305
 30
0.0
 40
0.6000000000000158
  0
CIRCLE
  5
D41
330
74
100
AcDbEntity
  8
1
 62
     3
100
AcDbCircle
 10
282.1278083438989
 20
85.08229012334529
 30
0.0
 40
0.5999999999999695
  0
CIRCLE
  5
D42
330
74
100
AcDbEntity
  8
1
 62
     3
100
AcDbCircle
 10
279.6278083438989
 20
89.41241714226746
 30
0.0
 40
0.6000000000000023
  0
CIRCLE
  5
D43
330
74
100
AcDbEntity
  8
1
 62
     3
100
AcDbCircle
 10
274.6278083438989
 20
89.41241714226746
 30
0.0
 40
0.5999999999999927
  0
CIRCLE
  5
D44
330
74
100
AcDbEntity
  8
1
 62
     3
100
AcDbCircle
 10
272.1278083438989
 20
85.08229012334529
 30
0.0
 40
0.6000000000000192
  0
CIRCLE
  5
D45
330
74
100
AcDbEntity
  8
1
 62
     3
100
AcDbCircle
 10
274.6278083438989
 20
80.75216310442305
 30
0.0
 40
0.6000000000000095
  0
CIRCLE
  5
D46
330
74
100
AcDbEntity
  8
1
 62
     7
100
AcDbCircle
 10
277.1278083438989
 20
85.08229012334528
 30
0.0
 40
0.7500000000000308
  0
CIRCLE
  5
D47
330
74
100
AcDbEntity
  8
1
 62
     7
100
AcDbCircle
 10
277.1278083438989
 20
85.08229012334528
 30
0.0
 40
2.25
  0
CIRCLE
  5
D48
330
74
100
AcDbEntity
  8
1
 62
     7
100
AcDbCircle
 10
277.1278083438989
 20
85.08229012334528
 30
0.0
 40
3.000000000000023
  0
CIRCLE
  5
D49
330
74
100
AcDbEntity
  8
1
 62
     7
100
AcDbCircle
 10
277.1278083438989
 20
85.08229012334528
 30
0.0
 40
7.658463084415777
  0
CIRCLE
  5
D4A
330
74
100
AcDbEntity
  8
1
 62
     7
100
AcDbCircle
 10
271.9316559211923
 20
88.08229012334527
 30
0.0
 40
1.00000000000003
  0
CIRCLE
  5
D4B
330
74
100
AcDbEntity
  8
1
 62
     7
100
AcDbCircle
 10
277.1278083438989
 20
79.08229012334527
 30
0.0
 40
1.0
  0
CIRCLE
  5
D4C
330
74
100
AcDbEntity
  8
1
 62
     7
100
AcDbCircle
 10
277.1278083438989
 20
85.08229012334528
 30
0.0
 40
3.500000000000015
  0
CIRCLE
  5
D4D
330
74
100
AcDbEntity
  8
1
 62
     7
100
AcDbCircle
 10
282.3239607666056
 20
88.08229012334527
 30
0.0
 40
0.9999999999999836
  0
LWPOLYLINE
  5
D4E
330
74
100
AcDbEntity
  8
1
 62
     2
100
AcDbPolyline
 90
       16
 70
     0
 43
0.0
 10
276.0278083438989
 20
62.05184545318228
 42
-0.0749743096955325
 10
276.1818422305966
 20
62.13439472752402
 42
-0.0714644541684706
 10
276.3372268720913
 20
62.16306672374397
 42
-0.0501291497813499
 10
276.4937736095937
 20
62.15277656935463
 42
-0.0250017502790888
 10
276.6512937843149
 20
62.11843939186845
 42
-0.0021840298805912
 10
276.8095987374656
 20
62.07497031879796
 42
0.0198153594811703
 10
276.9684998102566
 20
62.03728447765564
 42
0.0434891840806833
 10
277.127808343899
 20
62.02029699595397
 42
0.0412872044739828
 10
277.2767777129551
 20
62.0321561238175
 42
0.0195179218531869
 10
277.4256205228854
 20
62.0623734641306
 42
-0.0008917706847531
 10
277.5740193384063
 20
62.09823912386585
 42
-0.0214606678465503
 10
277.7216567242346
 20
62.12704320999583
 42
-0.0439839860847454
 10
277.8682152450866
 20
62.13607582949315
 42
-0.0658891261755027
 10
278.0133774656792
 20
62.11262708933029
 42
-0.0764766433017179
 10
278.1568259507288
 20
62.04398709647988
 10
278.2278083438989
 20
61.98874853872577
  0
LWPOLYLINE
  5
D4F
330
74
100
AcDbEntity
  8
1
 62
     2
100
AcDbPolyline
 90
       16
 70
     0
 43
0.0
 10
410.1865060308773
 20
62.05184545318224
 42
-0.0749743096955547
 10
410.3405399175749
 20
62.134394727524
 42
-0.0714644541685642
 10
410.4959245590697
 20
62.16306672374395
 42
-0.0501291497812635
 10
410.6524712965721
 20
62.1527765693546
 42
-0.0250017502790523
 10
410.8099914712934
 20
62.11843939186842
 42
-0.0021840298807087
 10
410.968296424444
 20
62.07497031879793
 42
0.0198153594810849
 10
411.1271974972351
 20
62.03728447765559
 42
0.043489184080613
 10
411.2865060308775
 20
62.02029699595394
 42
0.0412872044740191
 10
411.4354753999334
 20
62.03215612381747
 42
0.0195179218532293
 10
411.5843182098639
 20
62.06237346413057
 42
-0.0008917706848201
 10
411.7327170253848
 20
62.09823912386582
 42
-0.0214606678466091
 10
411.8803544112131
 20
62.12704320999581
 42
-0.0439839860846969
 10
412.0269129320652
 20
62.13607582949309
 42
-0.0658891261754204
 10
412.1720751526577
 20
62.11262708933024
 42
-0.0764766433017562
 10
412.3155236377073
 20
62.04398709647985
 10
412.3865060308774
 20
61.98874853872577
  0
LWPOLYLINE
  5
D50
330
74
100
AcDbEntity
  8
1
 62
     2
100
AcDbPolyline
 90
       16
 70
     0
 43
0.0
 10
276.0278083438989
 20
60.77184545318226
 42
-0.0749743096955253
 10
276.1818422305966
 20
60.85439472752402
 42
-0.0714644541685657
 10
276.3372268720913
 20
60.88306672374395
 42
-0.0501291497813521
 10
276.4937736095937
 20
60.87277656935464
 42
-0.0250017502791449
 10
276.6512937843149
 20
60.83843939186842
 42
-0.0021840298807584
 10
276.8095987374656
 20
60.79497031879792
 42
0.0198153594811711
 10
276.9684998102566
 20
60.75728447765563
 42
0.0434891840805925
 10
277.127808343899
 20
60.74029699595397
 42
0.0412872044738363
 10
277.2767777129551
 20
60.75215612381747
 42
0.0195179218532334
 10
277.4256205228854
 20
60.78237346413058
 42
-0.0008917706849338
 10
277.5740193384064
 20
60.81823912386585
 42
-0.0214606678465847
 10
277.7216567242346
 20
60.84704320999586
 42
-0.0439839860847906
 10
277.8682152450867
 20
60.85607582949315
 42
-0.065889126175417
 10
278.0133774656792
 20
60.8326270893303
 42
-0.0764766433016329
 10
278.1568259507288
 20
60.76398709647988
 10
278.2278083438989
 20
60.70874853872577
  0
LWPOLYLINE
  5
D51
330
74
100
AcDbEntity
  8
1
 62
     2
100
AcDbPolyline
 90
       16
 70
     0
 43
0.0
 10
410.1865060308773
 20
60.77184545318225
 42
-0.0749743096955251
 10
410.3405399175749
 20
60.85439472752398
 42
-0.0714644541686495
 10
410.4959245590697
 20
60.88306672374395
 42
-0.0501291497812635
 10
410.6524712965721
 20
60.87277656935461
 42
-0.0250017502790964
 10
410.8099914712934
 20
60.83843939186842
 42
-0.0021840298807504
 10
410.968296424444
 20
60.7949703187979
 42
0.0198153594810849
 10
411.1271974972351
 20
60.7572844776556
 42
0.043489184080613
 10
411.2865060308775
 20
60.74029699595396
 42
0.0412872044738764
 10
411.4354753999334
 20
60.75215612381747
 42
0.019517921853137
 10
411.5843182098639
 20
60.78237346413057
 42
-0.0008917706847749
 10
411.7327170253848
 20
60.81823912386585
 42
-0.0214606678466101
 10
411.8803544112131
 20
60.84704320999581
 42
-0.0439839860848877
 10
412.0269129320652
 20
60.85607582949307
 42
-0.0658891261754204
 10
412.1720751526577
 20
60.83262708933022
 42
-0.0764766433016658
 10
412.3155236377073
 20
60.76398709647985
 10
412.3865060308774
 20
60.70874853872574
  0
LWPOLYLINE
  5
D52
330
74
100
AcDbEntity
  8
1
 62
     2
100
AcDbPolyline
 90
       11
 70
     0
 43
0.0
 10
334.9055646537955
 20
60.80228280988928
 42
0.0330198850830442
 10
335.01729114569
 20
60.8089595931734
 42
0.0206249567314834
 10
335.1289910874128
 20
60.82775019966739
 42
0.0087931320232431
 10
335.2405305609539
 20
60.85329264325029
 42
-0.0025515456543635
 10
335.3517756483029
 20
60.88022493780115
 42
-0.0141099960086801
 10
335.4625924314498
 20
60.90318509719907
 42
-0.0265196644868638
 10
335.5728469923845
 20
60.9168111353231
 42
-0.0395604904996481
 10
335.6824054130964
 20
60.91574106605225
 42
-0.0510559187598132
 10
335.7911337755758
 20
60.89461290326558
 42
-0.0568958372352237
 10
335.8988981618121
 20
60.84806466084216
 42
-0.0545100086523243
 10
336.0055646537956
 20
60.77073435266109
  0
LWPOLYLINE
  5
D53
330
74
100
AcDbEntity
  8
1
 62
     2
100
AcDbPolyline
 90
       12
 70
     0
 43
0.0
 10
334.9055646537943
 20
63.04228280988938
 10
334.9055646537963
 20
63.04228280988931
 42
0.0330198850832802
 10
335.0172911456905
 20
63.04895959317343
 42
0.020624956731354
 10
335.1289910874132
 20
63.06775019966739
 42
0.0087931320230508
 10
335.2405305609541
 20
63.09329264325029
 42
-0.0025515456544549
 10
335.3517756483031
 20
63.12022493780117
 42
-0.0141099960085637
 10
335.46259243145
 20
63.1431850971991
 42
-0.0265196644867523
 10
335.5728469923845
 20
63.1568111353231
 42
-0.0395604904995202
 10
335.6824054130965
 20
63.15574106605224
 42
-0.0510559187598376
 10
335.7911337755758
 20
63.13461290326561
 42
-0.0568958372352237
 10
335.8988981618121
 20
63.08806466084219
 42
-0.0545100086524178
 10
336.0055646537956
 20
63.0107343526611
  0
LWPOLYLINE
  5
D54
330
74
100
AcDbEntity
  8
1
 62
     2
100
AcDbPolyline
 90
       12
 70
     0
 43
0.0
 10
334.9055646537943
 20
70.50228280988929
 10
334.9055646537963
 20
70.50228280988929
 42
0.0330198850831533
 10
335.0172911456905
 20
70.50895959317341
 42
0.0206249567312906
 10
335.1289910874132
 20
70.52775019966738
 42
0.0087931320231113
 10
335.2405305609541
 20
70.55329264325028
 42
-0.0025515456543949
 10
335.3517756483031
 20
70.58022493780119
 42
-0.0141099960086251
 10
335.46259243145
 20
70.6031850971991
 42
-0.0265196644868769
 10
335.5728469923845
 20
70.61681113532308
 42
-0.0395604904994559
 10
335.6824054130965
 20
70.61574106605225
 42
-0.051055918759773
 10
335.7911337755758
 20
70.59461290326556
 42
-0.056895837235279
 10
335.8988981618121
 20
70.54806466084219
 42
-0.0545100086524612
 10
336.0055646537956
 20
70.47073435266106
  0
LWPOLYLINE
  5
D55
330
74
100
AcDbEntity
  8
1
 62
     2
100
AcDbPolyline
 90
       11
 70
     0
 43
0.0
 10
334.9055646537954
 20
68.26228280988928
 42
0.0330198850830367
 10
335.0172911456899
 20
68.26895959317337
 42
0.0206249567312504
 10
335.1289910874128
 20
68.28775019966738
 42
0.0087931320232431
 10
335.2405305609539
 20
68.31329264325025
 42
-0.0025515456544236
 10
335.3517756483029
 20
68.34022493780117
 42
-0.0141099960087374
 10
335.4625924314498
 20
68.36318509719908
 42
-0.0265196644869273
 10
335.5728469923845
 20
68.37681113532309
 42
-0.039560490499519
 10
335.6824054130964
 20
68.37574106605224
 42
-0.0510559187597486
 10
335.7911337755758
 20
68.35461290326557
 42
-0.0568958372351635
 10
335.8988981618121
 20
68.30806466084218
 42
-0.0545100086523678
 10
336.0055646537956
 20
68.23073435266106
  0
ARC
  5
D56
330
74
100
AcDbEntity
  8
1
 62
     7
100
AcDbCircle
 10
409.6080910026186
 20
77.88229012334523
 30
0.0
 40
0.5
100
AcDbArc
 50
90.0
 51
162.9999999999978
  0
ARC
  5
D57
330
74
100
AcDbEntity
  8
1
 62
     7
100
AcDbCircle
 10
412.9649210591361
 20
77.88229012334523
 30
0.0
 40
0.5000000000000876
100
AcDbArc
 50
16.99999999999441
 51
90.0
  0
ARC
  5
D58
330
74
100
AcDbEntity
  8
1
 62
     7
100
AcDbCircle
 10
246.0278083438989
 20
55.84813468150088
 30
0.0
 40
30.0
100
AcDbArc
 50
355.0000000000003
 51
0.0
  0
ARC
  5
D59
330
74
100
AcDbEntity
  8
1
 62
     7
100
AcDbCircle
 10
246.0278083438989
 20
55.84813468150088
 30
0.0
 40
31.10000000000001
100
AcDbArc
 50
355.0000000000003
 51
0.0
  0
ARC
  5
D5A
330
74
100
AcDbEntity
  8
1
 62
     7
100
AcDbCircle
 10
308.2278083438989
 20
55.8481346815008
 30
0.0
 40
30.0
100
AcDbArc
 50
180.0
 51
184.9999999999997
  0
ARC
  5
D5B
330
74
100
AcDbEntity
  8
1
 62
     7
100
AcDbCircle
 10
308.2278083438989
 20
55.8481346815008
 30
0.0
 40
31.09999999999999
100
AcDbArc
 50
180.0
 51
184.9999999999997
  0
ARC
  5
D5C
330
74
100
AcDbEntity
  8
1
 62
     7
100
AcDbCircle
 10
380.1865060308775
 20
55.84813468150085
 30
0.0
 40
30.00000000000003
100
AcDbArc
 50
355.0000000000003
 51
0.0
  0
ARC
  5
D5D
330
74
100
AcDbEntity
  8
1
 62
     7
100
AcDbCircle
 10
380.1865060308775
 20
55.84813468150085
 30
0.0
 40
31.10000000000001
100
AcDbArc
 50
355.0000000000003
 51
0.0
  0
ARC
  5
D5E
330
74
100
AcDbEntity
  8
1
 62
     7
100
AcDbCircle
 10
442.3865060308774
 20
55.84813468150076
 30
0.0
 40
30.0
100
AcDbArc
 50
180.0
 51
184.9999999999997
  0
ARC
  5
D5F
330
74
100
AcDbEntity
  8
1
 62
     7
100
AcDbCircle
 10
442.3865060308774
 20
55.84813468150076
 30
0.0
 40
31.09999999999999
100
AcDbArc
 50
180.0
 51
184.9999999999997
  0
ARC
  5
D60
330
74
100
AcDbEntity
  8
1
 62
     7
100
AcDbCircle
 10
334.5055646537957
 20
92.50229012334525
 30
0.0
 40
0.5
100
AcDbArc
 50
90.0
 51
180.0
  0
ARC
  5
D61
330
74
100
AcDbEntity
  8
1
 62
     7
100
AcDbCircle
 10
334.5055646537957
 20
77.66229012334523
 30
0.0
 40
0.5
100
AcDbArc
 50
180.0
 51
270.0
  0
ARC
  5
D62
330
74
100
AcDbEntity
  8
1
 62
     7
100
AcDbCircle
 10
369.2467483047602
 20
84.38229012334522
 30
0.0
 40
0.0500000000000114
100
AcDbArc
 50
270.0
 51
290.0000000000208
  0
ARC
  5
D63
330
74
100
AcDbEntity
  8
1
 62
     7
100
AcDbCircle
 10
369.4555646537957
 20
84.45829305882226
 30
0.0
 40
0.0499999999999731
100
AcDbArc
 50
289.999999999896
 51
0.0
  0
ARC
  5
D64
330
74
100
AcDbEntity
  8
1
 62
     7
100
AcDbCircle
 10
369.4555646537957
 20
85.70628718786819
 30
0.0
 40
0.0499999999999972
100
AcDbArc
 50
0.0
 51
70.00000000010395
  0
ARC
  5
D65
330
74
100
AcDbEntity
  8
1
 62
     7
100
AcDbCircle
 10
369.2467483047602
 20
85.78229012334523
 30
0.0
 40
0.050000000000012
100
AcDbArc
 50
69.99999999997919
 51
90.0
  0
LINE
  5
D66
330
74
100
AcDbEntity
  8
1
 62
     2
100
AcDbLine
 10
283.2278083438989
 20
57.08229012334538
 30
0.0
 11
277.1278083438989
 21
57.08229012334538
 31
0.0
  0
CIRCLE
  5
D67
330
74
100
AcDbEntity
  8
1
 62
     2
100
AcDbCircle
 10
277.1278083438989
 20
57.08229012334538
 30
0.0
 40
0.45
  0
DIMENSION
  5
D6E
330
74
100
AcDbEntity
  8
1
  6
Continuous
 62
     2
100
AcDbDimension
  2
*D5
 10
398.3036080313665
 20
90.08229012334522
 30
0.0
 11
397.3386080313665
 21
85.08229012334528
 31
0.0
 70
    32
 71
     5
 42
10.0
  3
DMST_1
100
AcDbAlignedDimension
 13
409.4365060308773
 23
80.08229012334522
 33
0.0
 14
409.4365060308773
 24
90.08229012334522
 34
0.0
 50
90.0
100
AcDbRotatedDimension
  0
DIMENSION
  5
D6F
330
74
100
AcDbEntity
  8
1
  6
Continuous
 62
     2
100
AcDbDimension
  2
*D6
 10
272.9278083438989
 20
98.01885991768921
 30
0.0
 11
263.0063677551791
 21
99.71223930989754
 31
0.0
 70
   160
  1
M<>x2.8max.
 71
     5
 42
1.600000000000022
  3
DMST_1
100
AcDbAlignedDimension
 13
271.3278083438989
 23
85.08229012334529
 33
0.0
 14
272.9278083438989
 24
85.08229012334529
 34
0.0
100
AcDbRotatedDimension
  0
DIMENSION
  5
D70
330
74
100
AcDbEntity
  8
1
  6
Continuous
 62
     2
100
AcDbDimension
  2
*D7
 10
272.1278083438989
 20
105.0920824035587
 30
0.0
 11
276.9016285249011
 21
106.4092635893651
 31
0.0
 70
   160
  1
%%C<>
 71
     5
 42
10.00000000000005
  3
DMST_1
100
AcDbAlignedDimension
 13
282.1278083438989
 23
85.08229012334529
 33
0.0
 14
272.1278083438989
 24
85.08229012334529
 34
0.0
100
AcDbRotatedDimension
  0
DIMENSION
  5
D71
330
74
100
AcDbEntity
  8
1
  6
Continuous
 62
     2
100
AcDbDimension
  2
*D8
 10
412.1865060308773
 20
100.5770205665361
 30
0.0
 11
419.2926303852641
 21
101.9585793651024
 31
0.0
 70
   160
  1
2x %%C<>x4
 71
     5
 42
1.800000000000068
  3
DMST_1
100
AcDbAlignedDimension
 13
410.3865060308772
 23
90.08229012334522
 33
0.0
 14
412.1865060308773
 24
90.08229012334522
 34
0.0
100
AcDbRotatedDimension
  0
DIMENSION
  5
D72
330
74
100
AcDbEntity
  8
1
  6
Continuous
 62
     2
100
AcDbDimension
  2
*D9
 10
369.5055646537956
 20
61.94459742109924
 30
0.0
 11
365.7555646537957
 21
63.96018754678914
 31
0.0
 70
   160
  1
<>{\H0.68571x;%%P0.5}
 71
     5
 42
7.5
  3
DMST_1
100
AcDbAlignedDimension
 13
362.0055646537957
 23
77.94999501705095
 33
0.0
 14
369.5055646537956
 24
84.45829305882226
 34
0.0
100
AcDbRotatedDimension
  0
DIMENSION
  5
D73
330
74
100
AcDbEntity
  8
1
  6
Continuous
 62
     2
100
AcDbDimension
  2
*D10
 10
369.5055646537956
 20
69.68561961807854
 30
0.0
 11
366.2555646537957
 21
71.1741101563631
 31
0.0
 70
   160
 71
     5
 42
6.5
  3
DMST_1
100
AcDbAlignedDimension
 13
363.0055646537956
 23
82.08229012334522
 33
0.0
 14
369.5055646537956
 24
84.45829305882226
 34
0.0
100
AcDbRotatedDimension
  0
DIMENSION
  5
D74
330
74
100
AcDbEntity
  8
1
  6
Continuous
 62
     2
100
AcDbDimension
  2
*D11
 10
369.5055646537956
 20
77.02814465278604
 30
0.0
 11
373.3923914985062
 21
78.24390986776871
 31
0.0
 70
   160
  1
<>{\H0.68571x;%%P0.5}
 71
     5
 42
5.300000000000068
  3
DMST_1
100
AcDbAlignedDimension
 13
364.2055646537956
 23
82.63229012334525
 33
0.0
 14
369.5055646537956
 24
84.45829305882226
 34
0.0
100
AcDbRotatedDimension
  0
DIMENSION
  5
D75
330
74
100
AcDbEntity
  8
1
  6
Continuous
 62
     2
100
AcDbDimension
  2
*D12
 10
333.0055646537955
 20
69.5882223206207
 30
0.0
 11
330.0023163317423
 21
71.08836038871186
 31
0.0
 70
   160
 71
     5
 42
-1.0
  3
DMST_1
100
AcDbAlignedDimension
 13
334.0055646537956
 23
77.66229012334523
 33
0.0
 14
333.0055646537955
 24
82.28229012334523
 34
0.0
100
AcDbRotatedDimension
  0
DIMENSION
  5
D76
330
74
100
AcDbEntity
  8
1
  6
Continuous
 62
     2
100
AcDbDimension
  2
*D13
 10
323.3175425799832
 20
85.08229012334522
 30
0.0
 11
322.3525425799831
 21
62.9728452431237
 31
0.0
 70
    32
  1
150
 71
     5
 42
44.21888976044317
  3
DMST_1
100
AcDbAlignedDimension
 13
335.1555646537956
 23
40.86340036290207
 33
0.0
 14
331.2816352448517
 24
85.08229012334522
 34
0.0
 50
90.0
100
AcDbRotatedDimension
  0
DIMENSION
  5
D77
330
74
100
AcDbEntity
  8
1
  6
Continuous
 62
     2
100
AcDbDimension
  2
*D14
 10
362.0055646537957
 20
61.94639077257925
 30
0.0
 11
346.5173171463503
 21
63.19212390765915
 31
0.0
 70
   160
 71
     5
 42
28.00000000000011
  3
DMST_1
100
AcDbAlignedDimension
 13
334.0055646537956
 23
77.66229012334523
 33
0.0
 14
362.0055646537957
 24
77.94999501705095
 34
0.0
100
AcDbRotatedDimension
  0
DIMENSION
  5
D78
330
74
100
AcDbEntity
  8
1
  6
Continuous
 62
     2
100
AcDbDimension
  2
*D15
 10
328.7069210610062
 20
45.86340036290207
 30
0.0
 11
327.4043720112693
 21
51.20910873264222
 31
0.0
 70
   160
  1
5 tinned
 71
     5
 42
5.0
  3
DMST_1
100
AcDbAlignedDimension
 13
335.1555646537956
 23
40.86340036290207
 33
0.0
 14
334.9055646537956
 24
45.86340036290207
 34
0.0
 50
90.0
100
AcDbRotatedDimension
  0
DIMENSION
  5
D79
330
74
100
AcDbEntity
  8
1
  6
Continuous
 62
     2
100
AcDbDimension
  2
*D16
 10
266.6278083438989
 20
85.08229012334528
 30
0.0
 11
264.5592287841775
 21
77.9950565316069
 31
0.0
 70
   162
  1
6x<>
 71
     5
 42
1.04719755119659
  3
DMST_1
100
AcDb2LineAngularDimension
 13
273.745892478927
 23
79.22464001829067
 33
0.0
 14
280.5648154598107
 24
91.03536107408018
 34
0.0
 15
271.3278083438989
 25
85.08229012334529
 35
0.0
 16
264.9252751023046
 26
74.84314898089486
 36
0.0
  0
LINE
  5
ECB
330
74
100
AcDbEntity
  8
0
 62
     2
100
AcDbLine
 10
272.9278083438989
 20
98.01885991768921
 30
0.0
 11
256.4944464074194
 21
98.01885991768921
 31
0.0
  0
LINE
  5
EF4
330
74
100
AcDbEntity
  8
0
 62
     2
100
AcDbLine
 10
410.3865060308772
 20
100.5770205665361
 30
0.0
 11
424.5423654818368
 21
100.5770205665361
 31
0.0
  0
LINE
  5
EF5
330
74
100
AcDbEntity
  8
1
 62
     2
100
AcDbLine
 10
328.9148711289178
 20
88.08229012334525
 30
0.0
 11
328.9148711289178
 21
98.05993537204244
 31
0.0
  0
LINE
  5
EF6
330
74
100
AcDbEntity
  8
1
 62
     2
100
AcDbLine
 10
333.2055646537956
 20
88.08229012334525
 30
0.0
 11
328.4148711289177
 21
88.08229012334525
 31
0.0
  0
SOLID
  5
EF7
330
74
100
AcDbEntity
  8
1
 62
     2
100
AcDbTrace
 10
328.9148711289178
 20
88.08229012334525
 30
0.0
 11
328.6873711289177
 21
89.83229012334524
 31
0.0
 12
329.1423711289178
 22
89.83229012334524
 32
0.0
 13
329.1423711289178
 23
89.83229012334524
 33
0.0
  0
TEXT
  5
EF8
330
74
100
AcDbEntity
  8
1
 62
     3
100
AcDbText
 10
328.0763407171384
 20
90.15845302542308
 30
0.0
 40
1.75
  1
%%C6
 50
90.0
100
AcDbText
  0
TEXT
  5
EF9
330
74
100
AcDbEntity
  8
1
 62
     3
100
AcDbText
 10
326.4788734783455
 20
93.65540114184506
 30
0.0
 40
1.225
  1
 0
 50
90.0
100
AcDbText
  0
TEXT
  5
EFA
330
74
100
AcDbEntity
  8
1
 62
     3
100
AcDbText
 10
328.3776234783455
 20
93.65540114184506
 30
0.0
 40
1.225
  1
-0.02
 50
90.0
100
AcDbText
  0
LINE
  5
F05
330
74
100
AcDbEntity
  8
1
 62
     2
100
AcDbLine
 10
350.7360089103843
 20
93.08229012334525
 30
0.0
 11
350.7360089103843
 21
104.3687901233451
 31
0.0
  0
SOLID
  5
F07
330
74
100
AcDbEntity
  8
1
 62
     2
100
AcDbTrace
 10
350.7360089103843
 20
93.08229012334525
 30
0.0
 11
350.5085089103843
 21
94.83229012334524
 31
0.0
 12
350.9635089103843
 22
94.83229012334524
 32
0.0
 13
350.9635089103843
 23
94.83229012334524
 33
0.0
  0
TEXT
  5
F08
330
74
100
AcDbEntity
  8
1
 62
     3
100
AcDbText
 10
349.7540148296367
 20
95.87309343065056
 30
0.0
 40
1.75
  1
%%C16
 50
90.0
100
AcDbText
  0
TEXT
  5
F09
330
74
100
AcDbEntity
  8
1
 62
     3
100
AcDbText
 10
348.3533079803657
 20
100.2604237654858
 30
0.0
 40
1.225
  1
 0
 50
90.0
100
AcDbText
  0
TEXT
  5
F0A
330
74
100
AcDbEntity
  8
1
 62
     3
100
AcDbText
 10
350.0304712753024
 20
100.1214731864696
 30
0.0
 40
1.225
  1
-0.1
 50
90.0
100
AcDbText
  0
LINE
  5
F0C
330
74
100
AcDbEntity
  8
1
 62
     2
100
AcDbLine
 10
368.6367008899317
 20
88.08229012334519
 30
0.0
 11
368.6367008899317
 21
101.7414355602262
 31
0.0
  0
LINE
  5
F0D
330
74
100
AcDbEntity
  8
1
 62
     2
100
AcDbLine
 10
363.0055646537956
 20
88.08229012334519
 30
0.0
 11
369.1367008899316
 21
88.08229012334519
 31
0.0
  0
SOLID
  5
F0E
330
74
100
AcDbEntity
  8
1
 62
     2
100
AcDbTrace
 10
368.6367008899317
 20
88.08229012334519
 30
0.0
 11
368.4092008899316
 21
89.83229012334522
 31
0.0
 12
368.8642008899316
 22
89.83229012334522
 32
0.0
 13
368.8642008899316
 23
89.83229012334522
 33
0.0
  0
TEXT
  5
F0F
330
74
100
AcDbEntity
  8
1
 62
     3
100
AcDbText
 10
367.6302935077429
 20
90.21304542120551
 30
0.0
 40
1.75
  1
%%C6 h8
 50
90.0
100
AcDbText
  0
TEXT
  5
F10
330
74
100
AcDbEntity
  8
1
 62
     3
100
AcDbText
 10
365.8912344253621
 20
97.43823281370113
 30
0.0
 40
1.225
  1
 0
 50
90.0
100
AcDbText
  0
TEXT
  5
F11
330
74
100
AcDbEntity
  8
1
 62
     3
100
AcDbText
 10
367.7899844253622
 20
97.43823281370113
 30
0.0
 40
1.225
  1
-0.018
 50
90.0
100
AcDbText
  0
LINE
  5
F13
330
74
100
AcDbEntity
  8
1
 62
     2
100
AcDbLine
 10
374.8893968429637
 20
87.53229012334525
 30
0.0
 11
374.8893968429637
 21
97.49090999703524
 31
0.0
  0
LINE
  5
F14
330
74
100
AcDbEntity
  8
1
 62
     2
100
AcDbLine
 10
364.2055646537956
 20
87.53229012334525
 30
0.0
 11
375.3893968429637
 21
87.53229012334525
 31
0.0
  0
SOLID
  5
F15
330
74
100
AcDbEntity
  8
1
 62
     2
100
AcDbTrace
 10
374.8893968429637
 20
87.53229012334525
 30
0.0
 11
374.6618968429637
 21
89.28229012334524
 31
0.0
 12
375.1168968429636
 22
89.28229012334524
 32
0.0
 13
375.1168968429636
 23
89.28229012334524
 33
0.0
  0
TEXT
  5
F16
330
74
100
AcDbEntity
  8
1
 62
     3
100
AcDbText
 10
374.0331468687652
 20
90.09601089428249
 30
0.0
 40
1.75
  1
%%C4.9
 50
90.0
100
AcDbText
  0
TEXT
  5
F17
330
74
100
AcDbEntity
  8
1
 62
     3
100
AcDbText
 10
372.4788734474884
 20
95.15739623810359
 30
0.0
 40
1.225
  1
 0
 50
90.0
100
AcDbText
  0
TEXT
  5
F18
330
74
100
AcDbEntity
  8
1
 62
     3
100
AcDbText
 10
374.3776234474883
 20
95.15739623810359
 30
0.0
 40
1.225
  1
-0.1
 50
90.0
100
AcDbText
  0
LINE
  5
F1A
330
74
100
AcDbEntity
  8
1
 62
     2
100
AcDbLine
 10
381.0936222847317
 20
85.83229012334525
 30
0.0
 11
381.0936222847317
 21
97.77673437313325
 31
0.0
  0
LINE
  5
F1B
330
74
100
AcDbEntity
  8
1
 62
     2
100
AcDbLine
 10
369.2467483047602
 20
85.83229012334525
 30
0.0
 11
381.5936222847316
 21
85.83229012334525
 31
0.0
  0
SOLID
  5
F1C
330
74
100
AcDbEntity
  8
1
 62
     2
100
AcDbTrace
 10
381.0936222847317
 20
85.83229012334525
 30
0.0
 11
380.8661222847316
 21
87.58229012334524
 31
0.0
 12
381.3211222847316
 22
87.58229012334524
 32
0.0
 13
381.3211222847316
 23
87.58229012334524
 33
0.0
  0
TEXT
  5
F1D
330
74
100
AcDbEntity
  8
1
 62
     3
100
AcDbText
 10
380.1624992954046
 20
88.57688715500605
 30
0.0
 40
1.75
  1
%%C1.5
 50
90.0
100
AcDbText
  0
TEXT
  5
F1E
330
74
100
AcDbEntity
  8
1
 62
     3
100
AcDbText
 10
378.6470173536305
 20
93.11723982918847
 30
0.0
 40
1.225
  1
-0.006
 50
90.0
100
AcDbText
  0
TEXT
  5
F1F
330
74
100
AcDbEntity
  8
1
 62
     3
100
AcDbText
 10
380.6682673536305
 20
93.11723982918847
 30
0.0
 40
1.225
  1
-0.009
 50
90.0
100
AcDbText
  0
LINE
  5
F37
330
74
100
AcDbEntity
  8
0
 62
     2
100
AcDbLine
 10
369.5055646537956
 20
77.02814465278604
 30
0.0
 11
376.3049184736915
 21
77.02814465278604
 31
0.0
  0
LINE
  5
FB7
330
74
100
AcDbEntity
  8
0
 62
     2
100
AcDbLine
 10
328.7069210610062
 20
45.86340036290207
 30
0.0
 11
328.7069210610062
 21
55.45244121959228
 31
0.0
  0
LINE
  5
FC1
330
74
100
AcDbEntity
  8
0
 62
     2
100
AcDbLine
 10
334.0055646537956
 20
69.5882223206207
 30
0.0
 11
333.0055646537955
 21
69.5882223206207
 31
0.0
  0
MTEXT
  5
FC2
330
74
100
AcDbEntity
  8
1
 62
     3
100
AcDbMText
 10
412.6808997869284
 20
99.35020106323143
 30
0.0
 40
1.75
 41
21.93602698757422
 71
     1
 72
     5
  1
(for Auto forming \P screw K18)
 73
     1
 44
1.0
1001
ACAD
1000
MTEXTBEGIN
1070
    73
1070
     1
1070
    44
1040
1.0
1070
    74
1070
     0
1000
MTEXTEND
  0
MTEXT
  5
FC3
330
74
100
AcDbEntity
  8
1
 62
     3
100
AcDbMText
 10
284.1488851957346
 20
57.97739724493147
 30
0.0
 40
1.75
 41
30.63355911060427
 71
     1
 72
     5
  1
Cable 2 x 0,14mm² \PPVC insulated at 105%%DC \PRed+ / Black -
 73
     1
 44
1.0
1001
ACAD
1000
MTEXTBEGIN
1070
    73
1070
     1
1070
    44
1040
1.0
1070
    74
1070
     0
1000
MTEXTEND
  0
HATCH
  5
FCD
330
74
100
AcDbEntity
  8
0
 62
     2
100
AcDbHatch
 10
0.0
 20
0.0
 30
0.0
210
0.0
220
0.0
230
1.0
  2
SOLID
 70
     1
 71
     0
 91
        3
 92
        7
 72
     1
 73
     1
 93
        3
 10
277.1278083438989
 20
57.53229012334539
 42
0.4142135623730895
 10
276.6778083438989
 20
57.08229012334538
 42
0.4142135623730895
 10
277.1278083438989
 20
56.63229012334539
 42
0.0
 97
        0
 92
        7
 72
     1
 73
     1
 93
        3
 10
277.1278083438989
 20
57.53229012334539
 42
0.0
 10
277.127808343899
 20
57.08229012334538
 42
0.0
 10
277.5778083438989
 20
57.08229012334538
 42
0.4142135623730895
 97
        0
 92
        7
 72
     1
 73
     1
 93
        3
 10
277.5778083438989
 20
57.08229012334538
 42
0.0
 10
277.1278083438989
 20
57.08229012334539
 42
0.0
 10
277.1278083438989
 20
56.63229012334539
 42
0.4142135623730895
 97
        0
 75
     0
 76
     1
 47
0.0108304540192142
 98
        3
 10
277.0495451164884
 20
57.24577062473453
 10
277.3530309431039
 20
57.29992331132438
 10
277.2988377848883
 20
56.81255276094418
1001
ACAD
1010
0.0
1020
0.0
1030
0.0
  0
LINE
  5
102C
330
74
100
AcDbEntity
  8
0
  6
Continuous
 62
   255
100
AcDbLine
 10
440.5715198231908
 20
-7.860255621799183
 30
0.0
 11
440.5715198231908
 21
130.6397443782008
 31
0.0
  0
LINE
  5
102D
330
74
100
AcDbEntity
  8
0
  6
Continuous
 62
   255
100
AcDbLine
 10
249.071536618391
 20
-7.860255621799183
 30
0.0
 11
440.5715198231908
 21
-7.860255621799183
 31
0.0
  0
LINE
  5
102E
330
74
100
AcDbEntity
  8
0
  6
Continuous
 62
   255
100
AcDbLine
 10
244.0715366183911
 20
130.6397443782008
 30
0.0
 11
244.0715366183911
 21
19.63974437820076
 31
0.0
  0
LINE
  5
102F
330
74
100
AcDbEntity
  8
0
  6
Continuous
 62
   255
100
AcDbLine
 10
244.0715366183911
 20
130.6397443782008
 30
0.0
 11
440.5715198231908
 21
130.6397443782008
 31
0.0
  0
LINE
  5
1030
330
74
100
AcDbEntity
  8
1
 62
     4
100
AcDbLine
 10
440.5715198231911
 20
-5.86025562179924
 30
0.0
 11
350.5715198231909
 21
-5.86025562179924
 31
0.0
1001
AcDbBlockRepETag
1070
     1
1071
     1947
1005
0
  0
LINE
  5
1031
330
74
100
AcDbEntity
  8
1
  6
CENTER
 62
     2
 48
0.25
100
AcDbLine
 10
438.9429913724463
 20
1.639744378200759
 30
0.0
 11
435.054816396032
 21
1.639744378200759
 31
0.0
1001
AcDbBlockRepETag
1070
     1
1071
     1948
1005
0
  0
LINE
  5
1032
330
74
100
AcDbEntity
  8
1
  6
CENTER
 62
     2
 48
0.25
100
AcDbLine
 10
436.998903884239
 20
3.58383186640782
 30
0.0
 11
436.998903884239
 21
-0.3043431100060729
 31
0.0
1001
AcDbBlockRepETag
1070
     1
1071
     1949
1005
0
  0
LINE
  5
1033
330
74
100
AcDbEntity
  8
1
  6
CENTER
 62
     2
 48
0.25
100
AcDbLine
 10
433.9429913724463
 20
1.639744378200759
 30
0.0
 11
428.4429913724465
 21
1.639744378200759
 31
0.0
1001
AcDbBlockRepETag
1070
     1
1071
     1950
1005
0
  0
LINE
  5
1034
330
74
100
AcDbEntity
  8
1
 62
   255
100
AcDbLine
 10
428.6929913724462
 20
2.426519264217914
 30
0.0
 11
428.6929913724462
 21
0.8529694921838313
 31
0.0
1001
AcDbBlockRepETag
1070
     1
1071
     1951
1005
0
  0
LINE
  5
1035
330
74
100
AcDbEntity
  8
1
 62
   255
100
AcDbLine
 10
433.6929913724461
 20
3.33383186640782
 30
0.0
 11
428.6929913724462
 21
2.426519264217914
 31
0.0
1001
AcDbBlockRepETag
1070
     1
1071
     1952
1005
0
  0
LINE
  5
1036
330
74
100
AcDbEntity
  8
1
 62
   255
100
AcDbLine
 10
428.6929913724462
 20
0.8529694921838313
 30
0.0
 11
433.6929913724461
 21
-0.0543431100063003
 31
0.0
1001
AcDbBlockRepETag
1070
     1
1071
     1953
1005
0
  0
LINE
  5
1037
330
74
100
AcDbEntity
  8
1
 62
   255
100
AcDbLine
 10
433.6929913724461
 20
-0.0543431100063003
 30
0.0
 11
433.6929913724461
 21
3.33383186640782
 31
0.0
1001
AcDbBlockRepETag
1070
     1
1071
     1954
1005
0
  0
LINE
  5
1038
330
74
100
AcDbEntity
  8
1
 62
     4
100
AcDbLine
 10
350.5715198231909
 20
7.639744378200759
 30
0.0
 11
350.5715198231909
 21
-7.86025562179924
 31
0.0
1001
AcDbBlockRepETag
1070
     1
1071
     1955
1005
0
  0
LINE
  5
1039
330
74
100
AcDbEntity
  8
1
 62
     4
100
AcDbLine
 10
378.0715198231908
 20
4.139744378200759
 30
0.0
 11
378.0715198231908
 21
-5.86025562179924
 31
0.0
1001
AcDbBlockRepETag
1070
     1
1071
     1956
1005
0
  0
LINE
  5
103A
330
74
100
AcDbEntity
  8
1
 62
     4
100
AcDbLine
 10
440.5715198231911
 20
4.139744378200759
 30
0.0
 11
350.5715198231909
 21
4.139744378200759
 31
0.0
1001
AcDbBlockRepETag
1070
     1
1071
     1957
1005
0
  0
LINE
  5
103B
330
74
100
AcDbEntity
  8
1
 62
     4
100
AcDbLine
 10
413.0715198231908
 20
-0.8602556217993535
 30
0.0
 11
440.5715198231911
 21
-0.8602556217993535
 31
0.0
1001
AcDbBlockRepETag
1070
     1
1071
     1958
1005
0
  0
LINE
  5
103C
330
74
100
AcDbEntity
  8
1
 62
     4
100
AcDbLine
 10
413.0715198231908
 20
-5.86025562179924
 30
0.0
 11
413.0715198231908
 21
4.139744378200759
 31
0.0
1001
AcDbBlockRepETag
1070
     1
1071
     1959
1005
0
  0
LINE
  5
103D
330
74
100
AcDbEntity
  8
1
 62
   255
100
AcDbLine
 10
426.8215198231911
 20
7.639744378200759
 30
0.0
 11
426.8215198231911
 21
-0.8602556217993535
 31
0.0
1001
AcDbBlockRepETag
1070
     1
1071
     1960
1005
0
  0
LINE
  5
103E
330
74
100
AcDbEntity
  8
1
 62
     4
100
AcDbLine
 10
350.5715198231909
 20
7.639744378200759
 30
0.0
 11
440.5715198231911
 21
7.639744378200759
 31
0.0
1001
AcDbBlockRepETag
1070
     1
1071
     1961
1005
0
  0
LINE
  5
103F
330
74
100
AcDbEntity
  8
1
 62
   255
100
AcDbLine
 10
367.5715198231908
 20
7.639744378200759
 30
0.0
 11
367.5715198231908
 21
4.139744378200759
 31
0.0
1001
AcDbBlockRepETag
1070
     1
1071
     1962
1005
0
  0
LINE
  5
1040
330
74
100
AcDbEntity
  8
1
 62
   255
100
AcDbLine
 10
384.5715198231911
 20
7.639744378200759
 30
0.0
 11
384.5715198231911
 21
4.139744378200759
 31
0.0
1001
AcDbBlockRepETag
1070
     1
1071
     1963
1005
0
  0
LINE
  5
1041
330
74
100
AcDbEntity
  8
1
 62
   255
100
AcDbLine
 10
401.5715198231911
 20
7.639744378200759
 30
0.0
 11
401.5715198231911
 21
4.139744378200759
 31
0.0
1001
AcDbBlockRepETag
1070
     1
1071
     1964
1005
0
  0
CIRCLE
  5
1042
330
74
100
AcDbEntity
  8
1
 62
   255
100
AcDbCircle
 10
436.998903884239
 20
1.639744378200759
 30
0.0
 40
1.694087488207003
1001
AcDbBlockRepETag
1070
     1
1071
     1969
1005
0
  0
CIRCLE
  5
1043
330
74
100
AcDbEntity
  8
1
 62
   255
100
AcDbCircle
 10
436.998903884239
 20
1.639744378200759
 30
0.0
 40
0.7867748860169858
1001
AcDbBlockRepETag
1070
     1
1071
     1970
1005
0
  0
TEXT
  5
1044
330
74
100
AcDbEntity
  8
1
 62
     1
100
AcDbText
 10
355.1715198231909
 20
-0.3602556217992401
 30
0.0
 40
3.0
  1
Portescap
 72
     1
 11
364.3215198231908
 21
-0.3602556217992401
 31
0.0
100
AcDbText
1001
AcDbBlockRepETag
1070
     1
1071
     1972
1005
0
  0
TEXT
  5
1045
330
74
100
AcDbEntity
  8
1
 62
     3
100
AcDbText
 10
362.2965198231909
 20
-3.860255621799126
 30
0.0
 40
1.5
  1
India
 72
     1
 11
364.3215198231908
 21
-3.860255621799126
 31
0.0
100
AcDbText
1001
AcDbBlockRepETag
1070
     1
1071
     1973
1005
0
  0
TEXT
  5
1046
330
74
100
AcDbEntity
  8
1
 62
     2
100
AcDbText
 10
351.2096760731909
 20
-7.385255621799351
 30
0.0
 40
1.049999999999998
  1
This drawing remains our property. Without written approval it may not be copied, reproduced or communicated or made available to third parties.
 41
0.925
 72
     1
 11
395.5715198231908
 21
-6.860255621799351
 31
0.0
100
AcDbText
 73
     2
1001
AcDbBlockRepETag
1070
     1
1071
     1974
1005
0
  0
TEXT
  5
1047
330
74
100
AcDbEntity
  8
1
 62
     3
100
AcDbText
 10
402.4215198231906
 20
5.139744378200871
 30
0.0
 40
1.5
  1
Dim and tolerances in mm
 72
     1
 11
414.1965198231906
 21
5.889744378200871
 31
0.0
100
AcDbText
 73
     2
1001
AcDbBlockRepETag
1070
     1
1071
     1975
1005
0
  0
TEXT
  5
1048
330
74
100
AcDbEntity
  8
1
 62
     3
100
AcDbText
 10
415.3090198231908
 20
0.7647443782007591
 30
0.0
 40
1.75
  1
Scale 2:1
 72
     1
 11
419.9465198231908
 21
1.639744378200759
 31
0.0
100
AcDbText
 73
     2
1001
AcDbBlockRepETag
1070
     1
1071
     1976
1005
0
  0
TEXT
  5
1049
330
74
100
AcDbEntity
  8
1
 62
     2
100
AcDbText
 10
427.8215198231911
 20
5.389744378200871
 30
0.0
 40
1.0
  1
Edition:
 11
427.8215198231911
 21
5.889744378200871
 31
0.0
100
AcDbText
 73
     2
1001
AcDbBlockRepETag
1070
     1
1071
     1977
1005
0
  0
TEXT
  5
104A
330
74
100
AcDbEntity
  8
1
 62
     3
100
AcDbText
 10
433.1063994695723
 20
5.264744378200871
 30
0.0
 40
1.25
  1
00
 11
433.1063994695723
 21
5.889744378200871
 31
0.0
100
AcDbText
 73
     2
1001
AcDbBlockRepETag
1070
     1
1071
     1978
1005
0
  0
TEXT
  5
104B
330
74
100
AcDbEntity
  8
1
 62
     4
100
AcDbText
 10
388.5441630798082
 20
-0.3602556217992401
 30
0.0
 40
2.0
  1
16G 1R  .1
100
AcDbText
1001
AcDbBlockRepETag
1070
     1
1071
     1979
1005
0
  0
TEXT
  5
104C
330
74
100
AcDbEntity
  8
1
 62
     4
100
AcDbText
 10
384.5330057594216
 20
-3.36025562179924
 30
0.0
 40
2.0
  1
 Outline drawing
100
AcDbText
1001
AcDbBlockRepETag
1070
     1
1071
     1980
1005
0
  0
TEXT
  5
104D
330
74
100
AcDbEntity
  8
1
 62
     4
100
AcDbText
 10
415.3215198231911
 20
-4.61025562179924
 30
0.0
 40
2.5
  1
1.011.16.3025.S11
 72
     1
 11
426.8215198231911
 21
-3.36025562179924
 31
0.0
100
AcDbText
 73
     2
1001
AcDbBlockRepETag
1070
     1
1071
     1981
1005
0
  0
TEXT
  5
104E
330
74
100
AcDbEntity
  8
1
 62
     2
100
AcDbText
 10
385.5715198231909
 20
5.389744378200871
 30
0.0
 40
1.0
  1
Conformed :
 11
385.5715198231909
 21
5.889744378200871
 31
0.0
100
AcDbText
 73
     2
1001
AcDbBlockRepETag
1070
     1
1071
     1982
1005
0
  0
TEXT
  5
104F
330
74
100
AcDbEntity
  8
1
 62
     2
100
AcDbText
 10
368.5715198231908
 20
5.389744378200871
 30
0.0
 40
1.0
  1
Checked :
 11
368.5715198231908
 21
5.889744378200871
 31
0.0
100
AcDbText
 73
     2
1001
AcDbBlockRepETag
1070
     1
1071
     1983
1005
0
  0
TEXT
  5
1050
330
74
100
AcDbEntity
  8
1
 62
     2
100
AcDbText
 10
351.5715198231908
 20
5.389744378200871
 30
0.0
 40
1.0
  1
Drawn :  24.04.08 RM
 11
351.5715198231908
 21
5.889744378200871
 31
0.0
100
AcDbText
 73
     2
1001
AcDbBlockRepETag
1070
     1
1071
     1984
1005
0
  0
LINE
  5
105B
330
74
100
AcDbEntity
  8
0
  6
Continuous
 62
   255
100
AcDbLine
 10
249.071536618391
 20
19.63974437820082
 30
0.0
 11
249.071536618391
 21
-7.860255621799183
 31
0.0
1001
AcDbBlockRepETag
1070
     1
1071
     1946
1005
0
  0
LINE
  5
105C
330
74
100
AcDbEntity
  8
0
  6
Continuous
 62
   255
100
AcDbLine
 10
249.071536618391
 20
19.63974437820082
 30
0.0
 11
244.0715366183911
 21
19.63974437820082
 31
0.0
  0
TEXT
  5
105D
330
74
100
AcDbEntity
  8
1
 62
     4
100
AcDbText
 10
245.3215366183911
 20
17.38974437820076
 30
0.0
 40
2.5
  1
1.011.16.3025.S11
 50
270.0
 72
     1
 11
246.5715366183911
 21
5.889744378200759
 31
0.0
100
AcDbText
 73
     2
  0
TEXT
  5
105E
330
74
100
AcDbEntity
  8
1
 62
     2
100
AcDbText
 10
350.995423049946
 20
8.61044034708982
 30
0.0
 40
1.5
  1
General tolerance : %%P0.2mm
 11
350.995423049946
 21
9.36044034708982
 31
0.0
100
AcDbText
 73
     2
1001
AcDbBlockRepETag
1070
     1
1071
     1984
1005
0
  0
ENDSEC
  0
SECTION
  2
OBJECTS
  0
DICTIONARY
  5
C
330
0
100
AcDbDictionary
281
     1
  3
ACAD_COLOR
350
6A
  3
ACAD_GROUP
350
D
  3
ACAD_LAYOUT
350
69
  3
ACAD_MATERIAL
350
10
  3
ACAD_MLEADERSTYLE
350
6D
  3
ACAD_MLINESTYLE
350
66
  3
ACAD_PLOTSETTINGS
350
68
  3
ACAD_PLOTSTYLENAME
350
E
  3
ACAD_SCALELIST
350
3A
  3
ACAD_TABLESTYLE
350
6B
  3
ACAD_VISUALSTYLE
350
29
  3
ACDB_RECOMPOSE_DATA
350
384
  3
ACDBHEADERROUNDTRIPXREC
350
11A7
  3
AcDbVariableDictionary
350
36F
  3
DWGPROPS
350
11A6
  0
DICTIONARY
  5
36B
330
5C
100
AcDbDictionary
280
     1
281
     1
  3
ADSK_XREC_LAYER_RECONCILED
360
36C
  0
DICTIONARY
  5
36D
330
84
100
AcDbDictionary
280
     1
281
     1
  3
ADSK_XREC_LAYER_RECONCILED
360
36E
  0
DICTIONARY
  5
EFC
330
74
100
AcDbDictionary
280
     1
281
     1
  3
ACAD_SORTENTS
360
EFD
  0
DICTIONARY
  5
6A
102
{ACAD_REACTORS
330
C
102
}
330
C
100
AcDbDictionary
281
     1
  0
DICTIONARY
  5
D
102
{ACAD_REACTORS
330
C
102
}
330
C
100
AcDbDictionary
281
     1
  0
DICTIONARY
  5
69
102
{ACAD_REACTORS
330
C
102
}
330
C
100
AcDbDictionary
281
     1
  3
Layout1
350
73
  3
Model
350
77
  0
DICTIONARY
  5
10
102
{ACAD_REACTORS
330
C
102
}
330
C
100
AcDbDictionary
281
     1
  3
ByBlock
350
19
  3
ByLayer
350
11
  3
Global
350
21
  0
DICTIONARY
  5
6D
102
{ACAD_REACTORS
330
C
102
}
330
C
100
AcDbDictionary
281
     1
  3
Standard
350
6E
  0
DICTIONARY
  5
66
102
{ACAD_REACTORS
330
C
102
}
330
C
100
AcDbDictionary
281
     1
  3
Standard
350
67
  0
DICTIONARY
  5
68
102
{ACAD_REACTORS
330
C
102
}
330
C
100
AcDbDictionary
281
     1
  0
ACDBDICTIONARYWDFLT
  5
E
102
{ACAD_REACTORS
330
C
102
}
330
C
100
AcDbDictionary
281
     1
  3
Normal
350
F
100
AcDbDictionaryWithDefault
340
F
  0
DICTIONARY
  5
3A
102
{ACAD_REACTORS
330
C
102
}
330
C
100
AcDbDictionary
281
     1
  3
A0
350
3B
  3
A1
350
3C
  3
A2
350
3D
  3
A3
350
3E
  3
A4
350
3F
  3
A5
350
40
  3
A6
350
41
  3
A7
350
42
  3
A8
350
43
  3
A9
350
44
  3
B0
350
45
  3
B1
350
46
  3
B2
350
47
  3
B3
350
48
  3
B4
350
49
  3
B5
350
4A
  3
B6
350
4B
  3
B7
350
4C
  3
B8
350
4D
  3
B9
350
4E
  3
C0
350
4F
  3
C1
350
50
  3
C2
350
51
  3
C3
350
52
  3
C4
350
53
  3
C5
350
54
  3
C6
350
55
  3
C7
350
56
  3
C8
350
57
  3
C9
350
58
  3
D0
350
59
  3
D1
350
5A
  3
D2
350
5B
  0
DICTIONARY
  5
6B
102
{ACAD_REACTORS
330
C
102
}
330
C
100
AcDbDictionary
281
     1
  3
Standard
350
6C
  0
DICTIONARY
  5
29
102
{ACAD_REACTORS
330
C
102
}
330
C
100
AcDbDictionary
281
     1
  3
2dWireframe
350
2F
  3
3D Hidden
350
31
  3
3dWireframe
350
30
  3
Basic
350
2E
  3
Brighten
350
35
  3
ColorChange
350
39
  3
Conceptual
350
32
  3
Dim
350
34
  3
Facepattern
350
38
  3
Flat
350
2A
  3
FlatWithEdges
350
2B
  3
Gouraud
350
2C
  3
GouraudWithEdges
350
2D
  3
Linepattern
350
37
  3
Realistic
350
33
  3
Thicken
350
36
  0
XRECORD
  5
384
102
{ACAD_REACTORS
330
C
102
}
330
C
100
AcDbXrecord
280
     1
 90
        1
330
6C
  0
DICTIONARY
  5
11A7
102
{ACAD_REACTORS
330
C
102
}
330
C
100
AcDbDictionary
281
     1
  0
DICTIONARY
  5
36F
102
{ACAD_REACTORS
330
C
102
}
330
C
100
AcDbDictionary
281
     1
  3
CANNOSCALE
350
372
  3
CMLEADERSTYLE
350
371
  3
CTABLESTYLE
350
370
  3
DIMASSOC
350
375
  3
INDEXCTL
350
374
  3
PROJECTNAME
350
11A4
  3
SORTENTS
350
373
  0
XRECORD
  5
11A6
102
{ACAD_REACTORS
330
C
102
}
330
C
100
AcDbXrecord
280
     1
  1
DWGPROPS COOKIE
  2

  3

  4

  6

  7

  8
Rajitha.MInkuri
  9

300
=
301
=
302
=
303
=
304
=
305
=
306
=
307
=
308
=
309
=
 40
0.0167282175925926
 41
2454938.521967789
 42
2454951.66984551
  1

 90
        0
  0
XRECORD
  5
36C
102
{ACAD_REACTORS
330
36B
102
}
330
36B
100
AcDbXrecord
280
     1
290
     1
  0
XRECORD
  5
36E
102
{ACAD_REACTORS
330
36D
102
}
330
36D
100
AcDbXrecord
280
     1
290
     1
  0
SORTENTSTABLE
  5
EFD
102
{ACAD_REACTORS
330
EFC
102
}
330
EFC
100
AcDbSortentsTable
330
74
331
D4E
  5
1040
331
F0D
  5
106C
331
CA1
  5
D01
331
CD8
  5
D37
331
C62
  5
CC0
331
D17
  5
ECB
331
D1F
  5
F07
331
D56
  5
1048
331
C6A
  5
CC8
331
CE0
  5
D3F
331
F15
  5
1079
331
D5E
  5
1050
331
D76
  5
1062
331
CE8
  5
D47
331
C33
  5
C91
331
C72
  5
CD0
331
CA9
  5
D09
331
D66
  5
1058
331
CF0
  5
D4F
331
D27
  5
F13
331
C3B
  5
C99
331
C7A
  5
CD8
331
102C
  5
9CA
331
CB1
  5
D10
331
CB9
  5
D18
331
CF8
  5
D57
331
1034
  5
9D2
331
C43
  5
CA1
331
C82
  5
CE0
331
D2F
  5
F1C
331
D37
  5
FC2
331
EF6
  5
107E
331
C8A
  5
CEA
331
CC1
  5
D20
331
103C
  5
9DA
331
C4B
  5
CA9
331
D00
  5
D5F
331
D3F
  5
1031
331
D6E
  5
105A
331
C2E
  5
C8C
331
D08
  5
D67
331
C92
  5
CF2
331
CC9
  5
D28
331
F1D
  5
1074
331
1044
  5
9E2
331
C53
  5
CB1
331
D10
  5
D75
331
D47
  5
1039
331
C5B
  5
CB9
331
C9A
  5
CFA
331
104C
  5
9EA
331
CD1
  5
D30
331
F0E
  5
106D
331
CD9
  5
D38
331
D18
  5
EF4
331
C63
  5
CC1
331
CA2
  5
D02
331
D4F
  5
1041
331
D57
  5
1049
331
CE1
  5
D40
331
F16
  5
107A
331
C6B
  5
CC9
331
D5F
  5
1051
331
D77
  5
1063
331
CAA
  5
D0A
331
CE9
  5
D48
331
FCD
  5
CE6
331
C34
  5
C92
331
C73
  5
CD1
331
D20
  5
F0B
331
D28
  5
F14
331
D67
  5
1059
331
C7B
  5
CD9
331
CB2
  5
D11
331
102D
  5
9CB
331
C3C
  5
C9A
331
CF1
  5
D50
331
CF9
  5
D58
331
D30
  5
F1D
331
C44
  5
CA2
331
C83
  5
CE1
331
1035
  5
9D3
331
CBA
  5
D19
331
EF7
  5
107F
331
D01
  5
D60
331
D38
  5
FC3
331
C4C
  5
CAA
331
C8B
  5
CEB
331
103D
  5
9DB
331
CC2
  5
D21
331
D6F
  5
105B
331
C2F
  5
C8D
331
CCA
  5
D29
331
D09
  5
D6E
331
1045
  5
9E3
331
C54
  5
CB2
331
F1E
  5
1075
331
C93
  5
CF3
331
D40
  5
1032
331
D48
  5
103A
331
F07
  5
1067
331
C9B
  5
CFB
331
CD2
  5
D31
331
104D
  5
9EB
331
C5C
  5
CBA
331
D11
  5
D76
331
D19
  5
EF5
331
D50
  5
1042
331
CA3
  5
D03
331
CDA
  5
D39
331
F0F
  5
106E
331
C64
  5
CC2
331
D58
  5
104A
331
C6C
  5
CCA
331
CE2
  5
D41
331
F17
  5
107B
331
D70
  5
105C
331
D78
  5
1064
331
CEA
  5
D49
331
D21
  5
F0C
331
C35
  5
C93
331
C74
  5
CD2
331
CAB
  5
D0B
331
D60
  5
1052
331
CB3
  5
D12
331
CF2
  5
D51
331
C3D
  5
C9B
331
C7C
  5
CDA
331
D29
  5
F15
331
102E
  5
9CC
331
CBB
  5
D1A
331
CFA
  5
D59
331
1036
  5
9D4
331
C45
  5
CA3
331
C84
  5
CE2
331
D31
  5
F1E
331
D39
  5
FC4
331
C8C
  5
CEC
331
CC3
  5
D22
331
103E
  5
9DC
331
C4D
  5
CAB
331
D02
  5
D61
331
C28
  5
C86
331
D0A
  5
D6F
331
D41
  5
1033
331
C55
  5
CB3
331
C94
  5
CF4
331
F1F
  5
1076
331
1046
  5
9E4
331
CCB
  5
D2A
331
F08
  5
1068
331
D12
  5
D77
331
D49
  5
103B
331
C5D
  5
CBB
331
C9C
  5
CFC
331
F37
  5
1085
331
104E
  5
9EC
331
CD3
  5
D32
331
F10
  5
106F
331
CDB
  5
D3A
331
D1A
  5
EF8
331
C65
  5
CC3
331
FB7
  5
1086
331
CA4
  5
D04
331
D51
  5
1043
331
D59
  5
104B
331
CE3
  5
D42
331
C6D
  5
CCB
331
D71
  5
105D
331
D79
  5
1065
331
D22
  5
F0D
331
D61
  5
1053
331
CAC
  5
D0C
331
CEB
  5
D4A
331
C36
  5
C94
331
C75
  5
CD3
331
D2A
  5
F16
331
C7D
  5
CDB
331
CB4
  5
D13
331
102F
  5
9CD
331
C3E
  5
C9C
331
CF3
  5
D52
331
CFB
  5
D5A
331
D32
  5
F1F
331
C46
  5
CA4
331
C85
  5
CE4
331
1037
  5
9D5
331
CBC
  5
D1B
331
CC4
  5
D23
331
D03
  5
D62
331
C4E
  5
CAC
331
C8D
  5
CED
331
D3A
  5
102C
331
103F
  5
9DD
331
C29
  5
C87
331
F18
  5
107C
331
CCC
  5
D2B
331
D0B
  5
D70
331
1047
  5
9E5
331
C56
  5
CB4
331
C95
  5
CF5
331
D42
  5
1034
331
D4A
  5
103C
331
F09
  5
1069
331
C9D
  5
CFD
331
CD4
  5
D33
331
104F
  5
9ED
331
C5E
  5
CBC
331
D13
  5
D78
331
D1B
  5
EFA
331
D52
  5
1044
331
C66
  5
CC4
331
CA5
  5
D05
331
CDC
  5
D3B
331
F11
  5
1070
331
D5A
  5
104C
331
C6E
  5
CCC
331
CE4
  5
D43
331
D72
  5
105E
331
CEC
  5
D4B
331
105B
  5
9F9
331
D23
  5
F0E
331
C37
  5
C95
331
C76
  5
CD4
331
CAD
  5
D0D
331
D62
  5
1054
331
CB5
  5
D14
331
CF4
  5
D53
331
1030
  5
9CE
331
C3F
  5
C9D
331
C7E
  5
CDC
331
D2B
  5
F17
331
D33
  5
F20
331
CBD
  5
D1C
331
CFC
  5
D5B
331
1038
  5
9D6
331
C47
  5
CA5
331
C86
  5
CE5
331
D3B
  5
102D
331
C8E
  5
CEE
331
CC5
  5
D24
331
C4F
  5
CAD
331
D04
  5
D63
331
EF8
  5
1080
331
C2A
  5
C88
331
1040
  5
9DE
331
D0C
  5
D71
331
D43
  5
1035
331
C57
  5
CB5
331
C96
  5
CF6
331
1048
  5
9E6
331
CCD
  5
D2C
331
F0A
  5
106A
331
CD5
  5
D34
331
D14
  5
D79
331
C5F
  5
CBD
331
C9E
  5
CFE
331
D4B
  5
103D
331
1050
  5
9EE
331
CDD
  5
D3C
331
D1C
  5
EFB
331
C67
  5
CC5
331
FC1
  5
1087
331
CA6
  5
D06
331
D53
  5
1045
331
D5B
  5
104D
331
CE5
  5
D44
331
C6F
  5
CCD
331
D73
  5
105F
331
C30
  5
C8E
331
105C
  5
9FA
331
D24
  5
F0F
331
D63
  5
1055
331
C77
  5
CD5
331
CAE
  5
D0E
331
C38
  5
C96
331
CED
  5
D4C
331
D2C
  5
F19
331
ECB
  5
1083
331
C7F
  5
CDD
331
CB6
  5
D15
331
1031
  5
9CF
331
C40
  5
C9E
331
CF5
  5
D54
331
CFD
  5
D5C
331
D34
  5
F37
331
C48
  5
CA6
331
C87
  5
CE7
331
1039
  5
9D7
331
CBE
  5
D1D
331
CC6
  5
D25
331
D05
  5
D64
331
C8F
  5
CEF
331
D3C
  5
102E
331
EF9
  5
1081
331
C2B
  5
C89
331
1041
  5
9DF
331
C50
  5
CAE
331
F1A
  5
1071
331
D44
  5
1036
331
CCE
  5
D2D
331
D0D
  5
D72
331
1049
  5
9E7
331
C58
  5
CB6
331
C97
  5
CF7
331
D4C
  5
103E
331
C9F
  5
CFF
331
CD6
  5
D35
331
C60
  5
CBE
331
D15
  5
D7B
331
D1D
  5
F05
331
D54
  5
1046
331
C68
  5
CC6
331
FC2
  5
1088
331
CA7
  5
D07
331
CDE
  5
D3D
331
F13
  5
1077
331
CE6
  5
D45
331
D5C
  5
104E
331
D74
  5
1060
331
C70
  5
CCE
331
C31
  5
C8F
331
CEE
  5
D4D
331
C39
  5
C97
331
C78
  5
CD6
331
105D
  5
9FB
331
D25
  5
F10
331
D64
  5
1056
331
CB7
  5
D16
331
CF6
  5
D55
331
1032
  5
9D0
331
C41
  5
C9F
331
C80
  5
CDE
331
D2D
  5
F1A
331
D35
  5
FB7
331
EF4
  5
1084
331
C88
  5
CE8
331
CBF
  5
D1E
331
103A
  5
9D8
331
C49
  5
CA7
331
CFE
  5
D5D
331
D3D
  5
102F
331
CC7
  5
D26
331
D06
  5
D65
331
EFA
  5
1082
331
C2C
  5
C8A
331
C90
  5
CF0
331
F1B
  5
1072
331
1042
  5
9E0
331
C51
  5
CAF
331
D0E
  5
D73
331
D45
  5
1037
331
C59
  5
CB7
331
C98
  5
CF8
331
104A
  5
9E8
331
CCF
  5
D2E
331
F0C
  5
106B
331
CD7
  5
D36
331
D16
  5
D7D
331
C61
  5
CBF
331
CA0
  5
D00
331
D4D
  5
103F
331
D55
  5
1047
331
F14
  5
1078
331
CDF
  5
D3E
331
C69
  5
CC7
331
D1E
  5
F06
331
FC3
  5
1089
331
D5D
  5
104F
331
CE7
  5
D46
331
D75
  5
1061
331
CA8
  5
D08
331
C32
  5
C90
331
C71
  5
CCF
331
105E
  5
9FC
331
D26
  5
F12
331
D65
  5
1057
331
C79
  5
CD7
331
CB0
  5
D0F
331
C3A
  5
C98
331
CEF
  5
D4E
331
CF7
  5
D56
331
D2E
  5
F1B
331
C81
  5
CDF
331
CB8
  5
D17
331
1033
  5
9D1
331
C42
  5
CA0
331
CFF
  5
D5E
331
D36
  5
FC1
331
C4A
  5
CA8
331
C89
  5
CE9
331
103B
  5
9D9
331
CC0
  5
D1F
331
EF5
  5
107D
331
D07
  5
D66
331
D3E
  5
1030
331
C2D
  5
C8B
331
CC8
  5
D27
331
1043
  5
9E1
331
C52
  5
CB0
331
F1C
  5
1073
331
C91
  5
CF1
331
D46
  5
1038
331
F05
  5
1066
331
C99
  5
CF9
331
CD0
  5
D2F
331
104B
  5
9E9
331
C5A
  5
CB8
331
D0F
  5
D74
  0
LAYOUT
  5
73
102
{ACAD_XDICTIONARY
360
11A8
102
}
102
{ACAD_REACTORS
330
69
102
}
330
69
100
AcDbPlotSettings
  1

  2
HP CLJ 5550DN PCL 6
  4

  6

 40
0.0
 41
0.0
 42
0.0
 43
0.0
 44
0.0
 45
0.0
 46
0.0
 47
0.0
 48
0.0
 49
0.0
140
0.0
141
0.0
142
1.0
143
1.0
 70
   688
 72
     0
 73
     0
 74
     5
  7

 75
    16
147
1.0
148
0.0
149
0.0
100
AcDbLayout
  1
Layout1
 70
     1
 71
     1
 10
0.0
 20
0.0
 11
12.0
 21
9.0
 12
0.0
 22
0.0
 32
0.0
 14
1.000000000000000E+20
 24
1.000000000000000E+20
 34
1.000000000000000E+20
 15
-1.000000000000000E+20
 25
-1.000000000000000E+20
 35
-1.000000000000000E+20
146
0.0
 13
0.0
 23
0.0
 33
0.0
 16
1.0
 26
0.0
 36
0.0
 17
0.0
 27
1.0
 37
0.0
 76
     0
330
70
  0
LAYOUT
  5
77
102
{ACAD_XDICTIONARY
360
11AA
102
}
102
{ACAD_REACTORS
330
69
102
}
330
69
100
AcDbPlotSettings
  1

  2
HP CLJ 5550DN PCL 6
  4

  6

 40
0.0
 41
0.0
 42
0.0
 43
0.0
 44
0.0
 45
0.0
 46
0.0
 47
0.0
 48
0.0
 49
0.0
140
0.0
141
0.0
142
1.0
143
1.0
 70
  1712
 72
     0
 73
     0
 74
     0
  7

 75
     0
147
1.0
148
0.0
149
0.0
100
AcDbLayout
  1
Model
 70
     1
 71
     0
 10
0.0
 20
0.0
 11
12.0
 21
9.0
 12
0.0
 22
0.0
 32
0.0
 14
0.0
 24
0.0
 34
0.0
 15
0.0
 25
0.0
 35
0.0
146
0.0
 13
0.0
 23
0.0
 33
0.0
 16
1.0
 26
0.0
 36
0.0
 17
0.0
 27
1.0
 37
0.0
 76
     0
330
74
331
8C
  0
MATERIAL
  5
19
102
{ACAD_XDICTIONARY
360
1A
102
}
102
{ACAD_REACTORS
330
10
102
}
330
10
100
AcDbMaterial
  1
ByBlock
 72
     0
 43
0.0208333333333333
 43
0.0
 43
0.0
 43
0.0
 43
0.0
 43
0.0208333333333333
 43
0.0
 43
0.0
 43
0.0
 43
0.0
 43
1.0
 43
0.0
 43
0.0
 43
0.0
 43
0.0
 43
1.0
 77
     0
 47
0.0208333333333333
 47
0.0
 47
0.0
 47
0.0
 47
0.0
 47
0.0208333333333333
 47
0.0
 47
0.0
 47
0.0
 47
0.0
 47
1.0
 47
0.0
 47
0.0
 47
0.0
 47
0.0
 47
1.0
171
     0
 49
0.0208333333333333
 49
0.0
 49
0.0
 49
0.0
 49
0.0
 49
0.0208333333333333
 49
0.0
 49
0.0
 49
0.0
 49
0.0
 49
1.0
 49
0.0
 49
0.0
 49
0.0
 49
0.0
 49
1.0
175
     0
142
0.0208333333333333
142
0.0
142
0.0
142
0.0
142
0.0
142
0.0208333333333333
142
0.0
142
0.0
142
0.0
142
0.0
142
1.0
142
0.0
142
0.0
142
0.0
142
0.0
142
1.0
179
     0
144
0.0208333333333333
144
0.0
144
0.0
144
0.0
144
0.0
144
0.0208333333333333
144
0.0
144
0.0
144
0.0
144
0.0
144
1.0
144
0.0
144
0.0
144
0.0
144
0.0
144
1.0
147
0.0208333333333333
147
0.0
147
0.0
147
0.0
147
0.0
147
0.0208333333333333
147
0.0
147
0.0
147
0.0
147
0.0
147
1.0
147
0.0
147
0.0
147
0.0
147
0.0
147
1.0
  0
MATERIAL
  5
11
102
{ACAD_XDICTIONARY
360
12
102
}
102
{ACAD_REACTORS
330
10
102
}
330
10
100
AcDbMaterial
  1
ByLayer
 72
     0
 43
0.0208333333333333
 43
0.0
 43
0.0
 43
0.0
 43
0.0
 43
0.0208333333333333
 43
0.0
 43
0.0
 43
0.0
 43
0.0
 43
1.0
 43
0.0
 43
0.0
 43
0.0
 43
0.0
 43
1.0
 77
     0
 47
0.0208333333333333
 47
0.0
 47
0.0
 47
0.0
 47
0.0
 47
0.0208333333333333
 47
0.0
 47
0.0
 47
0.0
 47
0.0
 47
1.0
 47
0.0
 47
0.0
 47
0.0
 47
0.0
 47
1.0
171
     0
 49
0.0208333333333333
 49
0.0
 49
0.0
 49
0.0
 49
0.0
 49
0.0208333333333333
 49
0.0
 49
0.0
 49
0.0
 49
0.0
 49
1.0
 49
0.0
 49
0.0
 49
0.0
 49
0.0
 49
1.0
175
     0
142
0.0208333333333333
142
0.0
142
0.0
142
0.0
142
0.0
142
0.0208333333333333
142
0.0
142
0.0
142
0.0
142
0.0
142
1.0
142
0.0
142
0.0
142
0.0
142
0.0
142
1.0
179
     0
144
0.0208333333333333
144
0.0
144
0.0
144
0.0
144
0.0
144
0.0208333333333333
144
0.0
144
0.0
144
0.0
144
0.0
144
1.0
144
0.0
144
0.0
144
0.0
144
0.0
144
1.0
147
0.0208333333333333
147
0.0
147
0.0
147
0.0
147
0.0
147
0.0208333333333333
147
0.0
147
0.0
147
0.0
147
0.0
147
1.0
147
0.0
147
0.0
147
0.0
147
0.0
147
1.0
  0
MATERIAL
  5
21
102
{ACAD_XDICTIONARY
360
22
102
}
102
{ACAD_REACTORS
330
10
102
}
330
10
100
AcDbMaterial
  1
Global
 72
     0
 43
0.0208333333333333
 43
0.0
 43
0.0
 43
0.0
 43
0.0
 43
0.0208333333333333
 43
0.0
 43
0.0
 43
0.0
 43
0.0
 43
1.0
 43
0.0
 43
0.0
 43
0.0
 43
0.0
 43
1.0
 77
     0
 47
0.0208333333333333
 47
0.0
 47
0.0
 47
0.0
 47
0.0
 47
0.0208333333333333
 47
0.0
 47
0.0
 47
0.0
 47
0.0
 47
1.0
 47
0.0
 47
0.0
 47
0.0
 47
0.0
 47
1.0
171
     0
 49
0.0208333333333333
 49
0.0
 49
0.0
 49
0.0
 49
0.0
 49
0.0208333333333333
 49
0.0
 49
0.0
 49
0.0
 49
0.0
 49
1.0
 49
0.0
 49
0.0
 49
0.0
 49
0.0
 49
1.0
175
     0
142
0.0208333333333333
142
0.0
142
0.0
142
0.0
142
0.0
142
0.0208333333333333
142
0.0
142
0.0
142
0.0
142
0.0
142
1.0
142
0.0
142
0.0
142
0.0
142
0.0
142
1.0
179
     0
144
0.0208333333333333
144
0.0
144
0.0
144
0.0
144
0.0
144
0.0208333333333333
144
0.0
144
0.0
144
0.0
144
0.0
144
1.0
144
0.0
144
0.0
144
0.0
144
0.0
144
1.0
147
0.0208333333333333
147
0.0
147
0.0
147
0.0
147
0.0
147
0.0208333333333333
147
0.0
147
0.0
147
0.0
147
0.0
147
1.0
147
0.0
147
0.0
147
0.0
147
0.0
147
1.0
  0
MLEADERSTYLE
  5
6E
102
{ACAD_REACTORS
330
6D
102
}
330
6D
100
AcDbMLeaderStyle
170
     2
171
     1
172
     0
 90
        2
 40
0.0
 41
0.0
173
     1
 91
-1056964608
340
62
 92
       -2
290
     1
 42
0.09
291
     1
 43
0.36
  3
Standard
 44
0.18
300

342
5D
174
     1
178
     6
175
     1
176
     0
 93
-1056964608
 45
0.18
292
     0
297
     0
 46
0.18
 94
-1056964608
 47
1.0
 49
1.0
140
1.0
293
     1
141
0.0
294
     1
177
     0
142
1.0
295
     0
296
     0
143
0.125
1001
ACAD_MLEADERVER
1070
     2
1001
ACAD
1000
AcRTDxfName
1000
MLEADERSTYLE
  0
MLINESTYLE
  5
67
102
{ACAD_REACTORS
330
66
102
}
330
66
100
AcDbMlineStyle
  2
STANDARD
 70
     0
  3

 62
   256
 51
90.0
 52
90.0
 71
     2
 49
0.5
 62
   256
  6
BYLAYER
 49
-0.5
 62
   256
  6
BYLAYER
  0
ACDBPLACEHOLDER
  5
F
102
{ACAD_REACTORS
330
E
102
}
330
E
  0
SCALE
  5
3B
102
{ACAD_REACTORS
330
3A
102
}
330
3A
100
AcDbScale
 70
     0
300
1:1
140
1.0
141
1.0
290
     1
1001
ACAD
1000
AcRTDxfName
1000
SCALE
  0
SCALE
  5
3C
102
{ACAD_REACTORS
330
3A
102
}
330
3A
100
AcDbScale
 70
     0
300
1:2
140
1.0
141
2.0
290
     0
1001
ACAD
1000
AcRTDxfName
1000
SCALE
  0
SCALE
  5
3D
102
{ACAD_REACTORS
330
3A
102
}
330
3A
100
AcDbScale
 70
     0
300
1:4
140
1.0
141
4.0
290
     0
1001
ACAD
1000
AcRTDxfName
1000
SCALE
  0
SCALE
  5
3E
102
{ACAD_REACTORS
330
3A
102
}
330
3A
100
AcDbScale
 70
     0
300
1:5
140
1.0
141
5.0
290
     0
1001
ACAD
1000
AcRTDxfName
1000
SCALE
  0
SCALE
  5
3F
102
{ACAD_REACTORS
330
3A
102
}
330
3A
100
AcDbScale
 70
     0
300
1:8
140
1.0
141
8.0
290
     0
1001
ACAD
1000
AcRTDxfName
1000
SCALE
  0
SCALE
  5
40
102
{ACAD_REACTORS
330
3A
102
}
330
3A
100
AcDbScale
 70
     0
300
1:10
140
1.0
141
10.0
290
     0
1001
ACAD
1000
AcRTDxfName
1000
SCALE
  0
SCALE
  5
41
102
{ACAD_REACTORS
330
3A
102
}
330
3A
100
AcDbScale
 70
     0
300
1:16
140
1.0
141
16.0
290
     0
1001
ACAD
1000
AcRTDxfName
1000
SCALE
  0
SCALE
  5
42
102
{ACAD_REACTORS
330
3A
102
}
330
3A
100
AcDbScale
 70
     0
300
1:20
140
1.0
141
20.0
290
     0
1001
ACAD
1000
AcRTDxfName
1000
SCALE
  0
SCALE
  5
43
102
{ACAD_REACTORS
330
3A
102
}
330
3A
100
AcDbScale
 70
     0
300
1:30
140
1.0
141
30.0
290
     0
1001
ACAD
1000
AcRTDxfName
1000
SCALE
  0
SCALE
  5
44
102
{ACAD_REACTORS
330
3A
102
}
330
3A
100
AcDbScale
 70
     0
300
1:40
140
1.0
141
40.0
290
     0
1001
ACAD
1000
AcRTDxfName
1000
SCALE
  0
SCALE
  5
45
102
{ACAD_REACTORS
330
3A
102
}
330
3A
100
AcDbScale
 70
     0
300
1:50
140
1.0
141
50.0
290
     0
1001
ACAD
1000
AcRTDxfName
1000
SCALE
  0
SCALE
  5
46
102
{ACAD_REACTORS
330
3A
102
}
330
3A
100
AcDbScale
 70
     0
300
1:100
140
1.0
141
100.0
290
     0
1001
ACAD
1000
AcRTDxfName
1000
SCALE
  0
SCALE
  5
47
102
{ACAD_REACTORS
330
3A
102
}
330
3A
100
AcDbScale
 70
     0
300
2:1
140
2.0
141
1.0
290
     0
1001
ACAD
1000
AcRTDxfName
1000
SCALE
  0
SCALE
  5
48
102
{ACAD_REACTORS
330
3A
102
}
330
3A
100
AcDbScale
 70
     0
300
4:1
140
4.0
141
1.0
290
     0
1001
ACAD
1000
AcRTDxfName
1000
SCALE
  0
SCALE
  5
49
102
{ACAD_REACTORS
330
3A
102
}
330
3A
100
AcDbScale
 70
     0
300
8:1
140
8.0
141
1.0
290
     0
1001
ACAD
1000
AcRTDxfName
1000
SCALE
  0
SCALE
  5
4A
102
{ACAD_REACTORS
330
3A
102
}
330
3A
100
AcDbScale
 70
     0
300
10:1
140
10.0
141
1.0
290
     0
1001
ACAD
1000
AcRTDxfName
1000
SCALE
  0
SCALE
  5
4B
102
{ACAD_REACTORS
330
3A
102
}
330
3A
100
AcDbScale
 70
     0
300
100:1
140
100.0
141
1.0
290
     0
1001
ACAD
1000
AcRTDxfName
1000
SCALE
  0
SCALE
  5
4C
102
{ACAD_REACTORS
330
3A
102
}
330
3A
100
AcDbScale
 70
     0
300
1/128" = 1'-0"
140
0.0078125
141
12.0
290
     0
1001
ACAD
1000
AcRTDxfName
1000
SCALE
  0
SCALE
  5
4D
102
{ACAD_REACTORS
330
3A
102
}
330
3A
100
AcDbScale
 70
     0
300
1/64" = 1'-0"
140
0.015625
141
12.0
290
     0
1001
ACAD
1000
AcRTDxfName
1000
SCALE
  0
SCALE
  5
4E
102
{ACAD_REACTORS
330
3A
102
}
330
3A
100
AcDbScale
 70
     0
300
1/32" = 1'-0"
140
0.03125
141
12.0
290
     0
1001
ACAD
1000
AcRTDxfName
1000
SCALE
  0
SCALE
  5
4F
102
{ACAD_REACTORS
330
3A
102
}
330
3A
100
AcDbScale
 70
     0
300
1/16" = 1'-0"
140
0.0625
141
12.0
290
     0
1001
ACAD
1000
AcRTDxfName
1000
SCALE
  0
SCALE
  5
50
102
{ACAD_REACTORS
330
3A
102
}
330
3A
100
AcDbScale
 70
     0
300
3/32" = 1'-0"
140
0.09375
141
12.0
290
     0
1001
ACAD
1000
AcRTDxfName
1000
SCALE
  0
SCALE
  5
51
102
{ACAD_REACTORS
330
3A
102
}
330
3A
100
AcDbScale
 70
     0
300
1/8" = 1'-0"
140
0.125
141
12.0
290
     0
1001
ACAD
1000
AcRTDxfName
1000
SCALE
  0
SCALE
  5
52
102
{ACAD_REACTORS
330
3A
102
}
330
3A
100
AcDbScale
 70
     0
300
3/16" = 1'-0"
140
0.1875
141
12.0
290
     0
1001
ACAD
1000
AcRTDxfName
1000
SCALE
  0
SCALE
  5
53
102
{ACAD_REACTORS
330
3A
102
}
330
3A
100
AcDbScale
 70
     0
300
1/4" = 1'-0"
140
0.25
141
12.0
290
     0
1001
ACAD
1000
AcRTDxfName
1000
SCALE
  0
SCALE
  5
54
102
{ACAD_REACTORS
330
3A
102
}
330
3A
100
AcDbScale
 70
     0
300
3/8" = 1'-0"
140
0.375
141
12.0
290
     0
1001
ACAD
1000
AcRTDxfName
1000
SCALE
  0
SCALE
  5
55
102
{ACAD_REACTORS
330
3A
102
}
330
3A
100
AcDbScale
 70
     0
300
1/2" = 1'-0"
140
0.5
141
12.0
290
     0
1001
ACAD
1000
AcRTDxfName
1000
SCALE
  0
SCALE
  5
56
102
{ACAD_REACTORS
330
3A
102
}
330
3A
100
AcDbScale
 70
     0
300
3/4" = 1'-0"
140
0.75
141
12.0
290
     0
1001
ACAD
1000
AcRTDxfName
1000
SCALE
  0
SCALE
  5
57
102
{ACAD_REACTORS
330
3A
102
}
330
3A
100
AcDbScale
 70
     0
300
1" = 1'-0"
140
1.0
141
12.0
290
     0
1001
ACAD
1000
AcRTDxfName
1000
SCALE
  0
SCALE
  5
58
102
{ACAD_REACTORS
330
3A
102
}
330
3A
100
AcDbScale
 70
     0
300
1-1/2" = 1'-0"
140
1.5
141
12.0
290
     0
1001
ACAD
1000
AcRTDxfName
1000
SCALE
  0
SCALE
  5
59
102
{ACAD_REACTORS
330
3A
102
}
330
3A
100
AcDbScale
 70
     0
300
3" = 1'-0"
140
3.0
141
12.0
290
     0
1001
ACAD
1000
AcRTDxfName
1000
SCALE
  0
SCALE
  5
5A
102
{ACAD_REACTORS
330
3A
102
}
330
3A
100
AcDbScale
 70
     0
300
6" = 1'-0"
140
6.0
141
12.0
290
     0
1001
ACAD
1000
AcRTDxfName
1000
SCALE
  0
SCALE
  5
5B
102
{ACAD_REACTORS
330
3A
102
}
330
3A
100
AcDbScale
 70
     0
300
1'-0" = 1'-0"
140
12.0
141
12.0
290
     0
1001
ACAD
1000
AcRTDxfName
1000
SCALE
  0
TABLESTYLE
  5
6C
102
{ACAD_XDICTIONARY
360
382
102
}
102
{ACAD_REACTORS
330
6B
102
}
330
6B
100
AcDbTableStyle
  3
Standard
 70
     0
 71
     0
 40
0.06
 41
0.06
280
     0
281
     0
  7
STANDARD
140
0.18
170
     2
 62
     0
 63
     7
283
     0
274
    -2
284
     1
 64
     0
275
    -2
285
     1
 65
     0
276
    -2
286
     1
 66
     0
277
    -2
287
     1
 67
     0
278
    -2
288
     1
 68
     0
279
    -2
289
     1
 69
     0
  7
STANDARD
140
0.25
170
     5
 62
     0
 63
     7
283
     0
274
    -2
284
     1
 64
     0
275
    -2
285
     1
 65
     0
276
    -2
286
     1
 66
     0
277
    -2
287
     1
 67
     0
278
    -2
288
     1
 68
     0
279
    -2
289
     1
 69
     0
  7
STANDARD
140
0.18
170
     5
 62
     0
 63
     7
283
     0
274
    -2
284
     1
 64
     0
275
    -2
285
     1
 65
     0
276
    -2
286
     1
 66
     0
277
    -2
287
     1
 67
     0
278
    -2
288
     1
 68
     0
279
    -2
289
     1
 69
     0
  0
VISUALSTYLE
  5
2F
102
{ACAD_REACTORS
330
29
102
}
330
29
100
AcDbVisualStyle
  2
2dWireframe
 70
     4
 71
     0
 72
     2
 73
     0
 90
        0
 40
-0.6
 41
-30.0
 62
     5
 63
     7
 74
     1
 91
        4
 64
     7
 65
   257
 75
     1
175
     1
 42
1.0
 92
        0
 66
   257
 43
1.0
 76
     1
 77
     6
 78
     2
 67
     7
 79
     5
170
     0
171
     0
290
     0
174
     0
 93
        1
 44
0.0
173
     0
291
     0
 45
0.0
1001
ACAD
1000
AcDbSavedByObjectVersion
1070
     0
1000
AcDbSavedByObjectVersion
1070
     0
1001
ACAD
1000
AcRTDxfName
1000
VISUALSTYLE
  0
VISUALSTYLE
  5
31
102
{ACAD_REACTORS
330
29
102
}
330
29
100
AcDbVisualStyle
  2
3D Hidden
 70
     6
 71
     1
 72
     2
 73
     2
 90
        0
 40
-0.6
 41
-30.0
 62
     5
 63
     7
 74
     2
 91
        2
 64
     7
 65
   257
 75
     2
175
     1
 42
40.0
 92
        0
 66
   257
 43
1.0
 76
     1
 77
     6
 78
     2
 67
     7
 79
     3
170
     0
171
     0
290
     0
174
     0
 93
        1
 44
0.0
173
     0
291
     0
 45
0.0
1001
ACAD
1000
AcDbSavedByObjectVersion
1070
     0
1000
AcDbSavedByObjectVersion
1070
     0
1001
ACAD
1000
AcRTDxfName
1000
VISUALSTYLE
  0
VISUALSTYLE
  5
30
102
{ACAD_REACTORS
330
29
102
}
330
29
100
AcDbVisualStyle
  2
3dWireframe
 70
     5
 71
     0
 72
     2
 73
     0
 90
        0
 40
-0.6
 41
-30.0
 62
     5
 63
     7
 74
     1
 91
        4
 64
     7
 65
   257
 75
     1
175
     1
 42
1.0
 92
        0
 66
   257
 43
1.0
 76
     1
 77
     6
 78
     2
 67
     7
 79
     5
170
     0
171
     0
290
     0
174
     0
 93
        1
 44
0.0
173
     0
291
     0
 45
0.0
1001
ACAD
1000
AcDbSavedByObjectVersion
1070
     0
1000
AcDbSavedByObjectVersion
1070
     0
1001
ACAD
1000
AcRTDxfName
1000
VISUALSTYLE
  0
VISUALSTYLE
  5
2E
102
{ACAD_REACTORS
330
29
102
}
330
29
100
AcDbVisualStyle
  2
Basic
 70
     7
 71
     1
 72
     0
 73
     1
 90
        0
 40
-0.6
 41
-30.0
 62
     5
 63
     7
 74
     0
 91
        4
 64
     7
 65
   257
 75
     1
175
     1
 42
1.0
 92
        8
 66
     7
 43
1.0
 76
     1
 77
     6
 78
     2
 67
     7
 79
     5
170
     0
171
     0
290
     0
174
     0
 93
        1
 44
0.0
173
     0
291
     1
 45
0.0
1001
ACAD
1000
AcDbSavedByObjectVersion
1070
     0
1000
AcDbSavedByObjectVersion
1070
     0
1001
ACAD
1000
AcRTDxfName
1000
VISUALSTYLE
  0
VISUALSTYLE
  5
35
102
{ACAD_REACTORS
330
29
102
}
330
29
100
AcDbVisualStyle
  2
Brighten
 70
    12
 71
     2
 72
     2
 73
     0
 90
        0
 40
-0.6
 41
-30.0
 62
     5
 63
     7
 74
     1
 91
        4
 64
     7
 65
   257
 75
     1
175
     1
 42
1.0
 92
        8
 66
     7
 43
1.0
 76
     1
 77
     6
 78
     2
 67
     7
 79
     5
170
     0
171
     0
290
     0
174
     0
 93
        1
 44
50.0
173
     0
291
     1
 45
0.0
1001
ACAD
1000
AcDbSavedByObjectVersion
1070
     0
1000
AcDbSavedByObjectVersion
1070
     0
1001
ACAD
1000
AcRTDxfName
1000
VISUALSTYLE
  0
VISUALSTYLE
  5
39
102
{ACAD_REACTORS
330
29
102
}
330
29
100
AcDbVisualStyle
  2
ColorChange
 70
    16
 71
     2
 72
     2
 73
     3
 90
        0
 40
-0.6
 41
-30.0
 62
     5
 63
     8
 74
     1
 91
        4
 64
     7
 65
   257
 75
     1
175
     1
 42
1.0
 92
        8
 66
     8
 43
1.0
 76
     1
 77
     6
 78
     2
 67
     7
 79
     5
170
     0
171
     0
290
     0
174
     0
 93
        1
 44
0.0
173
     0
291
     1
 45
0.0
1001
ACAD
1000
AcDbSavedByObjectVersion
1070
     0
1000
AcDbSavedByObjectVersion
1070
     0
1001
ACAD
1000
AcRTDxfName
1000
VISUALSTYLE
  0
VISUALSTYLE
  5
32
102
{ACAD_REACTORS
330
29
102
}
330
29
100
AcDbVisualStyle
  2
Conceptual
 70
     9
 71
     3
 72
     2
 73
     0
 90
        0
 40
-0.6
 41
-30.0
 62
     5
 63
     7
 74
     2
 91
        2
 64
     7
 65
   257
 75
     1
175
     1
 42
40.0
 92
        8
 66
     7
 43
1.0
 76
     1
 77
     6
 78
     2
 67
     7
 79
     3
170
     0
171
     0
290
     0
174
     0
 93
        1
 44
0.0
173
     0
291
     0
 45
0.0
1001
ACAD
1000
AcDbSavedByObjectVersion
1070
     0
1000
AcDbSavedByObjectVersion
1070
     0
1001
ACAD
1000
AcRTDxfName
1000
VISUALSTYLE
  0
VISUALSTYLE
  5
34
102
{ACAD_REACTORS
330
29
102
}
330
29
100
AcDbVisualStyle
  2
Dim
 70
    11
 71
     2
 72
     2
 73
     0
 90
        0
 40
-0.6
 41
-30.0
 62
     5
 63
     7
 74
     1
 91
        4
 64
     7
 65
   257
 75
     1
175
     1
 42
1.0
 92
        8
 66
     7
 43
1.0
 76
     1
 77
     6
 78
     2
 67
     7
 79
     5
170
     0
171
     0
290
     0
174
     0
 93
        1
 44
-50.0
173
     0
291
     1
 45
0.0
1001
ACAD
1000
AcDbSavedByObjectVersion
1070
     0
1000
AcDbSavedByObjectVersion
1070
     0
1001
ACAD
1000
AcRTDxfName
1000
VISUALSTYLE
  0
VISUALSTYLE
  5
38
102
{ACAD_REACTORS
330
29
102
}
330
29
100
AcDbVisualStyle
  2
Facepattern
 70
    15
 71
     2
 72
     2
 73
     0
 90
        0
 40
-0.6
 41
-30.0
 62
     5
 63
     7
 74
     1
 91
        4
 64
     7
 65
   257
 75
     1
175
     1
 42
1.0
 92
        8
 66
     7
 43
1.0
 76
     1
 77
     6
 78
     2
 67
     7
 79
     5
170
     0
171
     0
290
     0
174
     0
 93
        1
 44
0.0
173
     0
291
     1
 45
0.0
1001
ACAD
1000
AcDbSavedByObjectVersion
1070
     0
1000
AcDbSavedByObjectVersion
1070
     0
1001
ACAD
1000
AcRTDxfName
1000
VISUALSTYLE
  0
VISUALSTYLE
  5
2A
102
{ACAD_REACTORS
330
29
102
}
330
29
100
AcDbVisualStyle
  2
Flat
 70
     0
 71
     2
 72
     1
 73
     1
 90
        2
 40
-0.6
 41
30.0
 62
     5
 63
     7
 74
     0
 91
        4
 64
     7
 65
   257
 75
     1
175
     1
 42
1.0
 92
        8
 66
     7
 43
1.0
 76
     1
 77
     6
 78
     2
 67
     7
 79
     5
170
     0
171
     0
290
     0
174
     0
 93
       13
 44
0.0
173
     0
291
     1
 45
0.0
1001
ACAD
1000
AcDbSavedByObjectVersion
1070
     0
1000
AcDbSavedByObjectVersion
1070
     0
1001
ACAD
1000
AcRTDxfName
1000
VISUALSTYLE
  0
VISUALSTYLE
  5
2B
102
{ACAD_REACTORS
330
29
102
}
330
29
100
AcDbVisualStyle
  2
FlatWithEdges
 70
     1
 71
     2
 72
     1
 73
     1
 90
        2
 40
-0.6
 41
30.0
 62
     5
 63
     7
 74
     1
 91
        4
 64
     7
 65
   257
 75
     1
175
     1
 42
1.0
 92
        0
 66
   257
 43
1.0
 76
     1
 77
     6
 78
     2
 67
     7
 79
     5
170
     0
171
     0
290
     0
174
     0
 93
       13
 44
0.0
173
     0
291
     1
 45
0.0
1001
ACAD
1000
AcDbSavedByObjectVersion
1070
     0
1000
AcDbSavedByObjectVersion
1070
     0
1001
ACAD
1000
AcRTDxfName
1000
VISUALSTYLE
  0
VISUALSTYLE
  5
2C
102
{ACAD_REACTORS
330
29
102
}
330
29
100
AcDbVisualStyle
  2
Gouraud
 70
     2
 71
     2
 72
     2
 73
     1
 90
        2
 40
-0.6
 41
30.0
 62
     5
 63
     7
 74
     0
 91
        4
 64
     7
 65
   257
 75
     1
175
     1
 42
1.0
 92
        0
 66
     7
 43
1.0
 76
     1
 77
     6
 78
     2
 67
     7
 79
     5
170
     0
171
     0
290
     0
174
     0
 93
       13
 44
0.0
173
     0
291
     1
 45
0.0
1001
ACAD
1000
AcDbSavedByObjectVersion
1070
     0
1000
AcDbSavedByObjectVersion
1070
     0
1001
ACAD
1000
AcRTDxfName
1000
VISUALSTYLE
  0
VISUALSTYLE
  5
2D
102
{ACAD_REACTORS
330
29
102
}
330
29
100
AcDbVisualStyle
  2
GouraudWithEdges
 70
     3
 71
     2
 72
     2
 73
     1
 90
        2
 40
-0.6
 41
30.0
 62
     5
 63
     7
 74
     1
 91
        4
 64
     7
 65
   257
 75
     1
175
     1
 42
1.0
 92
        0
 66
   257
 43
1.0
 76
     1
 77
     6
 78
     2
 67
     7
 79
     5
170
     0
171
     0
290
     0
174
     0
 93
       13
 44
0.0
173
     0
291
     1
 45
0.0
1001
ACAD
1000
AcDbSavedByObjectVersion
1070
     0
1000
AcDbSavedByObjectVersion
1070
     0
1001
ACAD
1000
AcRTDxfName
1000
VISUALSTYLE
  0
VISUALSTYLE
  5
37
102
{ACAD_REACTORS
330
29
102
}
330
29
100
AcDbVisualStyle
  2
Linepattern
 70
    14
 71
     2
 72
     2
 73
     0
 90
        0
 40
-0.6
 41
-30.0
 62
     5
 63
     7
 74
     1
 91
        4
 64
     7
 65
   257
 75
     7
175
     7
 42
1.0
 92
        8
 66
     7
 43
1.0
 76
     1
 77
     6
 78
     2
 67
     7
 79
     5
170
     0
171
     0
290
     0
174
     0
 93
        1
 44
0.0
173
     0
291
     1
 45
0.0
1001
ACAD
1000
AcDbSavedByObjectVersion
1070
     0
1000
AcDbSavedByObjectVersion
1070
     0
1001
ACAD
1000
AcRTDxfName
1000
VISUALSTYLE
  0
VISUALSTYLE
  5
33
102
{ACAD_REACTORS
330
29
102
}
330
29
100
AcDbVisualStyle
  2
Realistic
 70
     8
 71
     2
 72
     2
 73
     0
 90
        0
 40
-0.6
 41
-30.0
 62
     5
 63
     7
 74
     1
 91
        0
 64
     7
 65
   257
 75
     1
175
     1
 42
1.0
 92
        8
 66
     8
 43
1.0
 76
     1
 77
     6
 78
     2
 67
     7
 79
     5
170
     0
171
     0
290
     0
174
     0
 93
       13
 44
0.0
173
     0
291
     0
 45
0.0
1001
ACAD
1000
AcDbSavedByObjectVersion
1070
     0
1000
AcDbSavedByObjectVersion
1070
     0
1001
ACAD
1000
AcRTDxfName
1000
VISUALSTYLE
  0
VISUALSTYLE
  5
36
102
{ACAD_REACTORS
330
29
102
}
330
29
100
AcDbVisualStyle
  2
Thicken
 70
    13
 71
     2
 72
     2
 73
     0
 90
        0
 40
-0.6
 41
-30.0
 62
     5
 63
     7
 74
     1
 91
        4
 64
     7
 65
   257
 75
     1
175
     1
 42
1.0
 92
       12
 66
     7
 43
1.0
 76
     1
 77
     6
 78
     2
 67
     7
 79
     5
170
     0
171
     0
290
     0
174
     0
 93
        1
 44
0.0
173
     0
291
     1
 45
0.0
1001
ACAD
1000
AcDbSavedByObjectVersion
1070
     0
1000
AcDbSavedByObjectVersion
1070
     0
1001
ACAD
1000
AcRTDxfName
1000
VISUALSTYLE
  0
DICTIONARYVAR
  5
372
102
{ACAD_REACTORS
330
36F
102
}
330
36F
100
DictionaryVariables
280
     0
  1
1:1
  0
DICTIONARYVAR
  5
371
102
{ACAD_REACTORS
330
36F
102
}
330
36F
100
DictionaryVariables
280
     0
  1
STANDARD
  0
DICTIONARYVAR
  5
370
102
{ACAD_REACTORS
330
36F
102
}
330
36F
100
DictionaryVariables
280
     0
  1
STANDARD
  0
DICTIONARYVAR
  5
375
102
{ACAD_REACTORS
330
36F
102
}
330
36F
100
DictionaryVariables
280
     0
  1
1
  0
DICTIONARYVAR
  5
374
102
{ACAD_REACTORS
330
36F
102
}
330
36F
100
DictionaryVariables
280
     0
  1
0
  0
DICTIONARYVAR
  5
11A4
102
{ACAD_REACTORS
330
36F
102
}
330
36F
100
DictionaryVariables
280
     0
  1

  0
DICTIONARYVAR
  5
373
102
{ACAD_REACTORS
330
36F
102
}
330
36F
100
DictionaryVariables
280
     0
  1
127
  0
DICTIONARY
  5
11A8
330
73
100
AcDbDictionary
280
     1
281
     1
  3
ACAD_XREC_ROUNDTRIP
360
11A9
  0
DICTIONARY
  5
11AA
330
77
100
AcDbDictionary
280
     1
281
     1
  3
ACAD_XREC_ROUNDTRIP
360
11AB
  0
DICTIONARY
  5
1A
330
19
100
AcDbDictionary
280
     1
281
     1
  3
ACAD_XREC_ROUNDTRIP
360
387
  3
BUMPTILE
360
1C
  3
DIFFUSETILE
360
1B
  3
OPACITYTILE
360
1F
  3
REFLECTIONTILE
360
1E
  3
REFRACTIONTILE
360
20
  3
SPECULARTILE
360
1D
  0
DICTIONARY
  5
12
330
11
100
AcDbDictionary
280
     1
281
     1
  3
ACAD_XREC_ROUNDTRIP
360
386
  3
BUMPTILE
360
14
  3
DIFFUSETILE
360
13
  3
OPACITYTILE
360
17
  3
REFLECTIONTILE
360
16
  3
REFRACTIONTILE
360
18
  3
SPECULARTILE
360
15
  0
DICTIONARY
  5
22
330
21
100
AcDbDictionary
280
     1
281
     1
  3
ACAD_XREC_ROUNDTRIP
360
388
  3
BUMPTILE
360
24
  3
DIFFUSETILE
360
23
  3
OPACITYTILE
360
27
  3
REFLECTIONTILE
360
26
  3
REFRACTIONTILE
360
28
  3
SPECULARTILE
360
25
  0
DICTIONARY
  5
382
330
6C
100
AcDbDictionary
280
     1
281
     1
  3
ACAD_ROUNDTRIP_2008_TABLESTYLE_CELLSTYLEMAP
360
10FE
  3
ACAD_XREC_ROUNDTRIP
360
1100
  0
XRECORD
  5
11A9
102
{ACAD_REACTORS
330
11A8
102
}
330
11A8
100
AcDbXrecord
280
     1
102
SHADEPLOT
 70
     0
102
SHADEPLOTRESLEVEL
 70
     2
102
SHADEPLOTCUSTOMDPI
 70
   300
  0
XRECORD
  5
11AB
102
{ACAD_REACTORS
330
11AA
102
}
330
11AA
100
AcDbXrecord
280
     1
102
SHADEPLOT
 70
     0
102
SHADEPLOTRESLEVEL
 70
     2
102
SHADEPLOTCUSTOMDPI
 70
   300
  0
XRECORD
  5
387
102
{ACAD_REACTORS
330
1A
102
}
330
1A
100
AcDbXrecord
280
     1
102
MATERIAL
148
0.0
149
0.0
149
0.0
 93
        0
 94
      127
282
     0
 72
     0
 77
     0
171
     0
175
     0
179
     0
273
     0
  0
XRECORD
  5
1C
102
{ACAD_REACTORS
330
1A
102
}
330
1A
100
AcDbXrecord
280
     1
270
     1
271
     1
  0
XRECORD
  5
1B
102
{ACAD_REACTORS
330
1A
102
}
330
1A
100
AcDbXrecord
280
     1
270
     1
271
     1
  0
XRECORD
  5
1F
102
{ACAD_REACTORS
330
1A
102
}
330
1A
100
AcDbXrecord
280
     1
270
     1
271
     1
  0
XRECORD
  5
1E
102
{ACAD_REACTORS
330
1A
102
}
330
1A
100
AcDbXrecord
280
     1
270
     1
271
     1
  0
XRECORD
  5
20
102
{ACAD_REACTORS
330
1A
102
}
330
1A
100
AcDbXrecord
280
     1
270
     1
271
     1
  0
XRECORD
  5
1D
102
{ACAD_REACTORS
330
1A
102
}
330
1A
100
AcDbXrecord
280
     1
270
     1
271
     1
  0
XRECORD
  5
386
102
{ACAD_REACTORS
330
12
102
}
330
12
100
AcDbXrecord
280
     1
102
MATERIAL
148
0.0
149
0.0
149
0.0
 93
        0
 94
      127
282
     0
 72
     0
 77
     0
171
     0
175
     0
179
     0
273
     0
  0
XRECORD
  5
14
102
{ACAD_REACTORS
330
12
102
}
330
12
100
AcDbXrecord
280
     1
270
     1
271
     1
  0
XRECORD
  5
13
102
{ACAD_REACTORS
330
12
102
}
330
12
100
AcDbXrecord
280
     1
270
     1
271
     1
  0
XRECORD
  5
17
102
{ACAD_REACTORS
330
12
102
}
330
12
100
AcDbXrecord
280
     1
270
     1
271
     1
  0
XRECORD
  5
16
102
{ACAD_REACTORS
330
12
102
}
330
12
100
AcDbXrecord
280
     1
270
     1
271
     1
  0
XRECORD
  5
18
102
{ACAD_REACTORS
330
12
102
}
330
12
100
AcDbXrecord
280
     1
270
     1
271
     1
  0
XRECORD
  5
15
102
{ACAD_REACTORS
330
12
102
}
330
12
100
AcDbXrecord
280
     1
270
     1
271
     1
  0
XRECORD
  5
388
102
{ACAD_REACTORS
330
22
102
}
330
22
100
AcDbXrecord
280
     1
102
MATERIAL
148
0.0
149
0.0
149
0.0
 93
        0
 94
      127
282
     0
 72
     0
 77
     0
171
     0
175
     0
179
     0
273
     0
  0
XRECORD
  5
24
102
{ACAD_REACTORS
330
22
102
}
330
22
100
AcDbXrecord
280
     1
270
     1
271
     1
  0
XRECORD
  5
23
102
{ACAD_REACTORS
330
22
102
}
330
22
100
AcDbXrecord
280
     1
270
     1
271
     1
  0
XRECORD
  5
27
102
{ACAD_REACTORS
330
22
102
}
330
22
100
AcDbXrecord
280
     1
270
     1
271
     1
  0
XRECORD
  5
26
102
{ACAD_REACTORS
330
22
102
}
330
22
100
AcDbXrecord
280
     1
270
     1
271
     1
  0
XRECORD
  5
28
102
{ACAD_REACTORS
330
22
102
}
330
22
100
AcDbXrecord
280
     1
270
     1
271
     1
  0
XRECORD
  5
25
102
{ACAD_REACTORS
330
22
102
}
330
22
100
AcDbXrecord
280
     1
270
     1
271
     1
  0
CELLSTYLEMAP
  5
10FE
102
{ACAD_REACTORS
330
382
102
}
330
382
100
AcDbCellStyleMap
 90
        3
300
CELLSTYLE
  1
TABLEFORMAT_BEGIN
 90
        5
170
     1
 91
        0
 92
    32768
 62
   257
 93
        1
300
CONTENTFORMAT
  1
CONTENTFORMAT_BEGIN
 90
        0
 91
        0
 92
      512
 93
        0
300

 40
0.0
140
1.0
 94
        5
 62
     0
340
5D
144
0.25
309
CONTENTFORMAT_END
171
     1
301
MARGIN
  1
CELLMARGIN_BEGIN
 40
0.06
 40
0.06
 40
0.06
 40
0.06
 40
0.18
 40
0.18
309
CELLMARGIN_END
 94
        6
 95
        1
302
GRIDFORMAT
  1
GRIDFORMAT_BEGIN
 90
        0
 91
        1
 62
     0
 92
       -2
340
0
 93
        0
 40
0.045
309
GRIDFORMAT_END
 95
        2
302
GRIDFORMAT
  1
GRIDFORMAT_BEGIN
 90
        0
 91
        1
 62
     0
 92
       -2
340
0
 93
        0
 40
0.045
309
GRIDFORMAT_END
 95
        4
302
GRIDFORMAT
  1
GRIDFORMAT_BEGIN
 90
        0
 91
        1
 62
     0
 92
       -2
340
0
 93
        0
 40
0.045
309
GRIDFORMAT_END
 95
        8
302
GRIDFORMAT
  1
GRIDFORMAT_BEGIN
 90
        0
 91
        1
 62
     0
 92
       -2
340
0
 93
        0
 40
0.045
309
GRIDFORMAT_END
 95
       16
302
GRIDFORMAT
  1
GRIDFORMAT_BEGIN
 90
        0
 91
        1
 62
     0
 92
       -2
340
0
 93
        0
 40
0.045
309
GRIDFORMAT_END
 95
       32
302
GRIDFORMAT
  1
GRIDFORMAT_BEGIN
 90
        0
 91
        1
 62
     0
 92
       -2
340
0
 93
        0
 40
0.045
309
GRIDFORMAT_END
309
TABLEFORMAT_END
  1
CELLSTYLE_BEGIN
 90
        1
 91
        1
300
_TITLE
309
CELLSTYLE_END
300
CELLSTYLE
  1
TABLEFORMAT_BEGIN
 90
        5
170
     1
 91
        0
 92
        0
 62
   257
 93
        1
300
CONTENTFORMAT
  1
CONTENTFORMAT_BEGIN
 90
        0
 91
        0
 92
      512
 93
        0
300

 40
0.0
140
1.0
 94
        5
 62
     0
340
5D
144
0.18
309
CONTENTFORMAT_END
171
     1
301
MARGIN
  1
CELLMARGIN_BEGIN
 40
0.06
 40
0.06
 40
0.06
 40
0.06
 40
0.18
 40
0.18
309
CELLMARGIN_END
 94
        6
 95
        1
302
GRIDFORMAT
  1
GRIDFORMAT_BEGIN
 90
        0
 91
        1
 62
     0
 92
       -2
340
0
 93
        0
 40
0.045
309
GRIDFORMAT_END
 95
        2
302
GRIDFORMAT
  1
GRIDFORMAT_BEGIN
 90
        0
 91
        1
 62
     0
 92
       -2
340
0
 93
        0
 40
0.045
309
GRIDFORMAT_END
 95
        4
302
GRIDFORMAT
  1
GRIDFORMAT_BEGIN
 90
        0
 91
        1
 62
     0
 92
       -2
340
0
 93
        0
 40
0.045
309
GRIDFORMAT_END
 95
        8
302
GRIDFORMAT
  1
GRIDFORMAT_BEGIN
 90
        0
 91
        1
 62
     0
 92
       -2
340
0
 93
        0
 40
0.045
309
GRIDFORMAT_END
 95
       16
302
GRIDFORMAT
  1
GRIDFORMAT_BEGIN
 90
        0
 91
        1
 62
     0
 92
       -2
340
0
 93
        0
 40
0.045
309
GRIDFORMAT_END
 95
       32
302
GRIDFORMAT
  1
GRIDFORMAT_BEGIN
 90
        0
 91
        1
 62
     0
 92
       -2
340
0
 93
        0
 40
0.045
309
GRIDFORMAT_END
309
TABLEFORMAT_END
  1
CELLSTYLE_BEGIN
 90
        2
 91
        1
300
_HEADER
309
CELLSTYLE_END
300
CELLSTYLE
  1
TABLEFORMAT_BEGIN
 90
        5
170
     1
 91
        0
 92
        0
 62
   257
 93
        1
300
CONTENTFORMAT
  1
CONTENTFORMAT_BEGIN
 90
        0
 91
        0
 92
      512
 93
        0
300

 40
0.0
140
1.0
 94
        2
 62
     0
340
5D
144
0.18
309
CONTENTFORMAT_END
171
     1
301
MARGIN
  1
CELLMARGIN_BEGIN
 40
0.06
 40
0.06
 40
0.06
 40
0.06
 40
0.18
 40
0.18
309
CELLMARGIN_END
 94
        6
 95
        1
302
GRIDFORMAT
  1
GRIDFORMAT_BEGIN
 90
        0
 91
        1
 62
     0
 92
       -2
340
0
 93
        0
 40
0.045
309
GRIDFORMAT_END
 95
        2
302
GRIDFORMAT
  1
GRIDFORMAT_BEGIN
 90
        0
 91
        1
 62
     0
 92
       -2
340
0
 93
        0
 40
0.045
309
GRIDFORMAT_END
 95
        4
302
GRIDFORMAT
  1
GRIDFORMAT_BEGIN
 90
        0
 91
        1
 62
     0
 92
       -2
340
0
 93
        0
 40
0.045
309
GRIDFORMAT_END
 95
        8
302
GRIDFORMAT
  1
GRIDFORMAT_BEGIN
 90
        0
 91
        1
 62
     0
 92
       -2
340
0
 93
        0
 40
0.045
309
GRIDFORMAT_END
 95
       16
302
GRIDFORMAT
  1
GRIDFORMAT_BEGIN
 90
        0
 91
        1
 62
     0
 92
       -2
340
0
 93
        0
 40
0.045
309
GRIDFORMAT_END
 95
       32
302
GRIDFORMAT
  1
GRIDFORMAT_BEGIN
 90
        0
 91
        1
 62
     0
 92
       -2
340
0
 93
        0
 40
0.045
309
GRIDFORMAT_END
309
TABLEFORMAT_END
  1
CELLSTYLE_BEGIN
 90
        3
 91
        2
300
_DATA
309
CELLSTYLE_END
1001
ACAD
1000
AcRTDxfName
1000
CELLSTYLEMAP
  0
XRECORD
  5
1100
102
{ACAD_REACTORS
330
382
102
}
330
382
100
AcDbXrecord
280
     1
102
ACAD_ROUNDTRIP_PRE2007_TABLESTYLE
 90
      512
 91
        0
  1

 92
      512
 93
        0
  2

 94
      512
 95
        0
  3

  0
ENDSEC
  0
EOF
