  0
SECTION
  2
HEADER
  9
$ACADVER
  1
AC1021
  9
$ACADMAINTVER
 70
    25
  9
$DWGCODEPAGE
  3
ANSI_1252
  9
$LASTSAVEDBY
  1
Nishant.Babu
  9
$INSBASE
 10
0.0
 20
0.0
 30
0.0
  9
$EXTMIN
 10
90.61466550998829
 20
152.5895063195292
 30
-0.0015258207003583
  9
$EXTMAX
 10
287.1654915552763
 20
291.1091384242506
 30
0.0000000349246037
  9
$LIMMIN
 10
-67.33852408336116
 20
-75.87500000000012
  9
$LIMMAX
 10
127.6614759166389
 20
62.37499999999985
  9
$ORTHOMODE
 70
     0
  9
$REGENMODE
 70
     1
  9
$FILLMODE
 70
     1
  9
$QTEXTMODE
 70
     0
  9
$MIRRTEXT
 70
     0
  9
$LTSCALE
 40
0.5
  9
$ATTMODE
 70
     1
  9
$TEXTSIZE
 40
3.5
  9
$TRACEWID
 40
0.5
  9
$TEXTSTYLE
  7
STANDARD
  9
$CLAYER
  8
0
  9
$CELTYPE
  6
ByLayer
  9
$CECOLOR
 62
     2
  9
$CELTSCALE
 40
1.0
  9
$DISPSILH
 70
     0
  9
$DIMSCALE
 40
1.0
  9
$DIMASZ
 40
1.75
  9
$DIMEXO
 40
0.0
  9
$DIMDLI
 40
7.0
  9
$DIMRND
 40
0.0
  9
$DIMDLE
 40
0.0
  9
$DIMEXE
 40
0.5
  9
$DIMTP
 40
0.0
  9
$DIMTM
 40
0.0
  9
$DIMTXT
 40
1.75
  9
$DIMCEN
 40
0.0
  9
$DIMTSZ
 40
0.0
  9
$DIMTOL
 70
     0
  9
$DIMLIM
 70
     0
  9
$DIMTIH
 70
     0
  9
$DIMTOH
 70
     0
  9
$DIMSE1
 70
     0
  9
$DIMSE2
 70
     0
  9
$DIMTAD
 70
     1
  9
$DIMZIN
 70
     9
  9
$DIMBLK
  1

  9
$DIMASO
 70
     1
  9
$DIMSHO
 70
     1
  9
$DIMPOST
  1

  9
$DIMAPOST
  1

  9
$DIMALT
 70
     0
  9
$DIMALTD
 70
     2
  9
$DIMALTF
 40
25.4
  9
$DIMLFAC
 40
1.0
  9
$DIMTOFL
 70
     0
  9
$DIMTVP
 40
0.0
  9
$DIMTIX
 70
     0
  9
$DIMSOXD
 70
     0
  9
$DIMSAH
 70
     0
  9
$DIMBLK1
  1

  9
$DIMBLK2
  1

  9
$DIMSTYLE
  2
DMST_2
  9
$DIMCLRD
 70
     2
  9
$DIMCLRE
 70
     2
  9
$DIMCLRT
 70
     3
  9
$DIMTFAC
 40
1.0
  9
$DIMGAP
 40
0.09
  9
$DIMJUST
 70
     0
  9
$DIMSD1
 70
     0
  9
$DIMSD2
 70
     0
  9
$DIMTOLJ
 70
     1
  9
$DIMTZIN
 70
     0
  9
$DIMALTZ
 70
     0
  9
$DIMALTTZ
 70
     0
  9
$DIMUPT
 70
     0
  9
$DIMDEC
 70
     4
  9
$DIMTDEC
 70
     4
  9
$DIMALTU
 70
     2
  9
$DIMALTTD
 70
     2
  9
$DIMTXSTY
  7
STANDARD
  9
$DIMAUNIT
 70
     0
  9
$DIMADEC
 70
     0
  9
$DIMALTRND
 40
0.0
  9
$DIMAZIN
 70
     0
  9
$DIMDSEP
 70
    46
  9
$DIMATFIT
 70
     3
  9
$DIMFRAC
 70
     0
  9
$DIMLDRBLK
  1

  9
$DIMLUNIT
 70
     2
  9
$DIMLWD
 70
    -2
  9
$DIMLWE
 70
    -2
  9
$DIMTMOVE
 70
     2
  9
$DIMFXL
 40
1.0
  9
$DIMFXLON
 70
     0
  9
$DIMJOGANG
 40
0.7853981633974483
  9
$DIMTFILL
 70
     0
  9
$DIMTFILLCLR
 70
     0
  9
$DIMARCSYM
 70
     0
  9
$DIMLTYPE
  6

  9
$DIMLTEX1
  6

  9
$DIMLTEX2
  6

  9
$LUNITS
 70
     2
  9
$LUPREC
 70
     4
  9
$SKETCHINC
 40
0.1
  9
$FILLETRAD
 40
2.0
  9
$AUNITS
 70
     0
  9
$AUPREC
 70
     0
  9
$MENU
  1
ACAD
  9
$ELEVATION
 40
0.0
  9
$PELEVATION
 40
0.0
  9
$THICKNESS
 40
0.0
  9
$LIMCHECK
 70
     0
  9
$CHAMFERA
 40
0.0
  9
$CHAMFERB
 40
0.0
  9
$CHAMFERC
 40
0.0
  9
$CHAMFERD
 40
0.0
  9
$SKPOLY
 70
     0
  9
$TDCREATE
 40
2454449.519811262
  9
$TDUCREATE
 40
2454449.290644595
  9
$TDUPDATE
 40
2456524.425296123
  9
$TDUUPDATE
 40
2456524.196129457
  9
$TDINDWG
 40
0.2740007870
  9
$TDUSRTIMER
 40
0.2740007870
  9
$USRTIMER
 70
     1
  9
$ANGBASE
 50
0.0
  9
$ANGDIR
 70
     0
  9
$PDMODE
 70
     0
  9
$PDSIZE
 40
0.0
  9
$PLINEWID
 40
0.0
  9
$SPLFRAME
 70
     0
  9
$SPLINETYPE
 70
     6
  9
$SPLINESEGS
 70
     8
  9
$HANDSEED
  5
465A
  9
$SURFTAB1
 70
     6
  9
$SURFTAB2
 70
     6
  9
$SURFTYPE
 70
     6
  9
$SURFU
 70
     6
  9
$SURFV
 70
     6
  9
$UCSBASE
  2

  9
$UCSNAME
  2

  9
$UCSORG
 10
0.0
 20
0.0
 30
0.0
  9
$UCSXDIR
 10
1.0
 20
0.0
 30
0.0
  9
$UCSYDIR
 10
0.0
 20
1.0
 30
0.0
  9
$UCSORTHOREF
  2

  9
$UCSORTHOVIEW
 70
     0
  9
$UCSORGTOP
 10
0.0
 20
0.0
 30
0.0
  9
$UCSORGBOTTOM
 10
0.0
 20
0.0
 30
0.0
  9
$UCSORGLEFT
 10
0.0
 20
0.0
 30
0.0
  9
$UCSORGRIGHT
 10
0.0
 20
0.0
 30
0.0
  9
$UCSORGFRONT
 10
0.0
 20
0.0
 30
0.0
  9
$UCSORGBACK
 10
0.0
 20
0.0
 30
0.0
  9
$PUCSBASE
  2

  9
$PUCSNAME
  2

  9
$PUCSORG
 10
0.0
 20
0.0
 30
0.0
  9
$PUCSXDIR
 10
1.0
 20
0.0
 30
0.0
  9
$PUCSYDIR
 10
0.0
 20
1.0
 30
0.0
  9
$PUCSORTHOREF
  2

  9
$PUCSORTHOVIEW
 70
     0
  9
$PUCSORGTOP
 10
0.0
 20
0.0
 30
0.0
  9
$PUCSORGBOTTOM
 10
0.0
 20
0.0
 30
0.0
  9
$PUCSORGLEFT
 10
0.0
 20
0.0
 30
0.0
  9
$PUCSORGRIGHT
 10
0.0
 20
0.0
 30
0.0
  9
$PUCSORGFRONT
 10
0.0
 20
0.0
 30
0.0
  9
$PUCSORGBACK
 10
0.0
 20
0.0
 30
0.0
  9
$USERI1
 70
     0
  9
$USERI2
 70
     0
  9
$USERI3
 70
     0
  9
$USERI4
 70
     0
  9
$USERI5
 70
     0
  9
$USERR1
 40
0.0
  9
$USERR2
 40
0.0
  9
$USERR3
 40
0.0
  9
$USERR4
 40
0.0
  9
$USERR5
 40
0.0
  9
$WORLDVIEW
 70
     1
  9
$SHADEDGE
 70
     3
  9
$SHADEDIF
 70
    70
  9
$TILEMODE
 70
     1
  9
$MAXACTVP
 70
    64
  9
$PINSBASE
 10
0.0
 20
0.0
 30
0.0
  9
$PLIMCHECK
 70
     0
  9
$PEXTMIN
 10
1.000000000000000E+20
 20
1.000000000000000E+20
 30
1.000000000000000E+20
  9
$PEXTMAX
 10
-1.000000000000000E+20
 20
-1.000000000000000E+20
 30
-1.000000000000000E+20
  9
$PLIMMIN
 10
0.0
 20
0.0
  9
$PLIMMAX
 10
12.0
 20
9.0
  9
$UNITMODE
 70
     0
  9
$VISRETAIN
 70
     1
  9
$PLINEGEN
 70
     0
  9
$PSLTSCALE
 70
     1
  9
$TREEDEPTH
 70
  3020
  9
$CMLSTYLE
  2
Standard
  9
$CMLJUST
 70
     0
  9
$CMLSCALE
 40
1.0
  9
$PROXYGRAPHICS
 70
     1
  9
$MEASUREMENT
 70
     0
  9
$CELWEIGHT
370
    -1
  9
$ENDCAPS
280
     0
  9
$JOINSTYLE
280
     0
  9
$LWDISPLAY
290
     0
  9
$INSUNITS
 70
     4
  9
$HYPERLINKBASE
  1

  9
$STYLESHEET
  1
SSG1.ctb
  9
$XEDIT
290
     1
  9
$CEPSNTYPE
380
     0
  9
$PSTYLEMODE
290
     1
  9
$FINGERPRINTGUID
  2
{545D20A6-9F76-498C-99FC-5D7358E06DD5}
  9
$VERSIONGUID
  2
{3E404EBB-C23E-4AC3-AB28-70280130D66E}
  9
$EXTNAMES
290
     1
  9
$PSVPSCALE
 40
0.0
  9
$OLESTARTUP
290
     0
  9
$SORTENTS
280
   127
  9
$INDEXCTL
280
     0
  9
$HIDETEXT
280
     0
  9
$XCLIPFRAME
290
     0
  9
$HALOGAP
280
     0
  9
$OBSCOLOR
 70
   257
  9
$OBSLTYPE
280
     0
  9
$INTERSECTIONDISPLAY
280
     0
  9
$INTERSECTIONCOLOR
 70
   257
  9
$DIMASSOC
280
     1
  9
$PROJECTNAME
  1

  9
$CAMERADISPLAY
290
     0
  9
$LENSLENGTH
 40
50.0
  9
$CAMERAHEIGHT
 40
0.0
  9
$STEPSPERSEC
 40
2.0
  9
$STEPSIZE
 40
6.0
  9
$3DDWFPREC
 40
2.0
  9
$PSOLWIDTH
 40
0.25
  9
$PSOLHEIGHT
 40
4.0
  9
$LOFTANG1
 40
1.570796326794896
  9
$LOFTANG2
 40
1.570796326794896
  9
$LOFTMAG1
 40
0.0
  9
$LOFTMAG2
 40
0.0
  9
$LOFTPARAM
 70
     7
  9
$LOFTNORMALS
280
     1
  9
$LATITUDE
 40
37.795
  9
$LONGITUDE
 40
-122.394
  9
$NORTHDIRECTION
 40
0.0
  9
$TIMEZONE
 70
 -8000
  9
$LIGHTGLYPHDISPLAY
280
     1
  9
$TILEMODELIGHTSYNCH
280
     1
  9
$CMATERIAL
347
11
  9
$SOLIDHIST
280
     1
  9
$SHOWHIST
280
     1
  9
$DWFFRAME
280
     2
  9
$DGNFRAME
280
     0
  9
$REALWORLDSCALE
290
     1
  9
$INTERFERECOLOR
 62
     1
  9
$INTERFEREOBJVS
345
33
  9
$INTERFEREVPVS
346
30
  9
$CSHADOW
280
     0
  9
$SHADOWPLANELOCATION
 40
0.0
  0
ENDSEC
  0
SECTION
  2
CLASSES
  0
CLASS
  1
ACDBDICTIONARYWDFLT
  2
AcDbDictionaryWithDefault
  3
ObjectDBX Classes
 90
        0
 91
        1
280
     0
281
     0
  0
CLASS
  1
MATERIAL
  2
AcDbMaterial
  3
ObjectDBX Classes
 90
     1153
 91
        3
280
     0
281
     0
  0
CLASS
  1
VISUALSTYLE
  2
AcDbVisualStyle
  3
ObjectDBX Classes
 90
     4095
 91
       19
280
     0
281
     0
  0
CLASS
  1
SCALE
  2
AcDbScale
  3
ObjectDBX Classes
 90
     1153
 91
       33
280
     0
281
     0
  0
CLASS
  1
TABLESTYLE
  2
AcDbTableStyle
  3
ObjectDBX Classes
 90
     4095
 91
        1
280
     0
281
     0
  0
CLASS
  1
MLEADERSTYLE
  2
AcDbMLeaderStyle
  3
ACDB_MLEADERSTYLE_CLASS
 90
     4095
 91
        1
280
     0
281
     0
  0
CLASS
  1
ACAD_EVALUATION_GRAPH
  2
AcDbEvalGraph
  3
ObjectDBX Classes
 90
     1153
 91
        4
280
     0
281
     0
  0
CLASS
  1
ACAECUSTOBJ
  2
AcAeEditorObj
  3
AcAeEditorObj
 90
     1024
 91
        0
280
     0
281
     0
  0
CLASS
  1
SORTENTSTABLE
  2
AcDbSortentsTable
  3
ObjectDBX Classes
 90
        0
 91
       13
280
     0
281
     0
  0
CLASS
  1
ACDB_DYNAMICBLOCKPURGEPREVENTER_VERSION
  2
AcDbDynamicBlockPurgePreventer
  3
ObjectDBX Classes
 90
     1153
 91
        4
280
     0
281
     0
  0
CLASS
  1
CELLSTYLEMAP
  2
AcDbCellStyleMap
  3
ObjectDBX Classes
 90
     1152
 91
        6
280
     0
281
     0
  0
CLASS
  1
DICTIONARYVAR
  2
AcDbDictionaryVar
  3
ObjectDBX Classes
 90
        0
 91
        8
280
     0
281
     0
  0
CLASS
  1
BREAKDATA
  2
AcDbBreakData
  3
ObjectDBX Classes
 90
     1024
 91
        5
280
     0
281
     0
  0
ENDSEC
  0
SECTION
  2
TABLES
  0
TABLE
  2
VPORT
  5
8
102
{ACAD_XDICTIONARY
360
1801
102
}
330
0
100
AcDbSymbolTable
 70
     1
  0
VPORT
  5
8C
330
8
100
AcDbSymbolTableRecord
100
AcDbViewportTableRecord
  2
*Active
 70
     0
 10
0.0
 20
0.0
 11
1.0
 21
1.0
 12
191.8587167494992
 22
217.6195241009598
 13
0.0
 23
0.0
 14
1.0
 24
1.0
 15
0.0
 25
0.0
 16
0.0
 26
0.0
 36
1.0
 17
0.0
 27
0.0
 37
0.0
 40
156.1990868445879
 41
2.006430868167202
 42
50.0
 43
0.0
 44
0.0
 50
0.0
 51
0.0
 71
     0
 72
 20000
 73
     1
 74
     1
 75
     0
 76
     0
 77
     0
 78
     0
281
     0
 65
     1
110
0.0
120
0.0
130
0.0
111
1.0
121
0.0
131
0.0
112
0.0
122
1.0
132
0.0
 79
     0
146
0.0
348
2F
 60
     3
 61
     5
292
     1
282
     1
141
0.0
142
0.0
 63
   250
421
  3355443
  0
ENDTAB
  0
TABLE
  2
LTYPE
  5
5
330
0
100
AcDbSymbolTable
 70
     9
  0
LTYPE
  5
62
330
5
100
AcDbSymbolTableRecord
100
AcDbLinetypeTableRecord
  2
ByBlock
 70
     0
  3

 72
    65
 73
     0
 40
0.0
  0
LTYPE
  5
63
330
5
100
AcDbSymbolTableRecord
100
AcDbLinetypeTableRecord
  2
ByLayer
 70
     0
  3

 72
    65
 73
     0
 40
0.0
  0
LTYPE
  5
64
330
5
100
AcDbSymbolTableRecord
100
AcDbLinetypeTableRecord
  2
CONTINUOUS
 70
     0
  3
Solid line
 72
    65
 73
     0
 40
0.0
  0
LTYPE
  5
7C
330
5
100
AcDbSymbolTableRecord
100
AcDbLinetypeTableRecord
  2
BORDER
 70
     0
  3
__ __ . __ __ .
 72
    65
 73
     6
 40
8.980263157894738
 49
2.565789473684211
 74
     0
 49
-1.282894736842105
 74
     0
 49
2.565789473684211
 74
     0
 49
-1.282894736842105
 74
     0
 49
0.0
 74
     0
 49
-1.282894736842105
 74
     0
  0
LTYPE
  5
7D
330
5
100
AcDbSymbolTableRecord
100
AcDbLinetypeTableRecord
  2
CENTER
 70
     0
  3
____ _ ____ _
 72
    65
 73
     4
 40
10.26315789473684
 49
6.414473684210526
 74
     0
 49
-1.282894736842105
 74
     0
 49
1.282894736842105
 74
     0
 49
-1.282894736842105
 74
     0
  0
LTYPE
  5
7E
330
5
100
AcDbSymbolTableRecord
100
AcDbLinetypeTableRecord
  2
DASHDOT
 70
     0
  3
__ . __ . __ .
 72
    65
 73
     4
 40
5.131578947368422
 49
2.565789473684211
 74
     0
 49
-1.282894736842105
 74
     0
 49
0.0
 74
     0
 49
-1.282894736842105
 74
     0
  0
LTYPE
  5
7F
330
5
100
AcDbSymbolTableRecord
100
AcDbLinetypeTableRecord
  2
DASHED
 70
     0
  3
__ __ __ __ __
 72
    65
 73
     2
 40
3.848684210526316
 49
2.565789473684211
 74
     0
 49
-1.282894736842105
 74
     0
  0
LTYPE
  5
80
330
5
100
AcDbSymbolTableRecord
100
AcDbLinetypeTableRecord
  2
DIVIDE
 70
     0
  3
__ . . __ . . 
 72
    65
 73
     6
 40
6.414473684210526
 49
2.565789473684211
 74
     0
 49
-1.282894736842105
 74
     0
 49
0.0
 74
     0
 49
-1.282894736842105
 74
     0
 49
0.0
 74
     0
 49
-1.282894736842105
 74
     0
  0
LTYPE
  5
81
330
5
100
AcDbSymbolTableRecord
100
AcDbLinetypeTableRecord
  2
DOT
 70
     0
  3
..............
 72
    65
 73
     4
 40
2.565789473684211
 49
0.0
 74
     0
 49
-1.282894736842105
 74
     0
 49
0.0
 74
     0
 49
-1.282894736842105
 74
     0
  0
LTYPE
  5
82
330
5
100
AcDbSymbolTableRecord
100
AcDbLinetypeTableRecord
  2
HIDDEN
 70
     0
  3
_ _ _ _ _ _ _
 72
    65
 73
     2
 40
1.924342105263158
 49
1.282894736842105
 74
     0
 49
-0.6414473684210528
 74
     0
  0
LTYPE
  5
83
330
5
100
AcDbSymbolTableRecord
100
AcDbLinetypeTableRecord
  2
PHANTOM
 70
     0
  3
_____ _ _ _____ _ _ 
 72
    65
 73
     6
 40
12.82894736842106
 49
6.414473684210526
 74
     0
 49
-1.282894736842105
 74
     0
 49
1.282894736842105
 74
     0
 49
-1.282894736842105
 74
     0
 49
1.282894736842105
 74
     0
 49
-1.282894736842105
 74
     0
  0
ENDTAB
  0
TABLE
  2
LAYER
  5
2
102
{ACAD_XDICTIONARY
360
3F31
102
}
330
0
100
AcDbSymbolTable
 70
     7
  0
LAYER
  5
5C
102
{ACAD_XDICTIONARY
360
80A
102
}
330
2
100
AcDbSymbolTableRecord
100
AcDbLayerTableRecord
  2
0
 70
     0
 62
     7
  6
CONTINUOUS
370
    -3
390
F
347
21
  0
LAYER
  5
84
102
{ACAD_XDICTIONARY
360
80C
102
}
330
2
100
AcDbSymbolTableRecord
100
AcDbLayerTableRecord
  2
1
 70
     0
 62
     7
  6
CONTINUOUS
370
    -3
390
F
347
21
  0
LAYER
  5
580
330
2
100
AcDbSymbolTableRecord
100
AcDbLayerTableRecord
  2
Defpoints
 70
     0
 62
     7
  6
CONTINUOUS
290
     0
370
    -3
390
F
347
21
  0
LAYER
  5
F37
330
2
100
AcDbSymbolTableRecord
100
AcDbLayerTableRecord
  2
Dark hatch1
 70
     0
 62
     3
  6
CONTINUOUS
370
    25
390
F
347
21
1001
AcAecLayerStandard
1000

1000

  0
LAYER
  5
F39
330
2
100
AcDbSymbolTableRecord
100
AcDbLayerTableRecord
  2
light
 70
     0
 62
     5
  6
CONTINUOUS
370
     0
390
F
347
21
1001
AcAecLayerStandard
1000

1000

  0
LAYER
  5
3F1A
330
2
100
AcDbSymbolTableRecord
100
AcDbLayerTableRecord
  2
DEFAULT_1
 70
     0
 62
     7
  6
CENTER
370
    -3
390
F
347
21
  0
LAYER
  5
3F1B
330
2
100
AcDbSymbolTableRecord
100
AcDbLayerTableRecord
  2
02___PRT_ALL_AXES
 70
     0
 62
     7
  6
CONTINUOUS
370
    -3
390
F
347
21
  0
ENDTAB
  0
TABLE
  2
STYLE
  5
3
330
0
100
AcDbSymbolTable
 70
    12
  0
STYLE
  5
5D
330
3
100
AcDbSymbolTableRecord
100
AcDbTextStyleTableRecord
  2
STANDARD
 70
     0
 40
0.0
 41
1.0
 50
0.0
 71
     0
 42
3.5
  3
isocpeur.ttf
  4

1001
ACAD
1000
ISOCPEUR
1071
       34
  0
STYLE
  5
61
330
3
100
AcDbSymbolTableRecord
100
AcDbTextStyleTableRecord
  2
Annotative
 70
     0
 40
0.0
 41
1.0
 50
0.0
 71
     0
 42
0.2
  3

  4

1001
AcadAnnotative
1000
AnnotativeData
1002
{
1070
     1
1070
     1
1002
}
  0
STYLE
  5
85
330
3
100
AcDbSymbolTableRecord
100
AcDbTextStyleTableRecord
  2
SIMPLEX
 70
     0
 40
0.0
 41
1.0
 50
0.0
 71
     0
 42
3.5
  3
simplex
  4

  0
STYLE
  5
86
330
3
100
AcDbSymbolTableRecord
100
AcDbTextStyleTableRecord
  2
COMPLEX
 70
     0
 40
0.0
 41
1.0
 50
0.0
 71
     0
 42
3.5
  3
complex
  4

  0
STYLE
  5
87
330
3
100
AcDbSymbolTableRecord
100
AcDbTextStyleTableRecord
  2
ITALIC
 70
     0
 40
0.0
 41
1.0
 50
0.0
 71
     0
 42
3.5
  3
italic
  4

  0
STYLE
  5
B7B
330
3
100
AcDbSymbolTableRecord
100
AcDbTextStyleTableRecord
  2
SLDTEXTSTYLE0
 70
     0
 40
0.0
 41
0.605
 50
0.0
 71
     0
 42
0.0
  3
TXT
  4

  0
STYLE
  5
F3B
330
3
100
AcDbSymbolTableRecord
100
AcDbTextStyleTableRecord
  2
romans
 70
     0
 40
0.0
 41
1.0
 50
0.0
 71
     0
 42
2.5
  3
isocpeur.ttf
  4

1001
ACAD
1000
ISOCPEUR
1071
       34
  0
STYLE
  5
3F1C
330
3
100
AcDbSymbolTableRecord
100
AcDbTextStyleTableRecord
  2
style1
 70
     0
 40
0.0
 41
1.0
 50
0.0
 71
     0
 42
0.2
  3
isocpeur.ttf
  4

1001
ACAD
1000
ISOCPEUR
1071
       34
  0
STYLE
  5
3F1D
330
3
100
AcDbSymbolTableRecord
100
AcDbTextStyleTableRecord
  2
NEW
 70
     0
 40
0.0
 41
1.0
 50
0.0
 71
     0
 42
0.2
  3
arial.ttf
  4

1001
ACAD
1000
Arial
1071
       34
  0
ENDTAB
  0
TABLE
  2
VIEW
  5
6
330
0
100
AcDbSymbolTable
 70
     0
  0
ENDTAB
  0
TABLE
  2
UCS
  5
7
330
0
100
AcDbSymbolTable
 70
     0
  0
ENDTAB
  0
TABLE
  2
APPID
  5
9
330
0
100
AcDbSymbolTable
 70
    14
  0
APPID
  5
5E
330
9
100
AcDbSymbolTableRecord
100
AcDbRegAppTableRecord
  2
ACAD
 70
     0
  0
APPID
  5
65
330
9
100
AcDbSymbolTableRecord
100
AcDbRegAppTableRecord
  2
AcadAnnotative
 70
     0
  0
APPID
  5
6F
330
9
100
AcDbSymbolTableRecord
100
AcDbRegAppTableRecord
  2
ACAD_MLEADERVER
 70
     0
  0
APPID
  5
410
330
9
100
AcDbSymbolTableRecord
100
AcDbRegAppTableRecord
  2
AcadAnnoPO
 70
     0
  0
APPID
  5
60B
330
9
100
AcDbSymbolTableRecord
100
AcDbRegAppTableRecord
  2
ACAUTHENVIRON
 70
     0
  0
APPID
  5
712
330
9
100
AcDbSymbolTableRecord
100
AcDbRegAppTableRecord
  2
ACAD_EXEMPT_FROM_CAD_STANDARDS
 70
     0
  0
APPID
  5
7FD
330
9
100
AcDbSymbolTableRecord
100
AcDbRegAppTableRecord
  2
AcDbDynamicBlockTrueName
 70
     0
  0
APPID
  5
7FE
330
9
100
AcDbSymbolTableRecord
100
AcDbRegAppTableRecord
  2
AcDbDynamicBlockGUID
 70
     0
  0
APPID
  5
800
330
9
100
AcDbSymbolTableRecord
100
AcDbRegAppTableRecord
  2
AcDbBlockRepETag
 70
     0
  0
APPID
  5
B7C
330
9
100
AcDbSymbolTableRecord
100
AcDbRegAppTableRecord
  2
ACAD_PSEXT
 70
     0
  0
APPID
  5
B7D
330
9
100
AcDbSymbolTableRecord
100
AcDbRegAppTableRecord
  2
ACAD_DSTYLE_DIMJAG
 70
     0
  0
APPID
  5
B7E
330
9
100
AcDbSymbolTableRecord
100
AcDbRegAppTableRecord
  2
ACAD_DSTYLE_DIMTALN
 70
     0
  0
APPID
  5
F3C
330
9
100
AcDbSymbolTableRecord
100
AcDbRegAppTableRecord
  2
AcAecLayerStandard
 70
     0
  0
APPID
  5
30B9
330
9
100
AcDbSymbolTableRecord
100
AcDbRegAppTableRecord
  2
DCO15
 70
     0
  0
ENDTAB
  0
TABLE
  2
DIMSTYLE
  5
A
330
0
100
AcDbSymbolTable
 70
    19
100
AcDbDimStyleTable
 71
     3
340
79
340
5F
340
78
  0
DIMSTYLE
105
5F
330
A
100
AcDbSymbolTableRecord
100
AcDbDimStyleTableRecord
  2
Standard
 70
     0
340
5D
  0
DIMSTYLE
105
60
330
A
100
AcDbSymbolTableRecord
100
AcDbDimStyleTableRecord
  2
Annotative
 70
     0
340
5D
1001
AcadAnnotative
1000
AnnotativeData
1002
{
1070
     1
1070
     1
1002
}
  0
DIMSTYLE
105
78
102
{ACAD_REACTORS
330
3C08
330
3C0C
330
3C0F
102
}
330
A
100
AcDbSymbolTableRecord
100
AcDbDimStyleTableRecord
  2
DMST_1
 70
     0
 41
1.75
 42
0.0
 43
7.0
 44
0.5
 71
     1
 73
     0
 74
     0
 77
     1
 78
     9
140
1.75
141
0.0
146
0.7
176
     2
177
     2
178
     3
279
     2
340
5D
  0
DIMSTYLE
105
79
102
{ACAD_REACTORS
330
3C09
330
3C0A
330
3C0B
330
3C0D
330
3C10
330
3C12
330
42AA
330
434A
330
433C
102
}
330
A
100
AcDbSymbolTableRecord
100
AcDbDimStyleTableRecord
  2
DMST_2
 70
     0
 41
1.75
 42
0.0
 43
7.0
 44
0.5
 73
     0
 74
     0
 77
     1
 78
     9
140
1.75
141
0.0
176
     2
177
     2
178
     3
279
     2
340
5D
1001
ACAD_DSTYLE_DIMJAG
1070
   388
1040
1.5
1001
ACAD_DSTYLE_DIMTALN
1070
   392
1070
     0
  0
DIMSTYLE
105
7A
102
{ACAD_REACTORS
330
3C0E
102
}
330
A
100
AcDbSymbolTableRecord
100
AcDbDimStyleTableRecord
  2
DMST_3
 70
     0
 41
1.75
 42
0.0
 43
7.0
 44
0.5
 73
     0
 74
     0
 77
     1
 78
     9
140
1.75
141
0.0
176
     2
177
     2
178
     3
279
     2
340
5D
  0
DIMSTYLE
105
7B
102
{ACAD_REACTORS
330
3C11
102
}
330
A
100
AcDbSymbolTableRecord
100
AcDbDimStyleTableRecord
  2
DMST_4
 70
     0
 41
1.75
 42
0.0
 43
7.0
 44
0.5
 73
     0
 74
     0
 77
     1
 78
     9
140
1.75
141
0.0
176
     2
177
     2
178
     3
279
     2
340
5D
  0
DIMSTYLE
105
3F1E
330
A
100
AcDbSymbolTableRecord
100
AcDbDimStyleTableRecord
  2
DIMSTYLE_1
 70
     0
 41
4.0
 48
0.1
 71
     1
 73
     0
 74
     0
 77
     1
 78
     8
140
2.799999999999999
144
0.6666666667
146
0.75
178
     5
271
     2
272
     2
284
     8
340
5D
341
3DFD
342
3DFD
343
3DFD
344
3DFD
  0
DIMSTYLE
105
3F1F
330
A
100
AcDbSymbolTableRecord
100
AcDbDimStyleTableRecord
  2
DIMSTYLE_2
 70
     0
 41
4.0
 47
0.01
 48
0.01
 73
     0
 74
     0
 77
     1
 78
     8
140
2.799999999999999
144
0.6666666667
178
     5
271
     2
272
     2
284
     8
340
5D
341
3DFD
342
3DFD
343
3DFD
344
3DFD
  0
DIMSTYLE
105
3F20
330
A
100
AcDbSymbolTableRecord
100
AcDbDimStyleTableRecord
  2
DIMSTYLE_3
 70
     0
 41
4.0
 47
0.2
 48
0.2
 71
     1
 73
     0
 74
     0
 77
     1
 78
     8
140
2.799999999999999
144
0.6666666667
178
     5
271
     2
272
     2
284
     8
340
5D
341
3DFD
342
3DFD
343
3DFD
344
3DFD
  0
DIMSTYLE
105
3F21
330
A
100
AcDbSymbolTableRecord
100
AcDbDimStyleTableRecord
  2
DIMSTYLE_4
 70
     0
 41
4.0
 47
0.1
 48
0.1
 71
     1
 73
     0
 74
     0
 77
     1
 78
     8
140
2.799999999999999
144
0.6666666667
271
     1
272
     1
284
     8
340
5D
341
3DFD
342
3DFD
343
3DFD
344
3DFD
  0
DIMSTYLE
105
3F22
330
A
100
AcDbSymbolTableRecord
100
AcDbDimStyleTableRecord
  2
DIMSTYLE_7
 70
     0
 41
4.0
 73
     0
 74
     0
 77
     1
 78
     8
140
2.799999999999999
144
0.6666666667
178
     5
271
     0
272
     0
284
     8
340
5D
341
3DFD
342
3DFD
343
3DFD
344
3DFD
  0
DIMSTYLE
105
3F23
330
A
100
AcDbSymbolTableRecord
100
AcDbDimStyleTableRecord
  2
DIMSTYLE_8
 70
     0
 41
4.0
 47
0.3
 48
0.3
 71
     1
 73
     0
 74
     0
 77
     1
 78
     8
140
2.799999999999999
144
0.6666666667
178
     5
271
     2
272
     2
284
     8
340
5D
341
3DFD
342
3DFD
343
3DFD
344
3DFD
  0
DIMSTYLE
105
3F24
330
A
100
AcDbSymbolTableRecord
100
AcDbDimStyleTableRecord
  2
DIMSTYLE_9
 70
     0
 41
4.0
 48
0.1
 71
     1
 77
     1
 78
     8
140
2.799999999999999
144
0.6666666667
146
0.75
178
     5
271
     2
272
     2
284
     8
340
5D
341
3DFD
342
3DFD
343
3DFD
344
3DFD
  0
DIMSTYLE
105
3F25
330
A
100
AcDbSymbolTableRecord
100
AcDbDimStyleTableRecord
  2
DIMSTYLE_10
 70
     0
 41
4.0
 47
0.9
 48
0.9
 71
     1
 73
     0
 74
     0
 77
     1
 78
     8
140
2.799999999999999
144
0.6666666667
271
     2
272
     2
284
     8
340
5D
341
3DFD
342
3DFD
343
3DFD
344
3DFD
  0
DIMSTYLE
105
3F26
330
A
100
AcDbSymbolTableRecord
100
AcDbDimStyleTableRecord
  2
DIMSTYLE_11
 70
     0
 41
4.0
 47
0.1
 48
0.1
 71
     1
 73
     0
 74
     0
 77
     1
 78
     8
140
2.799999999999999
144
0.6666666667
271
     2
272
     2
284
     8
340
5D
341
3DFD
342
3DFD
343
3DFD
344
3DFD
  0
DIMSTYLE
105
3F27
330
A
100
AcDbSymbolTableRecord
100
AcDbDimStyleTableRecord
  2
DIMSTYLE_12
 70
     0
 41
4.0
 47
3.0
 48
3.0
 71
     1
 73
     0
 74
     0
 77
     1
 78
     8
140
2.799999999999999
144
0.6666666667
178
     5
271
     2
272
     2
284
     8
340
5D
341
3DFD
342
3DFD
343
3DFD
344
3DFD
  0
ENDTAB
  0
TABLE
  2
BLOCK_RECORD
  5
1
330
0
100
AcDbSymbolTable
 70
    90
  0
BLOCK_RECORD
  5
74
102
{ACAD_XDICTIONARY
360
4215
102
}
330
1
100
AcDbSymbolTableRecord
100
AcDbBlockTableRecord
  2
*Model_Space
340
77
 70
     0
280
     1
281
     0
  0
BLOCK_RECORD
  5
70
330
1
100
AcDbSymbolTableRecord
100
AcDbBlockTableRecord
  2
*Paper_Space
340
73
 70
     0
280
     1
281
     0
  0
BLOCK_RECORD
  5
8D
330
1
100
AcDbSymbolTableRecord
100
AcDbBlockTableRecord
  2
A3SN_
340
0
 70
     0
280
     1
281
     0
  0
BLOCK_RECORD
  5
229
102
{ACAD_XDICTIONARY
360
3255
102
}
330
1
100
AcDbSymbolTableRecord
100
AcDbBlockTableRecord
  2
1011170046S11_TOP_
340
0
102
{BLKREFS
331
40C
102
}
 70
     0
280
     1
281
     0
1001
AcDbDynamicBlockGUID
1000
{E7624E45-1377-42FC-AA9E-91CC8E1FF6E3}
1001
AcDbBlockRepETag
1070
     1
1071
      459
  0
BLOCK_RECORD
  5
B4D
102
{ACAD_XDICTIONARY
360
B4E
102
}
330
1
100
AcDbSymbolTableRecord
100
AcDbBlockTableRecord
  2
*U2
340
0
102
{BLKREFS
331
B82
331
B8C
102
}
 70
     0
280
     1
281
     0
1001
AcDbDynamicBlockTrueName
1000
A$C6E40112F
1001
AcDbDynamicBlockGUID
1000
{C7E3BF74-7DEE-4D7B-AF3E-313607523153}
  0
BLOCK_RECORD
  5
B7F
102
{ACAD_XDICTIONARY
360
B83
102
}
330
1
100
AcDbSymbolTableRecord
100
AcDbBlockTableRecord
  2
*U3
340
0
 70
     0
280
     1
281
     0
1001
AcDbDynamicBlockTrueName
1000
A$C526C470A
1001
AcDbDynamicBlockGUID
1000
{4123C000-1A63-44E9-9010-08D4E2F50BD7}
  0
BLOCK_RECORD
  5
B89
102
{ACAD_XDICTIONARY
360
B8D
102
}
330
1
100
AcDbSymbolTableRecord
100
AcDbBlockTableRecord
  2
*U4
340
0
 70
     0
280
     1
281
     0
1001
AcDbDynamicBlockTrueName
1000
A$C07A20733
1001
AcDbDynamicBlockGUID
1000
{D636612D-1E8D-4765-9F54-18ECF4FB4BFB}
  0
BLOCK_RECORD
  5
F56
102
{ACAD_XDICTIONARY
360
F59
102
}
330
1
100
AcDbSymbolTableRecord
100
AcDbBlockTableRecord
  2
*U5
340
0
 70
     0
280
     1
281
     0
1001
AcDbDynamicBlockTrueName
1000
A$C3F467118
1001
AcDbDynamicBlockGUID
1000
{61E8673F-C0EB-4E02-9095-7BCCAD4769D7}
  0
BLOCK_RECORD
  5
3C7A
330
1
100
AcDbSymbolTableRecord
100
AcDbBlockTableRecord
  2
*D50
340
0
 70
     0
280
     1
281
     0
  0
BLOCK_RECORD
  5
3C86
330
1
100
AcDbSymbolTableRecord
100
AcDbBlockTableRecord
  2
*D51
340
0
 70
     0
280
     1
281
     0
  0
BLOCK_RECORD
  5
3C92
330
1
100
AcDbSymbolTableRecord
100
AcDbBlockTableRecord
  2
*D52
340
0
 70
     0
280
     1
281
     0
  0
BLOCK_RECORD
  5
3C9F
330
1
100
AcDbSymbolTableRecord
100
AcDbBlockTableRecord
  2
*D53
340
0
 70
     0
280
     1
281
     0
  0
BLOCK_RECORD
  5
3CAB
330
1
100
AcDbSymbolTableRecord
100
AcDbBlockTableRecord
  2
*D54
340
0
 70
     0
280
     1
281
     0
  0
BLOCK_RECORD
  5
3CB8
330
1
100
AcDbSymbolTableRecord
100
AcDbBlockTableRecord
  2
*D55
340
0
 70
     0
280
     1
281
     0
  0
BLOCK_RECORD
  5
3CC5
330
1
100
AcDbSymbolTableRecord
100
AcDbBlockTableRecord
  2
*D56
340
0
 70
     0
280
     1
281
     0
  0
BLOCK_RECORD
  5
3CD1
330
1
100
AcDbSymbolTableRecord
100
AcDbBlockTableRecord
  2
*D57
340
0
 70
     0
280
     1
281
     0
  0
BLOCK_RECORD
  5
3CDD
330
1
100
AcDbSymbolTableRecord
100
AcDbBlockTableRecord
  2
*D58
340
0
 70
     0
280
     1
281
     0
  0
BLOCK_RECORD
  5
3CE9
330
1
100
AcDbSymbolTableRecord
100
AcDbBlockTableRecord
  2
*D59
340
0
 70
     0
280
     1
281
     0
  0
BLOCK_RECORD
  5
3CF6
330
1
100
AcDbSymbolTableRecord
100
AcDbBlockTableRecord
  2
*D60
340
0
 70
     0
280
     1
281
     0
  0
BLOCK_RECORD
  5
3D6D
102
{ACAD_XDICTIONARY
360
3D6E
102
}
330
1
100
AcDbSymbolTableRecord
100
AcDbBlockTableRecord
  2
A$C08716F59
340
0
102
{BLKREFS
331
3DE3
331
3F62
102
}
 70
     4
280
     1
281
     0
  0
BLOCK_RECORD
  5
3DA8
102
{ACAD_XDICTIONARY
360
3DA9
102
}
330
1
100
AcDbSymbolTableRecord
100
AcDbBlockTableRecord
  2
A$C058C21FF
340
0
 70
     4
280
     1
281
     0
  0
BLOCK_RECORD
  5
3DEB
330
1
100
AcDbSymbolTableRecord
100
AcDbBlockTableRecord
  2
_Dot
340
0
 70
     0
280
     1
281
     0
  0
BLOCK_RECORD
  5
3DF0
102
{ACAD_XDICTIONARY
360
3DF1
102
}
330
1
100
AcDbSymbolTableRecord
100
AcDbBlockTableRecord
  2
A$C53560A2D
340
0
102
{BLKREFS
331
3DFB
102
}
 70
     1
280
     1
281
     0
  0
BLOCK_RECORD
  5
3DF7
102
{ACAD_XDICTIONARY
360
3DF8
102
}
330
1
100
AcDbSymbolTableRecord
100
AcDbBlockTableRecord
  2
A$C25042B23
340
0
 70
     1
280
     1
281
     0
  0
BLOCK_RECORD
  5
3DFD
330
1
100
AcDbSymbolTableRecord
100
AcDbBlockTableRecord
  2
_FILLED
340
0
102
{BLKREFS
331
3E06
331
3E07
102
}
 70
     0
280
     1
281
     0
  0
BLOCK_RECORD
  5
3E01
330
1
100
AcDbSymbolTableRecord
100
AcDbBlockTableRecord
  2
*D67
340
0
 70
     0
280
     1
281
     0
  0
BLOCK_RECORD
  5
3E0D
102
{ACAD_XDICTIONARY
360
3E0E
102
}
330
1
100
AcDbSymbolTableRecord
100
AcDbBlockTableRecord
  2
A$C274A2516
340
0
 70
     4
280
     1
281
     0
  0
BLOCK_RECORD
  5
3EF3
102
{ACAD_XDICTIONARY
360
3EF4
102
}
330
1
100
AcDbSymbolTableRecord
100
AcDbBlockTableRecord
  2
A$C217E344C
340
0
 70
     4
280
     1
281
     0
  0
BLOCK_RECORD
  5
3F33
102
{ACAD_XDICTIONARY
360
3F75
102
}
330
1
100
AcDbSymbolTableRecord
100
AcDbBlockTableRecord
  2
new A3-S11
340
0
 70
     4
280
     1
281
     0
  0
BLOCK_RECORD
  5
42AB
330
1
100
AcDbSymbolTableRecord
100
AcDbBlockTableRecord
  2
*D83
340
0
 70
     0
280
     1
281
     0
  0
BLOCK_RECORD
  5
433D
330
1
100
AcDbSymbolTableRecord
100
AcDbBlockTableRecord
  2
*D84
340
0
 70
     0
280
     1
281
     0
  0
BLOCK_RECORD
  5
434B
330
1
100
AcDbSymbolTableRecord
100
AcDbBlockTableRecord
  2
*D85
340
0
 70
     0
280
     1
281
     0
  0
BLOCK_RECORD
  5
442A
330
1
100
AcDbSymbolTableRecord
100
AcDbBlockTableRecord
  2
_Oblique
340
0
102
{BLKREFS
331
444A
331
4580
102
}
 70
     0
280
     1
281
     0
  0
ENDTAB
  0
ENDSEC
  0
SECTION
  2
BLOCKS
  0
BLOCK
  5
75
330
74
100
AcDbEntity
  8
0
100
AcDbBlockBegin
  2
*Model_Space
 70
     0
 10
0.0
 20
0.0
 30
0.0
  3
*Model_Space
  1

  0
ENDBLK
  5
76
330
74
100
AcDbEntity
  8
0
100
AcDbBlockEnd
  0
BLOCK
  5
71
330
70
100
AcDbEntity
 67
     1
  8
0
100
AcDbBlockBegin
  2
*Paper_Space
 70
     0
 10
0.0
 20
0.0
 30
0.0
  3
*Paper_Space
  1

  0
ENDBLK
  5
72
330
70
100
AcDbEntity
 67
     1
  8
0
100
AcDbBlockEnd
  0
BLOCK
  5
8E
330
8D
100
AcDbEntity
  8
0
100
AcDbBlockBegin
  2
A3SN_
 70
     0
 10
30.16147591663886
 20
-0.000000000000135
 30
0.0
  3
A3SN_
  1

  0
LINE
  5
8F
330
8D
100
AcDbEntity
  8
1
 62
     7
100
AcDbLine
 10
211.4044190151499
 20
-136.1381749764141
 30
0.0
 11
211.4044190151499
 21
-129.3618250235863
 31
0.0
  0
LINE
  5
90
330
8D
100
AcDbEntity
  8
1
 62
     7
100
AcDbLine
 10
201.4044190151499
 20
-134.3235497720341
 30
0.0
 11
211.4044190151499
 21
-136.1381749764141
 31
0.0
  0
LINE
  5
91
330
8D
100
AcDbEntity
  8
1
 62
     7
100
AcDbLine
 10
211.4044190151499
 20
-129.3618250235863
 30
0.0
 11
201.4044190151499
 21
-131.1764502279661
 31
0.0
  0
LINE
  5
92
330
8D
100
AcDbEntity
  8
1
 62
     7
100
AcDbLine
 10
201.4044190151499
 20
-131.1764502279661
 30
0.0
 11
201.4044190151499
 21
-134.3235497720341
 31
0.0
  0
LINE
  5
93
330
8D
100
AcDbEntity
  8
1
 62
     4
100
AcDbLine
 10
-164.8385240833612
 20
-96.75000000000016
 30
0.0
 11
-154.8385240833612
 21
-96.75000000000016
 31
0.0
  0
LINE
  5
94
330
8D
100
AcDbEntity
  8
1
 62
     4
100
AcDbLine
 10
-154.8385240833612
 20
-96.75000000000016
 30
0.0
 11
-154.8385240833612
 21
-151.7500000000001
 31
0.0
  0
LINE
  5
95
330
8D
100
AcDbEntity
  8
1
 62
     4
100
AcDbLine
 10
-164.8385240833612
 20
124.7499999999998
 30
0.0
 11
-164.8385240833612
 21
-96.75000000000016
 31
0.0
  0
LINE
  5
96
330
8D
100
AcDbEntity
  8
1
 62
     7
100
AcDbLine
 10
147.1614759166389
 20
-120.7500000000002
 30
0.0
 11
147.1614759166389
 21
-127.7500000000002
 31
0.0
  0
LINE
  5
97
330
8D
100
AcDbEntity
  8
1
 62
     7
100
AcDbLine
 10
113.161475916639
 20
-120.7500000000002
 30
0.0
 11
113.161475916639
 21
-127.7500000000002
 31
0.0
  0
LINE
  5
98
330
8D
100
AcDbEntity
  8
1
 62
     7
100
AcDbLine
 10
79.16147591663899
 20
-120.7500000000002
 30
0.0
 11
79.16147591663899
 21
-127.7500000000002
 31
0.0
  0
LINE
  5
99
330
8D
100
AcDbEntity
  8
1
 62
     4
100
AcDbLine
 10
45.16147591663897
 20
-120.7500000000002
 30
0.0
 11
225.1614759166389
 21
-120.7500000000002
 31
0.0
  0
LINE
  5
9A
330
8D
100
AcDbEntity
  8
1
 62
     2
100
AcDbLine
 10
197.6614759166389
 20
-120.7500000000002
 30
0.0
 11
197.6614759166389
 21
-137.7500000000001
 31
0.0
  0
LINE
  5
9B
330
8D
100
AcDbEntity
  8
1
 62
     4
100
AcDbLine
 10
225.1614759166389
 20
-151.7500000000001
 30
0.0
 11
225.1614759166389
 21
124.7499999999998
 31
0.0
  0
LINE
  5
9C
330
8D
100
AcDbEntity
  8
1
 62
     4
100
AcDbLine
 10
170.1614759166389
 20
-147.7500000000001
 30
0.0
 11
170.1614759166389
 21
-127.7500000000002
 31
0.0
  0
LINE
  5
9D
330
8D
100
AcDbEntity
  8
1
 62
     4
100
AcDbLine
 10
170.1614759166389
 20
-137.7500000000001
 30
0.0
 11
225.1614759166389
 21
-137.7500000000001
 31
0.0
  0
LINE
  5
9E
330
8D
100
AcDbEntity
  8
1
 62
     4
100
AcDbLine
 10
225.1614759166389
 20
-127.7500000000002
 30
0.0
 11
45.16147591663878
 21
-127.7500000000002
 31
0.0
  0
LINE
  5
9F
330
8D
100
AcDbEntity
  8
1
 62
     4
100
AcDbLine
 10
100.161475916639
 20
-127.7500000000002
 30
0.0
 11
100.161475916639
 21
-147.7500000000001
 31
0.0
  0
LINE
  5
A0
330
8D
100
AcDbEntity
  8
1
 62
     4
100
AcDbLine
 10
225.1614759166389
 20
-151.7500000000001
 30
0.0
 11
-154.8385240833612
 21
-151.7500000000001
 31
0.0
  0
LINE
  5
A1
330
8D
100
AcDbEntity
  8
1
 62
     4
100
AcDbLine
 10
225.1614759166389
 20
124.7499999999998
 30
0.0
 11
-164.8385240833612
 21
124.7499999999998
 31
0.0
  0
LINE
  5
A2
330
8D
100
AcDbEntity
  8
1
 62
     4
100
AcDbLine
 10
45.16147591663897
 20
-120.7500000000002
 30
0.0
 11
45.16147591663885
 21
-151.7500000000001
 31
0.0
  0
LINE
  5
A3
330
8D
100
AcDbEntity
  8
1
  6
DASHDOT
 62
     2
100
AcDbLine
 10
211.9044190151499
 20
-132.7500000000001
 30
0.0
 11
200.9044190151499
 21
-132.7500000000001
 31
0.0
  0
LINE
  5
A4
330
8D
100
AcDbEntity
  8
1
  6
DASHDOT
 62
     2
100
AcDbLine
 10
218.0162440387359
 20
-128.8618250235861
 30
0.0
 11
218.0162440387359
 21
-136.6381749764141
 31
0.0
  0
LINE
  5
A5
330
8D
100
AcDbEntity
  8
1
  6
DASHDOT
 62
     2
100
AcDbLine
 10
221.9044190151499
 20
-132.7500000000001
 30
0.0
 11
214.1280690623219
 21
-132.7500000000001
 31
0.0
  0
LINE
  5
A6
330
8D
100
AcDbEntity
  8
1
 62
     4
100
AcDbLine
 10
225.1614759166389
 20
-147.7500000000001
 30
0.0
 11
45.16147591663897
 21
-147.7500000000001
 31
0.0
  0
CIRCLE
  5
A7
330
8D
100
AcDbEntity
  8
1
 62
     7
100
AcDbCircle
 10
218.0162440387359
 20
-132.7500000000001
 30
0.0
 40
1.573549772033999
  0
CIRCLE
  5
A8
330
8D
100
AcDbEntity
  8
1
 62
     7
100
AcDbCircle
 10
218.0162440387359
 20
-132.7500000000001
 30
0.0
 40
3.388174976414006
  0
TEXT
  5
A9
330
8D
100
AcDbEntity
  8
1
 62
     3
100
AcDbText
 10
210.2312352094023
 20
-125.5000000000002
 30
0.0
 40
2.5
  1
01
 41
0.7200000000000001
 11
210.2312352094023
 21
-124.2500000000002
 31
0.0
100
AcDbText
 73
     2
  0
TEXT
  5
AA
330
8D
100
AcDbEntity
  8
1
 62
     2
100
AcDbText
 10
199.6614759166389
 20
-125.2500000000002
 30
0.0
 40
2.0
  1
Edition:
 41
0.5850000000000001
 11
199.6614759166389
 21
-124.2500000000002
 31
0.0
100
AcDbText
 73
     2
  0
TEXT
  5
AB
330
8D
100
AcDbEntity
  8
1
 62
     3
100
AcDbText
 10
178.3674759166389
 20
-134.5000000000001
 30
0.0
 40
3.5
  1
Ech. 2:1
 41
0.72
 72
     1
 11
183.9114759166389
 21
-132.7500000000001
 31
0.0
100
AcDbText
 73
     2
  0
TEXT
  5
AC
330
8D
100
AcDbEntity
  8
1
 62
     3
100
AcDbText
 10
155.3002259166389
 20
-125.7500000000002
 30
0.0
 40
3.0
  1
Cotes et tolÅrances en mm
 41
0.675
 72
     1
 11
172.4114759166389
 21
-124.2500000000002
 31
0.0
100
AcDbText
 73
     2
  0
TEXT
  5
AD
330
8D
100
AcDbEntity
  8
1
 62
     4
100
AcDbText
 10
-162.3385240833612
 20
-107.5100000000002
 30
0.0
 40
5.0
  1
1.011.17.0046.S11
 50
270.0
 41
0.7200000000000001
 72
     1
 11
-159.8385240833612
 21
-124.2500000000002
 31
0.0
100
AcDbText
 73
     2
  0
TEXT
  5
AE
330
8D
100
AcDbEntity
  8
1
 62
     2
100
AcDbText
 10
57.73123520940237
 20
-125.5000000000002
 30
0.0
 40
2.5
  1
25.08.04 CBe
 41
0.7200000000000001
 11
57.73123520940237
 21
-124.2500000000002
 31
0.0
100
AcDbText
 73
     2
  0
TEXT
  5
AF
330
8D
100
AcDbEntity
  8
1
 62
     2
100
AcDbText
 10
47.16147591663897
 20
-125.2500000000002
 30
0.0
 40
2.0
  1
DessinÅ :
 41
0.5850000000000001
 11
47.16147591663897
 21
-124.2500000000002
 31
0.0
100
AcDbText
 73
     2
  0
TEXT
  5
B0
330
8D
100
AcDbEntity
  8
1
 62
     2
100
AcDbText
 10
81.16147591663899
 20
-125.2500000000004
 30
0.0
 40
2.0
  1
Conforme :
 41
0.5850000000000001
 11
81.16147591663899
 21
-124.2500000000004
 31
0.0
100
AcDbText
 73
     2
  0
TEXT
  5
B1
330
8D
100
AcDbEntity
  8
1
 62
     2
100
AcDbText
 10
115.161475916639
 20
-125.2500000000004
 30
0.0
 40
2.0
  1
ContrÂlÅ :
 41
0.5850000000000001
 11
115.161475916639
 21
-124.2500000000004
 31
0.0
100
AcDbText
 73
     2
  0
TEXT
  5
B2
330
8D
100
AcDbEntity
  8
1
 62
     4
100
AcDbText
 10
180.9214759166389
 20
-145.2500000000001
 30
0.0
 40
5.0
  1
1.011.17.0046.S11
 41
0.7200000000000001
 72
     1
 11
197.6614759166389
 21
-142.7500000000001
 31
0.0
100
AcDbText
 73
     2
  0
TEXT
  5
B3
330
8D
100
AcDbEntity
  8
1
 62
     4
100
AcDbText
 10
113.5614759166389
 20
-136.5000000000001
 30
0.0
 40
5.0
  1
17N  78  .20
 41
0.7200000000000001
100
AcDbText
  0
TEXT
  5
B4
330
8D
100
AcDbEntity
  8
1
 62
     4
100
AcDbText
 10
113.5614759166389
 20
-144.0000000000001
 30
0.0
 40
5.0
  1
Encombrement
 41
0.7200000000000001
100
AcDbText
  0
TEXT
  5
B5
330
8D
100
AcDbEntity
  8
1
 62
     3
100
AcDbText
 10
59.91747591663899
 20
-143.7500000000001
 30
0.0
 40
3.0
  1
La Chaux-de-Fonds
 41
0.72
 72
     1
 11
72.66147591663899
 21
-143.7500000000001
 31
0.0
100
AcDbText
  0
TEXT
  5
B6
330
8D
100
AcDbEntity
  8
1
 62
     4
100
AcDbText
 10
59.48547591663899
 20
-136.7500000000001
 30
0.0
 40
6.0
  1
Portescap
 41
0.72
 72
     1
 11
72.66147591663899
 21
-136.7500000000001
 31
0.0
100
AcDbText
  0
TEXT
  5
B7
330
8D
100
AcDbEntity
  8
1
 62
     2
100
AcDbText
 10
68.78602591663891
 20
-150.6500000000001
 30
0.0
 40
1.8
  1
Ce plan reste notre propriÅtÅ. Il ne peut, sans notre autorisation Åcrite Átre copiÅ, reproduit, communiquÅ È des tiers ou mis È leur disposition.
 41
0.8100000000000001
 72
     1
 11
135.1614759166389
 21
-149.7500000000001
 31
0.0
100
AcDbText
 73
     2
  0
TEXT
  5
B8
330
8D
100
AcDbEntity
  8
1
 62
     2
100
AcDbText
 10
44.06147591663886
 20
-149.7500000000001
 30
0.0
 40
1.8
  1
F.05.003.17.01 - 25.02.93
 50
90.0
 41
0.5400000000000001
 11
43.16147591663886
 21
-149.7500000000001
 31
0.0
100
AcDbText
 73
     2
  0
ENDBLK
  5
B9
330
8D
100
AcDbEntity
  8
0
100
AcDbBlockEnd
  0
BLOCK
  5
22A
330
229
100
AcDbEntity
  8
0
100
AcDbBlockBegin
  2
1011170046S11_TOP_
 70
     0
 10
-77.33852408336119
 20
-80.87500000000014
 30
0.0
  3
1011170046S11_TOP_
  1

  0
ENDBLK
  5
40B
330
229
100
AcDbEntity
  8
0
100
AcDbBlockEnd
  0
BLOCK
  5
B52
330
B4D
100
AcDbEntity
  8
0
100
AcDbBlockBegin
  2
*U2
 70
     1
 10
0.0
 20
0.0
 30
0.0
  3
*U2
  1

  0
LINE
  5
B53
330
B4D
100
AcDbEntity
  8
0
  6
Continuous
 62
     8
370
     9
100
AcDbLine
 10
0.0
 20
0.0
 30
0.0
 11
182.6008724100327
 21
0.0
 31
0.0
  0
MTEXT
  5
B54
330
B4D
100
AcDbEntity
  8
0
 62
     8
100
AcDbMText
 10
1.226077007666106
 20
4.822014527209404
 30
0.0
 40
2.494547437295528
 41
0.0
 46
0.0
 71
     1
 72
     5
  1
General tolerances ISO 2768-1 (fine)
 73
     1
 44
1.0
  0
MTEXT
  5
B55
330
B4D
100
AcDbEntity
  8
0
 62
     8
100
AcDbMText
 10
1.201782440435636
 20
10.72252304166574
 30
0.0
 40
2.494547437295528
 41
0.0
 46
0.0
 71
     1
 72
     5
  1
{\fISOCPEUR|b0|i0|c0|p34;\W1;Dim and tolerances in mm}
  7
SLDTEXTSTYLE0
 73
     1
 44
1.0
1001
AcDbBlockRepETag
1070
     1
1071
        0
1005
B55
  0
MTEXT
  5
B56
330
B4D
100
AcDbEntity
  8
0
 62
     8
100
AcDbMText
 10
59.70359345098358
 20
4.136879185225183
 30
0.0
 40
2.494547437295528
 41
0.0
 46
0.0
 71
     1
 72
     5
  1
{\fISOCPEUR|b0|i0|c0|p34;\W1;Deviation}
  7
SLDTEXTSTYLE0
 73
     1
 44
1.0
1001
AcDbBlockRepETag
1070
     1
1071
        2
1005
B56
  0
MTEXT
  5
B57
330
B4D
100
AcDbEntity
  8
0
 62
     8
100
AcDbMText
 10
59.47558334639808
 20
10.57592322661995
 30
0.0
 40
2.494547437295528
 41
0.0
 46
0.0
 71
     1
 72
     5
  1
{\fISOCPEUR|b0|i0|c0|p34;\W1;Nominal dimension}
  7
SLDTEXTSTYLE0
 73
     1
 44
1.0
1001
AcDbBlockRepETag
1070
     1
1071
        3
1005
B57
  0
LINE
  5
B58
330
B4D
100
AcDbEntity
  8
0
  6
Continuous
 62
     8
100
AcDbLine
 10
182.9002181025081
 20
0.1514181371941277
 30
0.0
 11
182.9002181025081
 21
0.0481456577895187
 31
0.0
1001
AcDbBlockRepETag
1070
     1
1071
        4
1005
B58
  0
LINE
  5
B59
330
B4D
100
AcDbEntity
  8
0
  6
Continuous
 62
     8
100
AcDbLine
 10
182.8485818628058
 20
0.0997818974918232
 30
0.0
 11
182.9518543422105
 21
0.0997818974918232
 31
0.0
1001
AcDbBlockRepETag
1070
     1
1071
        5
1005
B59
  0
LINE
  5
B5A
330
B4D
100
AcDbEntity
  8
0
  6
Continuous
 62
     8
100
AcDbLine
 10
166.835332606325
 20
12.17339149400217
 30
0.0
 11
166.835332606325
 21
0.0
 31
0.0
1001
AcDbBlockRepETag
1070
     1
1071
        6
1005
B5A
  0
LINE
  5
B5B
330
B4D
100
AcDbEntity
  8
0
  6
Continuous
 62
     8
100
AcDbLine
 10
150.8702290076335
 20
12.17339149400217
 30
0.0
 11
150.8702290076335
 21
0.0
 31
0.0
1001
AcDbBlockRepETag
1070
     1
1071
        7
1005
B5B
  0
LINE
  5
B5C
330
B4D
100
AcDbEntity
  8
0
  6
Continuous
 62
     8
100
AcDbLine
 10
58.54641519526229
 20
12.17339149400217
 30
0.0
 11
58.54641519526229
 21
0.0
 31
0.0
1001
AcDbBlockRepETag
1070
     1
1071
        8
1005
B5C
  0
LINE
  5
B5D
330
B4D
100
AcDbEntity
  8
0
  6
Continuous
 62
     8
100
AcDbLine
 10
58.34685140027864
 20
12.17339149400217
 30
0.0
 11
58.34685140027864
 21
0.0
 31
0.0
1001
AcDbBlockRepETag
1070
     1
1071
        9
1005
B5D
  0
LINE
  5
B5E
330
B4D
100
AcDbEntity
  8
0
  6
Continuous
 62
     8
100
AcDbLine
 10
0.0
 20
12.17339149400217
 30
0.0
 11
183.0
 21
12.17339149400217
 31
0.0
1001
AcDbBlockRepETag
1070
     1
1071
       10
1005
B5E
  0
LINE
  5
B5F
330
B4D
100
AcDbEntity
  8
0
  6
Continuous
 62
     8
100
AcDbLine
 10
0.1995637949836464
 20
11.97382769901853
 30
0.0
 11
182.8004362050162
 21
11.97382769901853
 31
0.0
1001
AcDbBlockRepETag
1070
     1
1071
       11
1005
B5F
  0
LINE
  5
B60
330
B4D
100
AcDbEntity
  8
0
  6
Continuous
 62
     8
100
AcDbLine
 10
0.1995637949836464
 20
6.186477644492924
 30
0.0
 11
182.8004362050162
 21
6.186477644492924
 31
0.0
1001
AcDbBlockRepETag
1070
     1
1071
       12
1005
B60
  0
LINE
  5
B61
330
B4D
100
AcDbEntity
  8
0
  6
Continuous
 62
     8
100
AcDbLine
 10
0.1995637949836464
 20
5.986913849509278
 30
0.0
 11
182.8004362050162
 21
5.986913849509278
 31
0.0
1001
AcDbBlockRepETag
1070
     1
1071
       13
1005
B61
  0
LINE
  5
B62
330
B4D
100
AcDbEntity
  8
0
  6
Continuous
 62
     8
100
AcDbLine
 10
102.9749182115594
 20
0.0
 30
0.0
 11
102.9749182115594
 21
12.17339149400217
 31
0.0
1001
AcDbBlockRepETag
1070
     1
1071
       14
1005
B62
  0
LINE
  5
B63
330
B4D
100
AcDbEntity
  8
0
  6
Continuous
 62
     8
100
AcDbLine
 10
118.9400218102508
 20
0.0
 30
0.0
 11
118.9400218102508
 21
12.17339149400217
 31
0.0
1001
AcDbBlockRepETag
1070
     1
1071
       15
1005
B63
  0
LINE
  5
B64
330
B4D
100
AcDbEntity
  8
0
  6
Continuous
 62
     8
100
AcDbLine
 10
134.9051254089421
 20
0.0
 30
0.0
 11
134.9051254089421
 21
12.17339149400217
 31
0.0
1001
AcDbBlockRepETag
1070
     1
1071
       16
1005
B64
  0
LINE
  5
B65
330
B4D
100
AcDbEntity
  8
0
  6
Continuous
 62
     8
100
AcDbLine
 10
87.00981461286801
 20
12.17339149400217
 30
0.0
 11
87.00981461286801
 21
0.0
 31
0.0
1001
AcDbBlockRepETag
1070
     1
1071
       17
1005
B65
  0
LINE
  5
B66
330
B4D
100
AcDbEntity
  8
0
  6
Continuous
 62
     8
100
AcDbLine
 10
0.1995637949836464
 20
0.1995637949836464
 30
0.0
 11
182.8004362050162
 21
0.1995637949836464
 31
0.0
1001
AcDbBlockRepETag
1070
     1
1071
       18
1005
B66
  0
LINE
  5
B67
330
B4D
100
AcDbEntity
  8
0
  6
Continuous
 62
     8
100
AcDbLine
 10
0.0
 20
0.0
 30
0.0
 11
183.0
 21
0.0
 31
0.0
1001
AcDbBlockRepETag
1070
     1
1071
       19
1005
B67
  0
LINE
  5
B68
330
B4D
100
AcDbEntity
  8
0
  6
Continuous
 62
     8
100
AcDbLine
 10
0.1995637949836464
 20
11.97382769901853
 30
0.0
 11
0.1995637949836464
 21
0.1995637949836464
 31
0.0
1001
AcDbBlockRepETag
1070
     1
1071
       20
1005
B68
  0
LINE
  5
B69
330
B4D
100
AcDbEntity
  8
0
  6
Continuous
 62
     8
100
AcDbLine
 10
0.0
 20
12.17339149400217
 30
0.0
 11
0.0
 21
0.0
 31
0.0
1001
AcDbBlockRepETag
1070
     1
1071
       21
1005
B69
  0
LINE
  5
B6A
330
B4D
100
AcDbEntity
  8
0
  6
Continuous
 62
     8
100
AcDbLine
 10
183.0
 20
12.17339149400217
 30
0.0
 11
183.0
 21
0.0
 31
0.0
1001
AcDbBlockRepETag
1070
     1
1071
       22
1005
B6A
  0
LINE
  5
B6B
330
B4D
100
AcDbEntity
  8
0
  6
Continuous
 62
     8
100
AcDbLine
 10
182.8004362050162
 20
11.97382769901853
 30
0.0
 11
182.8004362050162
 21
0.1995637949836464
 31
0.0
1001
AcDbBlockRepETag
1070
     1
1071
       23
1005
B6B
  0
MTEXT
  5
B6C
330
B4D
100
AcDbEntity
  8
0
 62
     8
100
AcDbMText
 10
172.1679399271618
 20
4.715544329266265
 30
0.0
 40
2.494547437295528
 41
0.0
 46
0.0
 71
     1
 72
     5
  1
%%p 0.3
 73
     1
 44
1.0
1001
AcDbBlockRepETag
1070
     1
1071
       24
1005
B6C
  0
MTEXT
  5
B6D
330
B4D
100
AcDbEntity
  8
0
 62
     8
100
AcDbMText
 10
155.6134241284236
 20
4.786463443227887
 30
0.0
 40
2.494547437295528
 41
0.0
 46
0.0
 71
     1
 72
     5
  1
%%p 0.2
 73
     1
 44
1.0
1001
AcDbBlockRepETag
1070
     1
1071
       25
1005
B6D
  0
MTEXT
  5
B6E
330
B4D
100
AcDbEntity
  8
0
 62
     8
100
AcDbMText
 10
139.0371893510346
 20
4.701803750936193
 30
0.0
 40
2.494547437295528
 41
0.0
 46
0.0
 71
     1
 72
     5
  1
%%p 0.15
 73
     1
 44
1.0
1001
AcDbBlockRepETag
1070
     1
1071
       26
1005
B6E
  0
MTEXT
  5
B6F
330
B4D
100
AcDbEntity
  8
0
 62
     8
100
AcDbMText
 10
124.2020188214053
 20
4.727733551978417
 30
0.0
 40
2.494547437295528
 41
0.0
 46
0.0
 71
     1
 72
     5
  1
%%p 0.1
 73
     1
 44
1.0
1001
AcDbBlockRepETag
1070
     1
1071
       27
1005
B6F
  0
MTEXT
  5
B70
330
B4D
100
AcDbEntity
  8
0
 62
     8
100
AcDbMText
 10
106.9797552402715
 20
4.840982512085986
 30
0.0
 40
2.494547437295528
 41
0.0
 46
0.0
 71
     1
 72
     5
  1
%%p 0.05
 73
     1
 44
1.0
1001
AcDbBlockRepETag
1070
     1
1071
       28
1005
B70
  0
TEXT
  5
B71
330
B4D
100
AcDbEntity
  8
0
  6
Continuous
 62
     8
100
AcDbText
 10
167.430764736752
 20
8.205905243643798
 30
0.0
 40
2.494547437295528
  1
>400...1000
 41
0.95
100
AcDbText
1001
AcDbBlockRepETag
1070
     1
1071
       37
1005
B71
  0
MTEXT
  5
B72
330
B4D
100
AcDbEntity
  8
0
 62
     8
100
AcDbMText
 10
152.158998411796
 20
10.79464212916963
 30
0.0
 40
2.494547437295528
 41
0.0
 46
0.0
 71
     1
 72
     5
  1
>120...400
 73
     1
 44
1.0
1001
AcDbBlockRepETag
1070
     1
1071
       29
1005
B72
  0
MTEXT
  5
B73
330
B4D
100
AcDbEntity
  8
0
 62
     8
100
AcDbMText
 10
137.2830493916385
 20
10.55174416385091
 30
0.0
 40
2.494547437295528
 41
0.0
 46
0.0
 71
     1
 72
     5
  1
>30...120
 73
     1
 44
1.0
1001
AcDbBlockRepETag
1070
     1
1071
       30
1005
B73
  0
MTEXT
  5
B74
330
B4D
100
AcDbEntity
  8
0
 62
     8
100
AcDbMText
 10
122.8891287241895
 20
10.96928044730032
 30
0.0
 40
2.494547437295528
 41
0.0
 46
0.0
 71
     1
 72
     5
  1
>6...30
 73
     1
 44
1.0
1001
AcDbBlockRepETag
1070
     1
1071
       31
1005
B74
  0
MTEXT
  5
B75
330
B4D
100
AcDbEntity
  8
0
 62
     8
100
AcDbMText
 10
107.4396213698669
 20
10.71685272604293
 30
0.0
 40
2.494547437295528
 41
0.0
 46
0.0
 71
     1
 72
     5
  1
>3...6
 73
     1
 44
1.0
1001
AcDbBlockRepETag
1070
     1
1071
       32
1005
B75
  0
MTEXT
  5
B76
330
B4D
100
AcDbEntity
  8
0
 62
     8
100
AcDbMText
 10
90.14198970310713
 20
10.61314269581496
 30
0.0
 40
2.494547437295528
 41
0.0
 46
0.0
 71
     1
 72
     5
  1
>0.5...3
 73
     1
 44
1.0
1001
AcDbBlockRepETag
1070
     1
1071
       33
1005
B76
  0
MTEXT
  5
B77
330
B4D
100
AcDbEntity
  8
0
 62
     8
100
AcDbMText
 10
91.12783636475667
 20
4.674455621263604
 30
0.0
 40
2.494547437295528
 41
0.0
 46
0.0
 71
     1
 72
     5
  1
%%p 0.05
 73
     1
 44
1.0
1001
AcDbBlockRepETag
1070
     1
1071
       34
1005
B77
  0
LINE
  5
B78
330
B4D
100
AcDbEntity
  8
0
  6
Continuous
 62
     8
100
AcDbLine
 10
182.9002181025082
 20
0.1514181371959751
 30
0.0
 11
182.9002181025082
 21
0.0481456577876429
 31
0.0
1001
AcDbBlockRepETag
1070
     1
1071
       35
1005
B78
  0
LINE
  5
B79
330
B4D
100
AcDbEntity
  8
0
  6
Continuous
 62
     8
100
AcDbLine
 10
182.8485818628039
 20
0.0997818974917948
 30
0.0
 11
182.9518543422123
 21
0.0997818974917948
 31
0.0
1001
AcDbBlockRepETag
1070
     1
1071
       36
1005
B79
  0
ENDBLK
  5
B7A
330
B4D
100
AcDbEntity
  8
0
100
AcDbBlockEnd
  0
BLOCK
  5
B85
330
B7F
100
AcDbEntity
  8
0
100
AcDbBlockBegin
  2
*U3
 70
     1
 10
0.0
 20
0.0
 30
0.0
  3
*U3
  1

  0
LINE
  5
B80
330
B7F
100
AcDbEntity
  8
1
 62
     4
100
AcDbLine
 10
0.0
 20
0.0
 30
0.0
 11
60.00000000000011
 21
0.0
 31
0.0
1001
AcDbBlockRepETag
1070
     1
1071
      899
1005
B80
  0
TEXT
  5
B81
330
B7F
100
AcDbEntity
  8
1
 62
     2
100
AcDbText
 10
1.224750000000003
 20
-9.966666666666743
 30
0.0
 40
0.5999999999999999
  1
This drawing remains our property. Without written approval it may not be copied, reproduced or communicated or made available to third parties.
 41
1.05
 72
     1
 11
30.0
 21
-9.666666666666742
 31
0.0
100
AcDbText
 73
     2
1001
AcDbBlockRepETag
1070
     1
1071
      912
1005
B81
  0
INSERT
  5
B82
330
B7F
100
AcDbEntity
  8
0
100
AcDbBlockReference
  2
*U2
 10
0.0
 20
0.0
 30
0.0
 41
0.3278688524590052
 42
0.3278688524590052
 43
0.3278688524590164
1001
AcDbBlockRepETag
1070
     1
1071
     1135
1005
B82
  0
ENDBLK
  5
B86
330
B7F
100
AcDbEntity
  8
0
100
AcDbBlockEnd
  0
BLOCK
  5
B8F
330
B89
100
AcDbEntity
  8
0
100
AcDbBlockBegin
  2
*U4
 70
     1
 10
0.0
 20
0.0
 30
0.0
  3
*U4
  1

  0
LINE
  5
B8A
330
B89
100
AcDbEntity
  8
1
 62
     4
100
AcDbLine
 10
0.0
 20
0.0
 30
0.0
 11
60.00000000000011
 21
0.0
 31
0.0
1001
AcDbBlockRepETag
1070
     1
1071
      899
1005
B8A
  0
TEXT
  5
B8B
330
B89
100
AcDbEntity
  8
1
 62
     2
100
AcDbText
 10
1.224750000000003
 20
-9.966666666666743
 30
0.0
 40
0.5999999999999999
  1
This drawing remains our property. Without written approval it may not be copied, reproduced or communicated or made available to third parties.
 41
1.05
 72
     1
 11
30.0
 21
-9.666666666666742
 31
0.0
100
AcDbText
 73
     2
1001
AcDbBlockRepETag
1070
     1
1071
      912
1005
B8B
  0
INSERT
  5
B8C
330
B89
100
AcDbEntity
  8
0
100
AcDbBlockReference
  2
*U2
 10
0.0
 20
0.0
 30
0.0
 41
0.3278688524590052
 42
0.3278688524590052
 43
0.3278688524590164
1001
AcDbBlockRepETag
1070
     1
1071
     1135
1005
B8C
  0
ENDBLK
  5
B90
330
B89
100
AcDbEntity
  8
0
100
AcDbBlockEnd
  0
BLOCK
  5
F5B
330
F56
100
AcDbEntity
  8
0
100
AcDbBlockBegin
  2
*U5
 70
     1
 10
0.0
 20
0.0
 30
0.0
  3
*U5
  1

  0
MTEXT
  5
F57
330
F56
100
AcDbEntity
  8
Dark hatch1
 62
     3
100
AcDbMText
 10
-7.335258172756169
 20
1.508587992381222
 30
0.0
 40
2.25
 41
18.05555555555555
 46
0.0
 71
     1
 72
     5
  1
{\fMicrosoft Sans Serif|b0|i0|c0|p34;Portescap}
  7
romans
 73
     1
 44
1.0
  0
MTEXT
  5
F58
330
F56
100
AcDbEntity
  8
Dark hatch1
 62
     3
100
AcDbMText
 10
6.770907242940353
 20
1.286444401725333
 30
0.0
 40
1.0
 41
1.418803277521362
 46
0.0
 71
     1
 72
     5
  1
{\fMicrosoft Sans Serif|b0|i0|c0|p34;®}
  7
romans
 73
     1
 44
1.0
  0
ENDBLK
  5
F5C
330
F56
100
AcDbEntity
  8
0
100
AcDbBlockEnd
  0
BLOCK
  5
3C7B
330
3C7A
100
AcDbEntity
  8
0
100
AcDbBlockBegin
  2
*D50
 70
     1
 10
0.0
 20
0.0
 30
0.0
  3
*D50
  1

  0
LINE
  5
45B1
330
3C7A
100
AcDbEntity
  8
1
  6
Continuous
 62
     2
370
    -2
100
AcDbLine
 10
207.5711094532161
 20
236.620493558302
 30
0.0
 11
207.5711094532161
 21
218.2628035207446
 31
0.0
  0
LINE
  5
45B2
330
3C7A
100
AcDbEntity
  8
1
  6
Continuous
 62
     2
370
    -2
100
AcDbLine
 10
201.5711094532161
 20
235.0295009997354
 30
0.0
 11
201.5711094532161
 21
224.4981371268166
 31
0.0
  0
LINE
  5
45B3
330
3C7A
100
AcDbEntity
  8
1
  6
Continuous
 62
     2
370
    -2
100
AcDbLine
 10
201.5711094532161
 20
223.4545998191316
 30
0.0
 11
201.5711094532161
 21
218.2628035207446
 31
0.0
  0
LINE
  5
45B4
330
3C7A
100
AcDbEntity
  8
1
  6
Continuous
 62
     2
370
    -2
100
AcDbLine
 10
205.8211094532161
 20
218.7628035207445
 30
0.0
 11
203.3211094532161
 21
218.7628035207445
 31
0.0
  0
MTEXT
  5
45B5
330
3C7A
100
AcDbEntity
  8
1
  6
Continuous
 62
     3
100
AcDbMText
 10
204.5711094532161
 20
220.2891282154318
 30
0.0
 40
1.75
 41
0.0
 46
0.0
 71
     5
 72
     1
  1
\A1;6{\H0.71429x;%%P0.5}
 73
     1
 44
1.0
  0
SOLID
  5
45B6
330
3C7A
100
AcDbEntity
  8
1
  6
Continuous
 62
     2
100
AcDbTrace
 10
205.8211094532161
 20
219.0544701874112
 30
0.0
 11
205.8211094532161
 21
218.4711368540779
 31
0.0
 12
207.5711094532161
 22
218.7628035207445
 32
0.0
 13
207.5711094532161
 23
218.7628035207445
 33
0.0
  0
SOLID
  5
45B7
330
3C7A
100
AcDbEntity
  8
1
  6
Continuous
 62
     2
100
AcDbTrace
 10
203.3211094532161
 20
219.0544701874112
 30
0.0
 11
203.3211094532161
 21
218.4711368540779
 31
0.0
 12
201.5711094532161
 22
218.7628035207445
 32
0.0
 13
201.5711094532161
 23
218.7628035207445
 33
0.0
  0
POINT
  5
45B8
330
3C7A
100
AcDbEntity
  8
Defpoints
  6
Continuous
 62
     0
100
AcDbPoint
 10
207.5711094532161
 20
236.620493558302
 30
0.0
  0
POINT
  5
45B9
330
3C7A
100
AcDbEntity
  8
Defpoints
  6
Continuous
 62
     0
100
AcDbPoint
 10
201.5711094532161
 20
235.0295009997354
 30
0.0
  0
POINT
  5
45BA
330
3C7A
100
AcDbEntity
  8
Defpoints
  6
Continuous
 62
     0
100
AcDbPoint
 10
201.5711094532161
 20
218.7628035207445
 30
0.0
  0
ENDBLK
  5
3C7C
330
3C7A
100
AcDbEntity
  8
0
100
AcDbBlockEnd
  0
BLOCK
  5
3C87
330
3C86
100
AcDbEntity
  8
0
100
AcDbBlockBegin
  2
*D51
 70
     1
 10
0.0
 20
0.0
 30
0.0
  3
*D51
  1

  0
LINE
  5
4236
330
3C86
100
AcDbEntity
  8
1
  6
Continuous
 62
     2
370
    -2
100
AcDbLine
 10
174.1711094532161
 20
229.5795009997354
 30
0.0
 11
174.1711094532161
 21
208.265509874674
 31
0.0
  0
LINE
  5
4237
330
3C86
100
AcDbEntity
  8
1
  6
Continuous
 62
     2
370
    -2
100
AcDbLine
 10
168.6711094532162
 20
232.1795009997354
 30
0.0
 11
168.6711094532162
 21
208.265509874674
 31
0.0
  0
LINE
  5
4238
330
3C86
100
AcDbEntity
  8
1
  6
Continuous
 62
     2
370
    -2
100
AcDbLine
 10
172.4211094532161
 20
208.7655098746739
 30
0.0
 11
170.4211094532162
 21
208.7655098746739
 31
0.0
  0
MTEXT
  5
4239
330
3C86
100
AcDbEntity
  8
1
  6
Continuous
 62
     3
100
AcDbMText
 10
171.4211094532161
 20
210.3988458853319
 30
0.0
 40
1.75
 41
0.0
 46
0.0
 71
     5
 72
     1
  1
\A1;5.5
 73
     1
 44
1.0
  0
SOLID
  5
423A
330
3C86
100
AcDbEntity
  8
1
  6
Continuous
 62
     2
100
AcDbTrace
 10
172.4211094532161
 20
209.0571765413406
 30
0.0
 11
172.4211094532161
 21
208.4738432080073
 31
0.0
 12
174.1711094532161
 22
208.7655098746739
 32
0.0
 13
174.1711094532161
 23
208.7655098746739
 33
0.0
  0
SOLID
  5
423B
330
3C86
100
AcDbEntity
  8
1
  6
Continuous
 62
     2
100
AcDbTrace
 10
170.4211094532162
 20
209.0571765413406
 30
0.0
 11
170.4211094532162
 21
208.4738432080073
 31
0.0
 12
168.6711094532162
 22
208.7655098746739
 32
0.0
 13
168.6711094532162
 23
208.7655098746739
 33
0.0
  0
POINT
  5
423C
330
3C86
100
AcDbEntity
  8
Defpoints
  6
Continuous
 62
     0
100
AcDbPoint
 10
174.1711094532161
 20
229.5795009997354
 30
0.0
  0
POINT
  5
423D
330
3C86
100
AcDbEntity
  8
Defpoints
  6
Continuous
 62
     0
100
AcDbPoint
 10
168.6711094532162
 20
232.1795009997354
 30
0.0
  0
POINT
  5
423E
330
3C86
100
AcDbEntity
  8
Defpoints
  6
Continuous
 62
     0
100
AcDbPoint
 10
168.6711094532162
 20
208.7655098746739
 30
0.0
  0
ENDBLK
  5
3C88
330
3C86
100
AcDbEntity
  8
0
100
AcDbBlockEnd
  0
BLOCK
  5
3C93
330
3C92
100
AcDbEntity
  8
0
100
AcDbBlockBegin
  2
*D52
 70
     1
 10
0.0
 20
0.0
 30
0.0
  3
*D52
  1

  0
LINE
  5
4564
330
3C92
100
AcDbEntity
  8
1
  6
Continuous
 62
     2
370
    -2
100
AcDbLine
 10
248.6725782567078
 20
242.4295009997352
 30
0.0
 11
248.6725782567078
 21
251.232984528134
 31
0.0
  0
LINE
  5
4565
330
3C92
100
AcDbEntity
  8
1
  6
Continuous
 62
     2
370
    -2
100
AcDbLine
 10
246.6725782567078
 20
242.4295009997352
 30
0.0
 11
246.6725782567078
 21
251.232984528134
 31
0.0
  0
LINE
  5
4566
330
3C92
100
AcDbEntity
  8
1
  6
Continuous
 62
     2
370
    -2
100
AcDbLine
 10
250.4225782567078
 20
250.732984528134
 30
0.0
 11
252.1725782567078
 21
250.732984528134
 31
0.0
  0
LINE
  5
4567
330
3C92
100
AcDbEntity
  8
1
  6
Continuous
 62
     2
370
    -2
100
AcDbLine
 10
244.9225782567078
 20
250.732984528134
 30
0.0
 11
243.1725782567078
 21
250.732984528134
 31
0.0
  0
MTEXT
  5
4568
330
3C92
100
AcDbEntity
  8
1
  6
Continuous
 62
     3
100
AcDbMText
 10
247.6725782567078
 20
253.182984528134
 30
0.0
 40
1.75
 41
0.0
 46
0.0
 71
     5
 72
     1
  1
\A1;2
 73
     1
 44
1.0
  0
LINE
  5
4569
330
3C92
100
AcDbEntity
  8
1
  6
Continuous
 62
     2
370
    -2
100
AcDbLine
 10
248.6725782567078
 20
250.732984528134
 30
0.0
 11
246.6725782567078
 21
250.732984528134
 31
0.0
  0
SOLID
  5
456A
330
3C92
100
AcDbEntity
  8
1
  6
Continuous
 62
     2
100
AcDbTrace
 10
250.4225782567078
 20
251.0246511948007
 30
0.0
 11
250.4225782567078
 21
250.4413178614674
 31
0.0
 12
248.6725782567078
 22
250.732984528134
 32
0.0
 13
248.6725782567078
 23
250.732984528134
 33
0.0
  0
SOLID
  5
456B
330
3C92
100
AcDbEntity
  8
1
  6
Continuous
 62
     2
100
AcDbTrace
 10
244.9225782567078
 20
251.0246511948007
 30
0.0
 11
244.9225782567078
 21
250.4413178614674
 31
0.0
 12
246.6725782567078
 22
250.732984528134
 32
0.0
 13
246.6725782567078
 23
250.732984528134
 33
0.0
  0
POINT
  5
456C
330
3C92
100
AcDbEntity
  8
Defpoints
  6
Continuous
 62
     0
100
AcDbPoint
 10
248.6725782567078
 20
242.4295009997352
 30
0.0
  0
POINT
  5
456D
330
3C92
100
AcDbEntity
  8
Defpoints
  6
Continuous
 62
     0
100
AcDbPoint
 10
246.6725782567078
 20
242.4295009997352
 30
0.0
  0
POINT
  5
456E
330
3C92
100
AcDbEntity
  8
Defpoints
  6
Continuous
 62
     0
100
AcDbPoint
 10
246.6725782567078
 20
250.732984528134
 30
0.0
  0
ENDBLK
  5
3C94
330
3C92
100
AcDbEntity
  8
0
100
AcDbBlockEnd
  0
BLOCK
  5
3CA0
330
3C9F
100
AcDbEntity
  8
0
100
AcDbBlockBegin
  2
*D53
 70
     1
 10
0.0
 20
0.0
 30
0.0
  3
*D53
  1

  0
LINE
  5
4249
330
3C9F
100
AcDbEntity
  8
1
  6
Continuous
 62
     2
370
    -2
100
AcDbLine
 10
246.0395940670117
 20
242.2795009997352
 30
0.0
 11
234.8384892842653
 21
242.2795009997352
 31
0.0
  0
LINE
  5
424A
330
3C9F
100
AcDbEntity
  8
1
  6
Continuous
 62
     2
370
    -2
100
AcDbLine
 10
246.1375054823209
 20
232.2795009997352
 30
0.0
 11
234.8384892842653
 21
232.2795009997352
 31
0.0
  0
LINE
  5
424B
330
3C9F
100
AcDbEntity
  8
1
  6
Continuous
 62
     2
370
    -2
100
AcDbLine
 10
235.3384892842653
 20
240.5295009997352
 30
0.0
 11
235.3384892842653
 21
234.0295009997352
 31
0.0
  0
MTEXT
  5
424C
330
3C9F
100
AcDbEntity
  8
1
  6
Continuous
 62
     3
100
AcDbMText
 10
234.1417475501808
 20
237.2795009997352
 30
0.0
 40
1.75
 41
0.0
 46
0.0
 71
     5
 72
     1
  1
\A1;10
 11
0.0000000000000001
 21
1.0
 31
0.0
 73
     1
 44
1.0
  0
SOLID
  5
424D
330
3C9F
100
AcDbEntity
  8
1
  6
Continuous
 62
     2
100
AcDbTrace
 10
235.0468226175987
 20
240.5295009997352
 30
0.0
 11
235.630155950932
 21
240.5295009997352
 31
0.0
 12
235.3384892842653
 22
242.2795009997352
 32
0.0
 13
235.3384892842653
 23
242.2795009997352
 33
0.0
  0
SOLID
  5
424E
330
3C9F
100
AcDbEntity
  8
1
  6
Continuous
 62
     2
100
AcDbTrace
 10
235.0468226175987
 20
234.0295009997352
 30
0.0
 11
235.630155950932
 21
234.0295009997352
 31
0.0
 12
235.3384892842653
 22
232.2795009997352
 32
0.0
 13
235.3384892842653
 23
232.2795009997352
 33
0.0
  0
POINT
  5
424F
330
3C9F
100
AcDbEntity
  8
Defpoints
  6
Continuous
 62
     0
100
AcDbPoint
 10
246.0395940670117
 20
242.2795009997352
 30
0.0
  0
POINT
  5
4250
330
3C9F
100
AcDbEntity
  8
Defpoints
  6
Continuous
 62
     0
100
AcDbPoint
 10
246.1375054823209
 20
232.2795009997352
 30
0.0
  0
POINT
  5
4251
330
3C9F
100
AcDbEntity
  8
Defpoints
  6
Continuous
 62
     0
100
AcDbPoint
 10
235.3384892842653
 20
232.2795009997352
 30
0.0
  0
ENDBLK
  5
3CA1
330
3C9F
100
AcDbEntity
  8
0
100
AcDbBlockEnd
  0
BLOCK
  5
3CAC
330
3CAB
100
AcDbEntity
  8
0
100
AcDbBlockBegin
  2
*D54
 70
     1
 10
0.0
 20
0.0
 30
0.0
  3
*D54
  1

  0
LINE
  5
43A2
330
3CAB
100
AcDbEntity
  8
1
  6
Continuous
 62
     2
370
    -2
100
AcDbLine
 10
200.0711094532161
 20
229.2870009997354
 30
0.0
 11
200.0711094532161
 21
223.4833030150439
 31
0.0
  0
LINE
  5
43A3
330
3CAB
100
AcDbEntity
  8
1
  6
Continuous
 62
     2
370
    -2
100
AcDbLine
 10
197.2711094532161
 20
228.7795009997354
 30
0.0
 11
197.2711094532161
 21
223.4833030150439
 31
0.0
  0
LINE
  5
43A4
330
3CAB
100
AcDbEntity
  8
1
  6
Continuous
 62
     2
370
    -2
100
AcDbLine
 10
201.8211094532161
 20
223.9833030150439
 30
0.0
 11
203.5711094532161
 21
223.9833030150439
 31
0.0
  0
LINE
  5
43A5
330
3CAB
100
AcDbEntity
  8
1
  6
Continuous
 62
     2
370
    -2
100
AcDbLine
 10
195.5211094532161
 20
223.9833030150439
 30
0.0
 11
193.7711094532161
 21
223.9833030150439
 31
0.0
  0
MTEXT
  5
43A6
330
3CAB
100
AcDbEntity
  8
1
  6
Continuous
 62
     3
100
AcDbMText
 10
193.9954720265541
 20
225.2833074524942
 30
0.0
 40
1.75
 41
0.0
 46
0.0
 71
     5
 72
     1
  1
\A1;2.8{\H0.71429x;%%P0.1}
 73
     1
 44
1.0
  0
LINE
  5
43A7
330
3CAB
100
AcDbEntity
  8
1
  6
Continuous
 62
     2
370
    -2
100
AcDbLine
 10
200.0711094532161
 20
223.9833030150439
 30
0.0
 11
197.2711094532161
 21
223.9833030150439
 31
0.0
  0
SOLID
  5
43A8
330
3CAB
100
AcDbEntity
  8
1
  6
Continuous
 62
     2
100
AcDbTrace
 10
201.8211094532161
 20
224.2749696817106
 30
0.0
 11
201.8211094532161
 21
223.6916363483773
 31
0.0
 12
200.0711094532161
 22
223.9833030150439
 32
0.0
 13
200.0711094532161
 23
223.9833030150439
 33
0.0
  0
SOLID
  5
43A9
330
3CAB
100
AcDbEntity
  8
1
  6
Continuous
 62
     2
100
AcDbTrace
 10
195.5211094532161
 20
224.2749696817106
 30
0.0
 11
195.5211094532161
 21
223.6916363483773
 31
0.0
 12
197.2711094532161
 22
223.9833030150439
 32
0.0
 13
197.2711094532161
 23
223.9833030150439
 33
0.0
  0
POINT
  5
43AA
330
3CAB
100
AcDbEntity
  8
Defpoints
  6
Continuous
 62
     0
100
AcDbPoint
 10
200.0711094532161
 20
229.2870009997354
 30
0.0
  0
POINT
  5
43AB
330
3CAB
100
AcDbEntity
  8
Defpoints
  6
Continuous
 62
     0
100
AcDbPoint
 10
197.2711094532161
 20
228.7795009997354
 30
0.0
  0
POINT
  5
43AC
330
3CAB
100
AcDbEntity
  8
Defpoints
  6
Continuous
 62
     0
100
AcDbPoint
 10
197.2711094532161
 20
223.9833030150439
 30
0.0
  0
ENDBLK
  5
3CAD
330
3CAB
100
AcDbEntity
  8
0
100
AcDbBlockEnd
  0
BLOCK
  5
3CB9
330
3CB8
100
AcDbEntity
  8
0
100
AcDbBlockBegin
  2
*D55
 70
     1
 10
0.0
 20
0.0
 30
0.0
  3
*D55
  1

  0
LINE
  5
4607
330
3CB8
100
AcDbEntity
  8
1
  6
Continuous
 62
     2
370
    -2
100
AcDbLine
 10
201.0711094532161
 20
234.4795009997354
 30
0.0
 11
201.0711094532161
 21
224.4539726238023
 31
0.0
  0
LINE
  5
4608
330
3CB8
100
AcDbEntity
  8
1
  6
Continuous
 62
     2
370
    -2
100
AcDbLine
 10
201.0711094532161
 20
223.4545998191316
 30
0.0
 11
201.0711094532161
 21
213.2737805388097
 31
0.0
  0
LINE
  5
4609
330
3CB8
100
AcDbEntity
  8
1
  6
Continuous
 62
     2
370
    -2
100
AcDbLine
 10
200.0711094532161
 20
229.2870009997354
 30
0.0
 11
200.0711094532161
 21
213.2737805388097
 31
0.0
  0
LINE
  5
460A
330
3CB8
100
AcDbEntity
  8
1
  6
Continuous
 62
     2
370
    -2
100
AcDbLine
 10
202.8211094532161
 20
213.7737805388097
 30
0.0
 11
204.5711094532161
 21
213.7737805388097
 31
0.0
  0
LINE
  5
460B
330
3CB8
100
AcDbEntity
  8
1
  6
Continuous
 62
     2
370
    -2
100
AcDbLine
 10
198.321109453216
 20
213.7737805388097
 30
0.0
 11
196.571109453216
 21
213.7737805388097
 31
0.0
  0
MTEXT
  5
460C
330
3CB8
100
AcDbEntity
  8
1
  6
Continuous
 62
     3
100
AcDbMText
 10
197.2440086068849
 20
215.1087235715569
 30
0.0
 40
1.75
 41
0.0
 46
0.0
 71
     5
 72
     1
  1
\A1;1
 73
     1
 44
1.0
  0
LINE
  5
460D
330
3CB8
100
AcDbEntity
  8
1
  6
Continuous
 62
     2
370
    -2
100
AcDbLine
 10
201.0711094532161
 20
213.7737805388097
 30
0.0
 11
200.0711094532161
 21
213.7737805388097
 31
0.0
  0
SOLID
  5
460E
330
3CB8
100
AcDbEntity
  8
1
  6
Continuous
 62
     2
100
AcDbTrace
 10
202.8211094532161
 20
214.0654472054764
 30
0.0
 11
202.8211094532161
 21
213.4821138721431
 31
0.0
 12
201.0711094532161
 22
213.7737805388097
 32
0.0
 13
201.0711094532161
 23
213.7737805388097
 33
0.0
  0
SOLID
  5
460F
330
3CB8
100
AcDbEntity
  8
1
  6
Continuous
 62
     2
100
AcDbTrace
 10
198.321109453216
 20
214.0654472054764
 30
0.0
 11
198.321109453216
 21
213.4821138721431
 31
0.0
 12
200.0711094532161
 22
213.7737805388097
 32
0.0
 13
200.0711094532161
 23
213.7737805388097
 33
0.0
  0
POINT
  5
4610
330
3CB8
100
AcDbEntity
  8
Defpoints
  6
Continuous
 62
     0
100
AcDbPoint
 10
201.0711094532161
 20
234.4795009997354
 30
0.0
  0
POINT
  5
4611
330
3CB8
100
AcDbEntity
  8
Defpoints
  6
Continuous
 62
     0
100
AcDbPoint
 10
200.0711094532161
 20
229.2870009997354
 30
0.0
  0
POINT
  5
4612
330
3CB8
100
AcDbEntity
  8
Defpoints
  6
Continuous
 62
     0
100
AcDbPoint
 10
200.0711094532161
 20
213.7737805388097
 30
0.0
  0
ENDBLK
  5
3CBA
330
3CB8
100
AcDbEntity
  8
0
100
AcDbBlockEnd
  0
BLOCK
  5
3CC6
330
3CC5
100
AcDbEntity
  8
0
100
AcDbBlockBegin
  2
*D56
 70
     1
 10
0.0
 20
0.0
 30
0.0
  3
*D56
  1

  0
LINE
  5
45D9
330
3CC5
100
AcDbEntity
  8
1
  6
Continuous
 62
     2
370
    -2
100
AcDbLine
 10
207.5711094532161
 20
236.620493558302
 30
0.0
 11
207.5711094532161
 21
213.2739797505976
 31
0.0
  0
LINE
  5
45DA
330
3CC5
100
AcDbEntity
  8
1
  6
Continuous
 62
     2
370
    -2
100
AcDbLine
 10
201.0711094532161
 20
234.4795009997354
 30
0.0
 11
201.0711094532161
 21
224.4539726238023
 31
0.0
  0
LINE
  5
45DB
330
3CC5
100
AcDbEntity
  8
1
  6
Continuous
 62
     2
370
    -2
100
AcDbLine
 10
201.0711094532161
 20
223.4419309925997
 30
0.0
 11
201.0711094532161
 21
213.2739797505976
 31
0.0
  0
LINE
  5
45DC
330
3CC5
100
AcDbEntity
  8
1
  6
Continuous
 62
     2
370
    -2
100
AcDbLine
 10
205.8211094532161
 20
213.7739797505976
 30
0.0
 11
202.8211094532161
 21
213.7739797505976
 31
0.0
  0
MTEXT
  5
45DD
330
3CC5
100
AcDbEntity
  8
1
  6
Continuous
 62
     3
100
AcDbMText
 10
204.3211094532161
 20
215.4653213576442
 30
0.0
 40
1.75
 41
0.0
 46
0.0
 71
     5
 72
     1
  1
\A1;(6.5)
 73
     1
 44
1.0
  0
SOLID
  5
45DE
330
3CC5
100
AcDbEntity
  8
1
  6
Continuous
 62
     2
100
AcDbTrace
 10
205.8211094532161
 20
214.0656464172643
 30
0.0
 11
205.8211094532161
 21
213.4823130839309
 31
0.0
 12
207.5711094532161
 22
213.7739797505976
 32
0.0
 13
207.5711094532161
 23
213.7739797505976
 33
0.0
  0
SOLID
  5
45DF
330
3CC5
100
AcDbEntity
  8
1
  6
Continuous
 62
     2
100
AcDbTrace
 10
202.8211094532161
 20
214.0656464172643
 30
0.0
 11
202.8211094532161
 21
213.4823130839309
 31
0.0
 12
201.0711094532161
 22
213.7739797505976
 32
0.0
 13
201.0711094532161
 23
213.7739797505976
 33
0.0
  0
POINT
  5
45E0
330
3CC5
100
AcDbEntity
  8
Defpoints
  6
Continuous
 62
     0
100
AcDbPoint
 10
207.5711094532161
 20
236.620493558302
 30
0.0
  0
POINT
  5
45E1
330
3CC5
100
AcDbEntity
  8
Defpoints
  6
Continuous
 62
     0
100
AcDbPoint
 10
201.0711094532161
 20
234.4795009997354
 30
0.0
  0
POINT
  5
45E2
330
3CC5
100
AcDbEntity
  8
Defpoints
  6
Continuous
 62
     0
100
AcDbPoint
 10
201.0711094532161
 20
213.7739797505976
 30
0.0
  0
ENDBLK
  5
3CC7
330
3CC5
100
AcDbEntity
  8
0
100
AcDbBlockEnd
  0
BLOCK
  5
3CD2
330
3CD1
100
AcDbEntity
  8
0
100
AcDbBlockBegin
  2
*D57
 70
     1
 10
0.0
 20
0.0
 30
0.0
  3
*D57
  1

  0
LINE
  5
3D46
330
3CD1
100
AcDbEntity
  8
1
  6
Continuous
 62
     2
370
    -2
100
AcDbLine
 10
200.0711094532161
 20
229.2870009997354
 30
0.0
 11
200.0711094532161
 21
208.2857778900089
 31
0.0
  0
LINE
  5
3D47
330
3CD1
100
AcDbEntity
  8
1
  6
Continuous
 62
     2
370
    -2
100
AcDbLine
 10
207.5711094532161
 20
236.620493558302
 30
0.0
 11
207.5711094532161
 21
208.2857778900089
 31
0.0
  0
LINE
  5
3D48
330
3CD1
100
AcDbEntity
  8
1
  6
Continuous
 62
     2
370
    -2
100
AcDbLine
 10
201.8211094532161
 20
208.7857778900089
 30
0.0
 11
205.8211094532161
 21
208.7857778900089
 31
0.0
  0
MTEXT
  5
3D49
330
3CD1
100
AcDbEntity
  8
1
  6
Continuous
 62
     3
100
AcDbMText
 10
203.8211094532161
 20
210.4510540170937
 30
0.0
 40
1.75
 41
0.0
 46
0.0
 71
     5
 72
     1
  1
\A1;7.5{\H0.71429x;%%P0.5}
 73
     1
 44
1.0
  0
SOLID
  5
3D4A
330
3CD1
100
AcDbEntity
  8
1
  6
Continuous
 62
     2
100
AcDbTrace
 10
201.8211094532161
 20
209.0774445566756
 30
0.0
 11
201.8211094532161
 21
208.4941112233423
 31
0.0
 12
200.0711094532161
 22
208.7857778900089
 32
0.0
 13
200.0711094532161
 23
208.7857778900089
 33
0.0
  0
SOLID
  5
3D4B
330
3CD1
100
AcDbEntity
  8
1
  6
Continuous
 62
     2
100
AcDbTrace
 10
205.8211094532161
 20
209.0774445566756
 30
0.0
 11
205.8211094532161
 21
208.4941112233423
 31
0.0
 12
207.5711094532161
 22
208.7857778900089
 32
0.0
 13
207.5711094532161
 23
208.7857778900089
 33
0.0
  0
POINT
  5
3D4C
330
3CD1
100
AcDbEntity
  8
Defpoints
  6
Continuous
 62
     0
100
AcDbPoint
 10
200.0711094532161
 20
229.2870009997354
 30
0.0
  0
POINT
  5
3D4D
330
3CD1
100
AcDbEntity
  8
Defpoints
  6
Continuous
 62
     0
100
AcDbPoint
 10
207.5711094532161
 20
236.620493558302
 30
0.0
  0
POINT
  5
3D4E
330
3CD1
100
AcDbEntity
  8
Defpoints
  6
Continuous
 62
     0
100
AcDbPoint
 10
207.5711094532161
 20
208.7857778900089
 30
0.0
  0
ENDBLK
  5
3CD3
330
3CD1
100
AcDbEntity
  8
0
100
AcDbBlockEnd
  0
BLOCK
  5
3CDE
330
3CDD
100
AcDbEntity
  8
0
100
AcDbBlockBegin
  2
*D58
 70
     1
 10
0.0
 20
0.0
 30
0.0
  3
*D58
  1

  0
LINE
  5
425C
330
3CDD
100
AcDbEntity
  8
1
  6
Continuous
 62
     2
370
    -2
100
AcDbLine
 10
174.1711094532161
 20
229.5795009997354
 30
0.0
 11
174.1711094532161
 21
208.2857778900089
 31
0.0
  0
LINE
  5
425D
330
3CDD
100
AcDbEntity
  8
1
  6
Continuous
 62
     2
370
    -2
100
AcDbLine
 10
200.0711094532161
 20
229.2870009997354
 30
0.0
 11
200.0711094532161
 21
208.2857778900089
 31
0.0
  0
LINE
  5
425E
330
3CDD
100
AcDbEntity
  8
1
  6
Continuous
 62
     2
370
    -2
100
AcDbLine
 10
175.9211094532162
 20
208.7857778900089
 30
0.0
 11
198.321109453216
 21
208.7857778900089
 31
0.0
  0
MTEXT
  5
425F
330
3CDD
100
AcDbEntity
  8
1
  6
Continuous
 62
     3
100
AcDbMText
 10
187.1211094532161
 20
210.3495740646418
 30
0.0
 40
1.75
 41
0.0
 46
0.0
 71
     5
 72
     1
  1
\A1;25.9
 73
     1
 44
1.0
  0
SOLID
  5
4260
330
3CDD
100
AcDbEntity
  8
1
  6
Continuous
 62
     2
100
AcDbTrace
 10
175.9211094532162
 20
209.0774445566756
 30
0.0
 11
175.9211094532162
 21
208.4941112233423
 31
0.0
 12
174.1711094532161
 22
208.7857778900089
 32
0.0
 13
174.1711094532161
 23
208.7857778900089
 33
0.0
  0
SOLID
  5
4261
330
3CDD
100
AcDbEntity
  8
1
  6
Continuous
 62
     2
100
AcDbTrace
 10
198.321109453216
 20
209.0774445566756
 30
0.0
 11
198.321109453216
 21
208.4941112233423
 31
0.0
 12
200.0711094532161
 22
208.7857778900089
 32
0.0
 13
200.0711094532161
 23
208.7857778900089
 33
0.0
  0
POINT
  5
4262
330
3CDD
100
AcDbEntity
  8
Defpoints
  6
Continuous
 62
     0
100
AcDbPoint
 10
174.1711094532161
 20
229.5795009997354
 30
0.0
  0
POINT
  5
4263
330
3CDD
100
AcDbEntity
  8
Defpoints
  6
Continuous
 62
     0
100
AcDbPoint
 10
200.0711094532161
 20
229.2870009997354
 30
0.0
  0
POINT
  5
4264
330
3CDD
100
AcDbEntity
  8
Defpoints
  6
Continuous
 62
     0
100
AcDbPoint
 10
200.0711094532161
 20
208.7857778900089
 30
0.0
  0
ENDBLK
  5
3CDF
330
3CDD
100
AcDbEntity
  8
0
100
AcDbBlockEnd
  0
BLOCK
  5
3CEA
330
3CE9
100
AcDbEntity
  8
0
100
AcDbBlockBegin
  2
*D59
 70
     1
 10
0.0
 20
0.0
 30
0.0
  3
*D59
  1

  0
LINE
  5
4308
330
3CE9
100
AcDbEntity
  8
1
  6
Continuous
 62
     2
370
    -2
100
AcDbLine
 10
135.8241673929539
 20
237.2795009997354
 30
0.0
 11
135.8241673929539
 21
251.2715022314299
 31
0.0
  0
LINE
  5
4309
330
3CE9
100
AcDbEntity
  8
1
  6
Continuous
 62
     2
370
    -2
100
AcDbLine
 10
137.4241673929539
 20
237.2795009997354
 30
0.0
 11
137.4241673929539
 21
251.2715022314299
 31
0.0
  0
LINE
  5
430A
330
3CE9
100
AcDbEntity
  8
1
  6
Continuous
 62
     2
370
    -2
100
AcDbLine
 10
134.0741673929539
 20
250.7715022314299
 30
0.0
 11
132.3241673929539
 21
250.7715022314299
 31
0.0
  0
LINE
  5
430B
330
3CE9
100
AcDbEntity
  8
1
  6
Continuous
 62
     2
370
    -2
100
AcDbLine
 10
139.1741673929539
 20
250.7715022314299
 30
0.0
 11
140.9241673929539
 21
250.7715022314299
 31
0.0
  0
MTEXT
  5
430C
330
3CE9
100
AcDbEntity
  8
1
  6
Continuous
 62
     3
100
AcDbMText
 10
147.354973773796
 20
252.2102324684365
 30
0.0
 40
1.75
 41
0.0
 46
0.0
 71
     5
 72
     1
  1
\A1;M1.6x1.5 max.
 73
     1
 44
1.0
  0
LINE
  5
430D
330
3CE9
100
AcDbEntity
  8
1
  6
Continuous
 62
     2
370
    -2
100
AcDbLine
 10
135.8241673929539
 20
250.7715022314299
 30
0.0
 11
136.6241673929539
 21
250.7715022314299
 31
0.0
  0
LINE
  5
430E
330
3CE9
100
AcDbEntity
  8
1
  6
Continuous
 62
     2
370
    -2
100
AcDbLine
 10
136.6241673929539
 20
250.7715022314299
 30
0.0
 11
137.4241673929539
 21
250.7715022314299
 31
0.0
  0
SOLID
  5
430F
330
3CE9
100
AcDbEntity
  8
1
  6
Continuous
 62
     2
100
AcDbTrace
 10
134.0741673929539
 20
251.0631688980966
 30
0.0
 11
134.0741673929539
 21
250.4798355647633
 31
0.0
 12
135.8241673929539
 22
250.7715022314299
 32
0.0
 13
135.8241673929539
 23
250.7715022314299
 33
0.0
  0
SOLID
  5
4310
330
3CE9
100
AcDbEntity
  8
1
  6
Continuous
 62
     2
100
AcDbTrace
 10
139.1741673929539
 20
251.0631688980966
 30
0.0
 11
139.1741673929539
 21
250.4798355647633
 31
0.0
 12
137.4241673929539
 22
250.7715022314299
 32
0.0
 13
137.4241673929539
 23
250.7715022314299
 33
0.0
  0
POINT
  5
4311
330
3CE9
100
AcDbEntity
  8
Defpoints
  6
Continuous
 62
     0
100
AcDbPoint
 10
135.8241673929539
 20
237.2795009997354
 30
0.0
  0
POINT
  5
4312
330
3CE9
100
AcDbEntity
  8
Defpoints
  6
Continuous
 62
     0
100
AcDbPoint
 10
137.4241673929539
 20
237.2795009997354
 30
0.0
  0
POINT
  5
4313
330
3CE9
100
AcDbEntity
  8
Defpoints
  6
Continuous
 62
     0
100
AcDbPoint
 10
137.4241673929539
 20
250.7715022314299
 30
0.0
  0
ENDBLK
  5
3CEB
330
3CE9
100
AcDbEntity
  8
0
100
AcDbBlockEnd
  0
BLOCK
  5
3CF7
330
3CF6
100
AcDbEntity
  8
0
100
AcDbBlockBegin
  2
*D60
 70
     1
 10
0.0
 20
0.0
 30
0.0
  3
*D60
  1

  0
LINE
  5
4265
330
3CF6
100
AcDbEntity
  8
1
  6
Continuous
 62
     2
370
    -2
100
AcDbLine
 10
120.624167392954
 20
237.2795009997354
 30
0.0
 11
117.5865671185119
 21
237.2795009997354
 31
0.0
  0
LINE
  5
4266
330
3CF6
100
AcDbEntity
  8
1
  6
Continuous
 62
     2
370
    -2
100
AcDbLine
 10
128.3741673929539
 20
231.6503358751365
 30
0.0
 11
124.6053672557329
 21
225.1225825538971
 31
0.0
  0
ARC
  5
4267
330
3CF6
100
AcDbEntity
  8
1
  6
Continuous
 62
     2
370
    -2
100
AcDbCircle
 10
131.6241673929539
 20
237.2795009997354
 30
0.0
 40
13.53760027444202
100
AcDbArc
 50
187.411768528392
 51
232.5882314716079
  0
SOLID
  5
4268
330
3CF6
100
AcDbEntity
  8
1
  6
Continuous
 62
     2
100
AcDbTrace
 10
117.9086212199128
 20
235.5143084602043
 30
0.0
 11
118.4907347948201
 21
235.5520120898225
 31
0.0
 12
118.0865671185119
 22
237.2795009997354
 32
0.0
 13
118.0865671185119
 23
237.2795009997354
 33
0.0
  0
SOLID
  5
4269
330
3CF6
100
AcDbEntity
  8
1
  6
Continuous
 62
     2
100
AcDbTrace
 10
123.5614018131466
 20
226.7693591858173
 30
0.0
 11
123.2376927246287
 21
226.2840858568689
 31
0.0
 12
124.8553672557329
 22
225.5555952557894
 32
0.0
 13
124.8553672557329
 23
225.5555952557894
 33
0.0
  0
MTEXT
  5
426A
330
3CF6
100
AcDbEntity
  8
1
  6
Continuous
 62
     3
100
AcDbMText
 10
121.2680407983931
 20
231.2801646740581
 30
0.0
 40
1.75
 41
0.0
 46
0.0
 71
     5
 72
     1
  1
\A1;6x60\U+00B0
 11
0.5012667977795998
 21
-0.8652927813427002
 31
0.0
 73
     1
 44
1.0
  0
POINT
  5
426B
330
3CF6
100
AcDbEntity
  8
Defpoints
  6
Continuous
 62
     0
100
AcDbPoint
 10
118.9029843119115
 20
232.6493690135851
 30
0.0
  0
POINT
  5
426C
330
3CF6
100
AcDbEntity
  8
Defpoints
  6
Continuous
 62
     0
100
AcDbPoint
 10
120.624167392954
 20
237.2795009997354
 30
0.0
  0
POINT
  5
426D
330
3CF6
100
AcDbEntity
  8
Defpoints
  6
Continuous
 62
     0
100
AcDbPoint
 10
128.3741673929539
 20
231.6503358751365
 30
0.0
  0
POINT
  5
426E
330
3CF6
100
AcDbEntity
  8
Defpoints
  6
Continuous
 62
     0
100
AcDbPoint
 10
134.8741673929539
 20
242.9086661243342
 30
0.0
  0
POINT
  5
426F
330
3CF6
100
AcDbEntity
  8
Defpoints
  6
Continuous
 62
     0
100
AcDbPoint
 10
142.6241673929539
 20
237.2795009997354
 30
0.0
  0
ENDBLK
  5
3CF8
330
3CF6
100
AcDbEntity
  8
0
100
AcDbBlockEnd
  0
BLOCK
  5
3D70
330
3D6D
100
AcDbEntity
  8
0
 62
   255
100
AcDbBlockBegin
  2
A$C08716F59
 70
     0
 10
0.0
 20
0.0
 30
0.0
  3
A$C08716F59
  1

  0
LINE
  5
3D71
330
3D6D
100
AcDbEntity
  8
0
  6
Continuous
 62
   255
100
AcDbLine
 10
0.0
 20
12.17339149400141
 30
0.0
 11
182.9999999999895
 21
12.17339149400141
 31
0.0
  0
LINE
  5
3D72
330
3D6D
100
AcDbEntity
  8
0
  6
Continuous
 62
   255
100
AcDbLine
 10
139.4722028839473
 20
8.115594329334285
 30
0.0
 11
182.9999999999895
 21
8.115594329334271
 31
0.0
  0
LINE
  5
3D73
330
3D6D
100
AcDbEntity
  8
0
  6
Continuous
 62
   255
100
AcDbLine
 10
139.4722028839473
 20
4.057797164667164
 30
0.0
 11
182.9999999999895
 21
4.05779716466715
 31
0.0
  0
MTEXT
  5
3D74
330
3D6D
100
AcDbEntity
  8
0
100
AcDbMText
 10
1.226077007665935
 20
16.62833710178165
 30
0.0
 40
2.494547437295386
 41
0.0
 46
0.0
 71
     1
 72
     5
  1
General tolerances ISO 2768-1 (fine)
 73
     1
 44
1.0
  0
MTEXT
  5
3D75
330
3D6D
100
AcDbEntity
  8
0
100
AcDbMText
 10
1.221253973245666
 20
22.7493147206207
 30
0.0
 40
2.494547437295386
 41
0.0
 46
0.0
 71
     1
 72
     5
  1
{\fISOCPEUR|b0|i0|c0|p34;\W1;Nominal dimension in mm}
  7
SLDTEXTSTYLE0
 73
     1
 44
1.0
1001
AcDbBlockRepETag
1070
     1
1071
        3
1005
0
  0
LINE
  5
3D76
330
3D6D
100
AcDbEntity
  8
0
  6
Continuous
 62
   255
100
AcDbLine
 10
58.34685140027523
 20
24.34678298800282
 30
0.0
 11
58.34685140027523
 21
0.0000000000000142
 31
0.0
1001
AcDbBlockRepETag
1070
     1
1071
        9
1005
0
  0
LINE
  5
3D77
330
3D6D
100
AcDbEntity
  8
0
  6
Continuous
 62
   255
100
AcDbLine
 10
0.0
 20
24.34678298800282
 30
0.0
 11
58.34685140027528
 21
24.34678298800282
 31
0.0
1001
AcDbBlockRepETag
1070
     1
1071
       10
1005
0
  0
LINE
  5
3D78
330
3D6D
100
AcDbEntity
  8
0
  6
Continuous
 62
   255
100
AcDbLine
 10
58.34685140027523
 20
24.34678298800282
 30
0.0
 11
182.9999999999895
 21
24.34678298800282
 31
0.0
1001
AcDbBlockRepETag
1070
     1
1071
       10
1005
0
  0
LINE
  5
3D79
330
3D6D
100
AcDbEntity
  8
0
  6
Continuous
 62
   255
100
AcDbLine
 10
79.12237616689424
 20
12.17339149400141
 30
0.0
 11
79.12237616689424
 21
24.34678298800282
 31
0.0
1001
AcDbBlockRepETag
1070
     1
1071
       14
1005
0
  0
LINE
  5
3D7A
330
3D6D
100
AcDbEntity
  8
0
  6
Continuous
 62
   255
100
AcDbLine
 10
99.89790093351338
 20
12.17339149400141
 30
0.0
 11
99.89790093351338
 21
24.34678298800282
 31
0.0
1001
AcDbBlockRepETag
1070
     1
1071
       14
1005
0
  0
MTEXT
  5
3D7B
330
3D6D
100
AcDbEntity
  8
0
100
AcDbMText
 10
168.9677353328222
 20
16.88893582326733
 30
0.0
 40
2.494547437295386
 41
0.0
 46
0.0
 71
     1
 72
     5
  1
%%p 0.3
 73
     1
 44
1.0
1001
AcDbBlockRepETag
1070
     1
1071
       24
1005
0
  0
MTEXT
  5
3D7C
330
3D6D
100
AcDbEntity
  8
0
100
AcDbMText
 10
147.9410418409381
 20
16.95985493722907
 30
0.0
 40
2.494547437295386
 41
0.0
 46
0.0
 71
     1
 72
     5
  1
%%p 0.2
 73
     1
 44
1.0
1001
AcDbBlockRepETag
1070
     1
1071
       25
1005
0
  0
MTEXT
  5
3D7D
330
3D6D
100
AcDbEntity
  8
0
100
AcDbMText
 10
126.4009074272721
 20
16.87519524493729
 30
0.0
 40
2.494547437295386
 41
0.0
 46
0.0
 71
     1
 72
     5
  1
%%p 0.15
 73
     1
 44
1.0
1001
AcDbBlockRepETag
1070
     1
1071
       26
1005
0
  0
MTEXT
  5
3D7E
330
3D6D
100
AcDbEntity
  8
0
100
AcDbMText
 10
105.9463212275484
 20
16.90112504597954
 30
0.0
 40
2.494547437295386
 41
0.0
 46
0.0
 71
     1
 72
     5
  1
%%p 0.1
 73
     1
 44
1.0
1001
AcDbBlockRepETag
1070
     1
1071
       27
1005
0
  0
MTEXT
  5
3D7F
330
3D6D
100
AcDbEntity
  8
0
100
AcDbMText
 10
84.98914242355727
 20
17.01437400608699
 30
0.0
 40
2.494547437295386
 41
0.0
 46
0.0
 71
     1
 72
     5
  1
%%p 0.05
 73
     1
 44
1.0
1001
AcDbBlockRepETag
1070
     1
1071
       28
1005
0
  0
TEXT
  5
3D80
330
3D6D
100
AcDbEntity
  8
0
  6
Continuous
100
AcDbText
 10
164.1615107706293
 20
20.37929673764472
 30
0.0
 40
2.494547437295386
  1
400 - 1000
100
AcDbText
1001
AcDbBlockRepETag
1070
     1
1071
       37
1005
0
  0
MTEXT
  5
3D81
330
3D6D
100
AcDbEntity
  8
0
100
AcDbMText
 10
144.158621869803
 20
22.96803362317041
 30
0.0
 40
2.494547437295386
 41
0.0
 46
0.0
 71
     1
 72
     5
  1
120 - 400
 73
     1
 44
1.0
1001
AcDbBlockRepETag
1070
     1
1071
       29
1005
0
  0
MTEXT
  5
3D82
330
3D6D
100
AcDbEntity
  8
0
100
AcDbMText
 10
124.3756636317091
 20
22.72513565785164
 30
0.0
 40
2.494547437295386
 41
0.0
 46
0.0
 71
     1
 72
     5
  1
30 - 120
 73
     1
 44
1.0
1001
AcDbBlockRepETag
1070
     1
1071
       30
1005
0
  0
MTEXT
  5
3D83
330
3D6D
100
AcDbEntity
  8
0
100
AcDbMText
 10
104.9462539288026
 20
22.75232551006025
 30
0.0
 40
2.494547437295386
 41
0.0
 46
0.0
 71
     1
 72
     5
  1
6 - 30
 73
     1
 44
1.0
1001
AcDbBlockRepETag
1070
     1
1071
       31
1005
0
  0
MTEXT
  5
3D84
330
3D6D
100
AcDbEntity
  8
0
100
AcDbMText
 10
85.07950812762828
 20
22.70556959691623
 30
0.0
 40
2.494547437295386
 41
0.0
 46
0.0
 71
     1
 72
     5
  1
3 - 6
 73
     1
 44
1.0
1001
AcDbBlockRepETag
1070
     1
1071
       32
1005
0
  0
MTEXT
  5
3D85
330
3D6D
100
AcDbEntity
  8
0
100
AcDbMText
 10
63.01858838858902
 20
22.78653418981571
 30
0.0
 40
2.494547437295386
 41
0.0
 46
0.0
 71
     1
 72
     5
  1
0.5 - 3
 73
     1
 44
1.0
1001
AcDbBlockRepETag
1070
     1
1071
       33
1005
0
  0
MTEXT
  5
3D86
330
3D6D
100
AcDbEntity
  8
0
100
AcDbMText
 10
63.43852565896918
 20
16.8478471152647
 30
0.0
 40
2.494547437295386
 41
0.0
 46
0.0
 71
     1
 72
     5
  1
%%p 0.05
 73
     1
 44
1.0
1001
AcDbBlockRepETag
1070
     1
1071
       34
1005
0
  0
LINE
  5
3D87
330
3D6D
100
AcDbEntity
  8
0
  6
Continuous
 62
   255
100
AcDbLine
 10
0.0
 20
18.2600872410037
 30
0.0
 11
182.9999999999897
 21
18.260087241002
 31
0.0
  0
LINE
  5
3D88
330
3D6D
100
AcDbEntity
  8
0
  6
Continuous
 62
   255
100
AcDbLine
 10
0.0
 20
0.0
 30
0.0
 11
182.9999999999895
 21
0.0
 31
0.0
  0
LINE
  5
3D89
330
3D6D
100
AcDbEntity
  8
0
  6
Continuous
 62
   255
100
AcDbLine
 10
0.0
 20
6.086695747002281
 30
0.0
 11
139.4722028839473
 21
6.086695747001002
 31
0.0
  0
MTEXT
  5
3D8A
330
3D6D
100
AcDbEntity
  8
0
100
AcDbMText
 10
1.201782440435636
 20
10.72252304166511
 30
0.0
 40
2.494547437295386
 41
0.0
 46
0.0
 71
     1
 72
     5
  1
{\fISOCPEUR|b0|i0|c0|p34;\W1;Shorter arm length of angle in mm}
  7
SLDTEXTSTYLE0
 73
     1
 44
1.0
1001
AcDbBlockRepETag
1070
     1
1071
        0
1005
0
  0
MTEXT
  5
3D8B
330
3D6D
100
AcDbEntity
  8
0
100
AcDbMText
 10
61.86525580137936
 20
10.6131426958143
 30
0.0
 40
2.494547437295386
 41
0.0
 46
0.0
 71
     1
 72
     5
  1
0 - 10
 73
     1
 44
1.0
1001
AcDbBlockRepETag
1070
     1
1071
       33
1005
0
  0
MTEXT
  5
3D8C
330
3D6D
100
AcDbEntity
  8
0
100
AcDbMText
 10
64.26181913627715
 20
4.674455621263291
 30
0.0
 40
2.494547437295386
 41
0.0
 46
0.0
 71
     1
 72
     5
  1
%%P 1%%D
 73
     1
 44
1.0
1001
AcDbBlockRepETag
1070
     1
1071
       34
1005
0
  0
MTEXT
  5
3D8D
330
3D6D
100
AcDbEntity
  8
0
100
AcDbMText
 10
77.03151478382711
 20
10.6131426958143
 30
0.0
 40
2.494547437295386
 41
0.0
 46
0.0
 71
     1
 72
     5
  1
10 - 50
 73
     1
 44
1.0
1001
AcDbBlockRepETag
1070
     1
1071
       33
1005
0
  0
MTEXT
  5
3D8E
330
3D6D
100
AcDbEntity
  8
0
100
AcDbMText
 10
78.88210132936956
 20
4.674455621263291
 30
0.0
 40
2.494547437295386
 41
0.0
 46
0.0
 71
     1
 72
     5
  1
%%P 0.5%%D
 73
     1
 44
1.0
1001
AcDbBlockRepETag
1070
     1
1071
       34
1005
0
  0
MTEXT
  5
3D8F
330
3D6D
100
AcDbEntity
  8
0
100
AcDbMText
 10
92.59088918373743
 20
10.6131426958143
 30
0.0
 40
2.494547437295386
 41
0.0
 46
0.0
 71
     1
 72
     5
  1
50 - 120
 73
     1
 44
1.0
1001
AcDbBlockRepETag
1070
     1
1071
       33
1005
0
  0
MTEXT
  5
3D90
330
3D6D
100
AcDbEntity
  8
0
100
AcDbMText
 10
93.18809940139329
 20
4.674455621263291
 30
0.0
 40
2.494547437295386
 41
0.0
 46
0.0
 71
     1
 72
     5
  1
%%P 0.333%%D
 73
     1
 44
1.0
1001
AcDbBlockRepETag
1070
     1
1071
       34
1005
0
  0
MTEXT
  5
3D91
330
3D6D
100
AcDbEntity
  8
0
100
AcDbMText
 10
107.5423679565415
 20
10.6131426958143
 30
0.0
 40
2.494547437295386
 41
0.0
 46
0.0
 71
     1
 72
     5
  1
120 - 400
 73
     1
 44
1.0
1001
AcDbBlockRepETag
1070
     1
1071
       33
1005
0
  0
MTEXT
  5
3D92
330
3D6D
100
AcDbEntity
  8
0
100
AcDbMText
 10
109.7564886466487
 20
4.674455621263291
 30
0.0
 40
2.494547437295386
 41
0.0
 46
0.0
 71
     1
 72
     5
  1
%%P 0.166%%D
 73
     1
 44
1.0
1001
AcDbBlockRepETag
1070
     1
1071
       34
1005
0
  0
MTEXT
  5
3D93
330
3D6D
100
AcDbEntity
  8
0
100
AcDbMText
 10
123.9025409958209
 20
10.6131426958143
 30
0.0
 40
2.494547437295386
 41
0.0
 46
0.0
 71
     1
 72
     5
  1
{\W0.9;400 - 1000}
 73
     1
 44
1.0
1001
AcDbBlockRepETag
1070
     1
1071
       33
1005
0
  0
MTEXT
  5
3D94
330
3D6D
100
AcDbEntity
  8
0
100
AcDbMText
 10
125.3174912143491
 20
4.674455621263291
 30
0.0
 40
2.494547437295386
 41
0.0
 46
0.0
 71
     1
 72
     5
  1
%%P 0.083%%D
 73
     1
 44
1.0
1001
AcDbBlockRepETag
1070
     1
1071
       34
1005
0
  0
MTEXT
  5
3D95
330
3D6D
100
AcDbEntity
  8
0
100
AcDbMText
 10
1.226077007665821
 20
4.82201452720912
 30
0.0
 40
2.494547437295386
 41
0.0
 46
0.0
 71
     1
 72
     5
  1
General tolerances ISO 2768-1 (fine)
 73
     1
 44
1.0
  0
LINE
  5
3D96
330
3D6D
100
AcDbEntity
  8
0
  6
Continuous
 62
   255
100
AcDbLine
 10
74.57192169700966
 20
12.17339149400141
 30
0.0
 11
74.57192169700966
 21
0.0000000000000142
 31
0.0
1001
AcDbBlockRepETag
1070
     1
1071
        9
1005
0
  0
LINE
  5
3D97
330
3D6D
100
AcDbEntity
  8
0
  6
Continuous
 62
   255
100
AcDbLine
 10
90.79699199374408
 20
12.17339149400141
 30
0.0
 11
90.79699199374408
 21
0.0000000000000142
 31
0.0
1001
AcDbBlockRepETag
1070
     1
1071
        9
1005
0
  0
LINE
  5
3D98
330
3D6D
100
AcDbEntity
  8
0
  6
Continuous
 62
   255
100
AcDbLine
 10
107.0220622904785
 20
12.17339149400141
 30
0.0
 11
107.0220622904785
 21
0.0000000000000142
 31
0.0
1001
AcDbBlockRepETag
1070
     1
1071
        9
1005
0
  0
LINE
  5
3D99
330
3D6D
100
AcDbEntity
  8
0
  6
Continuous
 62
   255
100
AcDbLine
 10
123.2471325872129
 20
12.17339149400141
 30
0.0
 11
123.2471325872129
 21
0.0000000000000142
 31
0.0
1001
AcDbBlockRepETag
1070
     1
1071
        9
1005
0
  0
LINE
  5
3D9A
330
3D6D
100
AcDbEntity
  8
0
  6
Continuous
 62
   255
100
AcDbLine
 10
139.4722028839473
 20
12.17339149400141
 30
0.0
 11
139.4722028839473
 21
0.0000000000000142
 31
0.0
1001
AcDbBlockRepETag
1070
     1
1071
        9
1005
0
  0
TOLERANCE
  5
3D9B
330
3D6D
100
AcDbEntity
  8
0
100
AcDbFcf
  3
Standard
 10
140.3018912761555
 20
10.16670485428646
 30
0.0
  1
%%v%%v%%vH1%%v%%v
1001
ACAD
1000
DSTYLE
1002
{
1070
    40
1040
0.5
1070
   140
1040
3.24
1070
   147
1040
1.62
1002
}
  0
MTEXT
  5
3D9C
330
3D6D
100
AcDbEntity
  8
0
100
AcDbMText
 10
144.6501712219154
 20
11.25538089487233
 30
0.0
 40
1.995637949836309
 41
0.0
 46
0.0
 71
     1
 72
     5
  1
.....
 73
     1
 44
1.0
1001
AcDbBlockRepETag
1070
     1
1071
       34
1005
0
  0
MTEXT
  5
3D9D
330
3D6D
100
AcDbEntity
  8
0
100
AcDbMText
 10
148.0466459170135
 20
11.25538089487233
 30
0.0
 40
1.995637949836309
 41
0.0
 46
0.0
 71
     1
 72
     5
  1
Horizontal CTQ Dimensions
 73
     1
 44
1.0
1001
AcDbBlockRepETag
1070
     1
1071
       34
1005
0
  0
TOLERANCE
  5
3D9E
330
3D6D
100
AcDbEntity
  8
0
100
AcDbFcf
  3
Standard
 10
140.3018912761555
 20
6.108907689619343
 30
0.0
  1
%%v%%v%%vV1%%v%%v
1001
ACAD
1000
DSTYLE
1002
{
1070
    40
1040
0.5
1070
   140
1040
3.24
1070
   147
1040
1.62
1002
}
  0
MTEXT
  5
3D9F
330
3D6D
100
AcDbEntity
  8
0
100
AcDbMText
 10
144.6501712219154
 20
7.197583730205209
 30
0.0
 40
1.995637949836309
 41
0.0
 46
0.0
 71
     1
 72
     5
  1
.....
 73
     1
 44
1.0
1001
AcDbBlockRepETag
1070
     1
1071
       34
1005
0
  0
MTEXT
  5
3DA0
330
3D6D
100
AcDbEntity
  8
0
100
AcDbMText
 10
148.0466459170135
 20
7.197583730205209
 30
0.0
 40
1.995637949836309
 41
0.0
 46
0.0
 71
     1
 72
     5
  1
Vertical CTQ Dimensions
 73
     1
 44
1.0
1001
AcDbBlockRepETag
1070
     1
1071
       34
1005
0
  0
TOLERANCE
  5
3DA1
330
3D6D
100
AcDbEntity
  8
0
100
AcDbFcf
  3
Standard
 10
140.3018912761555
 20
2.051110524952221
 30
0.0
  1
%%v%%v%%vS1%%v%%v
1001
ACAD
1000
DSTYLE
1002
{
1070
    40
1040
0.5
1070
   140
1040
3.24
1070
   147
1040
1.62
1002
}
  0
MTEXT
  5
3DA2
330
3D6D
100
AcDbEntity
  8
0
100
AcDbMText
 10
144.6501712219154
 20
3.139786565538088
 30
0.0
 40
1.995637949836309
 41
0.0
 46
0.0
 71
     1
 72
     5
  1
.....
 73
     1
 44
1.0
1001
AcDbBlockRepETag
1070
     1
1071
       34
1005
0
  0
MTEXT
  5
3DA3
330
3D6D
100
AcDbEntity
  8
0
100
AcDbMText
 10
148.0466459170135
 20
3.139786565538088
 30
0.0
 40
1.995637949836309
 41
0.0
 46
0.0
 71
     1
 72
     5
  1
GD&T & Other Features
 73
     1
 44
1.0
1001
AcDbBlockRepETag
1070
     1
1071
       34
1005
0
  0
LINE
  5
3DA4
330
3D6D
100
AcDbEntity
  8
0
  6
Continuous
 62
   255
100
AcDbLine
 10
120.6734257001324
 20
12.17339149400141
 30
0.0
 11
120.6734257001324
 21
24.34678298800282
 31
0.0
1001
AcDbBlockRepETag
1070
     1
1071
       14
1005
0
  0
LINE
  5
3DA5
330
3D6D
100
AcDbEntity
  8
0
  6
Continuous
 62
   255
100
AcDbLine
 10
141.4489504667515
 20
12.17339149400141
 30
0.0
 11
141.4489504667515
 21
24.34678298800282
 31
0.0
1001
AcDbBlockRepETag
1070
     1
1071
       14
1005
0
  0
LINE
  5
3DA6
330
3D6D
100
AcDbEntity
  8
0
  6
Continuous
 62
   255
100
AcDbLine
 10
162.2244752333704
 20
12.17339149400141
 30
0.0
 11
162.2244752333704
 21
24.34678298800282
 31
0.0
1001
AcDbBlockRepETag
1070
     1
1071
       14
1005
0
  0
ENDBLK
  5
3DA7
330
3D6D
100
AcDbEntity
  8
0
 62
   255
100
AcDbBlockEnd
  0
BLOCK
  5
3DAB
330
3DA8
100
AcDbEntity
  8
0
100
AcDbBlockBegin
  2
A$C058C21FF
 70
     0
 10
0.0
 20
0.0
 30
0.0
  3
A$C058C21FF
  1

  0
LINE
  5
3DAC
330
3DA8
100
AcDbEntity
  8
0
  6
Continuous
 62
   255
100
AcDbLine
 10
392.9999664095999
 20
-277.0
 30
0.0
 11
392.9999664095999
 21
0.0
 31
0.0
  0
LINE
  5
3DAD
330
3DA8
100
AcDbEntity
  8
0
  6
Continuous
 62
   255
100
AcDbLine
 10
10.0
 20
-277.0
 30
0.0
 11
392.9999664095999
 21
-277.0
 31
0.0
  0
LINE
  5
3DAE
330
3DA8
100
AcDbEntity
  8
0
  6
Continuous
 62
   255
100
AcDbLine
 10
0.0
 20
0.0
 30
0.0
 11
0.0
 21
-222.0000000000001
 31
0.0
  0
LINE
  5
3DAF
330
3DA8
100
AcDbEntity
  8
0
  6
Continuous
 62
   255
100
AcDbLine
 10
0.0
 20
0.0
 30
0.0
 11
392.9999664095999
 21
0.0
 31
0.0
  0
LINE
  5
3DB0
330
3DA8
100
AcDbEntity
  8
1
 62
     2
100
AcDbLine
 10
212.9999664095992
 20
-240.7736213082135
 30
0.0
 11
212.9999664095992
 21
-233.1532223398645
 31
0.0
1001
AcDbBlockRepETag
1070
     1
1071
     2034
1005
0
  0
LINE
  5
3DB1
330
3DA8
100
AcDbEntity
  8
1
 62
     2
100
AcDbLine
 10
377.9999664095851
 20
-240.7736213082135
 30
0.0
 11
212.9999664095992
 21
-240.7736213082135
 31
0.0
1001
AcDbBlockRepETag
1070
     1
1071
     2035
1005
0
  0
LINE
  5
3DB2
330
3DA8
100
AcDbEntity
  8
1
 62
     2
100
AcDbLine
 10
377.9999664095851
 20
-233.1532223398645
 30
0.0
 11
377.9999664095851
 21
-240.7736213082135
 31
0.0
1001
AcDbBlockRepETag
1070
     1
1071
     2036
1005
0
  0
LINE
  5
3DB3
330
3DA8
100
AcDbEntity
  8
1
 62
     2
100
AcDbLine
 10
212.9999664095992
 20
-233.1532223398645
 30
0.0
 11
377.9999664095851
 21
-233.1532223398645
 31
0.0
1001
AcDbBlockRepETag
1070
     1
1071
     2037
1005
0
  0
TEXT
  5
3DB4
330
3DA8
100
AcDbEntity
  8
1
 62
     3
100
AcDbText
 10
214.4930914539439
 20
-238.5485951401706
 30
0.0
 40
3.299999999999733
  1
Technology: Description - no. x.xxx.xx.xxxx
100
AcDbText
1001
AcDbBlockRepETag
1070
     1
1071
     2042
1005
0
  0
LINE
  5
3DB5
330
3DA8
100
AcDbEntity
  8
0
  6
Continuous
 62
   255
100
AcDbLine
 10
10.0
 20
-222.0
 30
0.0
 11
10.0
 21
-277.0
 31
0.0
1001
AcDbBlockRepETag
1070
     1
1071
     1946
1005
0
  0
LINE
  5
3DB6
330
3DA8
100
AcDbEntity
  8
0
  6
Continuous
 62
   255
100
AcDbLine
 10
10.0
 20
-222.0
 30
0.0
 11
0.0
 21
-222.0
 31
0.0
  0
TEXT
  5
3DB7
330
3DA8
100
AcDbEntity
  8
1
 62
     4
100
AcDbText
 10
2.500000000000001
 20
-237.5000000000001
 30
0.0
 40
5.0
  1
Drg. No.
 50
270.0
 72
     1
 11
5.0
 21
-249.5000000000001
 31
0.0
100
AcDbText
 73
     2
  0
LINE
  5
3DB8
330
3DA8
100
AcDbEntity
  8
0
  6
CENTER
 62
     2
 48
0.2
370
     9
100
AcDbLine
 10
386.4999681855563
 20
-259.423144560453
 30
0.0
 11
386.4999681855563
 21
-252.4231464730208
 31
0.0
1001
AcDbBlockRepETag
1070
     1
1071
        1
1005
0
  0
LINE
  5
3DB9
330
3DA8
100
AcDbEntity
  8
0
  6
Continuous
 62
   255
100
AcDbLine
 10
383.8712940050734
 20
-262.0000040983596
 30
0.0
 11
383.8712940050734
 21
-273.0000010928959
 31
0.0
1001
AcDbBlockRepETag
1070
     1
1071
        5
1005
0
  0
LINE
  5
3DBA
330
3DA8
100
AcDbEntity
  8
0
  6
CENTER
 62
     2
 48
0.2
370
     9
100
AcDbLine
 10
371.4999722839166
 20
-255.9231455167369
 30
0.0
 11
380.4999698249001
 21
-255.9231455167369
 31
0.0
1001
AcDbBlockRepETag
1070
     1
1071
        9
1005
0
  0
LINE
  5
3DBB
330
3DA8
100
AcDbEntity
  8
0
  6
Continuous
 62
   255
100
AcDbLine
 10
379.9999699615125
 20
-252.8231463637312
 30
0.0
 11
371.9999721473041
 21
-254.4231459265728
 31
0.0
1001
AcDbBlockRepETag
1070
     1
1071
       10
1005
0
  0
LINE
  5
3DBC
330
3DA8
100
AcDbEntity
  8
0
  6
Continuous
 62
   255
100
AcDbLine
 10
379.9999699615125
 20
-259.0231446697427
 30
0.0
 11
379.9999699615125
 21
-252.8231463637312
 31
0.0
1001
AcDbBlockRepETag
1070
     1
1071
       11
1005
0
  0
LINE
  5
3DBD
330
3DA8
100
AcDbEntity
  8
0
  6
Continuous
 62
   255
100
AcDbLine
 10
371.9999721473041
 20
-257.423145106901
 30
0.0
 11
379.9999699615125
 21
-259.0231446697427
 31
0.0
1001
AcDbBlockRepETag
1070
     1
1071
       12
1005
0
  0
LINE
  5
3DBE
330
3DA8
100
AcDbEntity
  8
0
  6
Continuous
 62
   255
100
AcDbLine
 10
371.9999721473041
 20
-254.4231459265728
 30
0.0
 11
371.9999721473041
 21
-257.423145106901
 31
0.0
1001
AcDbBlockRepETag
1070
     1
1071
       13
1005
0
  0
LINE
  5
3DBF
330
3DA8
100
AcDbEntity
  8
0
  6
Continuous
 62
   255
100
AcDbLine
 10
352.9999773385603
 20
-262.0000040983596
 30
0.0
 11
352.9999773385601
 21
-250.0008059763035
 31
0.0
1001
AcDbBlockRepETag
1070
     1
1071
       19
1005
0
  0
LINE
  5
3DC0
330
3DA8
100
AcDbEntity
  8
0
  6
Continuous
 62
   255
100
AcDbLine
 10
318.9999866281746
 20
-262.0000040983596
 30
0.0
 11
318.9999866281746
 21
-273.0000010928959
 31
0.0
1001
AcDbBlockRepETag
1070
     1
1071
       20
1005
0
  0
LINE
  5
3DC1
330
3DA8
100
AcDbEntity
  8
0
  6
Continuous
 62
   255
100
AcDbLine
 10
352.9999773385601
 20
-262.0000040983594
 30
0.0
 11
392.9999664096001
 21
-262.0000040983596
 31
0.0
1001
AcDbBlockRepETag
1070
     1
1071
       21
1005
0
  0
LINE
  5
3DC2
330
3DA8
100
AcDbEntity
  8
0
  6
Continuous
 62
   255
100
AcDbLine
 10
245.0000068467473
 20
-262.0000040983596
 30
0.0
 11
245.0000068467473
 21
-273.0000010928959
 31
0.0
1001
AcDbBlockRepETag
1070
     1
1071
       22
1005
0
  0
LINE
  5
3DC3
330
3DA8
100
AcDbEntity
  8
0
  6
Continuous
 62
   255
100
AcDbLine
 10
257.6666700525782
 20
-256.0008059763035
 30
0.0
 11
257.6666700525779
 21
-273.0000010928959
 31
0.0
1001
AcDbBlockRepETag
1070
     1
1071
       22
1005
0
  0
LINE
  5
3DC4
330
3DA8
100
AcDbEntity
  8
0
  6
Continuous
 62
   255
100
AcDbLine
 10
210.000016409587
 20
-233.1532223398645
 30
0.0
 11
210.000016409587
 21
-277.0
 31
0.0
1001
AcDbBlockRepETag
1070
     1
1071
       26
1005
0
  0
LINE
  5
3DC5
330
3DA8
100
AcDbEntity
  8
0
  6
Continuous
 62
   255
100
AcDbLine
 10
367.9999732402
 20
-250.0008059763035
 30
0.0
 11
367.9999732402
 21
-262.0000040983596
 31
0.0
1001
AcDbBlockRepETag
1070
     1
1071
       27
1005
0
  0
LINE
  5
3DC6
330
3DA8
100
AcDbEntity
  8
0
  6
Continuous
 62
   255
100
AcDbLine
 10
185.0000232401867
 20
-257.5000053278675
 30
0.0
 11
185.0000232401869
 21
-277.0
 31
0.0
1001
AcDbBlockRepETag
1070
     1
1071
       29
1005
0
  0
LINE
  5
3DC7
330
3DA8
100
AcDbEntity
  8
0
  6
Continuous
 62
     2
370
     9
100
AcDbLine
 10
27.00001640958703
 20
-266.5000028688518
 30
0.0
 11
210.000016409587
 21
-266.5000028688518
 31
0.0
1001
AcDbBlockRepETag
1070
     1
1071
       30
1005
0
  0
LINE
  5
3DC8
330
3DA8
100
AcDbEntity
  8
0
  6
Continuous
 62
   255
100
AcDbLine
 10
27.00001640958703
 20
-271.0000016393439
 30
0.0
 11
210.000016409587
 21
-271.0000016393439
 31
0.0
1001
AcDbBlockRepETag
1070
     1
1071
       31
1005
0
  0
LINE
  5
3DC9
330
3DA8
100
AcDbEntity
  8
0
  6
Continuous
 62
   255
100
AcDbLine
 10
27.00001640958703
 20
-277.0
 30
0.0
 11
27.00001640958681
 21
-233.1532223398645
 31
0.0
1001
AcDbBlockRepETag
1070
     1
1071
       32
1005
0
  0
LINE
  5
3DCA
330
3DA8
100
AcDbEntity
  8
0
  6
Continuous
 62
     2
370
     9
100
AcDbLine
 10
210.000016409587
 20
-262.0000040983596
 30
0.0
 11
27.00001640958703
 21
-262.0000040983596
 31
0.0
1001
AcDbBlockRepETag
1070
     1
1071
       33
1005
0
  0
LINE
  5
3DCB
330
3DA8
100
AcDbEntity
  8
0
  6
Continuous
 62
   255
100
AcDbLine
 10
160.0000300707861
 20
-257.5000053278675
 30
0.0
 11
160.0000300707863
 21
-277.0
 31
0.0
1001
AcDbBlockRepETag
1070
     1
1071
       34
1005
0
  0
LINE
  5
3DCC
330
3DA8
100
AcDbEntity
  8
0
  6
Continuous
 62
   255
100
AcDbLine
 10
135.0000369013846
 20
-257.5000053278675
 30
0.0
 11
135.0000369013846
 21
-277.0
 31
0.0
1001
AcDbBlockRepETag
1070
     1
1071
       35
1005
0
  0
LINE
  5
3DCD
330
3DA8
100
AcDbEntity
  8
0
  6
Continuous
 62
   255
100
AcDbLine
 10
33.90006452432795
 20
-257.5000053278675
 30
0.0
 11
33.90006452432795
 21
-277.0
 31
0.0
1001
AcDbBlockRepETag
1070
     1
1071
       36
1005
0
  0
LINE
  5
3DCE
330
3DA8
100
AcDbEntity
  8
0
  6
CENTER
 62
     2
 48
0.2
370
     9
100
AcDbLine
 10
382.8999691691633
 20
-255.9231455167369
 30
0.0
 11
389.9999672292731
 21
-255.9231455167369
 31
0.0
1001
AcDbBlockRepETag
1070
     1
1071
       37
1005
0
  0
LINE
  5
3DCF
330
3DA8
100
AcDbEntity
  8
0
  6
Continuous
 62
   255
100
AcDbLine
 10
392.9999664096001
 20
-273.0000010928959
 30
0.0
 11
210.000016409587
 21
-273.0000010928959
 31
0.0
1001
AcDbBlockRepETag
1070
     1
1071
       38
1005
0
  0
CIRCLE
  5
3DD0
330
3DA8
100
AcDbEntity
  8
0
  6
Continuous
 62
   255
100
AcDbCircle
 10
386.4999681855563
 20
-255.9231455167369
 30
0.0
 40
3.099999153005696
1001
AcDbBlockRepETag
1070
     1
1071
       39
1005
0
  0
CIRCLE
  5
3DD1
330
3DA8
100
AcDbEntity
  8
0
  6
Continuous
 62
   255
100
AcDbCircle
 10
386.4999681855563
 20
-255.9231455167369
 30
0.0
 40
1.499999590164046
1001
AcDbBlockRepETag
1070
     1
1071
       40
1005
0
  0
MTEXT
  5
3DD2
330
3DA8
100
AcDbEntity
  8
0
 62
   255
100
AcDbMText
 10
356.8782500675213
 20
-252.7695148487513
 30
0.0
 40
1.999999453552061
 41
0.0
 46
0.0
 71
     1
 72
     5
  1
Scale
 73
     1
 44
1.0
1001
AcDbBlockRepETag
1070
     1
1071
       46
1005
0
  0
MTEXT
  5
3DD3
330
3DA8
100
AcDbEntity
  8
0
 62
   255
100
AcDbMText
 10
384.7939704696303
 20
-264.9195248175762
 30
0.0
 40
4.508695652173912
 41
0.0
 46
0.0
 71
     1
 72
     5
  1
{\fISOCPEUR|b0|i0|c0|p34;\W1;A3}
  7
SLDTEXTSTYLE0
 73
     1
 44
1.0
1001
AcDbBlockRepETag
1070
     1
1071
       50
1005
0
  0
TEXT
  5
3DD4
330
3DA8
100
AcDbEntity
  8
0
  6
Continuous
 62
   255
100
AcDbText
 10
213.5367887974839
 20
-275.600626952933
 30
0.0
 40
1.72391304347826
  1
This drawing remains our property. Without written approval it may not be copied, reproduced or communicated or made available to third parties.
100
AcDbText
1001
AcDbBlockRepETag
1070
     1
1071
       51
1005
0
  0
MTEXT
  5
3DD5
330
3DA8
100
AcDbEntity
  8
0
 62
   255
100
AcDbMText
 10
28.38043281742353
 20
-272.4012695934838
 30
0.0
 40
1.999999453552061
 41
0.0
 46
0.0
 71
     1
 72
     5
  1
No.
 73
     1
 44
1.0
1001
AcDbBlockRepETag
1070
     1
1071
       52
1005
0
  0
MTEXT
  5
3DD6
330
3DA8
100
AcDbEntity
  8
0
 62
   255
100
AcDbMText
 10
62.8916152131303
 20
-272.5568974675624
 30
0.0
 40
1.999999453552061
 41
0.0
 46
0.0
 71
     1
 72
     5
  1
Modifications
 73
     1
 44
1.0
1001
AcDbBlockRepETag
1070
     1
1071
       53
1005
0
  0
MTEXT
  5
3DD7
330
3DA8
100
AcDbEntity
  8
0
 62
   255
100
AcDbMText
 10
113.8766488820463
 20
-272.4090513971577
 30
0.0
 40
1.999999453552061
 41
0.0
 46
0.0
 71
     1
 72
     5
  1
Communication
 73
     1
 44
1.0
1001
AcDbBlockRepETag
1070
     1
1071
       54
1005
0
  0
MTEXT
  5
3DD8
330
3DA8
100
AcDbEntity
  8
0
 62
   255
100
AcDbMText
 10
143.9645104743263
 20
-272.4579818509886
 30
0.0
 40
1.999999453552061
 41
0.0
 46
0.0
 71
     1
 72
     5
  1
Drawn
 73
     1
 44
1.0
1001
AcDbBlockRepETag
1070
     1
1071
       55
1005
0
  0
MTEXT
  5
3DD9
330
3DA8
100
AcDbEntity
  8
0
 62
   255
100
AcDbMText
 10
191.619644925147
 20
-272.537497781863
 30
0.0
 40
1.999999453552061
 41
0.0
 46
0.0
 71
     1
 72
     5
  1
Approved
 73
     1
 44
1.0
1001
AcDbBlockRepETag
1070
     1
1071
       56
1005
0
  0
MTEXT
  5
3DDA
330
3DA8
100
AcDbEntity
  8
0
 62
   255
100
AcDbMText
 10
336.1114445882952
 20
-264.9508328035223
 30
0.0
 40
4.508695652173912
 41
0.0
 46
0.0
 71
     1
 72
     5
  1
{\fISOCPEUR|b0|i0|c0|p34;\W1;Drg. No.}
  7
SLDTEXTSTYLE0
 73
     1
 44
1.0
1001
AcDbBlockRepETag
1070
     1
1071
       58
1005
0
  0
MTEXT
  5
3DDB
330
3DA8
100
AcDbEntity
  8
0
 62
   255
100
AcDbMText
 10
266.8224219787517
 20
-264.9557813549702
 30
0.0
 40
4.508695652173912
 41
0.0
 46
0.0
 71
     1
 72
     5
  1
{\fISOCPEUR|b0|i0|c0|p34;\W1;Description}
  7
SLDTEXTSTYLE0
 73
     1
 44
1.0
1001
AcDbBlockRepETag
1070
     1
1071
       59
1005
0
  0
MTEXT
  5
3DDC
330
3DA8
100
AcDbEntity
  8
0
 62
   255
100
AcDbMText
 10
358.084726654057
 20
-256.6405790150835
 30
0.0
 40
2.499999316940077
 41
0.0
 46
0.0
 71
     1
 72
     5
  1
X:1
 73
     1
 44
1.0
1001
AcDbBlockRepETag
1070
     1
1071
       60
1005
0
  0
MTEXT
  5
3DDD
330
3DA8
100
AcDbEntity
  8
0
 62
     1
100
AcDbMText
 10
214.8544231156891
 20
-262.8294794084584
 30
0.0
 40
3.999998907104123
 41
0.0
 46
0.0
 71
     1
 72
     5
  1
{\fISOCPEUR|b0|i0|c0|p34;\W1;Portescap}
  7
SLDTEXTSTYLE0
 73
     1
 44
1.0
1001
AcDbBlockRepETag
1070
     1
1071
       65
1005
0
  0
LINE
  5
3DDE
330
3DA8
100
AcDbEntity
  8
0
  6
Continuous
 62
   255
100
AcDbLine
 10
110.0000437319843
 20
-257.5000053278675
 30
0.0
 11
110.0000437319845
 21
-277.0
 31
0.0
1001
AcDbBlockRepETag
1070
     1
1071
       66
1005
0
  0
MTEXT
  5
3DDF
330
3DA8
100
AcDbEntity
  8
0
 62
   255
100
AcDbMText
 10
167.3053807416859
 20
-272.4579818509886
 30
0.0
 40
1.999999453552061
 41
0.0
 46
0.0
 71
     1
 72
     5
  1
Checked
 73
     1
 44
1.0
1001
AcDbBlockRepETag
1070
     1
1071
       67
1005
0
  0
LINE
  5
3DE0
330
3DA8
100
AcDbEntity
  8
0
  6
Continuous
 62
   255
100
AcDbLine
 10
374.7426216005465
 20
-262.0000040983596
 30
0.0
 11
374.7426216005463
 21
-277.0
 31
0.0
1001
AcDbBlockRepETag
1070
     1
1071
        5
1005
0
  0
MTEXT
  5
3DE1
330
3DA8
100
AcDbEntity
  8
0
 62
   255
100
AcDbMText
 10
376.1389629657326
 20
-264.9195248175762
 30
0.0
 40
4.508695652173912
 41
0.0
 46
0.0
 71
     1
 72
     5
  1
{\fISOCPEUR|b0|i0|c0|p34;\W1;00}
  7
SLDTEXTSTYLE0
 73
     1
 44
1.0
1001
AcDbBlockRepETag
1070
     1
1071
       50
1005
0
  0
TEXT
  5
3DE2
330
3DA8
100
AcDbEntity
  8
0
  6
Continuous
 62
   255
100
AcDbText
 10
377.1554068563314
 20
-275.600626952933
 30
0.0
 40
1.72391304347826
  1
Sheet 1 of 1
100
AcDbText
1001
AcDbBlockRepETag
1070
     1
1071
       51
1005
0
  0
INSERT
  5
3DE3
330
3DA8
100
AcDbEntity
  8
0
 62
   255
100
AcDbBlockReference
  2
A$C08716F59
 10
27.00001640958681
 20
-257.5000053278673
 30
0.0
  0
LINE
  5
3DE4
330
3DA8
100
AcDbEntity
  8
0
  6
Continuous
 62
   255
100
AcDbLine
 10
245.0000068467473
 20
-269.0000021857919
 30
0.0
 11
210.000016409587
 21
-269.0000021857919
 31
0.0
1001
AcDbBlockRepETag
1070
     1
1071
       38
1005
0
  0
TEXT
  5
3DE5
330
3DA8
100
AcDbEntity
  8
0
  6
Continuous
 62
   255
100
AcDbText
 10
213.5367887974839
 20
-271.7908875797558
 30
0.0
 40
1.72391304347826
  1
PI/R&D/F/18 Rev 00
100
AcDbText
1001
AcDbBlockRepETag
1070
     1
1071
       51
1005
0
  0
MTEXT
  5
3DE6
330
3DA8
100
AcDbEntity
  8
0
  6
Continuous
 62
   255
100
AcDbMText
 10
211.8594586296933
 20
-254.9213169641921
 30
0.0
 40
2.499999316940077
 41
122.5201940634145
 46
0.0
 71
     7
 72
     1
  1
All dimensions and tolerances are in mm unless & otherwise specified.
  7
style1
 73
     1
 44
1.0
1001
AcDbBlockRepETag
1070
     1
1071
       64
1005
0
  0
LINE
  5
3DE7
330
3DA8
100
AcDbEntity
  8
0
  6
Continuous
 62
   255
100
AcDbLine
 10
210.000016409587
 20
-262.0008059763035
 30
0.0
 11
257.6666700525782
 21
-262.0008059763035
 31
0.0
1001
AcDbBlockRepETag
1070
     1
1071
        3
1005
0
  0
LINE
  5
3DE8
330
3DA8
100
AcDbEntity
  8
0
  6
Continuous
 62
   255
100
AcDbLine
 10
210.000016409587
 20
-250.0008059763035
 30
0.0
 11
392.9999664096001
 21
-250.0008059763035
 31
0.0
1001
AcDbBlockRepETag
1070
     1
1071
        3
1005
0
  0
LINE
  5
3DE9
330
3DA8
100
AcDbEntity
  8
0
  6
Continuous
 62
   255
100
AcDbLine
 10
210.000016409587
 20
-256.0008059763035
 30
0.0
 11
352.9999773385601
 21
-256.0008059763033
 31
0.0
1001
AcDbBlockRepETag
1070
     1
1071
        3
1005
0
  0
ENDBLK
  5
3DEA
330
3DA8
100
AcDbEntity
  8
0
100
AcDbBlockEnd
  0
BLOCK
  5
3DEC
330
3DEB
100
AcDbEntity
  8
0
 62
   255
100
AcDbBlockBegin
  2
_Dot
 70
     0
 10
0.0
 20
0.0
 30
0.0
  3
_Dot
  1

  0
LWPOLYLINE
  5
3DED
330
3DEB
100
AcDbEntity
  8
0
  6
ByBlock
 62
     0
100
AcDbPolyline
 90
        2
 70
     1
 43
0.5
 10
-0.25
 20
0.0
 42
1.0
 10
0.25
 20
0.0
 42
1.0
  0
LINE
  5
3DEE
330
3DEB
100
AcDbEntity
  8
0
  6
ByBlock
 62
     0
370
    -2
100
AcDbLine
 10
-0.5
 20
0.0
 30
0.0
 11
-1.0
 21
0.0
 31
0.0
  0
ENDBLK
  5
3DEF
330
3DEB
100
AcDbEntity
  8
0
 62
   255
100
AcDbBlockEnd
  0
BLOCK
  5
3DF3
330
3DF0
100
AcDbEntity
  8
0
 62
     1
100
AcDbBlockBegin
  2
A$C53560A2D
 70
     0
 10
0.0
 20
0.0
 30
0.0
  3
A$C53560A2D
  1

  0
HATCH
  5
3DF4
330
3DF0
100
AcDbEntity
  8
0
 62
     1
100
AcDbHatch
 10
0.0
 20
0.0
 30
0.0
210
0.0
220
0.0
230
1.0
  2
SOLID
 70
     1
 71
     0
 91
        1
 92
        7
 72
     0
 73
     1
 93
        8
 10
10.40639350736074
 20
-3.429580398453509
 10
9.8090548631219
 20
-3.429580398453495
 10
10.52161847102905
 20
-4.26222404987655
 10
9.562357823425486
 20
-5.017847907603865
 10
-0.1711005509629331
 20
-5.017847907603837
 10
-0.2076899027981653
 20
-5.086662246294196
 10
10.08230402145517
 20
-5.08666224629421
 10
11.12297052199432
 20
-4.266913789282654
 97
        0
 75
     0
 76
     1
 47
0.0237982239116982
 98
        1
 10
10.7687455105808
 20
-4.08916775948434
450
        0
451
        0
460
0.0
461
0.0
452
        0
462
0.0
453
        0
470

1001
ACAD
1010
0.0
1020
0.0
1030
0.0
  0
HATCH
  5
3DF5
330
3DF0
100
AcDbEntity
  8
0
 62
     3
100
AcDbHatch
 10
0.0
 20
0.0
 30
0.0
210
0.0
220
0.0
230
1.0
  2
SOLID
 70
     1
 71
     0
 91
       11
 92
        7
 72
     0
 73
     1
 93
        7
 10
1.491379020905242
 20
-2.772946682047759
 10
0.995217842298814
 20
-2.772946682047745
 10
-0.0788238170088675
 20
-4.792918690406423
 10
0.3668365951625674
 20
-4.792918690406409
 10
1.182574505556942
 20
-3.200386665146865
 10
1.390757209580954
 20
-4.792918690406395
 10
1.800184269306669
 20
-4.792918690406423
 97
        0
 92
        7
 72
     1
 73
     1
 93
       17
 10
3.143752721671432
 20
-3.44625859844703
 42
0.0
 10
2.816525880617575
 20
-3.446258598447073
 42
0.0
 10
2.903841276975811
 20
-3.02813051420415
 42
0.0
 10
2.485710676876635
 20
-3.16864853873723
 42
0.0
 10
2.427738889498414
 20
-3.44625859844703
 42
0.0
 10
2.156102845410657
 20
-3.44625859844703
 42
0.0
 10
2.108120116639497
 20
-3.699877260551375
 42
0.0
 10
2.37477709420176
 20
-3.699877260551375
 42
0.0
 10
2.197341484950982
 20
-4.54956488114216
 42
0.2314303255157967
 10
2.229132535142696
 20
-4.7375738797856
 42
0.2425677700453667
 10
2.562303738103139
 20
-4.840349188736823
 42
0.0
 10
2.853955581357979
 20
-4.793092213000164
 42
0.0
 10
2.904529503834567
 20
-4.550908380596794
 42
0.0
 10
2.695000291198482
 20
-4.550908380596808
 42
-0.4760549668863254
 10
2.615472085050157
 20
-4.409046856609066
 42
0.0
 10
2.763564085320922
 20
-3.699877260551403
 42
0.0
 10
3.095769992900443
 20
-3.699877260551403
 42
0.0
 97
        0
 92
        7
 72
     1
 73
     1
 93
       15
 10
3.902783104379238
 20
-3.703880319999356
 42
-0.2432435292258966
 10
4.1605810466001
 20
-3.728705991916442
 42
-0.2718544080322752
 10
4.214411423471688
 20
-3.906094591215776
 42
0.0
 10
4.02511501860107
 20
-4.8125801186696
 42
0.0
 10
4.425338595686184
 20
-4.812580118669615
 42
0.0
 10
4.618640162861424
 20
-3.843814600173104
 42
0.1442413094369809
 10
4.566882367577647
 20
-3.577394862249789
 42
0.1968270941560047
 10
4.312159611171807
 20
-3.438006898026017
 42
0.1671955009294615
 10
3.972511122600565
 20
-3.482973954396257
 42
0.0984224330473735
 10
3.770569059989043
 20
-3.640211074021848
 42
0.0
 10
3.934493518721126
 20
-2.855224430784346
 42
0.0
 10
3.53819104308144
 20
-2.85522443078436
 42
0.0
 10
3.129447181708883
 20
-4.812580118669629
 42
0.0
 10
3.525749657348569
 20
-4.812580118669629
 42
0.0
 10
3.717837455778578
 20
-3.892727417841854
 42
-0.1681505465182262
 97
        0
 92
        7
 72
     0
 73
     1
 93
        4
 10
5.6096725110404
 20
-2.855224430784303
 10
5.213370035400828
 20
-2.855224430784332
 10
4.804626174028157
 20
-4.8125801186696
 10
5.200928649667844
 20
-4.812580118669572
 97
        0
 92
        7
 72
     1
 73
     1
 93
       11
 10
6.952147240856731
 20
-3.566721980052093
 42
0.2003410362329726
 10
6.566896274917382
 20
-3.394380580118323
 42
0.1459636918781203
 10
6.221479418630622
 20
-3.437237506523857
 42
0.1329827864341785
 10
5.809957292924593
 20
-3.742009934847047
 42
0.1181218657170001
 10
5.613713825998559
 20
-4.246632228047602
 42
0.1453361361738481
 10
5.692211359379541
 20
-4.650330645507111
 42
0.1097723388638702
 10
5.927703226469532
 20
-4.840965604516455
 42
0.0801939741507773
 10
6.283139453583146
 20
-4.8800657463362
 42
0.1155273130323037
 10
6.714757499090808
 20
-4.716668932821008
 42
0.1356436716811775
 10
6.998631608933408
 20
-4.369984603229582
 42
0.1011385320105559
 10
7.113012828394801
 20
-3.973673703014938
 42
0.236317674944661
 97
        0
 92
       22
 72
     1
 73
     1
 93
       10
 10
6.677527194323886
 20
-4.138839615245061
 42
-0.0759023682782946
 10
6.566982042139159
 20
-4.423877995135413
 42
-0.2200816587143609
 10
6.300965840747892
 20
-4.599996581122823
 42
-0.1552209024106451
 10
6.095458780820706
 20
-4.534235363900407
 42
-0.2297088204471921
 10
6.019242210293441
 20
-4.338318807139089
 42
-0.0336344069359854
 10
6.05840294270996
 20
-4.066696381694796
 42
-0.0476503727704049
 10
6.143663624704515
 20
-3.862071844709262
 42
-0.1164757194866423
 10
6.339107330614126
 20
-3.691551275783936
 42
-0.2102767852864467
 10
6.596864975328571
 20
-3.697069810236698
 42
-0.1775077200810246
 10
6.697202341601666
 20
-3.873877008374407
 42
-0.1210907755229007
 97
        0
 92
        7
 72
     1
 73
     1
 93
       15
 10
7.838830780765817
 20
-3.892727417841783
 42
-0.1681505465179636
 10
8.02377642936608
 20
-3.703880319999441
 42
-0.2432435292261799
 10
8.281574371587225
 20
-3.72870599191637
 42
-0.2718544080325296
 10
8.335404748458813
 20
-3.906094591215861
 42
0.0
 10
8.146108343588196
 20
-4.812580118669558
 42
0.0
 10
8.546331920673253
 20
-4.812580118669586
 42
0.0
 10
8.739633487848607
 20
-3.843814600173075
 42
0.1869559109727573
 10
8.708571975710412
 20
-3.55414738959827
 42
0.2282764169136722
 10
8.434241485182553
 20
-3.416409065064058
 42
0.1548211452724478
 10
8.093504447587747
 20
-3.482973954396229
 42
0.0984224330473456
 10
7.891562384976282
 20
-3.640211074021777
 42
0.0
 10
7.935547234632508
 20
-3.429580398453509
 42
0.0
 10
7.539244758992822
 20
-3.429580398453509
 42
0.0
 10
7.250440506696122
 20
-4.812580118669558
 42
0.0
 10
7.646742982335752
 20
-4.812580118669572
 42
0.0
 97
        0
 92
        7
 72
     0
 73
     1
 93
        4
 10
9.625982522468632
 20
-3.429580398453524
 10
9.229680046829003
 20
-3.429580398453509
 10
8.940875794532303
 20
-4.812580118669558
 10
9.337178270172046
 20
-4.8125801186696
 97
        0
 92
        7
 72
     0
 73
     1
 93
        4
 10
9.745922131544659
 20
-2.855224430784318
 10
9.34961965590503
 20
-2.855224430784332
 10
9.27698869286246
 20
-3.203033026980861
 10
9.673291168502146
 20
-3.203033026980861
 97
        0
 92
        7
 72
     0
 73
     1
 93
        4
 10
12.03240295060681
 20
-3.429580398453509
 10
11.44364835907379
 20
-3.429580398453495
 10
10.87989922911413
 20
-3.888285852559178
 10
11.10949294143216
 20
-4.156570318460708
 97
        0
 92
        7
 72
     0
 73
     1
 93
        4
 10
11.05743489431273
 20
-4.407247884316163
 10
10.70348876138359
 20
-4.686056509542012
 10
11.02721331439767
 20
-5.064334590103314
 10
11.61975957304332
 20
-5.064334590103271
 97
        0
 75
     0
 76
     1
 47
0.0237982239116982
 98
       11
 10
1.427474595215414
 20
-3.466921616530399
 10
2.540276924309466
 20
-3.529962242013326
 10
3.403077140388461
 20
-3.872105201460513
 10
5.128677572546564
 20
-4.050614633904856
 10
6.869154243317836
 20
-3.872105201460513
 10
6.869154243317836
 20
-3.872105201460513
 10
7.657574707896685
 20
-4.18449635002436
 10
9.221850949254132
 20
-4.184360945182802
 10
9.578826617252673
 20
-3.161037064634811
 10
11.41130113635171
 20
-3.803588918816572
 10
11.19711616802232
 20
-4.874509392213795
450
        0
451
        0
460
0.0
461
0.0
452
        0
462
0.0
453
        0
470

1001
ACAD
1010
0.0
1020
0.0
1030
0.0
  0
ENDBLK
  5
3DF6
330
3DF0
100
AcDbEntity
  8
0
 62
     1
100
AcDbBlockEnd
  0
BLOCK
  5
3DFA
330
3DF7
100
AcDbEntity
  8
0
 62
     1
100
AcDbBlockBegin
  2
A$C25042B23
 70
     0
 10
0.0
 20
0.0
 30
0.0
  3
A$C25042B23
  1

  0
INSERT
  5
3DFB
330
3DF7
100
AcDbEntity
  8
0
 62
     1
100
AcDbBlockReference
  2
A$C53560A2D
 10
0.0000000000001137
 20
0.0
 30
0.0
  0
ENDBLK
  5
3DFC
330
3DF7
100
AcDbEntity
  8
0
 62
     1
100
AcDbBlockEnd
  0
BLOCK
  5
3DFE
330
3DFD
100
AcDbEntity
  8
0
100
AcDbBlockBegin
  2
_FILLED
 70
     0
 10
0.0
 20
0.0
 30
0.0
  3
_FILLED
  1

  0
SOLID
  5
3DFF
330
3DFD
100
AcDbEntity
  8
0
  6
ByBlock
 62
     0
100
AcDbTrace
 10
0.0
 20
0.0
 30
0.0
 11
-1.0
 21
0.1875
 31
0.0
 12
-1.0
 22
-0.1875
 32
0.0
 13
-1.0
 23
-0.1875
 33
0.0
  0
ENDBLK
  5
3E00
330
3DFD
100
AcDbEntity
  8
0
  6
ByBlock
 62
     0
100
AcDbBlockEnd
  0
BLOCK
  5
3E02
330
3E01
100
AcDbEntity
  8
0
100
AcDbBlockBegin
  2
*D67
 70
     1
 10
0.0
 20
0.0
 30
0.0
  3
*D67
  1

  0
LINE
  5
3E03
330
3E01
100
AcDbEntity
  8
0
  6
Continuous
 62
     0
370
    -2
100
AcDbLine
 10
1802.555021500383
 20
-480.9336425058048
 30
0.0
 11
1802.555021500383
 21
-488.3557146914714
 31
0.0
  0
LINE
  5
3E04
330
3E01
100
AcDbEntity
  8
0
  6
Continuous
 62
     0
370
    -2
100
AcDbLine
 10
1847.055021181983
 20
-481.2336410539381
 30
0.0
 11
1847.055021181983
 21
-488.3557146914714
 31
0.0
  0
LINE
  5
3E05
330
3E01
100
AcDbEntity
  8
0
  6
Continuous
 62
     0
370
    -2
100
AcDbLine
 10
1806.555021500383
 20
-488.1757146914714
 30
0.0
 11
1843.055021181983
 21
-488.1757146914714
 31
0.0
  0
INSERT
  5
3E06
330
3E01
100
AcDbEntity
  8
0
  6
Continuous
 62
     0
370
    -2
100
AcDbBlockReference
  2
_FILLED
 10
1802.555021500383
 20
-488.1757146914714
 30
0.0
 41
4.0
 42
4.0
 43
4.0
 50
180.0
  0
INSERT
  5
3E07
330
3E01
100
AcDbEntity
  8
0
  6
Continuous
 62
     0
370
    -2
100
AcDbBlockReference
  2
_FILLED
 10
1847.055021181983
 20
-488.1757146914714
 30
0.0
 41
4.0
 42
4.0
 43
4.0
  0
MTEXT
  5
3E08
330
3E01
100
AcDbEntity
  8
0
  6
Continuous
 62
     5
100
AcDbMText
 10
1824.805021341183
 20
-486.6857146914714
 30
0.0
 40
2.799999999999999
 41
0.0
 46
0.0
 71
     5
 72
     1
  1
\A1;29.67±0.3
 73
     1
 44
1.0
  0
POINT
  5
3E09
330
3E01
100
AcDbEntity
  8
Defpoints
  6
Continuous
 62
     0
100
AcDbPoint
 10
1802.555021500383
 20
-480.8711425058048
 30
0.0
  0
POINT
  5
3E0A
330
3E01
100
AcDbEntity
  8
Defpoints
  6
Continuous
 62
     0
100
AcDbPoint
 10
1847.055021181983
 20
-481.1711410539381
 30
0.0
  0
POINT
  5
3E0B
330
3E01
100
AcDbEntity
  8
Defpoints
  6
Continuous
 62
     0
100
AcDbPoint
 10
1847.055021181983
 20
-488.1757146914714
 30
0.0
  0
ENDBLK
  5
3E0C
330
3E01
100
AcDbEntity
  8
0
100
AcDbBlockEnd
  0
BLOCK
  5
3E10
330
3E0D
100
AcDbEntity
  8
0
100
AcDbBlockBegin
  2
A$C274A2516
 70
     0
 10
0.0
 20
0.0
 30
0.0
  3
A$C274A2516
  1

  0
DIMENSION
  5
3E11
330
3E0D
100
AcDbEntity
  8
0
  6
Continuous
 62
     2
100
AcDbDimension
  2
*D67
 10
49.41318594722497
 20
1.185548929283584
 30
0.0
 11
27.1631861064252
 21
1.185548929283584
 31
0.0
 12
-1797.641835234758
 22
489.361263620755
 32
0.0
 70
   128
 71
     0
 72
     0
 41
0.0
 42
29.66666645588333
 73
     0
 74
     0
 75
     0
  3
DIMSTYLE_8
100
AcDbAlignedDimension
 13
4.913186265624972
 23
8.490121114950227
 33
0.0
 14
49.41318594722497
 24
8.19012256681691
 34
0.0
100
AcDbRotatedDimension
  0
LINE
  5
3E12
330
3E0D
100
AcDbEntity
  8
0
  6
Continuous
 62
     7
100
AcDbLine
 10
4.913186265624972
 20
30.62336891321689
 30
0.0
 11
4.913186265624972
 21
9.023539983350246
 31
0.0
  0
LINE
  5
3E13
330
3E0D
100
AcDbEntity
  8
0
  6
Continuous
 62
     7
100
AcDbLine
 10
5.113185485291523
 20
30.82345444728361
 30
0.0
 11
5.113185485291523
 21
8.823454449283588
 31
0.0
  0
LINE
  5
3E14
330
3E0D
100
AcDbEntity
  8
0
  6
Continuous
 62
     7
100
AcDbLine
 10
4.913187226958598
 20
30.62345408315025
 30
0.0
 11
5.11318663495831
 21
30.82345346661691
 31
0.0
  0
LINE
  5
3E15
330
3E0D
100
AcDbEntity
  8
0
  6
Continuous
 62
     7
100
AcDbLine
 10
4.913187226958598
 20
9.023454813416947
 30
0.0
 11
5.11318663495831
 21
8.823455429950229
 31
0.0
  0
LWPOLYLINE
  5
3E16
330
3E0D
100
AcDbEntity
  8
0
  6
Continuous
 62
     7
100
AcDbPolyline
 90
        3
 70
     0
 43
0.0
 10
8.213186495558602
 20
10.47664903488356
 10
8.175811462891488
 20
10.67089466321692
 10
8.163188469091892
 20
10.85374136828358
  0
LINE
  5
3E17
330
3E0D
100
AcDbEntity
  8
0
  6
Continuous
 62
     7
100
AcDbLine
 10
7.713187482491775
 20
30.82345444728361
 30
0.0
 11
7.713187482491775
 21
8.823454449283588
 31
0.0
  0
LINE
  5
3E18
330
3E0D
100
AcDbEntity
  8
0
  6
Continuous
 62
     7
100
AcDbLine
 10
7.913186265624972
 20
30.62337005035028
 30
0.0
 11
7.913186265624972
 21
9.023538846216922
 31
0.0
  0
LINE
  5
3E19
330
3E0D
100
AcDbEntity
  8
0
  6
Continuous
 62
     7
100
AcDbLine
 10
8.213190692692023
 20
8.823454448283598
 30
0.0
 11
8.213188470958357
 21
10.47664542421694
 31
0.0
  0
LINE
  5
3E1A
330
3E0D
100
AcDbEntity
  8
0
  6
Continuous
 62
     7
100
AcDbLine
 10
8.21318847575867
 20
29.17026347688358
 30
0.0
 11
8.213190692692023
 21
30.8234544482836
 31
0.0
  0
LINE
  5
3E1B
330
3E0D
100
AcDbEntity
  8
0
  6
Continuous
 62
     7
100
AcDbLine
 10
8.213188774424907
 20
11.17667091475027
 30
0.0
 11
8.213186622558623
 21
28.47024295441696
 31
0.0
  0
LINE
  5
3E1C
330
3E0D
100
AcDbEntity
  8
0
  6
Continuous
 62
     7
100
AcDbLine
 10
9.163186265624972
 20
28.92428466195026
 30
0.0
 11
9.163186265624972
 21
28.58013880015028
 31
0.0
  0
LINE
  5
3E1D
330
3E0D
100
AcDbEntity
  8
0
  6
Continuous
 62
     7
100
AcDbLine
 10
9.163186265624972
 20
11.06677009641692
 30
0.0
 11
9.163186265624972
 21
10.72262423461694
 31
0.0
  0
LINE
  5
3E1E
330
3E0D
100
AcDbEntity
  8
0
  6
Continuous
 62
     7
100
AcDbLine
 10
10.11318626562524
 20
29.46918227648359
 30
0.0
 11
10.11318626562524
 21
28.6785390486836
 31
0.0
  0
LINE
  5
3E1F
330
3E0D
100
AcDbEntity
  8
0
  6
Continuous
 62
     7
100
AcDbLine
 10
10.11318626562524
 20
28.58013880015028
 30
0.0
 11
10.11318626562524
 21
28.03524118561694
 31
0.0
  0
LINE
  5
3E20
330
3E0D
100
AcDbEntity
  8
0
  6
Continuous
 62
     7
100
AcDbLine
 10
10.11318626562524
 20
11.61166771095025
 30
0.0
 11
10.11318626562524
 21
11.06677009641692
 31
0.0
  0
LINE
  5
3E21
330
3E0D
100
AcDbEntity
  8
0
  6
Continuous
 62
     7
100
AcDbLine
 10
10.11318626562524
 20
10.1777266200836
 30
0.0
 11
10.11318626562524
 21
10.96836984788359
 31
0.0
  0
LINE
  5
3E22
330
3E0D
100
AcDbEntity
  8
0
  6
Continuous
 62
     7
100
AcDbLine
 10
10.71318626562515
 20
10.1777266200836
 30
0.0
 11
10.71318626562515
 21
10.96836984788359
 31
0.0
  0
LINE
  5
3E23
330
3E0D
100
AcDbEntity
  8
0
  6
Continuous
 62
     7
100
AcDbLine
 10
10.71318626562515
 20
11.06677009641692
 30
0.0
 11
10.71318626562515
 21
11.61166771095025
 31
0.0
  0
LINE
  5
3E24
330
3E0D
100
AcDbEntity
  8
0
  6
Continuous
 62
     7
100
AcDbLine
 10
10.71318626562515
 20
28.03524118561694
 30
0.0
 11
10.71318626562515
 21
28.58013880015028
 31
0.0
  0
LINE
  5
3E25
330
3E0D
100
AcDbEntity
  8
0
  6
Continuous
 62
     7
100
AcDbLine
 10
10.71318626562515
 20
28.6785390486836
 30
0.0
 11
10.71318626562515
 21
29.46918227648359
 31
0.0
  0
LWPOLYLINE
  5
3E26
330
3E0D
100
AcDbEntity
  8
0
  6
Continuous
 62
     7
100
AcDbPolyline
 90
        3
 70
     0
 43
0.0
 10
8.163188469091892
 20
28.79316752828362
 10
8.17583730295837
 20
28.9762081701503
 10
8.213186495224817
 20
29.17025986061691
  0
LWPOLYLINE
  5
3E27
330
3E0D
100
AcDbEntity
  8
0
  6
Continuous
 62
     7
100
AcDbPolyline
 90
        3
 70
     0
 43
0.0
 10
8.163188469091892
 20
10.85374136828358
 10
8.175650471758217
 20
11.02190699701691
 10
8.213186521692023
 20
11.17666580955023
  0
LWPOLYLINE
  5
3E28
330
3E0D
100
AcDbEntity
  8
0
  6
Continuous
 62
     7
100
AcDbPolyline
 90
        4
 70
     0
 43
0.0
 10
8.21318847575867
 20
29.17026347688358
 10
8.377277491491895
 20
29.35729460461693
 10
8.610037768691654
 20
29.51662803501694
 10
8.764919697225195
 20
29.58531678115026
  0
LINE
  5
3E29
330
3E0D
100
AcDbEntity
  8
0
  6
Continuous
 62
     7
100
AcDbLine
 10
7.913186265624972
 20
30.52345381181692
 30
0.0
 11
8.213190692692023
 21
30.82345822101689
 31
0.0
  0
LINE
  5
3E2A
330
3E0D
100
AcDbEntity
  8
0
  6
Continuous
 62
     7
100
AcDbLine
 10
7.913186265624972
 20
9.123458754616933
 30
0.0
 11
8.213190692692023
 21
8.823454448283598
 31
0.0
  0
LWPOLYLINE
  5
3E2B
330
3E0D
100
AcDbEntity
  8
0
  6
Continuous
 62
     7
100
AcDbPolyline
 90
        3
 70
     0
 43
0.0
 10
8.213186301024961
 20
28.4702436676169
 10
8.175676291091804
 20
28.62482283895025
 10
8.163188469091892
 20
28.79316752828362
  0
LINE
  5
3E2C
330
3E0D
100
AcDbEntity
  8
0
  6
Continuous
 62
     7
100
AcDbLine
 10
11.66318626562497
 20
10.72262423461694
 30
0.0
 11
11.66318626562497
 21
11.06677009641692
 31
0.0
  0
LINE
  5
3E2D
330
3E0D
100
AcDbEntity
  8
0
  6
Continuous
 62
     7
100
AcDbLine
 10
11.66318626562497
 20
28.58013880015028
 30
0.0
 11
11.66318626562497
 21
28.92428466195026
 31
0.0
  0
LWPOLYLINE
  5
3E2E
330
3E0D
100
AcDbEntity
  8
0
  6
Continuous
 62
     7
100
AcDbPolyline
 90
        6
 70
     0
 43
0.0
 10
12.71318626562515
 20
10.8127819610836
 10
12.67443109789155
 20
10.5988917218836
 10
12.5559666740919
 20
10.39820804301695
 10
12.36716347122501
 20
10.22491104148361
 10
12.12976482955855
 20
10.08585990861689
 10
12.05166921982481
 20
10.05490441075022
  0
LWPOLYLINE
  5
3E2F
330
3E0D
100
AcDbEntity
  8
0
  6
Continuous
 62
     7
100
AcDbPolyline
 90
        4
 70
     0
 43
0.0
 10
12.71318626562515
 20
28.8341269354836
 10
12.66649113462517
 20
28.58702137181694
 10
12.53107403609192
 20
28.3411981496169
 10
12.31666526162507
 20
28.10848064181693
  0
LINE
  5
3E30
330
3E0D
100
AcDbEntity
  8
0
  6
Continuous
 62
     7
100
AcDbLine
 10
12.31666526162507
 20
28.10848064181693
 30
0.0
 11
12.03189305542537
 21
27.89767473495027
 31
0.0
  0
LWPOLYLINE
  5
3E31
330
3E0D
100
AcDbEntity
  8
0
  6
Continuous
 62
     7
100
AcDbPolyline
 90
       21
 70
     0
 43
0.0
 10
12.01340827709191
 20
27.88626525815022
 10
12.17785728969193
 20
27.99867631768359
 10
12.31844215395858
 20
28.1212776510169
 10
12.43326170075852
 20
28.25241128548356
 10
12.52076319275829
 20
28.39030386348355
 10
12.57976332229191
 20
28.53309062461693
 10
12.60946421382505
 20
28.67884062275022
 10
12.60946421382505
 20
28.82558283928359
 10
12.57976332229191
 20
28.97133283748355
 10
12.52076319275829
 20
29.1141195985503
 10
12.43326170075852
 20
29.25201217661692
 10
12.31844215395858
 20
29.3831458110169
 10
12.17785728969193
 20
29.50574714435021
 10
12.01340827709191
 20
29.61815820388358
 10
11.82731900695853
 20
29.71885882295027
 10
11.62210601735842
 20
29.80648719828361
 10
11.40054446209205
 20
29.87985830655026
 10
11.16563058095835
 20
29.93797992935026
 10
10.92054118129181
 20
29.98006607141696
 10
10.66859067669202
 20
30.00554758995026
 10
10.41318626562497
 20
30.01407989101693
  0
LINE
  5
3E32
330
3E0D
100
AcDbEntity
  8
0
  6
Continuous
 62
     7
100
AcDbLine
 10
12.03189305542537
 20
27.89767473495027
 30
0.0
 11
11.97977812602539
 21
27.86622437968361
 31
0.0
  0
LINE
  5
3E33
330
3E0D
100
AcDbEntity
  8
0
  6
Continuous
 62
     7
100
AcDbLine
 10
11.98388822782499
 20
27.86866520768359
 30
0.0
 11
12.01340827709191
 21
27.88626525815022
 31
0.0
  0
LWPOLYLINE
  5
3E34
330
3E0D
100
AcDbEntity
  8
0
  6
Continuous
 62
     7
100
AcDbPolyline
 90
        4
 70
     0
 43
0.0
 10
8.769914140758373
 20
10.05817810475025
 10
8.601865428958717
 20
10.13479476535025
 10
8.377584375958576
 20
10.28934797315026
 10
8.213188470958357
 20
10.47664542421694
  0
LINE
  5
3E35
330
3E0D
100
AcDbEntity
  8
0
  6
Continuous
 62
     7
100
AcDbLine
 10
11.98388822782499
 20
11.7782436888836
 30
0.0
 11
11.82731900695853
 21
11.86134425741693
 31
0.0
  0
LINE
  5
3E36
330
3E0D
100
AcDbEntity
  8
0
  6
Continuous
 62
     7
100
AcDbLine
 10
12.01340827709191
 20
11.76064363841692
 30
0.0
 11
11.98388822782499
 21
11.7782436888836
 31
0.0
  0
LINE
  5
3E37
330
3E0D
100
AcDbEntity
  8
0
  6
Continuous
 62
     7
100
AcDbLine
 10
11.98019621955836
 20
11.78028050148356
 30
0.0
 11
12.0739060570254
 21
11.72254413188358
 31
0.0
  0
LWPOLYLINE
  5
3E38
330
3E0D
100
AcDbEntity
  8
0
  6
Continuous
 62
     7
100
AcDbPolyline
 90
        5
 70
     0
 43
0.0
 10
12.0739060570254
 20
11.72254413188358
 10
12.34085617735855
 20
11.51650455168357
 10
12.53970442229183
 20
11.29378797568358
 10
12.6674515269583
 20
11.05729195595023
 10
12.71318626562515
 20
10.8127819610836
  0
LWPOLYLINE
  5
3E39
330
3E0D
100
AcDbEntity
  8
0
  6
Continuous
 62
     7
100
AcDbPolyline
 90
        3
 70
     0
 43
0.0
 10
8.213188774424907
 20
11.17667091475027
 10
8.378099694958564
 20
11.40762558268358
 10
8.611091128691896
 20
11.62239074941692
  0
LINE
  5
3E3A
330
3E0D
100
AcDbEntity
  8
0
  6
Continuous
 62
     7
100
AcDbLine
 10
11.82731900695853
 20
27.78556463915021
 30
0.0
 11
11.98388822782499
 21
27.86866520768359
 31
0.0
  0
LWPOLYLINE
  5
3E3B
330
3E0D
100
AcDbEntity
  8
0
  6
Continuous
 62
     7
100
AcDbPolyline
 90
        8
 70
     0
 43
0.0
 10
11.97977812602539
 20
27.86622437968361
 10
11.68366860235846
 20
27.71753302475025
 10
11.26093544162495
 20
27.57328605748359
 10
10.77782911862505
 20
27.48484447441689
 10
10.27437961162513
 20
27.46812908748359
 10
9.778741541358158
 20
27.52504237128363
 10
9.329011910491772
 20
27.64532754215025
 10
8.951168479492025
 20
27.80833628295028
  0
LINE
  5
3E3C
330
3E0D
100
AcDbEntity
  8
0
  6
Continuous
 62
     7
100
AcDbLine
 10
11.62210601735842
 20
27.69793626375025
 30
0.0
 11
11.82731900695853
 21
27.78556463915021
 31
0.0
  0
LWPOLYLINE
  5
3E3D
330
3E0D
100
AcDbEntity
  8
0
  6
Continuous
 62
     7
100
AcDbPolyline
 90
        6
 70
     0
 43
0.0
 10
11.62210601735842
 20
11.94897263281694
 10
11.40054446209205
 20
12.0223437410836
 10
11.16563058095835
 20
12.0804653638836
 10
10.92054118129181
 20
12.12255150595024
 10
10.66859067669202
 20
12.14803302441692
 10
10.41318626562497
 20
12.1565653254836
  0
LINE
  5
3E3E
330
3E0D
100
AcDbEntity
  8
0
  6
Continuous
 62
     7
100
AcDbLine
 10
11.82731900695853
 20
11.86134425741693
 30
0.0
 11
11.62210601735842
 21
11.94897263281694
 31
0.0
  0
LINE
  5
3E3F
330
3E0D
100
AcDbEntity
  8
0
  6
Continuous
 62
     7
100
AcDbLine
 10
7.913185039758445
 20
9.023454759816956
 30
0.0
 11
7.713185951958166
 21
8.8234557004169
 31
0.0
  0
LWPOLYLINE
  5
3E40
330
3E0D
100
AcDbEntity
  8
0
  6
Continuous
 62
     7
100
AcDbPolyline
 90
       21
 70
     0
 43
0.0
 10
41.41318626562497
 20
9.632829005550263
 10
41.66859067669202
 20
9.641361306616943
 10
41.9205411812918
 20
9.66684282515024
 10
42.16563058095835
 20
9.708928967216934
 10
42.40054446209206
 20
9.767050590016935
 10
42.62210601735842
 20
9.840421698283591
 10
42.82731900695853
 20
9.92805007361693
 10
43.01340827709191
 20
10.02875069268361
 10
43.17785728969193
 20
10.14116175221693
 10
43.31844215395858
 20
10.26376308555024
 10
43.43326170075852
 20
10.39489671995028
 10
43.5207631927583
 20
10.53278929801695
 10
43.57976332229191
 20
10.67557605908359
 10
43.60946421382505
 20
10.82132605728361
 10
43.60946421382505
 20
10.96806827381692
 10
43.57976332229191
 20
11.11381827195026
 10
43.5207631927583
 20
11.25660503308359
 10
43.43326170075852
 20
11.39449761108358
 10
43.31844215395858
 20
11.5256312455503
 10
43.17785728969193
 20
11.64823257888361
 10
43.01340827709191
 20
11.76064363841692
  0
LWPOLYLINE
  5
3E41
330
3E0D
100
AcDbEntity
  8
0
  6
Continuous
 62
     7
100
AcDbPolyline
 90
       21
 70
     0
 43
0.0
 10
10.41318626562497
 20
9.632829005550263
 10
10.66859067669202
 20
9.641361306616943
 10
10.92054118129181
 20
9.66684282515024
 10
11.16563058095835
 20
9.708928967216934
 10
11.40054446209205
 20
9.767050590016935
 10
11.62210601735842
 20
9.840421698283591
 10
11.82731900695853
 20
9.92805007361693
 10
12.01340827709191
 20
10.02875069268361
 10
12.17785728969193
 20
10.14116175221693
 10
12.31844215395858
 20
10.26376308555024
 10
12.43326170075852
 20
10.39489671995028
 10
12.52076319275829
 20
10.53278929801695
 10
12.57976332229191
 20
10.67557605908359
 10
12.60946421382505
 20
10.82132605728361
 10
12.60946421382505
 20
10.96806827381692
 10
12.57976332229191
 20
11.11381827195026
 10
12.52076319275829
 20
11.25660503308359
 10
12.43326170075852
 20
11.39449761108358
 10
12.31844215395858
 20
11.5256312455503
 10
12.17785728969193
 20
11.64823257888361
 10
12.01340827709191
 20
11.76064363841692
  0
LINE
  5
3E42
330
3E0D
100
AcDbEntity
  8
02___PRT_ALL_AXES
  6
Continuous
 62
     7
100
AcDbLine
 10
49.21318626562515
 20
8.323454448283598
 30
0.0
 11
44.11318626562525
 21
8.323454448283598
 31
0.0
  0
LINE
  5
3E43
330
3E0D
100
AcDbEntity
  8
02___PRT_ALL_AXES
  6
Continuous
 62
     7
100
AcDbLine
 10
43.61319140775822
 20
8.823454448283598
 30
0.0
 11
8.213190692692023
 21
8.823454448283598
 31
0.0
  0
LINE
  5
3E44
330
3E0D
100
AcDbEntity
  8
02___PRT_ALL_AXES
  6
Continuous
 62
     7
100
AcDbLine
 10
5.113185653358414
 20
8.823454448283598
 30
0.0
 11
7.713187204091809
 21
8.823454448283598
 31
0.0
  0
LINE
  5
3E45
330
3E0D
100
AcDbEntity
  8
0
  6
Continuous
 62
     7
100
AcDbLine
 10
10.11318626562524
 20
10.1777266200836
 30
0.0
 11
10.71318626562515
 21
10.1777266200836
 31
0.0
  0
LINE
  5
3E46
330
3E0D
100
AcDbEntity
  8
0
  6
Continuous
 62
     7
100
AcDbLine
 10
41.11318626562524
 20
10.1777266200836
 30
0.0
 11
41.71318626562515
 21
10.1777266200836
 31
0.0
  0
LINE
  5
3E47
330
3E0D
100
AcDbEntity
  8
0
  6
Continuous
 62
     7
100
AcDbLine
 10
10.11318626562524
 20
10.42347223335025
 30
0.0
 11
10.71318626562515
 21
10.42347223335025
 31
0.0
  0
LINE
  5
3E48
330
3E0D
100
AcDbEntity
  8
0
  6
Continuous
 62
     7
100
AcDbLine
 10
41.11318626562524
 20
10.42347223335025
 30
0.0
 11
41.71318626562515
 21
10.42347223335025
 31
0.0
  0
LINE
  5
3E49
330
3E0D
100
AcDbEntity
  8
0
  6
Continuous
 62
     7
100
AcDbLine
 10
9.163186265624972
 20
10.72262423461694
 30
0.0
 11
10.11318626562524
 21
10.72262423461694
 31
0.0
  0
LINE
  5
3E4A
330
3E0D
100
AcDbEntity
  8
0
  6
Continuous
 62
     7
100
AcDbLine
 10
10.71318626562515
 20
10.72262423461694
 30
0.0
 11
11.66318626562497
 21
10.72262423461694
 31
0.0
  0
LINE
  5
3E4B
330
3E0D
100
AcDbEntity
  8
0
  6
Continuous
 62
     7
100
AcDbLine
 10
40.16318626562497
 20
10.72262423461694
 30
0.0
 11
41.11318626562524
 21
10.72262423461694
 31
0.0
  0
LINE
  5
3E4C
330
3E0D
100
AcDbEntity
  8
0
  6
Continuous
 62
     7
100
AcDbLine
 10
41.71318626562515
 20
10.72262423461694
 30
0.0
 11
42.66318626562497
 21
10.72262423461694
 31
0.0
  0
LINE
  5
3E4D
330
3E0D
100
AcDbEntity
  8
0
  6
Continuous
 62
     7
100
AcDbLine
 10
9.163186265624972
 20
10.96836984788359
 30
0.0
 11
10.11318626562524
 21
10.96836984788359
 31
0.0
  0
LINE
  5
3E4E
330
3E0D
100
AcDbEntity
  8
0
  6
Continuous
 62
     7
100
AcDbLine
 10
10.71318626562515
 20
10.96836984788359
 30
0.0
 11
11.66318626562497
 21
10.96836984788359
 31
0.0
  0
LINE
  5
3E4F
330
3E0D
100
AcDbEntity
  8
0
  6
Continuous
 62
     7
100
AcDbLine
 10
40.16318626562497
 20
10.96836984788359
 30
0.0
 11
41.11318626562524
 21
10.96836984788359
 31
0.0
  0
LINE
  5
3E50
330
3E0D
100
AcDbEntity
  8
0
  6
Continuous
 62
     7
100
AcDbLine
 10
41.71318626562515
 20
10.96836984788359
 30
0.0
 11
42.66318626562497
 21
10.96836984788359
 31
0.0
  0
LINE
  5
3E51
330
3E0D
100
AcDbEntity
  8
0
  6
Continuous
 62
     7
100
AcDbLine
 10
42.66318626562497
 20
11.06677009641692
 30
0.0
 11
41.71318626562515
 21
11.06677009641692
 31
0.0
  0
LINE
  5
3E52
330
3E0D
100
AcDbEntity
  8
0
  6
Continuous
 62
     7
100
AcDbLine
 10
41.11318626562524
 20
11.06677009641692
 30
0.0
 11
40.16318626562497
 21
11.06677009641692
 31
0.0
  0
LINE
  5
3E53
330
3E0D
100
AcDbEntity
  8
0
  6
Continuous
 62
     7
100
AcDbLine
 10
11.66318626562497
 20
11.06677009641692
 30
0.0
 11
10.71318626562515
 21
11.06677009641692
 31
0.0
  0
LINE
  5
3E54
330
3E0D
100
AcDbEntity
  8
0
  6
Continuous
 62
     7
100
AcDbLine
 10
10.11318626562524
 20
11.06677009641692
 30
0.0
 11
9.163186265624972
 21
11.06677009641692
 31
0.0
  0
LINE
  5
3E55
330
3E0D
100
AcDbEntity
  8
0
  6
Continuous
 62
     7
100
AcDbLine
 10
41.71318626562515
 20
11.61166771095025
 30
0.0
 11
41.11318626562524
 21
11.61166771095025
 31
0.0
  0
LINE
  5
3E56
330
3E0D
100
AcDbEntity
  8
0
  6
Continuous
 62
     7
100
AcDbLine
 10
10.71318626562515
 20
11.61166771095025
 30
0.0
 11
10.11318626562524
 21
11.61166771095025
 31
0.0
  0
LWPOLYLINE
  5
3E57
330
3E0D
100
AcDbEntity
  8
0
  6
Continuous
 62
     7
100
AcDbPolyline
 90
       21
 70
     0
 43
0.0
 10
10.41318626562497
 20
9.632829005550263
 10
10.15778185455838
 20
9.641361306616943
 10
9.905831350024982
 20
9.66684282515024
 10
9.660741950292049
 20
9.708928967216934
 10
9.42582806922519
 20
9.767050590016935
 10
9.20426651389198
 20
9.840421698283591
 10
8.999053524291866
 20
9.92805007361693
 10
8.812964254158487
 20
10.02875069268361
 10
8.64851524155847
 20
10.14116175221693
 10
8.507930377291813
 20
10.26376308555024
 10
8.393110830491878
 20
10.39489671995028
 10
8.305609338558497
 20
10.53278929801695
 10
8.246609209024882
 20
10.67557605908359
 10
8.21690831742535
 20
10.82132605728361
 10
8.21690831742535
 20
10.96806827381692
 10
8.246609209024882
 20
11.11381827195026
 10
8.305609338558497
 20
11.25660503308359
 10
8.393110830491878
 20
11.39449761108358
 10
8.507930377291813
 20
11.5256312455503
 10
8.64851524155847
 20
11.64823257888361
 10
8.812964254158487
 20
11.76064363841692
  0
LWPOLYLINE
  5
3E58
330
3E0D
100
AcDbEntity
  8
0
  6
Continuous
 62
     7
100
AcDbPolyline
 90
       10
 70
     0
 43
0.0
 10
41.41318626562497
 20
9.632829005550263
 10
41.15778185455837
 20
9.641361306616943
 10
40.90583135002498
 20
9.66684282515024
 10
40.66074195029204
 20
9.708928967216934
 10
40.42582806922519
 20
9.767050590016935
 10
40.20426651389198
 20
9.840421698283591
 10
39.99905352429187
 20
9.92805007361693
 10
39.81296425415849
 20
10.02875069268361
 10
39.64851524155847
 20
10.14116175221693
 10
39.50793037729182
 20
10.26376308555024
  0
LINE
  5
3E59
330
3E0D
100
AcDbEntity
  8
0
  6
Continuous
 62
     7
100
AcDbLine
 10
7.913185039758445
 20
30.62345413675024
 30
0.0
 11
7.713185951958166
 21
30.82345319615024
 31
0.0
  0
LINE
  5
3E5A
330
3E0D
100
AcDbEntity
  8
0
  6
Continuous
 62
     7
100
AcDbLine
 10
8.611091128691896
 20
11.62239074941692
 30
0.0
 11
8.846855555958427
 21
11.78085906961695
 31
0.0
  0
LINE
  5
3E5B
330
3E0D
100
AcDbEntity
  8
0
  6
Continuous
 62
     7
100
AcDbLine
 10
8.812964254158487
 20
11.76064363841692
 30
0.0
 11
8.842484303424953
 21
11.7782436888836
 31
0.0
  0
LWPOLYLINE
  5
3E5C
330
3E0D
100
AcDbEntity
  8
0
  6
Continuous
 62
     7
100
AcDbPolyline
 90
       10
 70
     0
 43
0.0
 10
8.846855555958427
 20
11.78085906961695
 10
8.909865266558426
 20
11.81646682221691
 10
9.268224909958462
 20
11.9796173426169
 10
9.669420999091926
 20
12.09903001928359
 10
10.09046133275842
 20
12.16631348475022
 10
10.51934873755863
 20
12.17995032475028
 10
10.94555498662521
 20
12.13972932795025
 10
11.35820502309161
 20
12.04646390721694
 10
11.74243219462505
 20
11.90343902028354
 10
11.98019621955836
 20
11.78028050148356
  0
LINE
  5
3E5D
330
3E0D
100
AcDbEntity
  8
0
  6
Continuous
 62
     7
100
AcDbLine
 10
42.40054446209206
 20
27.6245651554836
 30
0.0
 11
42.62210601735842
 21
27.69793626375025
 31
0.0
  0
LINE
  5
3E5E
330
3E0D
100
AcDbEntity
  8
02___PRT_ALL_AXES
  6
Continuous
 62
     7
100
AcDbLine
 10
59.21318626562515
 20
12.8234544482836
 30
0.0
 11
49.41318626562497
 21
12.8234544482836
 31
0.0
  0
LINE
  5
3E5F
330
3E0D
100
AcDbEntity
  8
0
  6
Continuous
 62
     7
100
AcDbLine
 10
75.81325582075852
 20
13.55505757315023
 30
0.0
 11
76.2641004612251
 21
13.55505757315023
 31
0.0
  0
LINE
  5
3E60
330
3E0D
100
AcDbEntity
  8
02___PRT_ALL_AXES
  6
Continuous
 62
     7
100
AcDbLine
 10
62.71318626562515
 20
15.3234544482836
 30
0.0
 11
59.61318626562524
 21
15.3234544482836
 31
0.0
  0
LINE
  5
3E61
330
3E0D
100
AcDbEntity
  8
02___PRT_ALL_AXES
  6
Continuous
 62
     7
100
AcDbLine
 10
64.84464883915871
 20
15.3234544482836
 30
0.0
 11
72.54464883915852
 21
15.3234544482836
 31
0.0
  0
LWPOLYLINE
  5
3E62
330
3E0D
100
AcDbEntity
  8
02___PRT_ALL_AXES
  6
Continuous
 62
     7
100
AcDbPolyline
 90
        6
 70
     0
 43
0.0
 10
39.77301669529197
 20
10.05605731708357
 10
39.64442661809199
 20
10.11192043455025
 10
39.4255164399583
 20
10.25008211135025
 10
39.2544540539584
 20
10.41807823615028
 10
39.14794905195822
 20
10.60985040681692
 10
39.11318626562525
 20
10.8127819610836
  0
LINE
  5
3E63
330
3E0D
100
AcDbEntity
  8
0
  6
Continuous
 62
     7
100
AcDbLine
 10
8.999053524291866
 20
27.78556463915021
 30
0.0
 11
8.842484303424953
 21
27.86866520768359
 31
0.0
  0
LINE
  5
3E64
330
3E0D
100
AcDbEntity
  8
0
  6
Continuous
 62
     7
100
AcDbLine
 10
8.951168479492025
 20
27.80833628295028
 30
0.0
 11
8.846290845491694
 21
27.86628302555028
 31
0.0
  0
LINE
  5
3E65
330
3E0D
100
AcDbEntity
  8
0
  6
Continuous
 62
     7
100
AcDbLine
 10
8.842484303424953
 20
27.86866520768359
 30
0.0
 11
8.812964254158487
 21
27.88626525815022
 31
0.0
  0
LWPOLYLINE
  5
3E66
330
3E0D
100
AcDbEntity
  8
0
  6
Continuous
 62
     7
100
AcDbPolyline
 90
        4
 70
     0
 43
0.0
 10
8.846290845491694
 20
27.86628302555028
 10
8.637064237225331
 20
28.0047897214169
 10
8.387900010158318
 20
28.22842845488361
 10
8.213186622558623
 20
28.47024295441696
  0
LWPOLYLINE
  5
3E67
330
3E0D
100
AcDbEntity
  8
0
  6
Continuous
 62
     7
100
AcDbPolyline
 90
       21
 70
     0
 43
0.0
 10
8.812964254158487
 20
27.88626525815022
 10
8.64851524155847
 20
27.99867631768359
 10
8.507930377291813
 20
28.1212776510169
 10
8.393110830491878
 20
28.25241128548356
 10
8.305609338558497
 20
28.39030386348355
 10
8.246609209024882
 20
28.53309062461693
 10
8.21690831742535
 20
28.67884062275022
 10
8.21690831742535
 20
28.82558283928359
 10
8.246609209024882
 20
28.97133283748355
 10
8.305609338558497
 20
29.1141195985503
 10
8.393110830491878
 20
29.25201217661692
 10
8.507930377291813
 20
29.3831458110169
 10
8.64851524155847
 20
29.50574714435021
 10
8.812964254158487
 20
29.61815820388358
 10
8.999053524291866
 20
29.71885882295027
 10
9.20426651389198
 20
29.80648719828361
 10
9.42582806922519
 20
29.87985830655026
 10
9.660741950292049
 20
29.93797992935026
 10
9.905831350024982
 20
29.98006607141696
 10
10.15778185455838
 20
30.00554758995026
 10
10.41318626562497
 20
30.01407989101693
  0
LWPOLYLINE
  5
3E68
330
3E0D
100
AcDbEntity
  8
0
  6
Continuous
 62
     7
100
AcDbPolyline
 90
       11
 70
     0
 43
0.0
 10
39.39311083049188
 20
29.25201217661692
 10
39.50793037729182
 20
29.3831458110169
 10
39.64851524155847
 20
29.50574714435021
 10
39.81296425415849
 20
29.61815820388358
 10
39.99905352429187
 20
29.71885882295027
 10
40.20426651389198
 20
29.80648719828361
 10
40.42582806922519
 20
29.87985830655026
 10
40.66074195029204
 20
29.93797992935026
 10
40.90583135002498
 20
29.98006607141696
 10
41.15778185455837
 20
30.00554758995026
 10
41.41318626562497
 20
30.01407989101693
  0
LINE
  5
3E69
330
3E0D
100
AcDbEntity
  8
0
  6
Continuous
 62
     7
100
AcDbLine
 10
43.91318702595845
 20
31.12345368788357
 30
0.0
 11
44.11318703935831
 21
31.3234536744169
 31
0.0
  0
LWPOLYLINE
  5
3E6A
330
3E0D
100
AcDbEntity
  8
0
  6
Continuous
 62
     7
100
AcDbPolyline
 90
       21
 70
     0
 43
0.0
 10
43.01340827709191
 20
27.88626525815022
 10
43.17785728969193
 20
27.99867631768359
 10
43.31844215395858
 20
28.1212776510169
 10
43.43326170075852
 20
28.25241128548356
 10
43.5207631927583
 20
28.39030386348355
 10
43.57976332229191
 20
28.53309062461693
 10
43.60946421382505
 20
28.67884062275022
 10
43.60946421382505
 20
28.82558283928359
 10
43.57976332229191
 20
28.97133283748355
 10
43.5207631927583
 20
29.1141195985503
 10
43.43326170075852
 20
29.25201217661692
 10
43.31844215395858
 20
29.3831458110169
 10
43.17785728969193
 20
29.50574714435021
 10
43.01340827709191
 20
29.61815820388358
 10
42.82731900695853
 20
29.71885882295027
 10
42.62210601735842
 20
29.80648719828361
 10
42.40054446209206
 20
29.87985830655026
 10
42.16563058095835
 20
29.93797992935026
 10
41.9205411812918
 20
29.98006607141696
 10
41.66859067669202
 20
30.00554758995026
 10
41.41318626562497
 20
30.01407989101693
  0
LINE
  5
3E6B
330
3E0D
100
AcDbEntity
  8
02___PRT_ALL_AXES
  6
Continuous
 62
     7
100
AcDbLine
 10
43.15921761275831
 20
27.98272772895024
 30
0.0
 11
42.98023344755847
 21
27.86655554935027
 31
0.0
  0
LINE
  5
3E6C
330
3E0D
100
AcDbEntity
  8
0
  6
Continuous
 62
     7
100
AcDbLine
 10
42.98388822782499
 20
27.86866520768359
 30
0.0
 11
43.01340827709191
 21
27.88626525815022
 31
0.0
  0
LWPOLYLINE
  5
3E6D
330
3E0D
100
AcDbEntity
  8
02___PRT_ALL_AXES
  6
Continuous
 62
     7
100
AcDbPolyline
 90
        9
 70
     0
 43
0.0
 10
42.98023344755847
 20
27.86655554935027
 10
42.80901453729166
 20
27.77486596028359
 10
42.39429650742522
 20
27.61138776188358
 10
41.928421784492
 20
27.50450175335027
 10
41.43819929842493
 20
27.46540149768362
 10
40.95061893615866
 20
27.49683860835029
 10
40.48882221582516
 20
27.59439606895029
 10
40.08916822289165
 20
27.74109663588359
 10
39.8460619485586
 20
27.86641231781692
  0
LINE
  5
3E6E
330
3E0D
100
AcDbEntity
  8
0
  6
Continuous
 62
     7
100
AcDbLine
 10
8.842484303424953
 20
11.7782436888836
 30
0.0
 11
8.999053524291866
 21
11.86134425741693
 31
0.0
  0
LINE
  5
3E6F
330
3E0D
100
AcDbEntity
  8
0
  6
Continuous
 62
     7
100
AcDbLine
 10
42.82731900695853
 20
27.78556463915021
 30
0.0
 11
42.98388822782499
 21
27.86866520768359
 31
0.0
  0
LINE
  5
3E70
330
3E0D
100
AcDbEntity
  8
0
  6
Continuous
 62
     7
100
AcDbLine
 10
42.62210601735842
 20
27.69793626375025
 30
0.0
 11
42.82731900695853
 21
27.78556463915021
 31
0.0
  0
LWPOLYLINE
  5
3E71
330
3E0D
100
AcDbEntity
  8
0
  6
Continuous
 62
     7
100
AcDbPolyline
 90
        7
 70
     0
 43
0.0
 10
8.999053524291866
 20
11.86134425741693
 10
9.20426651389198
 20
11.94897263281694
 10
9.42582806922519
 20
12.0223437410836
 10
9.660741950292049
 20
12.0804653638836
 10
9.905831350024982
 20
12.12255150595024
 10
10.15778185455838
 20
12.14803302441692
 10
10.41318626562497
 20
12.1565653254836
  0
LINE
  5
3E72
330
3E0D
100
AcDbEntity
  8
02___PRT_ALL_AXES
  6
Continuous
 62
     7
100
AcDbLine
 10
63.96318626562515
 20
17.3234544482836
 30
0.0
 11
62.91318626562542
 21
17.3234544482836
 31
0.0
  0
LINE
  5
3E73
330
3E0D
100
AcDbEntity
  8
0
  6
Continuous
 62
     7
100
AcDbLine
 10
63.96318626562515
 20
17.34845444828357
 30
0.0
 11
64.54464883915853
 21
17.34845444828357
 31
0.0
  0
LINE
  5
3E74
330
3E0D
100
AcDbEntity
  8
DEFAULT_1
  6
CENTER
 62
     7
100
AcDbLine
 10
-0.0000000000004547
 20
19.8234544482836
 30
0.0
 11
76.70446733482504
 21
19.8234544482836
 31
0.0
  0
LINE
  5
3E75
330
3E0D
100
AcDbEntity
  8
DEFAULT_1
  6
CENTER
 62
     7
100
AcDbLine
 10
78.11318626562524
 20
19.8234544482836
 30
0.0
 11
78.32265226969184
 21
19.8234544482836
 31
0.0
  0
LWPOLYLINE
  5
3E76
330
3E0D
100
AcDbEntity
  8
0
  6
Continuous
 62
     7
100
AcDbPolyline
 90
        3
 70
     0
 43
0.0
 10
9.42582806922519
 20
27.6245651554836
 10
9.20426651389198
 20
27.69793626375025
 10
8.999053524291866
 20
27.78556463915021
  0
LWPOLYLINE
  5
3E77
330
3E0D
100
AcDbEntity
  8
0
  6
Continuous
 62
     7
100
AcDbPolyline
 90
        7
 70
     0
 43
0.0
 10
42.82731900695853
 20
11.86134425741693
 10
42.62210601735842
 20
11.94897263281694
 10
42.40054446209206
 20
12.0223437410836
 10
42.16563058095835
 20
12.0804653638836
 10
41.9205411812918
 20
12.12255150595024
 10
41.66859067669202
 20
12.14803302441692
 10
41.41318626562497
 20
12.1565653254836
  0
LINE
  5
3E78
330
3E0D
100
AcDbEntity
  8
0
  6
Continuous
 62
     7
100
AcDbLine
 10
42.98388822782499
 20
11.7782436888836
 30
0.0
 11
42.82731900695853
 21
11.86134425741693
 31
0.0
  0
LINE
  5
3E79
330
3E0D
100
AcDbEntity
  8
0
  6
Continuous
 62
     7
100
AcDbLine
 10
43.01340827709191
 20
11.76064363841692
 30
0.0
 11
42.98388822782499
 21
11.7782436888836
 31
0.0
  0
LWPOLYLINE
  5
3E7A
330
3E0D
100
AcDbEntity
  8
02___PRT_ALL_AXES
  6
Continuous
 62
     7
100
AcDbPolyline
 90
        4
 70
     0
 43
0.0
 10
42.97853385902499
 20
11.78138856748359
 10
43.24902805335841
 20
11.59573806175029
 10
43.46120142175869
 20
11.39296609455027
 10
43.61319140775822
 20
11.17665563381689
  0
LINE
  5
3E7B
330
3E0D
100
AcDbEntity
  8
0
  6
Continuous
 62
     7
100
AcDbLine
 10
43.91318702589205
 20
8.523455208683571
 30
0.0
 11
44.11318703935831
 21
8.323455222150244
 31
0.0
  0
LWPOLYLINE
  5
3E7C
330
3E0D
100
AcDbEntity
  8
0
  6
Continuous
 62
     7
100
AcDbPolyline
 90
       12
 70
     0
 43
0.0
 10
39.50793037729182
 20
10.26376308555024
 10
39.39311083049188
 20
10.39489671995028
 10
39.3056093385585
 20
10.53278929801695
 10
39.24660920902488
 20
10.67557605908359
 10
39.21690831742535
 20
10.82132605728361
 10
39.21690831742535
 20
10.96806827381692
 10
39.24660920902488
 20
11.11381827195026
 10
39.3056093385585
 20
11.25660503308359
 10
39.39311083049188
 20
11.39449761108358
 10
39.50793037729182
 20
11.5256312455503
 10
39.64851524155847
 20
11.64823257888361
 10
39.81296425415849
 20
11.76064363841692
  0
LWPOLYLINE
  5
3E7D
330
3E0D
100
AcDbEntity
  8
02___PRT_ALL_AXES
  6
Continuous
 62
     7
100
AcDbPolyline
 90
        6
 70
     0
 43
0.0
 10
39.11318626562525
 20
28.8341269354836
 10
39.16044855149176
 20
29.06949238961693
 10
39.29227063082499
 20
29.27403493368359
 10
39.49641674062514
 20
29.44784101315025
 10
39.76867322069166
 20
29.59390772641695
 10
39.78672640802506
 20
29.60022301515028
  0
LINE
  5
3E7E
330
3E0D
100
AcDbEntity
  8
02___PRT_ALL_AXES
  6
Continuous
 62
     7
100
AcDbLine
 10
43.61319140775822
 20
28.47025326275025
 30
0.0
 11
43.43241391342508
 21
28.22182367648361
 31
0.0
  0
LINE
  5
3E7F
330
3E0D
100
AcDbEntity
  8
02___PRT_ALL_AXES
  6
Continuous
 62
     7
100
AcDbLine
 10
43.43241391342508
 20
28.22182367648361
 30
0.0
 11
43.15921761275831
 21
27.98272772895024
 31
0.0
  0
LINE
  5
3E80
330
3E0D
100
AcDbEntity
  8
0
  6
Continuous
 62
     7
100
AcDbLine
 10
63.96318626562515
 20
22.29845444828356
 30
0.0
 11
64.54464883915853
 21
22.29845444828356
 31
0.0
  0
LINE
  5
3E81
330
3E0D
100
AcDbEntity
  8
02___PRT_ALL_AXES
  6
Continuous
 62
     7
100
AcDbLine
 10
63.96318626562515
 20
22.3234544482836
 30
0.0
 11
62.91318626562542
 21
22.3234544482836
 31
0.0
  0
LINE
  5
3E82
330
3E0D
100
AcDbEntity
  8
02___PRT_ALL_AXES
  6
Continuous
 62
     7
100
AcDbLine
 10
62.71318626562515
 20
24.3234544482836
 30
0.0
 11
59.61318626562524
 21
24.3234544482836
 31
0.0
  0
LINE
  5
3E83
330
3E0D
100
AcDbEntity
  8
02___PRT_ALL_AXES
  6
Continuous
 62
     7
100
AcDbLine
 10
64.84464883915871
 20
24.3234544482836
 30
0.0
 11
72.54464883915852
 21
24.3234544482836
 31
0.0
  0
LWPOLYLINE
  5
3E84
330
3E0D
100
AcDbEntity
  8
0
  6
Continuous
 62
     7
100
AcDbPolyline
 90
        6
 70
     0
 43
0.0
 10
12.04259319489165
 20
29.59820850961688
 10
12.07146388182491
 20
29.58788928708356
 10
12.3382100314252
 20
29.44227035141694
 10
12.53790027635841
 20
29.26977614608359
 10
12.66688022749167
 20
29.06718919615025
 10
12.71318626562515
 20
28.8341269354836
  0
LINE
  5
3E85
330
3E0D
100
AcDbEntity
  8
0
  6
Continuous
 62
     7
100
AcDbLine
 10
40.16318626562497
 20
28.92428466195026
 30
0.0
 11
40.16318626562497
 21
28.58013880015028
 31
0.0
  0
LINE
  5
3E86
330
3E0D
100
AcDbEntity
  8
0
  6
Continuous
 62
     7
100
AcDbLine
 10
40.16318626562497
 20
11.06677009641692
 30
0.0
 11
40.16318626562497
 21
10.72262423461694
 31
0.0
  0
LINE
  5
3E87
330
3E0D
100
AcDbEntity
  8
0
  6
Continuous
 62
     7
100
AcDbLine
 10
41.11318626562524
 20
29.46918227648359
 30
0.0
 11
41.11318626562524
 21
28.6785390486836
 31
0.0
  0
LINE
  5
3E88
330
3E0D
100
AcDbEntity
  8
0
  6
Continuous
 62
     7
100
AcDbLine
 10
41.11318626562524
 20
28.58013880015028
 30
0.0
 11
41.11318626562524
 21
28.03524118561694
 31
0.0
  0
LINE
  5
3E89
330
3E0D
100
AcDbEntity
  8
0
  6
Continuous
 62
     7
100
AcDbLine
 10
41.11318626562524
 20
11.61166771095025
 30
0.0
 11
41.11318626562524
 21
11.06677009641692
 31
0.0
  0
LINE
  5
3E8A
330
3E0D
100
AcDbEntity
  8
0
  6
Continuous
 62
     7
100
AcDbLine
 10
41.11318626562524
 20
10.1777266200836
 30
0.0
 11
41.11318626562524
 21
10.96836984788359
 31
0.0
  0
LINE
  5
3E8B
330
3E0D
100
AcDbEntity
  8
0
  6
Continuous
 62
     7
100
AcDbLine
 10
41.71318626562515
 20
10.1777266200836
 30
0.0
 11
41.71318626562515
 21
10.96836984788359
 31
0.0
  0
LINE
  5
3E8C
330
3E0D
100
AcDbEntity
  8
0
  6
Continuous
 62
     7
100
AcDbLine
 10
41.71318626562515
 20
11.06677009641692
 30
0.0
 11
41.71318626562515
 21
11.61166771095025
 31
0.0
  0
LINE
  5
3E8D
330
3E0D
100
AcDbEntity
  8
0
  6
Continuous
 62
     7
100
AcDbLine
 10
41.71318626562515
 20
28.03524118561694
 30
0.0
 11
41.71318626562515
 21
28.58013880015028
 31
0.0
  0
LINE
  5
3E8E
330
3E0D
100
AcDbEntity
  8
0
  6
Continuous
 62
     7
100
AcDbLine
 10
41.71318626562515
 20
28.6785390486836
 30
0.0
 11
41.71318626562515
 21
29.46918227648359
 31
0.0
  0
LWPOLYLINE
  5
3E8F
330
3E0D
100
AcDbEntity
  8
02___PRT_ALL_AXES
  6
Continuous
 62
     7
100
AcDbPolyline
 90
        4
 70
     0
 43
0.0
 10
39.11318626562525
 20
10.8127819610836
 10
39.16499459789202
 20
11.07328668095027
 10
39.30931667415871
 20
11.32446876541689
 10
39.53384360609152
 20
11.55951985668361
  0
LWPOLYLINE
  5
3E90
330
3E0D
100
AcDbEntity
  8
0
  6
Continuous
 62
     7
100
AcDbPolyline
 90
        5
 70
     0
 43
0.0
 10
41.41318626562497
 20
27.49034357108354
 10
41.66859067669202
 20
27.49887587215023
 10
41.9205411812918
 20
27.5243573906169
 10
42.16563058095835
 20
27.56644353268359
 10
42.40054446209206
 20
27.6245651554836
  0
LWPOLYLINE
  5
3E91
330
3E0D
100
AcDbEntity
  8
0
  6
Continuous
 62
     7
100
AcDbPolyline
 90
        6
 70
     0
 43
0.0
 10
10.41318626562497
 20
27.49034357108354
 10
10.66859067669202
 20
27.49887587215023
 10
10.92054118129181
 20
27.5243573906169
 10
11.16563058095835
 20
27.56644353268359
 10
11.40054446209205
 20
27.6245651554836
 10
11.62210601735842
 20
27.69793626375025
  0
LINE
  5
3E92
330
3E0D
100
AcDbEntity
  8
0
  6
Continuous
 62
     7
100
AcDbLine
 10
75.81325582075852
 20
26.09185132341691
 30
0.0
 11
76.2641004612251
 21
26.09185132341691
 31
0.0
  0
LINE
  5
3E93
330
3E0D
100
AcDbEntity
  8
02___PRT_ALL_AXES
  6
Continuous
 62
     7
100
AcDbLine
 10
59.21318626562515
 20
26.8234544482836
 30
0.0
 11
49.41318626562497
 21
26.8234544482836
 31
0.0
  0
LINE
  5
3E94
330
3E0D
100
AcDbEntity
  8
0
  6
Continuous
 62
     7
100
AcDbLine
 10
10.11318626562524
 20
28.03524118561694
 30
0.0
 11
10.71318626562515
 21
28.03524118561694
 31
0.0
  0
LINE
  5
3E95
330
3E0D
100
AcDbEntity
  8
0
  6
Continuous
 62
     7
100
AcDbLine
 10
41.11318626562524
 20
28.03524118561694
 30
0.0
 11
41.71318626562515
 21
28.03524118561694
 31
0.0
  0
LINE
  5
3E96
330
3E0D
100
AcDbEntity
  8
0
  6
Continuous
 62
     7
100
AcDbLine
 10
9.163186265624972
 20
28.58013880015028
 30
0.0
 11
10.11318626562524
 21
28.58013880015028
 31
0.0
  0
LINE
  5
3E97
330
3E0D
100
AcDbEntity
  8
0
  6
Continuous
 62
     7
100
AcDbLine
 10
10.71318626562515
 20
28.58013880015028
 30
0.0
 11
11.66318626562497
 21
28.58013880015028
 31
0.0
  0
LINE
  5
3E98
330
3E0D
100
AcDbEntity
  8
0
  6
Continuous
 62
     7
100
AcDbLine
 10
40.16318626562497
 20
28.58013880015028
 30
0.0
 11
41.11318626562524
 21
28.58013880015028
 31
0.0
  0
LINE
  5
3E99
330
3E0D
100
AcDbEntity
  8
0
  6
Continuous
 62
     7
100
AcDbLine
 10
41.71318626562515
 20
28.58013880015028
 30
0.0
 11
42.66318626562497
 21
28.58013880015028
 31
0.0
  0
LINE
  5
3E9A
330
3E0D
100
AcDbEntity
  8
0
  6
Continuous
 62
     7
100
AcDbLine
 10
42.66318626562497
 20
28.6785390486836
 30
0.0
 11
41.71318626562515
 21
28.6785390486836
 31
0.0
  0
LINE
  5
3E9B
330
3E0D
100
AcDbEntity
  8
0
  6
Continuous
 62
     7
100
AcDbLine
 10
41.11318626562524
 20
28.6785390486836
 30
0.0
 11
40.16318626562497
 21
28.6785390486836
 31
0.0
  0
LINE
  5
3E9C
330
3E0D
100
AcDbEntity
  8
0
  6
Continuous
 62
     7
100
AcDbLine
 10
11.66318626562497
 20
28.6785390486836
 30
0.0
 11
10.71318626562515
 21
28.6785390486836
 31
0.0
  0
LINE
  5
3E9D
330
3E0D
100
AcDbEntity
  8
0
  6
Continuous
 62
     7
100
AcDbLine
 10
10.11318626562524
 20
28.6785390486836
 30
0.0
 11
9.163186265624972
 21
28.6785390486836
 31
0.0
  0
LINE
  5
3E9E
330
3E0D
100
AcDbEntity
  8
0
  6
Continuous
 62
     7
100
AcDbLine
 10
42.66318626562497
 20
28.92428466195026
 30
0.0
 11
41.71318626562515
 21
28.92428466195026
 31
0.0
  0
LINE
  5
3E9F
330
3E0D
100
AcDbEntity
  8
0
  6
Continuous
 62
     7
100
AcDbLine
 10
41.11318626562524
 20
28.92428466195026
 30
0.0
 11
40.16318626562497
 21
28.92428466195026
 31
0.0
  0
LINE
  5
3EA0
330
3E0D
100
AcDbEntity
  8
0
  6
Continuous
 62
     7
100
AcDbLine
 10
11.66318626562497
 20
28.92428466195026
 30
0.0
 11
10.71318626562515
 21
28.92428466195026
 31
0.0
  0
LINE
  5
3EA1
330
3E0D
100
AcDbEntity
  8
0
  6
Continuous
 62
     7
100
AcDbLine
 10
10.11318626562524
 20
28.92428466195026
 30
0.0
 11
9.163186265624972
 21
28.92428466195026
 31
0.0
  0
LINE
  5
3EA2
330
3E0D
100
AcDbEntity
  8
0
  6
Continuous
 62
     7
100
AcDbLine
 10
41.71318626562515
 20
29.22343666321694
 30
0.0
 11
41.11318626562524
 21
29.22343666321694
 31
0.0
  0
LINE
  5
3EA3
330
3E0D
100
AcDbEntity
  8
0
  6
Continuous
 62
     7
100
AcDbLine
 10
10.71318626562515
 20
29.22343666321694
 30
0.0
 11
10.11318626562524
 21
29.22343666321694
 31
0.0
  0
LINE
  5
3EA4
330
3E0D
100
AcDbEntity
  8
0
  6
Continuous
 62
     7
100
AcDbLine
 10
41.71318626562515
 20
29.46918227648359
 30
0.0
 11
41.11318626562524
 21
29.46918227648359
 31
0.0
  0
LINE
  5
3EA5
330
3E0D
100
AcDbEntity
  8
0
  6
Continuous
 62
     7
100
AcDbLine
 10
10.71318626562515
 20
29.46918227648359
 30
0.0
 11
10.11318626562524
 21
29.46918227648359
 31
0.0
  0
LWPOLYLINE
  5
3EA6
330
3E0D
100
AcDbEntity
  8
0
  6
Continuous
 62
     7
100
AcDbPolyline
 90
        5
 70
     0
 43
0.0
 10
10.41318626562497
 20
27.49034357108354
 10
10.15778185455838
 20
27.49887587215023
 10
9.905831350024982
 20
27.5243573906169
 10
9.660741950292049
 20
27.56644353268359
 10
9.42582806922519
 20
27.6245651554836
  0
LWPOLYLINE
  5
3EA7
330
3E0D
100
AcDbEntity
  8
0
  6
Continuous
 62
     7
100
AcDbPolyline
 90
        5
 70
     0
 43
0.0
 10
41.41318626562497
 20
27.49034357108354
 10
41.15778185455837
 20
27.49887587215023
 10
40.90583135002498
 20
27.5243573906169
 10
40.66074195029204
 20
27.56644353268359
 10
40.42582806922519
 20
27.6245651554836
  0
LINE
  5
3EA8
330
3E0D
100
AcDbEntity
  8
0
  6
Continuous
 62
     7
100
AcDbLine
 10
59.41318652195832
 20
15.43892494615028
 30
0.0
 11
59.61318652869204
 21
15.32345490395028
 31
0.0
  0
LWPOLYLINE
  5
3EA9
330
3E0D
100
AcDbEntity
  8
02___PRT_ALL_AXES
  6
Continuous
 62
     7
100
AcDbPolyline
 90
        3
 70
     0
 43
0.0
 10
43.61319140775822
 20
11.17665563381689
 10
43.65074690562505
 20
11.02177461821696
 10
43.66318882502537
 20
10.85373746681693
  0
LINE
  5
3EAA
330
3E0D
100
AcDbEntity
  8
0
  6
Continuous
 62
     7
100
AcDbLine
 10
42.66318626562497
 20
10.72262423461694
 30
0.0
 11
42.66318626562497
 21
11.06677009641692
 31
0.0
  0
LINE
  5
3EAB
330
3E0D
100
AcDbEntity
  8
0
  6
Continuous
 62
     7
100
AcDbLine
 10
42.66318626562497
 20
28.58013880015028
 30
0.0
 11
42.66318626562497
 21
28.92428466195026
 31
0.0
  0
LINE
  5
3EAC
330
3E0D
100
AcDbEntity
  8
02___PRT_ALL_AXES
  6
Continuous
 62
     7
100
AcDbLine
 10
43.61319140775822
 20
28.47025326275025
 30
0.0
 11
43.61319140775822
 21
11.17665563381689
 31
0.0
  0
LINE
  5
3EAD
330
3E0D
100
AcDbEntity
  8
02___PRT_ALL_AXES
  6
Continuous
 62
     7
100
AcDbLine
 10
43.61319140775822
 20
30.8234544482836
 30
0.0
 11
43.61319140775822
 21
29.17025099088363
 31
0.0
  0
LINE
  5
3EAE
330
3E0D
100
AcDbEntity
  8
02___PRT_ALL_AXES
  6
Continuous
 62
     7
100
AcDbLine
 10
43.61319140775822
 20
10.47665790568356
 30
0.0
 11
43.61319140775822
 21
8.823454448283598
 31
0.0
  0
LINE
  5
3EAF
330
3E0D
100
AcDbEntity
  8
0
  6
Continuous
 62
     7
100
AcDbLine
 10
43.91318626562497
 20
31.12345444828361
 30
0.0
 11
43.91318626562497
 21
8.523454448283587
 31
0.0
  0
LINE
  5
3EB0
330
3E0D
100
AcDbEntity
  8
0
  6
Continuous
 62
     7
100
AcDbLine
 10
44.11318626562525
 20
31.3234544482836
 30
0.0
 11
44.11318626562525
 21
8.323454448283598
 31
0.0
  0
LWPOLYLINE
  5
3EB1
330
3E0D
100
AcDbEntity
  8
02___PRT_ALL_AXES
  6
Continuous
 62
     7
100
AcDbPolyline
 90
        3
 70
     0
 43
0.0
 10
43.66318882502537
 20
10.85373746681693
 10
43.6507402092252
 20
10.67220416781691
 10
43.61319140775822
 20
10.47665790568356
  0
LWPOLYLINE
  5
3EB2
330
3E0D
100
AcDbEntity
  8
02___PRT_ALL_AXES
  6
Continuous
 62
     7
100
AcDbPolyline
 90
        3
 70
     0
 43
0.0
 10
43.66318882502537
 20
28.79317142975026
 10
43.65074688849154
 20
28.62513416755025
 10
43.61319140775822
 20
28.47025326275025
  0
LINE
  5
3EB3
330
3E0D
100
AcDbEntity
  8
02___PRT_ALL_AXES
  6
Continuous
 62
     7
100
AcDbLine
 10
39.53384360609152
 20
11.55951985668361
 30
0.0
 11
39.8475691519584
 21
11.78118883388356
 31
0.0
  0
LINE
  5
3EB4
330
3E0D
100
AcDbEntity
  8
0
  6
Continuous
 62
     7
100
AcDbLine
 10
39.81296425415849
 20
11.76064363841692
 30
0.0
 11
39.84248430342495
 21
11.7782436888836
 31
0.0
  0
LINE
  5
3EB5
330
3E0D
100
AcDbEntity
  8
0
  6
Continuous
 62
     7
100
AcDbLine
 10
59.41318652195832
 20
24.20798395041692
 30
0.0
 11
59.61318652869204
 21
24.32345399261692
 31
0.0
  0
LINE
  5
3EB6
330
3E0D
100
AcDbEntity
  8
0
  6
Continuous
 62
     7
100
AcDbLine
 10
64.54464808415832
 20
24.15025067495026
 30
0.0
 11
64.84464805395828
 21
24.32345580808357
 31
0.0
  0
LINE
  5
3EB7
330
3E0D
100
AcDbEntity
  8
0
  6
Continuous
 62
     7
100
AcDbLine
 10
39.84248430342495
 20
11.7782436888836
 30
0.0
 11
39.99905352429187
 21
11.86134425741693
 31
0.0
  0
LWPOLYLINE
  5
3EB8
330
3E0D
100
AcDbEntity
  8
02___PRT_ALL_AXES
  6
Continuous
 62
     7
100
AcDbPolyline
 90
        9
 70
     0
 43
0.0
 10
39.8475691519584
 20
11.78118883388356
 10
40.20635389162499
 20
11.95570138255021
 10
40.63169842215848
 20
12.09023600781694
 10
41.0822266723585
 20
12.16552035155024
 10
41.53168914069192
 20
12.17954458795026
 10
41.95729988995845
 20
12.13784087781692
 10
42.34391442109199
 20
12.05066546201692
 10
42.686284191092
 20
11.92825538915025
 10
42.97853385902499
 20
11.78138856748359
  0
LWPOLYLINE
  5
3EB9
330
3E0D
100
AcDbEntity
  8
0
  6
Continuous
 62
     7
100
AcDbPolyline
 90
        7
 70
     0
 43
0.0
 10
39.99905352429187
 20
11.86134425741693
 10
40.20426651389198
 20
11.94897263281694
 10
40.42582806922519
 20
12.0223437410836
 10
40.66074195029204
 20
12.0804653638836
 10
40.90583135002498
 20
12.12255150595024
 10
41.15778185455837
 20
12.14803302441692
 10
41.41318626562497
 20
12.1565653254836
  0
LINE
  5
3EBA
330
3E0D
100
AcDbEntity
  8
02___PRT_ALL_AXES
  6
Continuous
 62
     7
100
AcDbLine
 10
73.77248473789177
 20
25.30813938808359
 30
0.0
 11
72.54464883915852
 21
24.79955310641691
 31
0.0
  0
LINE
  5
3EBB
330
3E0D
100
AcDbEntity
  8
0
  6
Continuous
 62
     7
100
AcDbLine
 10
72.54464883915852
 20
24.79955310641691
 30
0.0
 11
76.2275286377585
 21
26.32505186761688
 31
0.0
  0
LINE
  5
3EBC
330
3E0D
100
AcDbEntity
  8
0
  6
Continuous
 62
     7
100
AcDbLine
 10
76.70446733482504
 20
24.08722389368359
 30
0.0
 11
76.69626779875852
 21
24.08382753468362
 31
0.0
  0
LINE
  5
3EBD
330
3E0D
100
AcDbEntity
  8
0
  6
Continuous
 62
     7
100
AcDbLine
 10
75.81325582075852
 20
26.09185132341691
 30
0.0
 11
73.77248473789177
 21
25.25476281128357
 31
0.0
  0
LINE
  5
3EBE
330
3E0D
100
AcDbEntity
  8
02___PRT_ALL_AXES
  6
Continuous
 62
     7
100
AcDbLine
 10
43.61319140775822
 20
30.8234544482836
 30
0.0
 11
8.213190692692023
 21
30.8234544482836
 31
0.0
  0
LINE
  5
3EBF
330
3E0D
100
AcDbEntity
  8
02___PRT_ALL_AXES
  6
Continuous
 62
     7
100
AcDbLine
 10
5.113185653358414
 20
30.8234544482836
 30
0.0
 11
7.713187204091809
 21
30.8234544482836
 31
0.0
  0
LINE
  5
3EC0
330
3E0D
100
AcDbEntity
  8
02___PRT_ALL_AXES
  6
Continuous
 62
     7
100
AcDbLine
 10
49.21318626562515
 20
31.3234544482836
 30
0.0
 11
44.11318626562525
 21
31.3234544482836
 31
0.0
  0
LINE
  5
3EC1
330
3E0D
100
AcDbEntity
  8
0
  6
Continuous
 62
     7
100
AcDbLine
 10
40.42582806922519
 20
27.6245651554836
 30
0.0
 11
40.20426651389198
 21
27.69793626375025
 31
0.0
  0
LWPOLYLINE
  5
3EC2
330
3E0D
100
AcDbEntity
  8
02___PRT_ALL_AXES
  6
Continuous
 62
     7
100
AcDbPolyline
 90
        5
 70
     0
 43
0.0
 10
43.03860304122508
 20
29.60093602615024
 10
43.05660348575838
 20
29.59438191215026
 10
43.28751771022507
 20
29.47515727575023
 10
43.4760371846919
 20
29.33306799728359
 10
43.61319140775822
 20
29.17025099088363
  0
LINE
  5
3EC3
330
3E0D
100
AcDbEntity
  8
0
  6
Continuous
 62
     7
100
AcDbLine
 10
75.81325582075852
 20
13.55505757315023
 30
0.0
 11
73.77248473789177
 21
14.39214608528363
 31
0.0
  0
LINE
  5
3EC4
330
3E0D
100
AcDbEntity
  8
02___PRT_ALL_AXES
  6
Continuous
 62
     7
100
AcDbLine
 10
73.77248473789177
 20
14.33876950848361
 30
0.0
 11
72.54464883915852
 21
14.84735579015023
 31
0.0
  0
LINE
  5
3EC5
330
3E0D
100
AcDbEntity
  8
0
  6
Continuous
 62
     7
100
AcDbLine
 10
76.2275286377585
 20
13.32185702895026
 30
0.0
 11
72.54464883915852
 21
14.84735579015023
 31
0.0
  0
LINE
  5
3EC6
330
3E0D
100
AcDbEntity
  8
0
  6
Continuous
 62
     7
100
AcDbLine
 10
76.69626779875852
 20
15.56308136188357
 30
0.0
 11
76.70446733482504
 21
15.55968500288355
 31
0.0
  0
LINE
  5
3EC7
330
3E0D
100
AcDbEntity
  8
0
  6
Continuous
 62
     7
100
AcDbLine
 10
40.20426651389198
 20
27.69793626375025
 30
0.0
 11
39.99905352429187
 21
27.78556463915021
 31
0.0
  0
LINE
  5
3EC8
330
3E0D
100
AcDbEntity
  8
0
  6
Continuous
 62
     7
100
AcDbLine
 10
39.99905352429187
 20
27.78556463915021
 30
0.0
 11
39.84248430342495
 21
27.86866520768359
 31
0.0
  0
LINE
  5
3EC9
330
3E0D
100
AcDbEntity
  8
0
  6
Continuous
 62
     7
100
AcDbLine
 10
64.54464808409193
 20
15.49665822161688
 30
0.0
 11
64.84464805382504
 21
15.32345308855025
 31
0.0
  0
LINE
  5
3ECA
330
3E0D
100
AcDbEntity
  8
0
  6
Continuous
 62
     7
100
AcDbLine
 10
39.84248430342495
 20
27.86866520768359
 30
0.0
 11
39.81296425415849
 21
27.88626525815022
 31
0.0
  0
LINE
  5
3ECB
330
3E0D
100
AcDbEntity
  8
02___PRT_ALL_AXES
  6
Continuous
 62
     7
100
AcDbLine
 10
39.8460619485586
 20
27.86641231781692
 30
0.0
 11
39.75954476629204
 21
27.91977853595023
 31
0.0
  0
LWPOLYLINE
  5
3ECC
330
3E0D
100
AcDbEntity
  8
0
  6
Continuous
 62
     7
100
AcDbPolyline
 90
       11
 70
     0
 43
0.0
 10
39.81296425415849
 20
27.88626525815022
 10
39.64851524155847
 20
27.99867631768359
 10
39.50793037729182
 20
28.1212776510169
 10
39.39311083049188
 20
28.25241128548356
 10
39.3056093385585
 20
28.39030386348355
 10
39.24660920902488
 20
28.53309062461693
 10
39.21690831742535
 20
28.67884062275022
 10
39.21690831742535
 20
28.82558283928359
 10
39.24660920902488
 20
28.97133283748355
 10
39.3056093385585
 20
29.1141195985503
 10
39.39311083049188
 20
29.25201217661692
  0
LWPOLYLINE
  5
3ECD
330
3E0D
100
AcDbEntity
  8
02___PRT_ALL_AXES
  6
Continuous
 62
     7
100
AcDbPolyline
 90
        5
 70
     0
 43
0.0
 10
39.75954476629204
 20
27.91977853595023
 10
39.48865860949172
 20
28.12750994781692
 10
39.28553069702502
 20
28.35471486661692
 10
39.15730953762523
 20
28.59403280715026
 10
39.11318626562525
 20
28.8341269354836
  0
LWPOLYLINE
  5
3ECE
330
3E0D
100
AcDbEntity
  8
02___PRT_ALL_AXES
  6
Continuous
 62
     7
100
AcDbPolyline
 90
        3
 70
     0
 43
0.0
 10
43.61319140775822
 20
29.17025099088363
 10
43.65074019022495
 20
28.97470487241691
 10
43.66318882502537
 20
28.79317142975026
  0
LINE
  5
3ECF
330
3E0D
100
AcDbEntity
  8
0
  6
Continuous
 62
     7
100
AcDbLine
 10
49.21318626562515
 20
31.3234544482836
 30
0.0
 11
49.21318626562515
 21
8.323454448283598
 31
0.0
  0
LINE
  5
3ED0
330
3E0D
100
AcDbEntity
  8
0
  6
Continuous
 62
     7
100
AcDbLine
 10
49.41318626562497
 20
31.12345444828361
 30
0.0
 11
49.41318626562497
 21
8.523454448283587
 31
0.0
  0
LWPOLYLINE
  5
3ED1
330
3E0D
100
AcDbEntity
  8
02___PRT_ALL_AXES
  6
Continuous
 62
     7
100
AcDbPolyline
 90
        4
 70
     0
 43
0.0
 10
43.61319140775822
 20
10.47665790568356
 10
43.43828767595868
 20
10.28035732901691
 10
43.17980454762483
 20
10.11080966541692
 10
43.06335927129157
 20
10.0628952830836
  0
LINE
  5
3ED2
330
3E0D
100
AcDbEntity
  8
0
  6
Continuous
 62
     7
100
AcDbLine
 10
43.91318877169169
 20
9.123451952416928
 30
0.0
 11
43.61319140775822
 21
8.823454448283598
 31
0.0
  0
LINE
  5
3ED3
330
3E0D
100
AcDbEntity
  8
0
  6
Continuous
 62
     7
100
AcDbLine
 10
43.91318877169169
 20
30.52345694415027
 30
0.0
 11
43.61319140775822
 21
30.8234544482836
 31
0.0
  0
LINE
  5
3ED4
330
3E0D
100
AcDbEntity
  8
0
  6
Continuous
 62
     7
100
AcDbLine
 10
49.41318538062524
 20
8.523455333483582
 30
0.0
 11
49.21318536495846
 21
8.323455349150265
 31
0.0
  0
LINE
  5
3ED5
330
3E0D
100
AcDbEntity
  8
0
  6
Continuous
 62
     7
100
AcDbLine
 10
62.91318597202508
 20
15.43892501075021
 30
0.0
 11
62.71318596429182
 21
15.32345497028359
 31
0.0
  0
LINE
  5
3ED6
330
3E0D
100
AcDbEntity
  8
0
  6
Continuous
 62
     7
100
AcDbLine
 10
62.91318597202508
 20
24.20798388581693
 30
0.0
 11
62.71318596429182
 21
24.32345392628355
 31
0.0
  0
LINE
  5
3ED7
330
3E0D
100
AcDbEntity
  8
0
  6
Continuous
 62
     7
100
AcDbLine
 10
49.41318538055838
 20
31.12345356315024
 30
0.0
 11
49.21318536489207
 21
31.32345354748355
 31
0.0
  0
LINE
  5
3ED8
330
3E0D
100
AcDbEntity
  8
0
  6
Continuous
 62
     7
100
AcDbLine
 10
59.21318626562515
 20
26.8234544482836
 30
0.0
 11
59.21318626562515
 21
12.8234544482836
 31
0.0
  0
LINE
  5
3ED9
330
3E0D
100
AcDbEntity
  8
0
  6
Continuous
 62
     7
100
AcDbLine
 10
59.41318772909153
 20
13.02345298548357
 30
0.0
 11
59.21318777209171
 21
12.82345294241691
 31
0.0
  0
LINE
  5
3EDA
330
3E0D
100
AcDbEntity
  8
0
  6
Continuous
 62
     7
100
AcDbLine
 10
59.41318772889189
 20
26.62345591121692
 30
0.0
 11
59.21318777195847
 21
26.82345595428359
 31
0.0
  0
LINE
  5
3EDB
330
3E0D
100
AcDbEntity
  8
0
  6
Continuous
 62
     7
100
AcDbLine
 10
59.41318626562497
 20
26.62345444835023
 30
0.0
 11
59.41318626562497
 21
13.02345444821691
 31
0.0
  0
LINE
  5
3EDC
330
3E0D
100
AcDbEntity
  8
0
  6
Continuous
 62
     7
100
AcDbLine
 10
59.61318626562524
 20
24.3234544482836
 30
0.0
 11
59.61318626562524
 21
15.3234544482836
 31
0.0
  0
LINE
  5
3EDD
330
3E0D
100
AcDbEntity
  8
0
  6
Continuous
 62
     7
100
AcDbLine
 10
62.71318626562515
 20
24.3234544482836
 30
0.0
 11
62.71318626562515
 21
15.3234544482836
 31
0.0
  0
LINE
  5
3EDE
330
3E0D
100
AcDbEntity
  8
0
  6
Continuous
 62
     7
100
AcDbLine
 10
62.91318626562542
 20
24.20798439448362
 30
0.0
 11
62.91318626562542
 21
15.43892450208358
 31
0.0
  0
LINE
  5
3EDF
330
3E0D
100
AcDbEntity
  8
0
  6
Continuous
 62
     7
100
AcDbLine
 10
63.96318626562515
 20
17.3234544482836
 30
0.0
 11
63.96318626562515
 21
22.3234544482836
 31
0.0
  0
LINE
  5
3EE0
330
3E0D
100
AcDbEntity
  8
0
  6
Continuous
 62
     7
100
AcDbLine
 10
64.54464883915853
 20
15.49665952895026
 30
0.0
 11
64.54464883915853
 21
24.15024936755026
 31
0.0
  0
LINE
  5
3EE1
330
3E0D
100
AcDbEntity
  8
0
  6
Continuous
 62
     7
100
AcDbLine
 10
64.84464883915871
 20
15.3234544482836
 30
0.0
 11
64.84464883915871
 21
24.3234544482836
 31
0.0
  0
LINE
  5
3EE2
330
3E0D
100
AcDbEntity
  8
0
  6
Continuous
100
AcDbLine
 10
77.61318626562524
 20
19.8234544482836
 30
0.0
 11
76.70446733482504
 21
18.52576521148359
 31
0.0
  0
LINE
  5
3EE3
330
3E0D
100
AcDbEntity
  8
0
  6
Continuous
 62
     7
100
AcDbLine
 10
73.77248473789177
 20
14.33876950848361
 30
0.0
 11
73.80152175915873
 21
14.38023560835023
 31
0.0
  0
LINE
  5
3EE4
330
3E0D
100
AcDbEntity
  8
0
  6
Continuous
100
AcDbLine
 10
77.61318626562524
 20
19.8234544482836
 30
0.0
 11
76.70446733482504
 21
21.12114368508361
 31
0.0
  0
LINE
  5
3EE5
330
3E0D
100
AcDbEntity
  8
0
  6
Continuous
 62
     7
100
AcDbLine
 10
73.80152175915873
 20
25.26667328821691
 30
0.0
 11
73.77248473789177
 21
25.30813938808359
 31
0.0
  0
LINE
  5
3EE6
330
3E0D
100
AcDbEntity
  8
02___PRT_ALL_AXES
  6
Continuous
 62
     7
100
AcDbLine
 10
72.54464883915852
 20
14.84735579015023
 30
0.0
 11
72.54464883915852
 21
24.79955310641691
 31
0.0
  0
LINE
  5
3EE7
330
3E0D
100
AcDbEntity
  8
0
  6
Continuous
 62
     7
100
AcDbLine
 10
73.77248473789177
 20
14.33876950848361
 30
0.0
 11
73.77248473789177
 21
14.39214608528363
 31
0.0
  0
LINE
  5
3EE8
330
3E0D
100
AcDbEntity
  8
0
  6
Continuous
 62
     7
100
AcDbLine
 10
73.77248473789177
 20
25.25476281128357
 30
0.0
 11
73.77248473789177
 21
25.30813938808359
 31
0.0
  0
LINE
  5
3EE9
330
3E0D
100
AcDbEntity
  8
0
  6
Continuous
 62
     7
100
AcDbLine
 10
75.81325582075852
 20
26.09185132341691
 30
0.0
 11
75.81325582075852
 21
13.55505757315023
 31
0.0
  0
LINE
  5
3EEA
330
3E0D
100
AcDbEntity
  8
0
  6
Continuous
 62
     7
100
AcDbLine
 10
76.2641004612251
 20
26.09185132341691
 30
0.0
 11
76.2641004612251
 21
13.55505757315023
 31
0.0
  0
LINE
  5
3EEB
330
3E0D
100
AcDbEntity
  8
0
  6
Continuous
 62
     7
100
AcDbLine
 10
76.70446733482504
 20
24.04572918255025
 30
0.0
 11
76.70446733482504
 21
15.60117971401695
 31
0.0
  0
LINE
  5
3EEC
330
3E0D
100
AcDbEntity
  8
0
  6
Continuous
 62
     7
100
AcDbLine
 10
76.70446733482504
 20
15.55968500288355
 30
0.0
 11
76.2275286377585
 21
13.32185702895026
 31
0.0
  0
LINE
  5
3EED
330
3E0D
100
AcDbEntity
  8
0
  6
Continuous
100
AcDbLine
 10
76.70446733482504
 20
15.55968500288355
 30
0.0
 11
77.61318626562524
 21
19.8234544482836
 31
0.0
  0
LINE
  5
3EEE
330
3E0D
100
AcDbEntity
  8
0
  6
Continuous
 62
     7
100
AcDbLine
 10
76.70446733482504
 20
15.60117971401695
 30
0.0
 11
76.2641004612251
 21
13.55505757315023
 31
0.0
  0
LINE
  5
3EEF
330
3E0D
100
AcDbEntity
  8
0
  6
Continuous
 62
     7
100
AcDbLine
 10
76.70446733482504
 20
24.04572918255025
 30
0.0
 11
76.2641004612251
 21
26.09185132341691
 31
0.0
  0
LINE
  5
3EF0
330
3E0D
100
AcDbEntity
  8
0
  6
Continuous
 62
     7
100
AcDbLine
 10
76.2275286377585
 20
26.32505186761688
 30
0.0
 11
76.70446733482504
 21
24.08722389368359
 31
0.0
  0
LINE
  5
3EF1
330
3E0D
100
AcDbEntity
  8
0
  6
Continuous
100
AcDbLine
 10
76.70446733482504
 20
24.08722389368359
 30
0.0
 11
77.61318626562524
 21
19.8234544482836
 31
0.0
  0
ENDBLK
  5
3EF2
330
3E0D
100
AcDbEntity
  8
0
100
AcDbBlockEnd
  0
BLOCK
  5
3EF6
330
3EF3
100
AcDbEntity
  8
0
100
AcDbBlockBegin
  2
A$C217E344C
 70
     0
 10
0.0
 20
0.0
 30
0.0
  3
A$C217E344C
  1

  0
LINE
  5
3EF7
330
3EF3
100
AcDbEntity
  8
0
  6
Continuous
 62
     7
100
AcDbLine
 10
10.61903407103273
 20
5.231602809099399
 30
0.0
 11
10.99941157729927
 21
7.938129400232696
 31
0.0
  0
LINE
  5
3EF8
330
3EF3
100
AcDbEntity
  8
0
  6
Continuous
 62
     7
100
AcDbLine
 10
12.00058802289914
 20
15.06186996823271
 30
0.0
 11
12.38096552916613
 21
17.76839655936601
 31
0.0
  0
LINE
  5
3EF9
330
3EF3
100
AcDbEntity
  8
0
  6
Continuous
 62
     7
100
AcDbLine
 10
12.38096552916613
 20
5.231602809099399
 30
0.0
 11
12.00058802289914
 21
7.938129400232696
 31
0.0
  0
LINE
  5
3EFA
330
3EF3
100
AcDbEntity
  8
0
  6
Continuous
 62
     7
100
AcDbLine
 10
10.99941157729927
 20
15.06186996823271
 30
0.0
 11
10.61903407103273
 21
17.76839655936601
 31
0.0
  0
CIRCLE
  5
3EFB
330
3EF3
100
AcDbEntity
  8
0
  6
Continuous
 62
     7
100
AcDbCircle
 10
3.056252113232403
 20
6.624999684232648
 30
0.0
 40
1.349968612533333
  0
ARC
  5
3EFC
330
3EF3
100
AcDbEntity
  8
0
  6
Continuous
 62
     2
100
AcDbCircle
 10
3.056252113232403
 20
6.624999684232648
 30
0.0
 40
1.25
100
AcDbArc
 50
255.0000000000056
 51
195.0000000000007
  0
CIRCLE
  5
3EFD
330
3EF3
100
AcDbEntity
  8
0
  6
Continuous
 62
     7
100
AcDbCircle
 10
3.056252113232403
 20
6.624999684232648
 30
0.0
 40
1.049999999999999
  0
CIRCLE
  5
3EFE
330
3EF3
100
AcDbEntity
  8
0
  6
Continuous
 62
     7
100
AcDbCircle
 10
11.49999980009943
 20
11.49999968423265
 30
0.0
 40
11.5
  0
CIRCLE
  5
3EFF
330
3EF3
100
AcDbEntity
  8
0
  6
Continuous
 62
     7
100
AcDbCircle
 10
11.49999980009943
 20
11.49999968423265
 30
0.0
 40
11.29999854813333
  0
CIRCLE
  5
3F00
330
3EF3
100
AcDbEntity
  8
0
  6
Continuous
 62
     7
100
AcDbCircle
 10
11.49999980009943
 20
11.49999968423265
 30
0.0
 40
7.0
  0
CIRCLE
  5
3F01
330
3EF3
100
AcDbEntity
  8
0
  6
Continuous
 62
     7
100
AcDbCircle
 10
11.49999980009943
 20
11.49999968423265
 30
0.0
 40
6.800000496733333
  0
CIRCLE
  5
3F02
330
3EF3
100
AcDbEntity
  8
0
  6
Continuous
 62
     7
100
AcDbCircle
 10
11.49999980009943
 20
11.49999968423265
 30
0.0
 40
6.700000782333333
  0
CIRCLE
  5
3F03
330
3EF3
100
AcDbEntity
  8
0
  6
Continuous
 62
     7
100
AcDbCircle
 10
11.49999980009943
 20
11.49999968423265
 30
0.0
 40
6.5
  0
ARC
  5
3F04
330
3EF3
100
AcDbEntity
  8
0
  6
Continuous
 62
     7
100
AcDbCircle
 10
11.49999980009943
 20
11.49999968423265
 30
0.0
 40
6.329999999999999
100
AcDbArc
 50
278.0000000000137
 51
81.99999999998622
  0
ARC
  5
3F05
330
3EF3
100
AcDbEntity
  8
0
  6
Continuous
 62
     7
100
AcDbCircle
 10
11.49999980009943
 20
11.49999968423265
 30
0.0
 40
6.329999999999999
100
AcDbArc
 50
98.00000000001377
 51
261.9999999999862
  0
ARC
  5
3F06
330
3EF3
100
AcDbEntity
  8
0
  6
Continuous
 62
     7
100
AcDbCircle
 10
11.49999980009943
 20
11.49999968423265
 30
0.0
 40
6.299999210733333
100
AcDbArc
 50
262.0201162354896
 51
277.9798732255151
  0
ARC
  5
3F07
330
3EF3
100
AcDbEntity
  8
0
  6
Continuous
 62
     7
100
AcDbCircle
 10
11.49999980009943
 20
11.49999968423265
 30
0.0
 40
6.299999210733333
100
AcDbArc
 50
82.02011623548957
 51
97.97987322551509
  0
ARC
  5
3F08
330
3EF3
100
AcDbEntity
  8
0
  6
Continuous
 62
     7
100
AcDbCircle
 10
11.49999980009943
 20
11.49999968423265
 30
0.0
 40
5.484684939799999
100
AcDbArc
 50
81.99999999998622
 51
98.00000000001377
  0
ARC
  5
3F09
330
3EF3
100
AcDbEntity
  8
0
  6
Continuous
 62
     7
100
AcDbCircle
 10
11.49999980009943
 20
11.49999968423265
 30
0.0
 40
5.484684939799999
100
AcDbArc
 50
261.9999999999862
 51
278.0000000000137
  0
ARC
  5
3F0A
330
3EF3
100
AcDbEntity
  8
0
  6
Continuous
 62
     7
100
AcDbCircle
 10
11.49999980009943
 20
11.49999968423265
 30
0.0
 40
4.263769445399999
100
AcDbArc
 50
98.00000000001377
 51
261.9999999999862
  0
ARC
  5
3F0B
330
3EF3
100
AcDbEntity
  8
0
  6
Continuous
 62
     7
100
AcDbCircle
 10
11.49999980009943
 20
11.49999968423265
 30
0.0
 40
4.263769445399999
100
AcDbArc
 50
278.0000000000137
 51
81.99999999998622
  0
ARC
  5
3F0C
330
3EF3
100
AcDbEntity
  8
0
  6
Continuous
 62
     7
100
AcDbCircle
 10
11.49999980009943
 20
11.49999968423265
 30
0.0
 40
3.596874822533333
100
AcDbArc
 50
81.99999999998622
 51
98.00000000001377
  0
ARC
  5
3F0D
330
3EF3
100
AcDbEntity
  8
0
  6
Continuous
 62
     7
100
AcDbCircle
 10
11.49999980009943
 20
11.49999968423265
 30
0.0
 40
3.596874822533333
100
AcDbArc
 50
261.9999999999862
 51
278.0000000000137
  0
CIRCLE
  5
3F0E
330
3EF3
100
AcDbEntity
  8
02___PRT_ALL_AXES
  6
Continuous
 62
     7
100
AcDbCircle
 10
11.49999980009943
 20
11.49999968423265
 30
0.0
 40
3.342773023466666
  0
CIRCLE
  5
3F0F
330
3EF3
100
AcDbEntity
  8
0
  6
Continuous
 62
     7
100
AcDbCircle
 10
11.49999980009943
 20
11.49999968423265
 30
0.0
 40
2.673196196599999
  0
CIRCLE
  5
3F10
330
3EF3
100
AcDbEntity
  8
0
  6
Continuous
 62
     7
100
AcDbCircle
 10
11.49999980009943
 20
11.49999968423265
 30
0.0
 40
2.5
  0
CIRCLE
  5
3F11
330
3EF3
100
AcDbEntity
  8
0
  6
Continuous
 62
     7
100
AcDbCircle
 10
11.49999980009943
 20
11.49999968423265
 30
0.0
 40
2.474999999999999
  0
CIRCLE
  5
3F12
330
3EF3
100
AcDbEntity
  8
0
  6
Continuous
 62
     7
100
AcDbCircle
 10
11.49999980009943
 20
11.49999968423265
 30
0.0
 40
2.199972844133333
  0
CIRCLE
  5
3F13
330
3EF3
100
AcDbEntity
  8
0
  6
Continuous
 62
     7
100
AcDbCircle
 10
19.9437474870324
 20
6.624999684232648
 30
0.0
 40
1.349968612533333
  0
ARC
  5
3F14
330
3EF3
100
AcDbEntity
  8
0
  6
Continuous
 62
     2
100
AcDbCircle
 10
19.9437474870324
 20
6.624999684232648
 30
0.0
 40
1.25
100
AcDbArc
 50
255.0000000000056
 51
195.0000000000007
  0
CIRCLE
  5
3F15
330
3EF3
100
AcDbEntity
  8
0
  6
Continuous
 62
     7
100
AcDbCircle
 10
19.9437474870324
 20
6.624999684232648
 30
0.0
 40
1.049999999999999
  0
CIRCLE
  5
3F16
330
3EF3
100
AcDbEntity
  8
0
  6
Continuous
 62
     7
100
AcDbCircle
 10
11.49999980009943
 20
21.24999968423265
 30
0.0
 40
1.349968612533333
  0
ARC
  5
3F17
330
3EF3
100
AcDbEntity
  8
0
  6
Continuous
 62
     2
100
AcDbCircle
 10
11.49999980009943
 20
21.24999968423265
 30
0.0
 40
1.25
100
AcDbArc
 50
255.0000000000056
 51
195.0000000000007
  0
CIRCLE
  5
3F18
330
3EF3
100
AcDbEntity
  8
0
  6
Continuous
 62
     7
100
AcDbCircle
 10
11.49999980009943
 20
21.24999968423265
 30
0.0
 40
1.049999999999999
  0
ENDBLK
  5
3F19
330
3EF3
100
AcDbEntity
  8
0
100
AcDbBlockEnd
  0
BLOCK
  5
3F77
330
3F33
100
AcDbEntity
  8
0
100
AcDbBlockBegin
  2
new A3-S11
 70
     0
 10
0.0
 20
0.0
 30
0.0
  3
new A3-S11
  1

  0
LINE
  5
3F34
330
3F33
100
AcDbEntity
  8
0
  6
Continuous
 62
   255
100
AcDbLine
 10
795.462730356111
 20
-277.0
 30
0.0
 11
795.462730356111
 21
0.0
 31
0.0
  0
LINE
  5
3F35
330
3F33
100
AcDbEntity
  8
0
  6
Continuous
 62
   255
100
AcDbLine
 10
412.4627639465111
 20
-277.0
 30
0.0
 11
795.462730356111
 21
-277.0
 31
0.0
  0
LINE
  5
3F36
330
3F33
100
AcDbEntity
  8
0
  6
Continuous
 62
   255
100
AcDbLine
 10
402.4627639465111
 20
0.0
 30
0.0
 11
402.4627639465111
 21
-222.0000000000001
 31
0.0
  0
LINE
  5
3F37
330
3F33
100
AcDbEntity
  8
0
  6
Continuous
 62
   255
100
AcDbLine
 10
402.4627639465111
 20
0.0
 30
0.0
 11
795.462730356111
 21
0.0
 31
0.0
  0
LINE
  5
3F38
330
3F33
100
AcDbEntity
  8
1
 62
     2
100
AcDbLine
 10
615.4627303561103
 20
-240.7736213082135
 30
0.0
 11
615.4627303561103
 21
-233.1532223398645
 31
0.0
1001
AcDbBlockRepETag
1070
     1
1071
     2034
1005
0
  0
LINE
  5
3F39
330
3F33
100
AcDbEntity
  8
1
 62
     2
100
AcDbLine
 10
755.4627303560963
 20
-240.7736213082135
 30
0.0
 11
615.4627303561103
 21
-240.7736213082135
 31
0.0
1001
AcDbBlockRepETag
1070
     1
1071
     2035
1005
0
  0
LINE
  5
3F3A
330
3F33
100
AcDbEntity
  8
1
 62
     2
100
AcDbLine
 10
755.4627303560963
 20
-233.1532223398645
 30
0.0
 11
755.4627303560963
 21
-240.7736213082135
 31
0.0
1001
AcDbBlockRepETag
1070
     1
1071
     2036
1005
0
  0
LINE
  5
3F3B
330
3F33
100
AcDbEntity
  8
1
 62
     2
100
AcDbLine
 10
615.4627303561103
 20
-233.1532223398645
 30
0.0
 11
755.4627303560963
 21
-233.1532223398645
 31
0.0
1001
AcDbBlockRepETag
1070
     1
1071
     2037
1005
0
  0
LINE
  5
3F3C
330
3F33
100
AcDbEntity
  8
0
  6
Continuous
 62
   255
100
AcDbLine
 10
412.4627639465111
 20
-222.0
 30
0.0
 11
412.4627639465111
 21
-277.0
 31
0.0
1001
AcDbBlockRepETag
1070
     1
1071
     1946
1005
0
  0
LINE
  5
3F3D
330
3F33
100
AcDbEntity
  8
0
  6
Continuous
 62
   255
100
AcDbLine
 10
412.4627639465111
 20
-222.0
 30
0.0
 11
402.4627639465111
 21
-222.0
 31
0.0
  0
LINE
  5
3F3E
330
3F33
100
AcDbEntity
  8
0
  6
CENTER
 62
     2
 48
0.2
370
     9
100
AcDbLine
 10
790.0016616277157
 20
-260.4561080562671
 30
0.0
 11
790.0016616277157
 21
-253.4561099688349
 31
0.0
1001
AcDbBlockRepETag
1070
     1
1071
        1
1005
0
  0
LINE
  5
3F3F
330
3F33
100
AcDbEntity
  8
0
  6
CENTER
 62
     2
 48
0.2
370
     9
100
AcDbLine
 10
775.6438450240919
 20
-256.956109012551
 30
0.0
 11
784.6438425650753
 21
-256.956109012551
 31
0.0
1001
AcDbBlockRepETag
1070
     1
1071
        9
1005
0
  0
LINE
  5
3F40
330
3F33
100
AcDbEntity
  8
0
  6
Continuous
 62
   255
100
AcDbLine
 10
784.1438427016878
 20
-253.8561098595453
 30
0.0
 11
776.1438448874794
 21
-255.4561094223869
 31
0.0
1001
AcDbBlockRepETag
1070
     1
1071
       10
1005
0
  0
LINE
  5
3F41
330
3F33
100
AcDbEntity
  8
0
  6
Continuous
 62
   255
100
AcDbLine
 10
784.1438427016878
 20
-260.0561081655568
 30
0.0
 11
784.1438427016878
 21
-253.8561098595453
 31
0.0
1001
AcDbBlockRepETag
1070
     1
1071
       11
1005
0
  0
LINE
  5
3F42
330
3F33
100
AcDbEntity
  8
0
  6
Continuous
 62
   255
100
AcDbLine
 10
776.1438448874794
 20
-258.4561086027151
 30
0.0
 11
784.1438427016878
 21
-260.0561081655568
 31
0.0
1001
AcDbBlockRepETag
1070
     1
1071
       12
1005
0
  0
LINE
  5
3F43
330
3F33
100
AcDbEntity
  8
0
  6
Continuous
 62
   255
100
AcDbLine
 10
776.1438448874794
 20
-255.4561094223869
 30
0.0
 11
776.1438448874794
 21
-258.4561086027151
 31
0.0
1001
AcDbBlockRepETag
1070
     1
1071
       13
1005
0
  0
LINE
  5
3F44
330
3F33
100
AcDbEntity
  8
0
  6
Continuous
 62
   255
100
AcDbLine
 10
732.4627505746857
 20
-255.0000010928959
 30
0.0
 11
732.4627505746857
 21
-273.0000010928959
 31
0.0
1001
AcDbBlockRepETag
1070
     1
1071
       20
1005
0
  0
LINE
  5
3F45
330
3F33
100
AcDbEntity
  8
0
  6
Continuous
 62
   255
100
AcDbLine
 10
647.4627707932584
 20
-255.0000010928961
 30
0.0
 11
647.4627707932584
 21
-273.0000010928959
 31
0.0
1001
AcDbBlockRepETag
1070
     1
1071
       22
1005
0
  0
LINE
  5
3F46
330
3F33
100
AcDbEntity
  8
0
  6
Continuous
 62
   255
100
AcDbLine
 10
612.4627803560981
 20
-233.1532223398645
 30
0.0
 11
612.4627803560981
 21
-277.0
 31
0.0
1001
AcDbBlockRepETag
1070
     1
1071
       26
1005
0
  0
LINE
  5
3F47
330
3F33
100
AcDbEntity
  8
0
  6
Continuous
 62
   255
100
AcDbLine
 10
587.4627871866977
 20
-257.5000053278675
 30
0.0
 11
587.462787186698
 21
-277.0
 31
0.0
1001
AcDbBlockRepETag
1070
     1
1071
       29
1005
0
  0
LINE
  5
3F48
330
3F33
100
AcDbEntity
  8
0
  6
Continuous
 62
     2
370
     9
100
AcDbLine
 10
429.4627803560981
 20
-266.5000028688518
 30
0.0
 11
612.4627803560981
 21
-266.5000028688518
 31
0.0
1001
AcDbBlockRepETag
1070
     1
1071
       30
1005
0
  0
LINE
  5
3F49
330
3F33
100
AcDbEntity
  8
0
  6
Continuous
 62
   255
100
AcDbLine
 10
429.4627803560981
 20
-271.0000016393439
 30
0.0
 11
612.4627803560981
 21
-271.0000016393439
 31
0.0
1001
AcDbBlockRepETag
1070
     1
1071
       31
1005
0
  0
LINE
  5
3F4A
330
3F33
100
AcDbEntity
  8
0
  6
Continuous
 62
   255
100
AcDbLine
 10
429.4627803560981
 20
-277.0
 30
0.0
 11
429.4627803560979
 21
-233.1532223398645
 31
0.0
1001
AcDbBlockRepETag
1070
     1
1071
       32
1005
0
  0
LINE
  5
3F4B
330
3F33
100
AcDbEntity
  8
0
  6
Continuous
 62
     2
370
     9
100
AcDbLine
 10
612.4627803560981
 20
-262.0000040983596
 30
0.0
 11
429.4627803560981
 21
-262.0000040983596
 31
0.0
1001
AcDbBlockRepETag
1070
     1
1071
       33
1005
0
  0
LINE
  5
3F4C
330
3F33
100
AcDbEntity
  8
0
  6
Continuous
 62
   255
100
AcDbLine
 10
562.4627940172972
 20
-257.5000053278675
 30
0.0
 11
562.4627940172975
 21
-277.0
 31
0.0
1001
AcDbBlockRepETag
1070
     1
1071
       34
1005
0
  0
LINE
  5
3F4D
330
3F33
100
AcDbEntity
  8
0
  6
Continuous
 62
   255
100
AcDbLine
 10
537.4628008478957
 20
-257.5000053278675
 30
0.0
 11
537.4628008478957
 21
-277.0
 31
0.0
1001
AcDbBlockRepETag
1070
     1
1071
       35
1005
0
  0
LINE
  5
3F4E
330
3F33
100
AcDbEntity
  8
0
  6
Continuous
 62
   255
100
AcDbLine
 10
436.362828470839
 20
-257.5000053278675
 30
0.0
 11
436.362828470839
 21
-277.0
 31
0.0
1001
AcDbBlockRepETag
1070
     1
1071
       36
1005
0
  0
LINE
  5
3F4F
330
3F33
100
AcDbEntity
  8
0
  6
CENTER
 62
     2
 48
0.2
370
     9
100
AcDbLine
 10
786.4016626113227
 20
-256.956109012551
 30
0.0
 11
793.5016606714325
 21
-256.956109012551
 31
0.0
1001
AcDbBlockRepETag
1070
     1
1071
       37
1005
0
  0
LINE
  5
3F50
330
3F33
100
AcDbEntity
  8
0
  6
Continuous
 62
   255
100
AcDbLine
 10
795.4627303561112
 20
-273.0000010928959
 30
0.0
 11
612.4627803560981
 21
-273.0000010928959
 31
0.0
1001
AcDbBlockRepETag
1070
     1
1071
       38
1005
0
  0
CIRCLE
  5
3F51
330
3F33
100
AcDbEntity
  8
0
  6
Continuous
 62
   255
100
AcDbCircle
 10
790.0016616277157
 20
-256.956109012551
 30
0.0
 40
3.099999153005696
1001
AcDbBlockRepETag
1070
     1
1071
       39
1005
0
  0
CIRCLE
  5
3F52
330
3F33
100
AcDbEntity
  8
0
  6
Continuous
 62
   255
100
AcDbCircle
 10
790.0016616277157
 20
-256.956109012551
 30
0.0
 40
1.499999590164046
1001
AcDbBlockRepETag
1070
     1
1071
       40
1005
0
  0
MTEXT
  5
3F53
330
3F33
100
AcDbEntity
  8
0
 62
   255
100
AcDbMText
 10
742.4886817458279
 20
-258.0961633175244
 30
0.0
 40
3.0
 41
0.0
 46
0.0
 71
     1
 72
     5
  1
Scale: X:1
 73
     1
 44
1.0
1001
AcDbBlockRepETag
1070
     1
1071
       46
1005
0
  0
MTEXT
  5
3F54
330
3F33
100
AcDbEntity
  8
0
 62
   255
100
AcDbMText
 10
785.9761987320682
 20
-266.1776207634082
 30
0.0
 40
4.5
 41
0.0
 46
0.0
 71
     1
 72
     5
  1
{\fISOCPEUR|b0|i0|c0|p34;\W1;A3}
  7
SLDTEXTSTYLE0
 73
     1
 44
1.0
1001
AcDbBlockRepETag
1070
     1
1071
       50
1005
0
  0
TEXT
  5
3F55
330
3F33
100
AcDbEntity
  8
0
  6
Continuous
 62
   255
100
AcDbText
 10
615.999552743995
 20
-275.600626952933
 30
0.0
 40
1.72391304347826
  1
This drawing remains our property. Without written approval it may not be copied, reproduced, communicated or made available to third parties.
100
AcDbText
1001
AcDbBlockRepETag
1070
     1
1071
       51
1005
0
  0
MTEXT
  5
3F56
330
3F33
100
AcDbEntity
  8
0
 62
   255
100
AcDbMText
 10
430.8431967639346
 20
-272.4012695934838
 30
0.0
 40
1.999999453552061
 41
0.0
 46
0.0
 71
     1
 72
     5
  1
No.
 73
     1
 44
1.0
1001
AcDbBlockRepETag
1070
     1
1071
       52
1005
0
  0
MTEXT
  5
3F57
330
3F33
100
AcDbEntity
  8
0
 62
   255
100
AcDbMText
 10
465.3543791596414
 20
-272.5568974675624
 30
0.0
 40
1.999999453552061
 41
0.0
 46
0.0
 71
     1
 72
     5
  1
Modifications
 73
     1
 44
1.0
1001
AcDbBlockRepETag
1070
     1
1071
       53
1005
0
  0
MTEXT
  5
3F58
330
3F33
100
AcDbEntity
  8
0
 62
   255
100
AcDbMText
 10
516.3394128285574
 20
-272.4090513971577
 30
0.0
 40
1.999999453552061
 41
0.0
 46
0.0
 71
     1
 72
     5
  1
Communication
 73
     1
 44
1.0
1001
AcDbBlockRepETag
1070
     1
1071
       54
1005
0
  0
MTEXT
  5
3F59
330
3F33
100
AcDbEntity
  8
0
 62
   255
100
AcDbMText
 10
546.4272744208374
 20
-272.4579818509886
 30
0.0
 40
1.999999453552061
 41
0.0
 46
0.0
 71
     1
 72
     5
  1
Drawn
 73
     1
 44
1.0
1001
AcDbBlockRepETag
1070
     1
1071
       55
1005
0
  0
MTEXT
  5
3F5A
330
3F33
100
AcDbEntity
  8
0
 62
   255
100
AcDbMText
 10
594.082408871658
 20
-272.537497781863
 30
0.0
 40
1.999999453552061
 41
0.0
 46
0.0
 71
     1
 72
     5
  1
Approved
 73
     1
 44
1.0
1001
AcDbBlockRepETag
1070
     1
1071
       56
1005
0
  0
MTEXT
  5
3F5B
330
3F33
100
AcDbEntity
  8
0
 62
   255
100
AcDbMText
 10
747.2395558258272
 20
-266.23226977527
 30
0.0
 40
4.5
 41
0.0
 46
0.0
 71
     1
 72
     5
  1
{\fISOCPEUR|b0|i0|c0|p34;\W1;\C256;Drg. No.}
  7
SLDTEXTSTYLE0
 73
     1
 44
1.0
1001
AcDbBlockRepETag
1070
     1
1071
       58
1005
0
  0
MTEXT
  5
3F5C
102
{ACAD_XDICTIONARY
360
4656
102
}
330
3F33
100
AcDbEntity
  8
0
 62
   255
100
AcDbMText
 10
690.4446702144996
 20
-257.668031930731
 30
0.0
 40
4.5
 41
0.0
 46
0.0
 71
     1
 72
     5
  1
\pi-15.075;{\fISOCPEUR|b0|i0|c0|p34;\W1;Description\P\pi-21.15;Outline drawing}
  7
SLDTEXTSTYLE0
 73
     1
 44
1.0
1001
AcDbBlockRepETag
1070
     1
1071
       59
1005
0
  0
MTEXT
  5
3F5D
330
3F33
100
AcDbEntity
  8
0
 62
     1
100
AcDbMText
 10
614.8696824671969
 20
-259.2996853159084
 30
0.0
 40
5.0
 41
0.0
 46
0.0
 71
     1
 72
     5
  1
{\fISOCPEUR|b0|i0|c0|p34;\W1;Portescap}
  7
SLDTEXTSTYLE0
 73
     1
 44
1.0
1001
AcDbBlockRepETag
1070
     1
1071
       65
1005
0
  0
LINE
  5
3F5E
330
3F33
100
AcDbEntity
  8
0
  6
Continuous
 62
   255
100
AcDbLine
 10
512.4628076784954
 20
-257.5000053278675
 30
0.0
 11
512.4628076784956
 21
-277.0
 31
0.0
1001
AcDbBlockRepETag
1070
     1
1071
       66
1005
0
  0
MTEXT
  5
3F5F
330
3F33
100
AcDbEntity
  8
0
 62
   255
100
AcDbMText
 10
569.768144688197
 20
-272.4579818509886
 30
0.0
 40
1.999999453552061
 41
0.0
 46
0.0
 71
     1
 72
     5
  1
Checked
 73
     1
 44
1.0
1001
AcDbBlockRepETag
1070
     1
1071
       67
1005
0
  0
LINE
  5
3F60
330
3F33
100
AcDbEntity
  8
0
  6
Continuous
 62
   255
100
AcDbLine
 10
773.534358534004
 20
-250.0008059763035
 30
0.0
 11
773.534358534003
 21
-264.0000010928961
 31
0.0
1001
AcDbBlockRepETag
1070
     1
1071
        5
1005
0
  0
TEXT
  5
3F61
330
3F33
100
AcDbEntity
  8
0
  6
Continuous
 62
   255
100
AcDbText
 10
779.6181708028425
 20
-275.600626952933
 30
0.0
 40
1.72391304347826
  1
Sheet 1 of 1
100
AcDbText
1001
AcDbBlockRepETag
1070
     1
1071
       51
1005
0
  0
INSERT
  5
3F62
330
3F33
100
AcDbEntity
  8
0
 62
   255
100
AcDbBlockReference
  2
A$C08716F59
 10
429.4627803560979
 20
-257.5000053278673
 30
0.0
  0
LINE
  5
3F63
330
3F33
100
AcDbEntity
  8
0
  6
Continuous
 62
   255
100
AcDbLine
 10
647.4627707932584
 20
-269.0000021857919
 30
0.0
 11
612.4627803560981
 21
-269.0000021857919
 31
0.0
1001
AcDbBlockRepETag
1070
     1
1071
       38
1005
0
  0
TEXT
  5
3F64
330
3F33
100
AcDbEntity
  8
0
  6
Continuous
 62
   255
100
AcDbText
 10
615.999552743995
 20
-271.7908875797558
 30
0.0
 40
1.72391304347826
  1
PI/R&D/F/18 Rev 00
100
AcDbText
1001
AcDbBlockRepETag
1070
     1
1071
       51
1005
0
  0
MTEXT
  5
3F65
330
3F33
100
AcDbEntity
  8
0
  6
Continuous
 62
   255
100
AcDbMText
 10
614.3222225762045
 20
-248.3998440810558
 30
0.0
 40
2.1
 41
122.5201940634145
 46
0.0
 71
     7
 72
     1
  1
Unless & otherwise specified, all dimensions and tolerances are in mm.
  7
style1
 73
     1
 44
1.0
1001
AcDbBlockRepETag
1070
     1
1071
       64
1005
0
  0
LINE
  5
3F66
330
3F33
100
AcDbEntity
  8
0
  6
Continuous
 62
   255
100
AcDbLine
 10
612.4627803560981
 20
-250.0008059763035
 30
0.0
 11
795.4627303561112
 21
-250.0008059763035
 31
0.0
1001
AcDbBlockRepETag
1070
     1
1071
        3
1005
0
  0
LINE
  5
3F67
330
3F33
100
AcDbEntity
  8
0
  6
Continuous
 62
   255
100
AcDbLine
 10
773.5343585340038
 20
-255.000001092896
 30
0.0
 11
747.743499713406
 21
-255.0000010928961
 31
0.0
1001
AcDbBlockRepETag
1070
     1
1071
       38
1005
0
  0
LINE
  5
3F68
330
3F33
100
AcDbEntity
  8
0
  6
Continuous
 62
   255
100
AcDbLine
 10
795.4627303561112
 20
-264.0000010928959
 30
0.0
 11
732.4627505746859
 21
-264.0000010928962
 31
0.0
1001
AcDbBlockRepETag
1070
     1
1071
       38
1005
0
  0
MTEXT
  5
3F69
330
3F33
100
AcDbEntity
  8
1
 62
     4
100
AcDbMText
 10
408.137763946511
 20
-249.4153946635623
 30
0.0
 40
4.5
 41
49.18666449634293
 46
0.0
 71
     2
 72
     5
  1
{\C256;Drg. No.}
 11
-0.0000000000000002
 21
-1.0
 31
0.0
 73
     1
 44
1.0
  0
LINE
  5
3F6A
330
3F33
100
AcDbEntity
  8
0
  6
Continuous
 62
   255
100
AcDbLine
 10
783.462730356111
 20
-273.0000010928959
 30
0.0
 11
783.4627303561108
 21
-264.000001092896
 31
0.0
  0
MTEXT
  5
3F6B
330
3F33
100
AcDbEntity
  8
1
 62
     3
100
AcDbMText
 10
616.955855400455
 20
-235.2485951401709
 30
0.0
 40
3.5
 41
134.8361601943441
 46
0.0
 71
     1
 72
     5
  1
Technology: Description - no. x.xxx.xx.xxxx
 73
     1
 44
1.0
  0
LINE
  5
3F6C
330
3F33
100
AcDbEntity
  8
0
  6
Continuous
 62
   255
100
AcDbLine
 10
657.5563534752002
 20
-250.0008059763033
 30
0.0
 11
657.5563534752006
 21
-255.000001092896
 31
0.0
1001
AcDbBlockRepETag
1070
     1
1071
       22
1005
0
  0
LINE
  5
3F6D
330
3F33
100
AcDbEntity
  8
0
  6
Continuous
 62
   255
100
AcDbLine
 10
747.7434997134055
 20
-250.0008059763033
 30
0.0
 11
747.743499713406
 21
-255.000001092896
 31
0.0
1001
AcDbBlockRepETag
1070
     1
1071
       22
1005
0
  0
LINE
  5
3F6E
330
3F33
100
AcDbEntity
  8
0
  6
Continuous
 62
   255
100
AcDbLine
 10
777.1060302804662
 20
-277.0
 30
0.0
 11
777.106030280466
 21
-273.0000010928959
 31
0.0
  0
MTEXT
  5
3F6F
330
3F33
100
AcDbEntity
  8
0
 62
   255
100
AcDbMText
 10
614.2184337595852
 20
-251.1665621572582
 30
0.0
 40
2.5
 41
0.0
 46
0.0
 71
     1
 72
     5
  1
Drawn:
 73
     1
 44
1.0
1001
AcDbBlockRepETag
1070
     1
1071
       46
1005
0
  0
MTEXT
  5
3F70
330
3F33
100
AcDbEntity
  8
0
 62
   255
100
AcDbMText
 10
659.8380221434101
 20
-251.1665621572539
 30
0.0
 40
2.5
 41
0.0
 46
0.0
 71
     1
 72
     5
  1
Checked:
 73
     1
 44
1.0
1001
AcDbBlockRepETag
1070
     1
1071
       46
1005
0
  0
MTEXT
  5
3F71
330
3F33
100
AcDbEntity
  8
0
 62
   255
100
AcDbMText
 10
705.588009643413
 20
-251.1665621572539
 30
0.0
 40
2.5
 41
0.0
 46
0.0
 71
     1
 72
     5
  1
Approved:
 73
     1
 44
1.0
1001
AcDbBlockRepETag
1070
     1
1071
       46
1005
0
  0
MTEXT
  5
3F72
330
3F33
100
AcDbEntity
  8
0
 62
   255
100
AcDbMText
 10
749.3687540007138
 20
-251.1665621572497
 30
0.0
 40
2.5
 41
0.0
 46
0.0
 71
     1
 72
     5
  1
Revision No: 00
 73
     1
 44
1.0
1001
AcDbBlockRepETag
1070
     1
1071
       46
1005
0
  0
LINE
  5
3F73
330
3F33
100
AcDbEntity
  8
0
  6
Continuous
 62
   255
100
AcDbLine
 10
747.7434997134057
 20
-255.0000010928962
 30
0.0
 11
612.4627803560981
 21
-255.0000010928959
 31
0.0
1001
AcDbBlockRepETag
1070
     1
1071
       38
1005
0
  0
LINE
  5
3F74
330
3F33
100
AcDbEntity
  8
0
  6
Continuous
 62
   255
100
AcDbLine
 10
702.6499265943025
 20
-250.0008059762993
 30
0.0
 11
702.649926594303
 21
-255.0000010928919
 31
0.0
1001
AcDbBlockRepETag
1070
     1
1071
       22
1005
0
  0
ENDBLK
  5
3F78
330
3F33
100
AcDbEntity
  8
0
100
AcDbBlockEnd
  0
BLOCK
  5
42AC
330
42AB
100
AcDbEntity
  8
0
100
AcDbBlockBegin
  2
*D83
 70
     1
 10
0.0
 20
0.0
 30
0.0
  3
*D83
  1

  0
LINE
  5
4332
330
42AB
100
AcDbEntity
  8
0
 62
     2
370
    -2
100
AcDbLine
 10
136.6241673929539
 20
237.2795009997354
 30
0.0
 11
136.6241673929539
 21
250.3476385132828
 31
0.0
  0
LINE
  5
4333
330
42AB
100
AcDbEntity
  8
0
 62
     2
370
    -2
100
AcDbLine
 10
136.6241673929539
 20
251.1899878046342
 30
0.0
 11
136.6241673929539
 21
255.259955326939
 31
0.0
  0
LINE
  5
4334
330
42AB
100
AcDbEntity
  8
0
 62
     2
370
    -2
100
AcDbLine
 10
126.6241673929539
 20
237.2795009997354
 30
0.0
 11
126.6241673929539
 21
255.259955326939
 31
0.0
  0
LINE
  5
4335
330
42AB
100
AcDbEntity
  8
0
 62
     2
370
    -2
100
AcDbLine
 10
134.8741673929539
 20
254.759955326939
 30
0.0
 11
128.3741673929539
 21
254.759955326939
 31
0.0
  0
SOLID
  5
4336
330
42AB
100
AcDbEntity
  8
0
 62
     2
100
AcDbTrace
 10
134.8741673929539
 20
255.0516219936056
 30
0.0
 11
134.8741673929539
 21
254.4682886602724
 31
0.0
 12
136.6241673929539
 22
254.759955326939
 32
0.0
 13
136.6241673929539
 23
254.759955326939
 33
0.0
  0
SOLID
  5
4337
330
42AB
100
AcDbEntity
  8
0
 62
     2
100
AcDbTrace
 10
128.3741673929539
 20
255.0516219936056
 30
0.0
 11
128.3741673929539
 21
254.4682886602724
 31
0.0
 12
126.6241673929539
 22
254.759955326939
 32
0.0
 13
126.6241673929539
 23
254.759955326939
 33
0.0
  0
MTEXT
  5
4338
330
42AB
100
AcDbEntity
  8
0
 62
     3
100
AcDbMText
 10
131.6241673929539
 20
256.134955326939
 30
0.0
 40
1.75
 41
0.0
 46
0.0
 71
     5
 72
     1
  1
\A1;%%C10
 73
     1
 44
1.0
  0
POINT
  5
4339
330
42AB
100
AcDbEntity
  8
Defpoints
 62
     0
100
AcDbPoint
 10
136.6241673929539
 20
237.2795009997354
 30
0.0
  0
POINT
  5
433A
330
42AB
100
AcDbEntity
  8
Defpoints
 62
     0
100
AcDbPoint
 10
126.6241673929539
 20
237.2795009997354
 30
0.0
  0
POINT
  5
433B
330
42AB
100
AcDbEntity
  8
Defpoints
 62
     0
100
AcDbPoint
 10
126.6241673929539
 20
254.759955326939
 30
0.0
  0
ENDBLK
  5
42AD
330
42AB
100
AcDbEntity
  8
0
100
AcDbBlockEnd
  0
BLOCK
  5
433E
330
433D
100
AcDbEntity
  8
0
100
AcDbBlockBegin
  2
*D84
 70
     1
 10
0.0
 20
0.0
 30
0.0
  3
*D84
  1

  0
LINE
  5
457A
330
433D
100
AcDbEntity
  8
0
 62
     2
370
    -2
100
AcDbLine
 10
175.8711094532161
 20
229.1795009997355
 30
0.0
 11
175.8711094532161
 21
223.4833030150439
 31
0.0
  0
LINE
  5
457B
330
433D
100
AcDbEntity
  8
0
 62
     2
370
    -2
100
AcDbLine
 10
174.1711094532161
 20
229.5795009997354
 30
0.0
 11
174.1711094532161
 21
223.4833030150439
 31
0.0
  0
LINE
  5
457C
330
433D
100
AcDbEntity
  8
0
 62
     2
370
    -2
100
AcDbLine
 10
175.8711094532161
 20
223.9833030150439
 30
0.0
 11
177.6211094532161
 21
223.9833030150439
 31
0.0
  0
LINE
  5
457D
330
433D
100
AcDbEntity
  8
0
 62
     2
370
    -2
100
AcDbLine
 10
172.4211094532161
 20
223.9833030150439
 30
0.0
 11
170.6711094532161
 21
223.9833030150439
 31
0.0
  0
MTEXT
  5
457E
330
433D
100
AcDbEntity
  8
0
 62
     3
100
AcDbMText
 10
171.6440532677081
 20
225.4917606638775
 30
0.0
 40
1.75
 41
0.0
 46
0.0
 71
     5
 72
     1
  1
\A1;1.7
 73
     1
 44
1.0
  0
LINE
  5
457F
330
433D
100
AcDbEntity
  8
0
 62
     2
370
    -2
100
AcDbLine
 10
175.8711094532161
 20
223.9833030150439
 30
0.0
 11
174.1711094532161
 21
223.9833030150439
 31
0.0
  0
INSERT
  5
4580
330
433D
100
AcDbEntity
  8
0
 62
     2
370
    -2
100
AcDbBlockReference
  2
_Oblique
 10
175.8711094532161
 20
223.9833030150439
 30
0.0
 41
1.75
 42
1.75
 43
1.75
 50
180.0
  0
SOLID
  5
4581
330
433D
100
AcDbEntity
  8
0
 62
     2
100
AcDbTrace
 10
172.4211094532161
 20
224.2749696817106
 30
0.0
 11
172.4211094532161
 21
223.6916363483773
 31
0.0
 12
174.1711094532161
 22
223.9833030150439
 32
0.0
 13
174.1711094532161
 23
223.9833030150439
 33
0.0
  0
POINT
  5
4582
330
433D
100
AcDbEntity
  8
Defpoints
 62
     0
100
AcDbPoint
 10
175.8711094532161
 20
229.1795009997355
 30
0.0
  0
POINT
  5
4583
330
433D
100
AcDbEntity
  8
Defpoints
 62
     0
100
AcDbPoint
 10
174.1711094532161
 20
229.5795009997354
 30
0.0
  0
POINT
  5
4584
330
433D
100
AcDbEntity
  8
Defpoints
 62
     0
100
AcDbPoint
 10
174.1711094532161
 20
223.9833030150439
 30
0.0
  0
ENDBLK
  5
433F
330
433D
100
AcDbEntity
  8
0
100
AcDbBlockEnd
  0
BLOCK
  5
434C
330
434B
100
AcDbEntity
  8
0
100
AcDbBlockBegin
  2
*D85
 70
     1
 10
0.0
 20
0.0
 30
0.0
  3
*D85
  1

  0
LINE
  5
4444
330
434B
100
AcDbEntity
  8
0
 62
     2
370
    -2
100
AcDbLine
 10
175.8711094532161
 20
229.1795009997355
 30
0.0
 11
175.8711094532161
 21
223.4833030150439
 31
0.0
  0
LINE
  5
4445
330
434B
100
AcDbEntity
  8
0
 62
     2
370
    -2
100
AcDbLine
 10
177.3711094532161
 20
229.1795009997355
 30
0.0
 11
177.3711094532161
 21
223.4833030150439
 31
0.0
  0
LINE
  5
4446
330
434B
100
AcDbEntity
  8
0
 62
     2
370
    -2
100
AcDbLine
 10
175.8711094532161
 20
223.9833030150439
 30
0.0
 11
174.1211094532161
 21
223.9833030150439
 31
0.0
  0
LINE
  5
4447
330
434B
100
AcDbEntity
  8
0
 62
     2
370
    -2
100
AcDbLine
 10
179.1211094532161
 20
223.9833030150439
 30
0.0
 11
180.8711094532161
 21
223.9833030150439
 31
0.0
  0
MTEXT
  5
4448
330
434B
100
AcDbEntity
  8
0
 62
     3
100
AcDbMText
 10
179.4962214722281
 20
225.4502800583191
 30
0.0
 40
1.75
 41
0.0
 46
0.0
 71
     5
 72
     1
  1
\A1;1.5
 73
     1
 44
1.0
  0
LINE
  5
4449
330
434B
100
AcDbEntity
  8
0
 62
     2
370
    -2
100
AcDbLine
 10
175.8711094532161
 20
223.9833030150439
 30
0.0
 11
177.3711094532161
 21
223.9833030150439
 31
0.0
  0
INSERT
  5
444A
330
434B
100
AcDbEntity
  8
0
 62
     2
370
    -2
100
AcDbBlockReference
  2
_Oblique
 10
175.8711094532161
 20
223.9833030150439
 30
0.0
 41
1.75
 42
1.75
 43
1.75
  0
SOLID
  5
444B
330
434B
100
AcDbEntity
  8
0
 62
     2
100
AcDbTrace
 10
179.1211094532161
 20
224.2749696817106
 30
0.0
 11
179.1211094532161
 21
223.6916363483773
 31
0.0
 12
177.3711094532161
 22
223.9833030150439
 32
0.0
 13
177.3711094532161
 23
223.9833030150439
 33
0.0
  0
POINT
  5
444C
330
434B
100
AcDbEntity
  8
Defpoints
 62
     0
100
AcDbPoint
 10
175.8711094532161
 20
229.1795009997355
 30
0.0
  0
POINT
  5
444D
330
434B
100
AcDbEntity
  8
Defpoints
 62
     0
100
AcDbPoint
 10
177.3711094532161
 20
229.1795009997355
 30
0.0
  0
POINT
  5
444E
330
434B
100
AcDbEntity
  8
Defpoints
 62
     0
100
AcDbPoint
 10
177.3711094532161
 20
223.9833030150439
 30
0.0
  0
ENDBLK
  5
434D
330
434B
100
AcDbEntity
  8
0
100
AcDbBlockEnd
  0
BLOCK
  5
442C
330
442A
100
AcDbEntity
  8
0
 62
     2
100
AcDbBlockBegin
  2
_Oblique
 70
     0
 10
0.0
 20
0.0
 30
0.0
  3
_Oblique
  1

  0
LINE
  5
442B
330
442A
100
AcDbEntity
  8
0
  6
ByBlock
 62
     0
370
    -2
100
AcDbLine
 10
-0.5
 20
-0.5
 30
0.0
 11
0.5
 21
0.5
 31
0.0
  0
ENDBLK
  5
442D
330
442A
100
AcDbEntity
  8
0
 62
     2
100
AcDbBlockEnd
  0
ENDSEC
  0
SECTION
  2
ENTITIES
  0
INSERT
  5
40C
330
74
100
AcDbEntity
  8
0
100
AcDbBlockReference
  2
1011170046S11_TOP_
 10
0.0
 20
0.0
 30
0.0
 41
2.0
 42
2.0
 43
2.0
  0
LINE
  5
3B14
330
74
100
AcDbEntity
  8
1
 62
   255
100
AcDbLine
 10
201.5711094532161
 20
236.5295009997354
 30
0.0
 11
201.5711094532161
 21
238.0295009997354
 31
0.0
1001
AcDbBlockRepETag
1070
     1
1071
        5
1005
3B14
  0
LINE
  5
3B15
330
74
100
AcDbEntity
  8
1
 62
   255
100
AcDbLine
 10
201.5711094532161
 20
238.0295009997354
 30
0.0
 11
201.5711094532161
 21
239.5295009997354
 31
0.0
1001
AcDbBlockRepETag
1070
     1
1071
        6
1005
3B15
  0
LINE
  5
3B16
330
74
100
AcDbEntity
  8
1
 62
     2
100
AcDbLine
 10
207.3211094532161
 20
237.8097059215857
 30
0.0
 11
207.3211094532161
 21
236.7297059215857
 31
0.0
1001
AcDbBlockRepETag
1070
     1
1071
        7
1005
3B16
  0
LINE
  5
3B17
330
74
100
AcDbEntity
  8
1
 62
   255
100
AcDbLine
 10
207.3211094532161
 20
238.0295009997354
 30
0.0
 11
207.5711094532161
 21
237.9385084411688
 31
0.0
1001
AcDbBlockRepETag
1070
     1
1071
        8
1005
3B17
  0
LINE
  5
3B18
330
74
100
AcDbEntity
  8
1
 62
   255
100
AcDbLine
 10
207.3211094532161
 20
236.5295009997354
 30
0.0
 11
207.5711094532161
 21
236.620493558302
 31
0.0
1001
AcDbBlockRepETag
1070
     1
1071
        9
1005
3B18
  0
LINE
  5
3B19
330
74
100
AcDbEntity
  8
1
 62
     3
100
AcDbLine
 10
250.1725782567078
 20
243.5295009997352
 30
0.0
 11
250.1725782567078
 21
242.0295009997352
 31
0.0
1001
AcDbBlockRepETag
1070
     1
1071
       10
1005
3B19
  0
LINE
  5
3B1A
330
74
100
AcDbEntity
  8
1
 62
     3
100
AcDbLine
 10
250.2825782567078
 20
242.6695009997352
 30
0.0
 11
250.1725782567078
 21
242.7795009997352
 31
0.0
1001
AcDbBlockRepETag
1070
     1
1071
       11
1005
3B1A
  0
LINE
  5
3B1B
330
74
100
AcDbEntity
  8
1
 62
     3
100
AcDbLine
 10
250.0625782567079
 20
242.8895009997352
 30
0.0
 11
250.0625782567079
 21
243.4195009997352
 31
0.0
1001
AcDbBlockRepETag
1070
     1
1071
       12
1005
3B1B
  0
LINE
  5
3B1C
330
74
100
AcDbEntity
  8
1
 62
     3
100
AcDbLine
 10
250.0625782567079
 20
242.1395009997352
 30
0.0
 11
250.0625782567079
 21
242.6695009997352
 31
0.0
1001
AcDbBlockRepETag
1070
     1
1071
       13
1005
3B1C
  0
LINE
  5
3B1D
330
74
100
AcDbEntity
  8
1
 62
     3
100
AcDbLine
 10
250.2825782567078
 20
242.8895009997352
 30
0.0
 11
250.2825782567078
 21
243.4195009997352
 31
0.0
1001
AcDbBlockRepETag
1070
     1
1071
       14
1005
3B1D
  0
LINE
  5
3B1E
330
74
100
AcDbEntity
  8
1
 62
     3
100
AcDbLine
 10
250.2825782567078
 20
242.1395009997352
 30
0.0
 11
250.2825782567078
 21
242.6695009997352
 31
0.0
1001
AcDbBlockRepETag
1070
     1
1071
       15
1005
3B1E
  0
LINE
  5
3B1F
330
74
100
AcDbEntity
  8
1
 62
     3
100
AcDbLine
 10
250.0625782567079
 20
242.8895009997352
 30
0.0
 11
249.5325782567078
 21
242.8895009997352
 31
0.0
1001
AcDbBlockRepETag
1070
     1
1071
       16
1005
3B1F
  0
LINE
  5
3B20
330
74
100
AcDbEntity
  8
1
 62
     3
100
AcDbLine
 10
250.8125782567078
 20
242.8895009997352
 30
0.0
 11
250.2825782567078
 21
242.8895009997352
 31
0.0
1001
AcDbBlockRepETag
1070
     1
1071
       17
1005
3B20
  0
LINE
  5
3B21
330
74
100
AcDbEntity
  8
1
 62
     3
100
AcDbLine
 10
250.9225782567078
 20
242.7795009997352
 30
0.0
 11
249.4225782567078
 21
242.7795009997352
 31
0.0
1001
AcDbBlockRepETag
1070
     1
1071
       18
1005
3B21
  0
LINE
  5
3B22
330
74
100
AcDbEntity
  8
1
 62
     3
100
AcDbLine
 10
250.0625782567079
 20
242.6695009997352
 30
0.0
 11
249.5325782567078
 21
242.6695009997352
 31
0.0
1001
AcDbBlockRepETag
1070
     1
1071
       19
1005
3B22
  0
LINE
  5
3B23
330
74
100
AcDbEntity
  8
1
 62
     3
100
AcDbLine
 10
250.8125782567078
 20
242.6695009997352
 30
0.0
 11
250.2825782567078
 21
242.6695009997352
 31
0.0
1001
AcDbBlockRepETag
1070
     1
1071
       20
1005
3B23
  0
LINE
  5
3B24
330
74
100
AcDbEntity
  8
1
 62
     3
100
AcDbLine
 10
249.5325782567078
 20
242.8895009997352
 30
0.0
 11
249.4225782567078
 21
242.7795009997352
 31
0.0
1001
AcDbBlockRepETag
1070
     1
1071
       21
1005
3B24
  0
LINE
  5
3B25
330
74
100
AcDbEntity
  8
1
 62
     3
100
AcDbLine
 10
250.9225782567078
 20
242.7795009997352
 30
0.0
 11
250.8125782567078
 21
242.6695009997352
 31
0.0
1001
AcDbBlockRepETag
1070
     1
1071
       22
1005
3B25
  0
LINE
  5
3B26
330
74
100
AcDbEntity
  8
1
 62
     3
100
AcDbLine
 10
250.9225782567078
 20
242.7795009997352
 30
0.0
 11
250.8125782567078
 21
242.8895009997352
 31
0.0
1001
AcDbBlockRepETag
1070
     1
1071
       23
1005
3B26
  0
LINE
  5
3B27
330
74
100
AcDbEntity
  8
1
 62
     3
100
AcDbLine
 10
250.1725782567078
 20
243.5295009997352
 30
0.0
 11
250.2825782567078
 21
243.4195009997352
 31
0.0
1001
AcDbBlockRepETag
1070
     1
1071
       24
1005
3B27
  0
LINE
  5
3B28
330
74
100
AcDbEntity
  8
1
 62
     3
100
AcDbLine
 10
250.1725782567078
 20
243.5295009997352
 30
0.0
 11
250.0625782567079
 21
243.4195009997352
 31
0.0
1001
AcDbBlockRepETag
1070
     1
1071
       25
1005
3B28
  0
LINE
  5
3B29
330
74
100
AcDbEntity
  8
1
 62
     3
100
AcDbLine
 10
249.5325782567078
 20
242.6695009997352
 30
0.0
 11
249.4225782567078
 21
242.7795009997352
 31
0.0
1001
AcDbBlockRepETag
1070
     1
1071
       26
1005
3B29
  0
LINE
  5
3B2A
330
74
100
AcDbEntity
  8
1
 62
     3
100
AcDbLine
 10
250.1725782567078
 20
242.0295009997352
 30
0.0
 11
250.0625782567079
 21
242.1395009997352
 31
0.0
1001
AcDbBlockRepETag
1070
     1
1071
       27
1005
3B2A
  0
LINE
  5
3B2B
330
74
100
AcDbEntity
  8
1
 62
     3
100
AcDbLine
 10
250.2825782567078
 20
242.1395009997352
 30
0.0
 11
250.1725782567078
 21
242.0295009997352
 31
0.0
1001
AcDbBlockRepETag
1070
     1
1071
       28
1005
3B2B
  0
LINE
  5
3B2C
330
74
100
AcDbEntity
  8
1
 62
     3
100
AcDbLine
 10
250.0625782567079
 20
242.6695009997352
 30
0.0
 11
250.1725782567078
 21
242.7795009997352
 31
0.0
1001
AcDbBlockRepETag
1070
     1
1071
       29
1005
3B2C
  0
LINE
  5
3B2D
330
74
100
AcDbEntity
  8
1
 62
     3
100
AcDbLine
 10
250.1725782567078
 20
242.7795009997352
 30
0.0
 11
250.0625782567079
 21
242.8895009997352
 31
0.0
1001
AcDbBlockRepETag
1070
     1
1071
       30
1005
3B2D
  0
LINE
  5
3B2E
330
74
100
AcDbEntity
  8
1
 62
     3
100
AcDbLine
 10
250.1725782567078
 20
242.7795009997352
 30
0.0
 11
250.2825782567078
 21
242.8895009997352
 31
0.0
1001
AcDbBlockRepETag
1070
     1
1071
       31
1005
3B2E
  0
LINE
  5
3B2F
330
74
100
AcDbEntity
  8
1
 62
     2
100
AcDbLine
 10
242.3339975495927
 20
236.3992542930694
 30
0.0
 11
242.5659228101893
 21
236.8009606279817
 31
0.0
1001
AcDbBlockRepETag
1070
     1
1071
       32
1005
3B2F
  0
LINE
  5
3B30
330
74
100
AcDbEntity
  8
1
 62
     2
100
AcDbLine
 10
242.7292304577603
 20
236.7066749136961
 30
0.0
 11
242.4973051971634
 21
236.3049685787837
 31
0.0
1001
AcDbBlockRepETag
1070
     1
1071
       33
1005
3B30
  0
LINE
  5
3B31
330
74
100
AcDbEntity
  8
1
 62
     2
100
AcDbLine
 10
243.1781710935677
 20
237.4842629044971
 30
0.0
 11
243.5302341132298
 21
237.4842629044971
 31
0.0
1001
AcDbBlockRepETag
1070
     1
1071
       34
1005
3B31
  0
LINE
  5
3B32
330
74
100
AcDbEntity
  8
1
 62
     2
100
AcDbLine
 10
243.1781710935677
 20
237.4842629044971
 30
0.0
 11
242.9417324118996
 21
237.0747390949733
 31
0.0
1001
AcDbBlockRepETag
1070
     1
1071
       35
1005
3B32
  0
LINE
  5
3B33
330
74
100
AcDbEntity
  8
1
 62
     2
100
AcDbLine
 10
242.7239888818053
 20
237.0747390949733
 30
0.0
 11
242.3719258621432
 21
237.0747390949733
 31
0.0
1001
AcDbBlockRepETag
1070
     1
1071
       36
1005
3B33
  0
LINE
  5
3B34
330
74
100
AcDbEntity
  8
1
 62
     2
100
AcDbLine
 10
242.7239888818053
 20
237.0747390949733
 30
0.0
 11
242.9604275634733
 21
237.4842629044971
 31
0.0
1001
AcDbBlockRepETag
1070
     1
1071
       37
1005
3B34
  0
LINE
  5
3B35
330
74
100
AcDbEntity
  8
1
 62
     2
100
AcDbLine
 10
242.3719258621432
 20
237.4842629044971
 30
0.0
 11
242.9604275634733
 21
237.4842629044971
 31
0.0
1001
AcDbBlockRepETag
1070
     1
1071
       38
1005
3B35
  0
LINE
  5
3B36
330
74
100
AcDbEntity
  8
1
 62
     2
100
AcDbLine
 10
243.5681624257804
 20
238.1597477064011
 30
0.0
 11
243.3362371651835
 21
237.7580413714886
 31
0.0
1001
AcDbBlockRepETag
1070
     1
1071
       39
1005
3B36
  0
LINE
  5
3B37
330
74
100
AcDbEntity
  8
1
 62
     2
100
AcDbLine
 10
243.4048547782097
 20
238.2540334206867
 30
0.0
 11
243.1729295176128
 21
237.8523270857744
 31
0.0
1001
AcDbBlockRepETag
1070
     1
1071
       40
1005
3B37
  0
LINE
  5
3B38
330
74
100
AcDbEntity
  8
1
 62
     2
100
AcDbLine
 10
250.5094655084939
 20
235.6887097171614
 30
0.0
 11
250.5094655084939
 21
236.4887097171614
 31
0.0
1001
AcDbBlockRepETag
1070
     1
1071
       41
1005
3B38
  0
LINE
  5
3B39
330
74
100
AcDbEntity
  8
1
 62
     2
100
AcDbLine
 10
249.9594655084939
 20
235.6887097171614
 30
0.0
 11
250.5094655084939
 21
235.6887097171614
 31
0.0
1001
AcDbBlockRepETag
1070
     1
1071
       42
1005
3B39
  0
LINE
  5
3B3A
330
74
100
AcDbEntity
  8
1
 62
     2
100
AcDbLine
 10
249.9594655084939
 20
238.2387097171614
 30
0.0
 11
249.9594655084939
 21
235.6887097171614
 31
0.0
1001
AcDbBlockRepETag
1070
     1
1071
       43
1005
3B3A
  0
LINE
  5
3B3B
330
74
100
AcDbEntity
  8
1
 62
     2
100
AcDbLine
 10
250.5094655084939
 20
238.2387097171614
 30
0.0
 11
249.9594655084939
 21
238.2387097171614
 31
0.0
1001
AcDbBlockRepETag
1070
     1
1071
       44
1005
3B3B
  0
LINE
  5
3B3C
330
74
100
AcDbEntity
  8
1
 62
     2
100
AcDbLine
 10
250.5094655084939
 20
238.0387097171614
 30
0.0
 11
250.5094655084939
 21
238.2387097171614
 31
0.0
1001
AcDbBlockRepETag
1070
     1
1071
       45
1005
3B3C
  0
LINE
  5
3B3D
330
74
100
AcDbEntity
  8
1
 62
     2
100
AcDbLine
 10
249.7474972910179
 20
236.4398249347615
 30
0.0
 11
249.7474972910179
 21
237.7098268108383
 31
0.0
1001
AcDbBlockRepETag
1070
     1
1071
       46
1005
3B3D
  0
LINE
  5
3B3E
330
74
100
AcDbEntity
  8
1
 62
     2
100
AcDbLine
 10
249.809465508494
 20
236.2898249347615
 30
0.0
 11
249.2376896698826
 21
236.2898249347615
 31
0.0
1001
AcDbBlockRepETag
1070
     1
1071
       47
1005
3B3E
  0
LINE
  5
3B3F
330
74
100
AcDbEntity
  8
1
 62
     2
100
AcDbLine
 10
249.1974972910179
 20
236.4398249347615
 30
0.0
 11
249.2376896698826
 21
236.2898249347615
 31
0.0
1001
AcDbBlockRepETag
1070
     1
1071
       48
1005
3B3F
  0
LINE
  5
3B40
330
74
100
AcDbEntity
  8
1
 62
     2
100
AcDbLine
 10
248.369025286864
 20
237.3874329176221
 30
0.0
 11
249.0214976996138
 21
237.5157361073605
 31
0.0
1001
AcDbBlockRepETag
1070
     1
1071
       49
1005
3B40
  0
LINE
  5
3B41
330
74
100
AcDbEntity
  8
1
 62
     2
100
AcDbLine
 10
248.0291553648064
 20
237.623240819687
 30
0.0
 11
248.5487531359414
 21
237.623240819687
 31
0.0
1001
AcDbBlockRepETag
1070
     1
1071
       50
1005
3B41
  0
LINE
  5
3B42
330
74
100
AcDbEntity
  8
1
 62
     2
100
AcDbLine
 10
248.6668367124866
 20
237.0613738877425
 30
0.0
 11
249.143182536244
 21
237.1717764498065
 31
0.0
1001
AcDbBlockRepETag
1070
     1
1071
       51
1005
3B42
  0
LINE
  5
3B43
330
74
100
AcDbEntity
  8
1
 62
     2
100
AcDbLine
 10
249.1974972910179
 20
237.2141936488792
 30
0.0
 11
249.1974972910179
 21
237.0240247187282
 31
0.0
1001
AcDbBlockRepETag
1070
     1
1071
       52
1005
3B43
  0
LINE
  5
3B44
330
74
100
AcDbEntity
  8
1
 62
     2
100
AcDbLine
 10
247.3349254498304
 20
237.6295009997352
 30
0.0
 11
247.8851807950185
 21
237.6295009997352
 31
0.0
1001
AcDbBlockRepETag
1070
     1
1071
       53
1005
3B44
  0
LINE
  5
3B45
330
74
100
AcDbEntity
  8
1
 62
     2
100
AcDbLine
 10
247.3202855935918
 20
236.9045009997352
 30
0.0
 11
247.8791553648063
 21
236.9045009997352
 31
0.0
1001
AcDbBlockRepETag
1070
     1
1071
       54
1005
3B45
  0
LINE
  5
3B46
330
74
100
AcDbEntity
  8
1
 62
     2
100
AcDbLine
 10
241.2702439530518
 20
234.2146361599838
 30
0.0
 11
242.4814512937969
 21
236.3125088126544
 31
0.0
1001
AcDbBlockRepETag
1070
     1
1071
       55
1005
3B46
  0
LINE
  5
3B47
330
74
100
AcDbEntity
  8
1
 62
     2
100
AcDbLine
 10
241.0929149418008
 20
234.2146361599838
 30
0.0
 11
241.2702439530518
 21
234.2146361599838
 31
0.0
1001
AcDbBlockRepETag
1070
     1
1071
       56
1005
3B47
  0
LINE
  5
3B48
330
74
100
AcDbEntity
  8
1
 62
     2
100
AcDbLine
 10
242.3484545353584
 20
236.3892945269401
 30
0.0
 11
241.0929149418008
 21
234.2146361599838
 31
0.0
1001
AcDbBlockRepETag
1070
     1
1071
       57
1005
3B48
  0
LINE
  5
3B49
330
74
100
AcDbEntity
  8
1
 62
     2
100
AcDbLine
 10
243.9645997073872
 20
236.9211676664019
 30
0.0
 11
243.4500230315279
 21
236.9211676664019
 31
0.0
1001
AcDbBlockRepETag
1070
     1
1071
       58
1005
3B49
  0
LINE
  5
3B4A
330
74
100
AcDbEntity
  8
1
 62
     2
100
AcDbLine
 10
244.0063986894815
 20
237.0747390949733
 30
0.0
 11
242.9417324118996
 21
237.0747390949733
 31
0.0
1001
AcDbBlockRepETag
1070
     1
1071
       59
1005
3B4A
  0
LINE
  5
3B4B
330
74
100
AcDbEntity
  8
1
 62
     2
100
AcDbLine
 10
244.8092450335724
 20
240.3443658394865
 30
0.0
 11
244.6319160223212
 21
240.3443658394865
 31
0.0
1001
AcDbBlockRepETag
1070
     1
1071
       60
1005
3B4B
  0
LINE
  5
3B4C
330
74
100
AcDbEntity
  8
1
 62
     2
100
AcDbLine
 10
243.5537054400148
 20
238.1697074725303
 30
0.0
 11
244.8092450335724
 21
240.3443658394865
 31
0.0
1001
AcDbBlockRepETag
1070
     1
1071
       61
1005
3B4C
  0
LINE
  5
3B4D
330
74
100
AcDbEntity
  8
1
 62
     2
100
AcDbLine
 10
244.6319160223212
 20
240.3443658394865
 30
0.0
 11
243.4207086815764
 21
238.246493186816
 31
0.0
1001
AcDbBlockRepETag
1070
     1
1071
       62
1005
3B4D
  0
LINE
  5
3B4E
330
74
100
AcDbEntity
  8
1
 62
     2
100
AcDbLine
 10
244.6300758978634
 20
236.9205802176924
 30
0.0
 11
244.1181711359586
 21
236.9205802176924
 31
0.0
1001
AcDbBlockRepETag
1070
     1
1071
       63
1005
3B4E
  0
LINE
  5
3B4F
330
74
100
AcDbEntity
  8
1
 62
     2
100
AcDbLine
 10
244.5824450827256
 20
237.1426229358837
 30
0.0
 11
245.2031507840584
 21
237.017024010977
 31
0.0
1001
AcDbBlockRepETag
1070
     1
1071
       64
1005
3B4F
  0
LINE
  5
3B50
330
74
100
AcDbEntity
  8
1
 62
     2
100
AcDbLine
 10
245.3606659491468
 20
237.6634295711638
 30
0.0
 11
245.9098378026252
 21
237.6634295711638
 31
0.0
1001
AcDbBlockRepETag
1070
     1
1071
       65
1005
3B50
  0
LINE
  5
3B51
330
74
100
AcDbEntity
  8
1
 62
     2
100
AcDbLine
 10
244.8672188514397
 20
237.6067610130276
 30
0.0
 11
245.5259092311968
 21
237.4139953358754
 31
0.0
1001
AcDbBlockRepETag
1070
     1
1071
       66
1005
3B51
  0
LINE
  5
3B52
330
74
100
AcDbEntity
  8
1
 62
   255
100
AcDbLine
 10
255.1083028347167
 20
239.2795009997352
 30
0.0
 11
253.9725782567082
 21
239.2795009997352
 31
0.0
1001
AcDbBlockRepETag
1070
     1
1071
       67
1005
3B52
  0
LINE
  5
3B53
330
74
100
AcDbEntity
  8
1
 62
   255
100
AcDbLine
 10
253.3725782567082
 20
238.6795009997352
 30
0.0
 11
253.3725782567082
 21
235.8795009997352
 31
0.0
1001
AcDbBlockRepETag
1070
     1
1071
       68
1005
3B53
  0
LINE
  5
3B54
330
74
100
AcDbEntity
  8
1
 62
   255
100
AcDbLine
 10
253.9725782567082
 20
235.2795009997352
 30
0.0
 11
255.1083028347167
 21
235.2795009997352
 31
0.0
1001
AcDbBlockRepETag
1070
     1
1071
       69
1005
3B54
  0
LINE
  5
3B55
330
74
100
AcDbEntity
  8
1
 62
   255
100
AcDbLine
 10
174.1711094532161
 20
229.5795009997354
 30
0.0
 11
174.1711094532161
 21
244.9795009997354
 31
0.0
1001
AcDbBlockRepETag
1070
     1
1071
       70
1005
3B55
  0
LINE
  5
3B56
330
74
100
AcDbEntity
  8
1
 62
   255
100
AcDbLine
 10
175.7711094532162
 20
244.9795009997354
 30
0.0
 11
174.1711094532161
 21
244.9795009997354
 31
0.0
1001
AcDbBlockRepETag
1070
     1
1071
       71
1005
3B56
  0
LINE
  5
3B57
330
74
100
AcDbEntity
  8
1
 62
   255
100
AcDbLine
 10
175.7711094532162
 20
229.5795009997354
 30
0.0
 11
175.7711094532162
 21
244.9795009997354
 31
0.0
1001
AcDbBlockRepETag
1070
     1
1071
       72
1005
3B57
  0
LINE
  5
3B58
330
74
100
AcDbEntity
  8
1
 62
   255
100
AcDbLine
 10
201.0711094532161
 20
239.5295009997354
 30
0.0
 11
201.5711094532161
 21
239.5295009997354
 31
0.0
1001
AcDbBlockRepETag
1070
     1
1071
       73
1005
3B58
  0
LINE
  5
3B59
330
74
100
AcDbEntity
  8
1
 62
   255
100
AcDbLine
 10
201.5711094532161
 20
235.0295009997354
 30
0.0
 11
201.5711094532161
 21
236.5295009997354
 31
0.0
1001
AcDbBlockRepETag
1070
     1
1071
       74
1005
3B59
  0
LINE
  5
3B5A
330
74
100
AcDbEntity
  8
1
 62
   255
100
AcDbLine
 10
207.5711094532161
 20
236.620493558302
 30
0.0
 11
207.5711094532161
 21
237.9385084411688
 31
0.0
1001
AcDbBlockRepETag
1070
     1
1071
       75
1005
3B5A
  0
LINE
  5
3B5B
330
74
100
AcDbEntity
  8
1
  6
CENTER
 62
     2
100
AcDbLine
 10
210.0711094532161
 20
237.2795009997354
 30
0.0
 11
171.6711094532161
 21
237.2795009997354
 31
0.0
1001
AcDbBlockRepETag
1070
     1
1071
       76
1005
3B5B
  0
LINE
  5
3B5D
330
74
100
AcDbEntity
  8
1
 62
   255
100
AcDbLine
 10
168.6711094532162
 20
242.1795009997355
 30
0.0
 11
168.6711094532162
 21
242.3795009997355
 31
0.0
1001
AcDbBlockRepETag
1070
     1
1071
       77
1005
3B5D
  0
LINE
  5
3B5E
330
74
100
AcDbEntity
  8
1
 62
   255
100
AcDbLine
 10
174.1711094532161
 20
242.1795009997355
 30
0.0
 11
168.6711094532162
 21
242.1795009997355
 31
0.0
1001
AcDbBlockRepETag
1070
     1
1071
       78
1005
3B5E
  0
LINE
  5
3B5F
330
74
100
AcDbEntity
  8
1
 62
   255
100
AcDbLine
 10
201.5711094532161
 20
235.0295009997354
 30
0.0
 11
201.0711094532161
 21
235.0295009997354
 31
0.0
1001
AcDbBlockRepETag
1070
     1
1071
       79
1005
3B5F
  0
LINE
  5
3B60
330
74
100
AcDbEntity
  8
1
 62
   255
100
AcDbLine
 10
201.5711094532161
 20
236.5295009997354
 30
0.0
 11
207.3211094532161
 21
236.5295009997354
 31
0.0
1001
AcDbBlockRepETag
1070
     1
1071
       80
1005
3B60
  0
LINE
  5
3B61
330
74
100
AcDbEntity
  8
1
 62
   255
100
AcDbLine
 10
207.3211094532161
 20
238.0295009997354
 30
0.0
 11
201.5711094532161
 21
238.0295009997354
 31
0.0
1001
AcDbBlockRepETag
1070
     1
1071
       81
1005
3B61
  0
LINE
  5
3B62
330
74
100
AcDbEntity
  8
1
 62
   255
100
AcDbLine
 10
175.7711094532162
 20
244.9295009997355
 30
0.0
 11
175.8711094532161
 21
244.9295009997355
 31
0.0
1001
AcDbBlockRepETag
1070
     1
1071
       82
1005
3B62
  0
LINE
  5
3B63
330
74
100
AcDbEntity
  8
1
 62
   255
100
AcDbLine
 10
168.6711094532162
 20
242.3795009997355
 30
0.0
 11
174.1711094532161
 21
242.3795009997355
 31
0.0
1001
AcDbBlockRepETag
1070
     1
1071
       83
1005
3B63
  0
LINE
  5
3B64
330
74
100
AcDbEntity
  8
1
 62
   255
100
AcDbLine
 10
174.1711094532161
 20
229.5795009997354
 30
0.0
 11
175.7711094532162
 21
229.5795009997354
 31
0.0
1001
AcDbBlockRepETag
1070
     1
1071
       84
1005
3B64
  0
LINE
  5
3B65
330
74
100
AcDbEntity
  8
1
 62
   255
100
AcDbLine
 10
168.6711094532162
 20
232.1795009997354
 30
0.0
 11
168.6711094532162
 21
232.3795009997354
 31
0.0
1001
AcDbBlockRepETag
1070
     1
1071
       85
1005
3B65
  0
LINE
  5
3B66
330
74
100
AcDbEntity
  8
1
 62
   255
100
AcDbLine
 10
168.6711094532162
 20
232.3795009997354
 30
0.0
 11
174.1711094532161
 21
232.3795009997354
 31
0.0
1001
AcDbBlockRepETag
1070
     1
1071
       86
1005
3B66
  0
LINE
  5
3B67
330
74
100
AcDbEntity
  8
1
 62
   255
100
AcDbLine
 10
175.8711094532161
 20
229.6295009997354
 30
0.0
 11
175.7711094532162
 21
229.6295009997354
 31
0.0
1001
AcDbBlockRepETag
1070
     1
1071
       87
1005
3B67
  0
LINE
  5
3B68
330
74
100
AcDbEntity
  8
1
 62
   255
100
AcDbLine
 10
174.1711094532161
 20
232.1795009997354
 30
0.0
 11
168.6711094532162
 21
232.1795009997354
 31
0.0
1001
AcDbBlockRepETag
1070
     1
1071
       88
1005
3B68
  0
LINE
  5
3B69
330
74
100
AcDbEntity
  8
1
 62
     2
100
AcDbLine
 10
200.8711094532161
 20
234.2795009997354
 30
0.0
 11
200.8711094532161
 21
240.2795009997354
 31
0.0
1001
AcDbBlockRepETag
1070
     1
1071
       89
1005
3B69
  0
LINE
  5
3B6A
330
74
100
AcDbEntity
  8
1
 62
     2
100
AcDbLine
 10
178.0639297762436
 20
245.7795009997355
 30
0.0
 11
178.0639297762437
 21
228.7795009997354
 31
0.0
1001
AcDbBlockRepETag
1070
     1
1071
       90
1005
3B6A
  0
LINE
  5
3B6B
330
74
100
AcDbEntity
  8
1
 62
   255
100
AcDbLine
 10
177.3711094532161
 20
229.1795009997355
 30
0.0
 11
177.3711094532161
 21
245.3795009997355
 31
0.0
1001
AcDbBlockRepETag
1070
     1
1071
       91
1005
3B6B
  0
LINE
  5
3B6C
330
74
100
AcDbEntity
  8
1
 62
   255
100
AcDbLine
 10
201.0711094532161
 20
240.0795009997354
 30
0.0
 11
200.8711094532161
 21
240.2795009997354
 31
0.0
1001
AcDbBlockRepETag
1070
     1
1071
       92
1005
3B6C
  0
LINE
  5
3B6D
330
74
100
AcDbEntity
  8
1
 62
   255
100
AcDbLine
 10
200.8711094532161
 20
240.2795009997354
 30
0.0
 11
200.0711094532161
 21
240.2795009997354
 31
0.0
1001
AcDbBlockRepETag
1070
     1
1071
       93
1005
3B6D
  0
LINE
  5
3B6E
330
74
100
AcDbEntity
  8
1
 62
   255
100
AcDbLine
 10
197.2711094532161
 20
245.2720009997354
 30
0.0
 11
200.0711094532161
 21
245.2720009997354
 31
0.0
1001
AcDbBlockRepETag
1070
     1
1071
       94
1005
3B6E
  0
LINE
  5
3B6F
330
74
100
AcDbEntity
  8
1
 62
   255
100
AcDbLine
 10
177.3711094532161
 20
245.3795009997355
 30
0.0
 11
178.0639297762436
 21
245.7795009997355
 31
0.0
1001
AcDbBlockRepETag
1070
     1
1071
       95
1005
3B6F
  0
LINE
  5
3B70
330
74
100
AcDbEntity
  8
1
 62
   255
100
AcDbLine
 10
175.8711094532161
 20
245.3795009997355
 30
0.0
 11
177.3711094532161
 21
245.3795009997355
 31
0.0
1001
AcDbBlockRepETag
1070
     1
1071
       96
1005
3B70
  0
LINE
  5
3B71
330
74
100
AcDbEntity
  8
1
 62
   255
100
AcDbLine
 10
200.8711094532161
 20
234.2795009997354
 30
0.0
 11
201.0711094532161
 21
234.4795009997354
 31
0.0
1001
AcDbBlockRepETag
1070
     1
1071
       97
1005
3B71
  0
LINE
  5
3B72
330
74
100
AcDbEntity
  8
1
 62
   255
100
AcDbLine
 10
200.0711094532161
 20
229.2870009997354
 30
0.0
 11
197.2711094532161
 21
229.2870009997354
 31
0.0
1001
AcDbBlockRepETag
1070
     1
1071
       98
1005
3B72
  0
LINE
  5
3B73
330
74
100
AcDbEntity
  8
1
 62
   255
100
AcDbLine
 10
175.8711094532161
 20
229.1795009997355
 30
0.0
 11
177.3711094532161
 21
229.1795009997355
 31
0.0
1001
AcDbBlockRepETag
1070
     1
1071
       99
1005
3B73
  0
LINE
  5
3B74
330
74
100
AcDbEntity
  8
1
 62
   255
100
AcDbLine
 10
178.0639297762437
 20
228.7795009997354
 30
0.0
 11
177.3711094532161
 21
229.1795009997355
 31
0.0
1001
AcDbBlockRepETag
1070
     1
1071
      100
1005
3B74
  0
LINE
  5
3B75
330
74
100
AcDbEntity
  8
1
 62
   255
100
AcDbLine
 10
201.0711094532161
 20
240.0795009997354
 30
0.0
 11
201.0711094532161
 21
234.4795009997354
 31
0.0
1001
AcDbBlockRepETag
1070
     1
1071
      101
1005
3B75
  0
LINE
  5
3B76
330
74
100
AcDbEntity
  8
1
 62
   255
100
AcDbLine
 10
175.8711094532161
 20
245.3795009997355
 30
0.0
 11
175.8711094532161
 21
229.1795009997355
 31
0.0
1001
AcDbBlockRepETag
1070
     1
1071
      102
1005
3B76
  0
LINE
  5
3B77
330
74
100
AcDbEntity
  8
1
 62
   255
100
AcDbLine
 10
200.8711094532161
 20
234.2795009997354
 30
0.0
 11
200.0711094532161
 21
234.2795009997354
 31
0.0
1001
AcDbBlockRepETag
1070
     1
1071
      103
1005
3B77
  0
LINE
  5
3B78
330
74
100
AcDbEntity
  8
1
 62
   255
100
AcDbLine
 10
200.0711094532161
 20
229.2870009997354
 30
0.0
 11
200.0711094532161
 21
245.2720009997354
 31
0.0
1001
AcDbBlockRepETag
1070
     1
1071
      104
1005
3B78
  0
LINE
  5
3B79
330
74
100
AcDbEntity
  8
1
  6
CENTER
 62
     2
100
AcDbLine
 10
247.6725782567078
 20
235.3130656822202
 30
0.0
 11
247.6725782567078
 21
226.2795009997354
 31
0.0
1001
AcDbBlockRepETag
1070
     1
1071
      105
1005
3B79
  0
LINE
  5
3B7A
330
74
100
AcDbEntity
  8
1
  6
CENTER
 62
     2
 48
0.5
100
AcDbLine
 10
249.226864550048
 20
242.2795009997352
 30
0.0
 11
246.0395940670117
 21
242.2795009997352
 31
0.0
1001
AcDbBlockRepETag
1070
     1
1071
      106
1005
3B7A
  0
LINE
  5
3B7B
330
74
100
AcDbEntity
  8
1
  6
CENTER
 62
     2
 48
0.5
100
AcDbLine
 10
249.2480794810433
 20
232.2795009997352
 30
0.0
 11
246.1375054823209
 21
232.2795009997352
 31
0.0
1001
AcDbBlockRepETag
1070
     1
1071
      107
1005
3B7B
  0
LINE
  5
3B7C
330
74
100
AcDbEntity
  8
1
 62
   255
100
AcDbLine
 10
246.6725782567078
 20
232.1295009997352
 30
0.0
 11
248.6725782567078
 21
232.1295009997352
 31
0.0
1001
AcDbBlockRepETag
1070
     1
1071
      108
1005
3B7C
  0
LINE
  5
3B7D
330
74
100
AcDbEntity
  8
1
 62
   255
100
AcDbLine
 10
246.6725782567078
 20
232.4295009997352
 30
0.0
 11
246.6725782567078
 21
232.1295009997352
 31
0.0
1001
AcDbBlockRepETag
1070
     1
1071
      109
1005
3B7D
  0
LINE
  5
3B7E
330
74
100
AcDbEntity
  8
1
 62
   255
100
AcDbLine
 10
248.6725782567078
 20
232.4295009997352
 30
0.0
 11
246.6725782567078
 21
232.4295009997352
 31
0.0
1001
AcDbBlockRepETag
1070
     1
1071
      110
1005
3B7E
  0
LINE
  5
3B7F
330
74
100
AcDbEntity
  8
1
 62
   255
100
AcDbLine
 10
248.6725782567078
 20
232.1295009997352
 30
0.0
 11
248.6725782567078
 21
232.4295009997352
 31
0.0
1001
AcDbBlockRepETag
1070
     1
1071
      111
1005
3B7F
  0
LINE
  5
3B80
330
74
100
AcDbEntity
  8
1
 62
   255
100
AcDbLine
 10
246.6725782567078
 20
242.1295009997352
 30
0.0
 11
248.6725782567078
 21
242.1295009997352
 31
0.0
1001
AcDbBlockRepETag
1070
     1
1071
      112
1005
3B80
  0
LINE
  5
3B81
330
74
100
AcDbEntity
  8
1
 62
   255
100
AcDbLine
 10
246.6725782567078
 20
242.4295009997352
 30
0.0
 11
246.6725782567078
 21
242.1295009997352
 31
0.0
1001
AcDbBlockRepETag
1070
     1
1071
      113
1005
3B81
  0
LINE
  5
3B82
330
74
100
AcDbEntity
  8
1
 62
   255
100
AcDbLine
 10
248.6725782567078
 20
242.4295009997352
 30
0.0
 11
246.6725782567078
 21
242.4295009997352
 31
0.0
1001
AcDbBlockRepETag
1070
     1
1071
      114
1005
3B82
  0
LINE
  5
3B83
330
74
100
AcDbEntity
  8
1
 62
   255
100
AcDbLine
 10
248.6725782567078
 20
242.1295009997352
 30
0.0
 11
248.6725782567078
 21
242.4295009997352
 31
0.0
1001
AcDbBlockRepETag
1070
     1
1071
      115
1005
3B83
  0
LINE
  5
3B84
330
74
100
AcDbEntity
  8
1
  6
CENTER
 62
     2
100
AcDbLine
 10
247.6725782567078
 20
248.2795009997354
 30
0.0
 11
247.6725782567078
 21
239.3180743510702
 31
0.0
1001
AcDbBlockRepETag
1070
     1
1071
      116
1005
3B84
  0
LINE
  5
3B85
330
74
100
AcDbEntity
  8
1
  6
CENTER
 62
     2
100
AcDbLine
 10
258.6725782567081
 20
237.2795009997352
 30
0.0
 11
253.104648473026
 21
237.2795009997354
 31
0.0
1001
AcDbBlockRepETag
1070
     1
1071
      117
1005
3B85
  0
LINE
  5
3B86
330
74
100
AcDbEntity
  8
1
  6
CENTER
 62
     2
100
AcDbLine
 10
131.6241673929539
 20
226.2795009997354
 30
0.0
 11
131.6241673929539
 21
248.2795009997355
 31
0.0
1001
AcDbBlockRepETag
1070
     1
1071
      118
1005
3B86
  0
LINE
  5
3B87
330
74
100
AcDbEntity
  8
1
  6
CENTER
 62
     2
100
AcDbLine
 10
142.6241673929539
 20
237.2795009997354
 30
0.0
 11
120.624167392954
 21
237.2795009997354
 31
0.0
1001
AcDbBlockRepETag
1070
     1
1071
      119
1005
3B87
  0
LINE
  5
3B88
330
74
100
AcDbEntity
  8
1
  6
CENTER
 62
     2
100
AcDbLine
 10
128.3741673929539
 20
242.9086661243342
 30
0.0
 11
134.8741673929539
 21
231.6503358751365
 31
0.0
1001
AcDbBlockRepETag
1070
     1
1071
      120
1005
3B88
  0
LINE
  5
3B89
330
74
100
AcDbEntity
  8
1
  6
CENTER
 62
     2
100
AcDbLine
 10
128.3741673929539
 20
231.6503358751365
 30
0.0
 11
134.8741673929539
 21
242.9086661243342
 31
0.0
1001
AcDbBlockRepETag
1070
     1
1071
      121
1005
3B89
  0
LINE
  5
3B8A
330
74
100
AcDbEntity
  8
1
 62
   255
100
AcDbLine
 10
197.2711094532161
 20
245.7795009997354
 30
0.0
 11
197.2711094532161
 21
245.2720009997354
 31
0.0
1001
AcDbBlockRepETag
1070
     1
1071
      122
1005
3B8A
  0
LINE
  5
3B8B
330
74
100
AcDbEntity
  8
1
 62
   255
100
AcDbLine
 10
197.2711094532161
 20
245.7795009997354
 30
0.0
 11
178.0639297762436
 21
245.7795009997355
 31
0.0
1001
AcDbBlockRepETag
1070
     1
1071
      123
1005
3B8B
  0
LINE
  5
3B8C
330
74
100
AcDbEntity
  8
1
 62
   255
100
AcDbLine
 10
197.2711094532161
 20
228.7795009997354
 30
0.0
 11
197.2711094532161
 21
245.2720009997354
 31
0.0
1001
AcDbBlockRepETag
1070
     1
1071
      124
1005
3B8C
  0
LINE
  5
3B8D
330
74
100
AcDbEntity
  8
1
 62
   255
100
AcDbLine
 10
197.2711094532161
 20
228.7795009997354
 30
0.0
 11
178.0639297762437
 21
228.7795009997354
 31
0.0
1001
AcDbBlockRepETag
1070
     1
1071
      125
1005
3B8D
  0
LINE
  5
3B8E
330
74
100
AcDbEntity
  8
1
 62
   255
100
AcDbLine
 10
174.1711094532161
 20
235.2795009997351
 30
0.0
 11
175.7711094532162
 21
235.2795009997351
 31
0.0
1001
AcDbBlockRepETag
1070
     1
1071
      126
1005
3B8E
  0
LINE
  5
3B8F
330
74
100
AcDbEntity
  8
1
 62
   255
100
AcDbLine
 10
174.1711094532161
 20
239.2795009997351
 30
0.0
 11
175.7711094532162
 21
239.2795009997351
 31
0.0
1001
AcDbBlockRepETag
1070
     1
1071
      127
1005
3B8F
  0
LINE
  5
3B90
330
74
100
AcDbEntity
  8
1
 62
   255
100
AcDbLine
 10
174.6211094532161
 20
239.2795009997351
 30
0.0
 11
174.6211094532161
 21
235.2795009997351
 31
0.0
1001
AcDbBlockRepETag
1070
     1
1071
      128
1005
3B90
  0
LINE
  5
3B91
330
74
100
AcDbEntity
  8
1
 62
   255
100
AcDbLine
 10
174.9711094532161
 20
239.2795009997351
 30
0.0
 11
174.9711094532161
 21
235.2795009997351
 31
0.0
1001
AcDbBlockRepETag
1070
     1
1071
      129
1005
3B91
  0
ARC
  5
3B92
330
74
100
AcDbEntity
  8
1
 62
   255
100
AcDbCircle
 10
247.6725782567078
 20
237.2795009997352
 30
0.0
 40
7.650000000000032
100
AcDbArc
 50
344.8446003377096
 51
15.15539966229044
1001
AcDbBlockRepETag
1070
     1
1071
      151
1005
3B92
  0
ARC
  5
3B93
330
74
100
AcDbEntity
  8
1
 62
     3
100
AcDbCircle
 10
247.6725782567078
 20
237.2795009997352
 30
0.0
 40
7.550000000000121
100
AcDbArc
 50
344.6389497819887
 51
15.36105021801139
1001
AcDbBlockRepETag
1070
     1
1071
      152
1005
3B93
  0
ARC
  5
3B94
330
74
100
AcDbEntity
  8
1
 62
     3
100
AcDbCircle
 10
247.6725782567078
 20
237.2795009997352
 30
0.0
 40
6.999999999999976
100
AcDbArc
 50
343.3984504009786
 51
16.60154959902141
1001
AcDbBlockRepETag
1070
     1
1071
      153
1005
3B94
  0
ARC
  5
3B95
330
74
100
AcDbEntity
  8
1
 62
     3
100
AcDbCircle
 10
247.6725782567078
 20
237.2795009997352
 30
0.0
 40
6.781278341185116
100
AcDbArc
 50
342.8466814949044
 51
17.15331850509561
1001
AcDbBlockRepETag
1070
     1
1071
      154
1005
3B95
  0
ARC
  5
3B96
330
74
100
AcDbEntity
  8
1
 62
   255
100
AcDbCircle
 10
247.6725782567078
 20
237.2795009997352
 30
0.0
 40
6.281278341185148
100
AcDbArc
 50
342.2977244205819
 51
17.70227557941805
1001
AcDbBlockRepETag
1070
     1
1071
      155
1005
3B96
  0
ARC
  5
3B97
330
74
100
AcDbEntity
  8
1
 62
     2
100
AcDbCircle
 10
242.9510799876867
 20
237.2795009997352
 30
0.0
 40
0.6142857142858646
100
AcDbArc
 50
199.471220634486
 51
231.1708626911177
1001
AcDbBlockRepETag
1070
     1
1071
      156
1005
3B97
  0
ARC
  5
3B98
330
74
100
AcDbEntity
  8
1
 62
     2
100
AcDbCircle
 10
242.9510799876867
 20
237.2795009997352
 30
0.0
 40
1.074999999999916
100
AcDbArc
 50
65.03174301155032
 51
234.9682569884567
1001
AcDbBlockRepETag
1070
     1
1071
      157
1005
3B98
  0
ARC
  5
3B99
330
74
100
AcDbEntity
  8
1
 62
     2
100
AcDbCircle
 10
242.9510799876867
 20
237.2795009997352
 30
0.0
 40
1.074999999999957
100
AcDbArc
 50
244.0960437581534
 51
245.0317430115423
1001
AcDbBlockRepETag
1070
     1
1071
      158
1005
3B99
  0
ARC
  5
3B9A
330
74
100
AcDbEntity
  8
1
 62
     2
100
AcDbCircle
 10
242.9510799876867
 20
237.2795009997352
 30
0.0
 40
0.6142857142856503
100
AcDbArc
 50
19.47122063449295
 51
51.17086269114374
1001
AcDbBlockRepETag
1070
     1
1071
      159
1005
3B9A
  0
ARC
  5
3B9B
330
74
100
AcDbEntity
  8
1
 62
     2
100
AcDbCircle
 10
242.9510799876867
 20
237.2795009997352
 30
0.0
 40
1.07499999999988
100
AcDbArc
 50
349.019424572387
 51
54.96825698846776
1001
AcDbBlockRepETag
1070
     1
1071
      160
1005
3B9B
  0
ARC
  5
3B9C
330
74
100
AcDbEntity
  8
1
 62
     2
100
AcDbCircle
 10
242.9510799876867
 20
237.2795009997352
 30
0.0
 40
1.074999999999957
100
AcDbArc
 50
64.09604375815478
 51
65.03174301155032
1001
AcDbBlockRepETag
1070
     1
1071
      161
1005
3B9C
  0
ARC
  5
3B9D
330
74
100
AcDbEntity
  8
1
 62
     2
100
AcDbCircle
 10
250.9433337626632
 20
237.3177393598138
 30
0.0
 40
0.9850802971434411
100
AcDbArc
 50
36.90485018984644
 51
80.29078426814184
1001
AcDbBlockRepETag
1070
     1
1071
      162
1005
3B9D
  0
ARC
  5
3B9E
330
74
100
AcDbEntity
  8
1
 62
     2
100
AcDbCircle
 10
250.7394289895725
 20
237.2877565674007
 30
0.0
 40
1.170283600934514
100
AcDbArc
 50
358.8226101774183
 51
32.07830459275105
1001
AcDbBlockRepETag
1070
     1
1071
      163
1005
3B9E
  0
ARC
  5
3B9F
330
74
100
AcDbEntity
  8
1
 62
     2
100
AcDbCircle
 10
250.770642960921
 20
237.2264637383755
 30
0.0
 40
1.139431462526975
100
AcDbArc
 50
328.6175359496947
 51
1.873230365026214
1001
AcDbBlockRepETag
1070
     1
1071
      164
1005
3B9F
  0
ARC
  5
3BA0
330
74
100
AcDbEntity
  8
1
 62
     2
100
AcDbCircle
 10
250.9307113863489
 20
237.232680349619
 30
0.0
 40
1.009916162051089
100
AcDbArc
 50
280.1950069440591
 51
323.5809410223553
1001
AcDbBlockRepETag
1070
     1
1071
      165
1005
3BA0
  0
ARC
  5
3BA1
330
74
100
AcDbEntity
  8
1
 62
     2
100
AcDbCircle
 10
251.0711460387482
 20
236.9917429897718
 30
0.0
 40
0.7540076202664556
100
AcDbArc
 50
221.847182713214
 51
272.9130873907139
1001
AcDbBlockRepETag
1070
     1
1071
      166
1005
3BA1
  0
ARC
  5
3BA2
330
74
100
AcDbEntity
  8
1
 62
     2
100
AcDbCircle
 10
251.0711460387482
 20
237.5356764445511
 30
0.0
 40
0.754007620266365
100
AcDbArc
 50
87.0869126092853
 51
138.1528172867929
1001
AcDbBlockRepETag
1070
     1
1071
      167
1005
3BA2
  0
ARC
  5
3BA3
330
74
100
AcDbEntity
  8
1
 62
     2
100
AcDbCircle
 10
250.9073210314406
 20
237.4812755988678
 30
0.0
 40
0.357733992833436
100
AcDbArc
 50
38.54401927196717
 51
87.65383979112716
1001
AcDbBlockRepETag
1070
     1
1071
      168
1005
3BA3
  0
ARC
  5
3BA4
330
74
100
AcDbEntity
  8
1
 62
     2
100
AcDbCircle
 10
250.6781518074443
 20
237.2890403616673
 30
0.0
 40
0.6568022781092142
100
AcDbArc
 50
357.7898906287658
 51
39.20299714359451
1001
AcDbBlockRepETag
1070
     1
1071
      169
1005
3BA4
  0
ARC
  5
3BA5
330
74
100
AcDbEntity
  8
1
 62
     2
100
AcDbCircle
 10
250.6781518074443
 20
237.2383823576002
 30
0.0
 40
0.656802278109192
100
AcDbArc
 50
320.7970028564123
 51
2.210109371242342
1001
AcDbBlockRepETag
1070
     1
1071
      170
1005
3BA5
  0
ARC
  5
3BA6
330
74
100
AcDbEntity
  8
1
 62
     2
100
AcDbCircle
 10
250.9073210314406
 20
237.0461471203997
 30
0.0
 40
0.3577339928333304
100
AcDbArc
 50
272.3461602088729
 51
321.4559807280455
1001
AcDbBlockRepETag
1070
     1
1071
      171
1005
3BA6
  0
ARC
  5
3BA7
330
74
100
AcDbEntity
  8
1
 62
     2
100
AcDbCircle
 10
250.9454618416658
 20
237.0796351010362
 30
0.0
 40
0.3916275847081655
100
AcDbArc
 50
217.4505604600979
 51
266.5603809792986
1001
AcDbBlockRepETag
1070
     1
1071
      172
1005
3BA7
  0
ARC
  5
3BA8
330
74
100
AcDbEntity
  8
1
 62
     2
100
AcDbCircle
 10
251.2911472976873
 20
237.2819694308265
 30
0.0
 40
0.790650264642845
100
AcDbArc
 50
146.1442890429818
 51
213.8557109570182
1001
AcDbBlockRepETag
1070
     1
1071
      173
1005
3BA8
  0
ARC
  5
3BA9
330
74
100
AcDbEntity
  8
1
 62
     2
100
AcDbCircle
 10
250.9054996968601
 20
237.466045689424
 30
0.0
 40
0.3730276136189327
100
AcDbArc
 50
87.47008502281662
 51
136.5799055420016
1001
AcDbBlockRepETag
1070
     1
1071
      174
1005
3BA9
  0
ARC
  5
3BAA
330
74
100
AcDbEntity
  8
1
 62
     2
100
AcDbCircle
 10
249.2586409732043
 20
237.7071453223621
 30
0.0
 40
0.4888636720463728
100
AcDbArc
 50
0.3142772754622594
 51
60.78437105940669
1001
AcDbBlockRepETag
1070
     1
1071
      175
1005
3BAA
  0
ARC
  5
3BAB
330
74
100
AcDbEntity
  8
1
 62
     2
100
AcDbCircle
 10
249.9213609691643
 20
236.423851549628
 30
0.0
 40
0.1745958980366353
100
AcDbArc
 50
174.7507982057936
 51
230.1423410222285
1001
AcDbBlockRepETag
1070
     1
1071
      176
1005
3BAB
  0
ARC
  5
3BAC
330
74
100
AcDbEntity
  8
1
 62
     2
100
AcDbCircle
 10
248.5241388130416
 20
237.4664990871658
 30
0.0
 40
1.227791291334799
100
AcDbArc
 50
284.5982688476208
 51
303.2594211752092
1001
AcDbBlockRepETag
1070
     1
1071
      177
1005
3BAC
  0
ARC
  5
3BAD
330
74
100
AcDbEntity
  8
1
 62
     2
100
AcDbCircle
 10
248.6367497024247
 20
237.0376028414041
 30
0.0
 40
0.7843592223910236
100
AcDbArc
 50
223.1100370045321
 51
284.5342506250636
1001
AcDbBlockRepETag
1070
     1
1071
      178
1005
3BAD
  0
ARC
  5
3BAE
330
74
100
AcDbEntity
  8
1
 62
     2
100
AcDbCircle
 10
248.4291553648063
 20
236.8432712733364
 30
0.0
 40
0.5000000000000285
100
AcDbArc
 50
154.6485511100311
 51
223.1100370045303
1001
AcDbBlockRepETag
1070
     1
1071
      179
1005
3BAE
  0
ARC
  5
3BAF
330
74
100
AcDbEntity
  8
1
 62
     2
100
AcDbCircle
 10
248.5009034453192
 20
236.8334513316509
 30
0.0
 40
0.5694624186657747
100
AcDbArc
 50
103.3903229930322
 51
156.8471072650267
1001
AcDbBlockRepETag
1070
     1
1071
      180
1005
3BAF
  0
ARC
  5
3BB0
330
74
100
AcDbEntity
  8
1
 62
     2
100
AcDbCircle
 10
249.0005965014448
 20
237.7115318375635
 30
0.0
 40
0.1969081716197327
100
AcDbArc
 50
276.0932501958413
 51
359.5038699748765
1001
AcDbBlockRepETag
1070
     1
1071
      181
1005
3BB0
  0
ARC
  5
3BB1
330
74
100
AcDbEntity
  8
1
 62
     2
100
AcDbCircle
 10
249.0742206090612
 20
237.7098268108383
 30
0.0
 40
0.1232766819566677
100
AcDbArc
 50
0.0
 51
52.76269019626529
1001
AcDbBlockRepETag
1070
     1
1071
      182
1005
3BB1
  0
ARC
  5
3BB2
330
74
100
AcDbEntity
  8
1
 62
     2
100
AcDbCircle
 10
248.9502165248682
 20
237.5581444049404
 30
0.0
 40
0.3191490062902767
100
AcDbArc
 50
51.51696063121831
 51
75.96542806312633
1001
AcDbBlockRepETag
1070
     1
1071
      183
1005
3BB2
  0
ARC
  5
3BB3
330
74
100
AcDbEntity
  8
1
 62
     2
100
AcDbCircle
 10
248.8987837174885
 20
237.397246807779
 30
0.0
 40
0.4878378852445108
100
AcDbArc
 50
74.68763965666645
 51
117.8836563148265
1001
AcDbBlockRepETag
1070
     1
1071
      184
1005
3BB3
  0
ARC
  5
3BB4
330
74
100
AcDbEntity
  8
1
 62
     2
100
AcDbCircle
 10
248.8098794459281
 20
237.6069448269845
 30
0.0
 40
0.2616343042215223
100
AcDbArc
 50
122.155475865361
 51
176.4289989855893
1001
AcDbBlockRepETag
1070
     1
1071
      185
1005
3BB4
  0
ARC
  5
3BB5
330
74
100
AcDbEntity
  8
1
 62
     2
100
AcDbCircle
 10
248.76244592787
 20
237.540866728926
 30
0.0
 40
0.7379027989559523
100
AcDbArc
 50
107.45882093099
 51
173.5905571643495
1001
AcDbBlockRepETag
1070
     1
1071
      186
1005
3BB5
  0
ARC
  5
3BB6
330
74
100
AcDbEntity
  8
1
 62
     2
100
AcDbCircle
 10
248.9036040615566
 20
236.8894494506324
 30
0.0
 40
1.402978733492052
100
AcDbArc
 50
82.34378391562765
 51
104.9757465340368
1001
AcDbBlockRepETag
1070
     1
1071
      187
1005
3BB6
  0
ARC
  5
3BB7
330
74
100
AcDbEntity
  8
1
 62
     2
100
AcDbCircle
 10
248.96459699432
 20
237.2901521267526
 30
0.0
 40
0.9977471897576027
100
AcDbArc
 50
57.73337273290377
 51
82.74944066849755
1001
AcDbBlockRepETag
1070
     1
1071
      188
1005
3BB7
  0
ARC
  5
3BB8
330
74
100
AcDbEntity
  8
1
 62
     2
100
AcDbCircle
 10
248.7872404130802
 20
236.6686032262646
 30
0.0
 40
0.4108112019339388
100
AcDbArc
 50
107.0429014412815
 51
121.7100357920593
1001
AcDbBlockRepETag
1070
     1
1071
      189
1005
3BB8
  0
ARC
  5
3BB9
330
74
100
AcDbEntity
  8
1
 62
     2
100
AcDbCircle
 10
249.1285390528612
 20
237.2465105897294
 30
0.0
 40
0.0761552577016343
100
AcDbArc
 50
281.0861410469416
 51
334.8900926194139
1001
AcDbBlockRepETag
1070
     1
1071
      190
1005
3BB9
  0
ARC
  5
3BBA
330
74
100
AcDbEntity
  8
1
 62
     2
100
AcDbCircle
 10
248.8407874376555
 20
237.0262981056817
 30
0.0
 40
0.3567170976755554
100
AcDbArc
 50
322.915622218976
 51
359.6348468849819
1001
AcDbBlockRepETag
1070
     1
1071
      191
1005
3BBA
  0
ARC
  5
3BBB
330
74
100
AcDbEntity
  8
1
 62
     2
100
AcDbCircle
 10
248.7937825667012
 20
237.1209100744443
 30
0.0
 40
0.453720038154423
100
AcDbArc
 50
250.3894893354018
 51
316.952901625651
1001
AcDbBlockRepETag
1070
     1
1071
      192
1005
3BBB
  0
ARC
  5
3BBC
330
74
100
AcDbEntity
  8
1
 62
     2
100
AcDbCircle
 10
248.6978030094279
 20
236.8755632763133
 30
0.0
 40
0.1905621477567883
100
AcDbArc
 50
131.5896475801671
 51
252.8159919270059
1001
AcDbBlockRepETag
1070
     1
1071
      193
1005
3BBC
  0
ARC
  5
3BBD
330
74
100
AcDbEntity
  8
1
 62
     2
100
AcDbCircle
 10
247.1747706587599
 20
237.0401870166797
 30
0.0
 40
0.7173343079112122
100
AcDbArc
 50
307.7604599106325
 51
349.0966350619457
1001
AcDbBlockRepETag
1070
     1
1071
      194
1005
3BBD
  0
ARC
  5
3BBE
330
74
100
AcDbEntity
  8
1
 62
     2
100
AcDbCircle
 10
246.9975779203256
 20
237.2331823882371
 30
0.0
 40
0.97866329669831
100
AcDbArc
 50
237.2289410863242
 51
309.0427997753138
1001
AcDbBlockRepETag
1070
     1
1071
      195
1005
3BBE
  0
ARC
  5
3BBF
330
74
100
AcDbEntity
  8
1
 62
     2
100
AcDbCircle
 10
247.0490464201665
 20
237.2590608397257
 30
0.0
 40
1.028698467137296
100
AcDbArc
 50
172.8766239739132
 51
235.598504175478
1001
AcDbBlockRepETag
1070
     1
1071
      196
1005
3BBF
  0
ARC
  5
3BC0
330
74
100
AcDbEntity
  8
1
 62
     2
100
AcDbCircle
 10
247.0544313317723
 20
237.3152408750456
 30
0.0
 40
1.028623299164499
100
AcDbArc
 50
137.9481366576451
 51
176.0205507906628
1001
AcDbBlockRepETag
1070
     1
1071
      197
1005
3BC0
  0
ARC
  5
3BC1
330
74
100
AcDbEntity
  8
1
 62
     2
100
AcDbCircle
 10
246.9972053935526
 20
237.3230880382025
 30
0.0
 40
0.9814131476799433
100
AcDbArc
 50
57.27420254208809
 51
136.0502188068089
1001
AcDbBlockRepETag
1070
     1
1071
      198
1005
3BC1
  0
ARC
  5
3BC2
330
74
100
AcDbEntity
  8
1
 62
     2
100
AcDbCircle
 10
246.9223829662527
 20
237.3493764022489
 30
0.0
 40
1.002721022614533
100
AcDbArc
 50
16.22227620512465
 51
52.8610279730482
1001
AcDbBlockRepETag
1070
     1
1071
      199
1005
3BC2
  0
ARC
  5
3BC3
330
74
100
AcDbEntity
  8
1
 62
     2
100
AcDbCircle
 10
246.9104791757835
 20
237.3977342102277
 30
0.0
 40
0.4836015759599507
100
AcDbArc
 50
28.63652889743076
 51
54.53158551111619
1001
AcDbBlockRepETag
1070
     1
1071
      200
1005
3BC3
  0
ARC
  5
3BC4
330
74
100
AcDbEntity
  8
1
 62
     2
100
AcDbCircle
 10
246.9972718703709
 20
237.5240361618112
 30
0.0
 40
0.3303851981791864
100
AcDbArc
 50
54.08065673601743
 51
129.9082629520249
1001
AcDbBlockRepETag
1070
     1
1071
      201
1005
3BC4
  0
ARC
  5
3BC5
330
74
100
AcDbEntity
  8
1
 62
     2
100
AcDbCircle
 10
247.1181172963249
 20
237.3687553356477
 30
0.0
 40
0.5270719857530834
100
AcDbArc
 50
129.1554767034019
 51
157.9060545164948
1001
AcDbBlockRepETag
1070
     1
1071
      202
1005
3BC5
  0
ARC
  5
3BC6
330
74
100
AcDbEntity
  8
1
 62
     2
100
AcDbCircle
 10
247.3205042610123
 20
237.2795009997352
 30
0.0
 40
0.7481971655608004
100
AcDbArc
 50
157.4023781944881
 51
202.5976218055119
1001
AcDbBlockRepETag
1070
     1
1071
      203
1005
3BC6
  0
ARC
  5
3BC7
330
74
100
AcDbEntity
  8
1
 62
     2
100
AcDbCircle
 10
247.1181172963249
 20
237.1902466638227
 30
0.0
 40
0.5270719857531071
100
AcDbArc
 50
202.0939454835051
 51
230.8445232966056
1001
AcDbBlockRepETag
1070
     1
1071
      204
1005
3BC7
  0
ARC
  5
3BC8
330
74
100
AcDbEntity
  8
1
 62
     2
100
AcDbCircle
 10
246.9972718703709
 20
237.0349658376591
 30
0.0
 40
0.3303851981792246
100
AcDbArc
 50
230.091737047975
 51
305.9193432639937
1001
AcDbBlockRepETag
1070
     1
1071
      205
1005
3BC8
  0
ARC
  5
3BC9
330
74
100
AcDbEntity
  8
1
 62
     2
100
AcDbCircle
 10
246.9104791757835
 20
237.1612677892426
 30
0.0
 40
0.4836015759598843
100
AcDbArc
 50
305.4684144888919
 51
327.930540143093
1001
AcDbBlockRepETag
1070
     1
1071
      206
1005
3BC9
  0
ARC
  5
3BCA
330
74
100
AcDbEntity
  8
1
 62
     2
100
AcDbCircle
 10
242.9510799876867
 20
237.2795009997352
 30
0.0
 40
1.075000000000039
100
AcDbArc
 50
235.9039562418457
 51
244.0960437581534
1001
AcDbBlockRepETag
1070
     1
1071
      207
1005
3BCA
  0
ARC
  5
3BCB
330
74
100
AcDbEntity
  8
1
 62
     2
100
AcDbCircle
 10
242.9510799876867
 20
237.2795009997352
 30
0.0
 40
1.074999999999987
100
AcDbArc
 50
245.0317430115423
 51
340.5287793655089
1001
AcDbBlockRepETag
1070
     1
1071
      208
1005
3BCB
  0
ARC
  5
3BCC
330
74
100
AcDbEntity
  8
1
 62
     2
100
AcDbCircle
 10
242.9510799876867
 20
237.2795009997352
 30
0.0
 40
0.6142857142856473
100
AcDbArc
 50
248.8291373088707
 51
324.3146652873436
1001
AcDbBlockRepETag
1070
     1
1071
      209
1005
3BCC
  0
ARC
  5
3BCD
330
74
100
AcDbEntity
  8
1
 62
     2
100
AcDbCircle
 10
242.9510799876867
 20
237.2795009997352
 30
0.0
 40
1.074999999999979
100
AcDbArc
 50
54.96825698846776
 51
55.90395624184412
1001
AcDbBlockRepETag
1070
     1
1071
      210
1005
3BCD
  0
ARC
  5
3BCE
330
74
100
AcDbEntity
  8
1
 62
     2
100
AcDbCircle
 10
242.9510799876867
 20
237.2795009997352
 30
0.0
 40
0.6142857142856651
100
AcDbArc
 50
68.8291373088883
 51
160.528779365514
1001
AcDbBlockRepETag
1070
     1
1071
      211
1005
3BCE
  0
ARC
  5
3BCF
330
74
100
AcDbEntity
  8
1
 62
     2
100
AcDbCircle
 10
242.9510799876867
 20
237.2795009997352
 30
0.0
 40
1.075000000000007
100
AcDbArc
 50
234.9682569884567
 51
235.9039562418457
1001
AcDbBlockRepETag
1070
     1
1071
      212
1005
3BCF
  0
ARC
  5
3BD0
330
74
100
AcDbEntity
  8
1
 62
     2
100
AcDbCircle
 10
242.9510799876867
 20
237.2795009997352
 30
0.0
 40
1.075000000000015
100
AcDbArc
 50
55.90395624184412
 51
64.09604375815478
1001
AcDbBlockRepETag
1070
     1
1071
      213
1005
3BD0
  0
ARC
  5
3BD1
330
74
100
AcDbEntity
  8
1
 62
     2
100
AcDbCircle
 10
245.330205056495
 20
236.8525906853416
 30
0.0
 40
0.5913577368655762
100
AcDbArc
 50
352.4678246460809
 51
3.352051021683305
1001
AcDbBlockRepETag
1070
     1
1071
      214
1005
3BD1
  0
ARC
  5
3BD2
330
74
100
AcDbEntity
  8
1
 62
     2
100
AcDbCircle
 10
245.2791202488946
 20
236.9068086127253
 30
0.0
 40
0.6508120230899506
100
AcDbArc
 50
278.9617243080944
 51
348.3217181094087
1001
AcDbBlockRepETag
1070
     1
1071
      215
1005
3BD2
  0
ARC
  5
3BD3
330
74
100
AcDbEntity
  8
1
 62
     2
100
AcDbCircle
 10
245.0146265921206
 20
238.2083577954084
 30
0.0
 40
1.978539625436221
100
AcDbArc
 50
265.8578006350377
 51
280.6565302443216
1001
AcDbBlockRepETag
1070
     1
1071
      216
1005
3BD3
  0
ARC
  5
3BD4
330
74
100
AcDbEntity
  8
1
 62
     2
100
AcDbCircle
 10
244.8848918952218
 20
237.0063804043542
 30
0.0
 40
0.7715065746422653
100
AcDbArc
 50
186.385141739837
 51
269.021194959755
1001
AcDbBlockRepETag
1070
     1
1071
      217
1005
3BD4
  0
ARC
  5
3BD5
330
74
100
AcDbEntity
  8
1
 62
     2
100
AcDbCircle
 10
244.8979669326279
 20
236.9211826025713
 30
0.0
 40
0.2678917120307407
100
AcDbArc
 50
180.1288361630419
 51
247.2455026943797
1001
AcDbBlockRepETag
1070
     1
1071
      218
1005
3BD5
  0
ARC
  5
3BD6
330
74
100
AcDbEntity
  8
1
 62
     2
100
AcDbCircle
 10
245.0154392093117
 20
237.3651153745886
 30
0.0
 40
0.7254832859422402
100
AcDbArc
 50
252.2571000899986
 51
290.3657620762373
1001
AcDbBlockRepETag
1070
     1
1071
      219
1005
3BD6
  0
ARC
  5
3BD7
330
74
100
AcDbEntity
  8
1
 62
     2
100
AcDbCircle
 10
245.198702196839
 20
236.8441479732764
 30
0.0
 40
0.173563741628898
100
AcDbArc
 50
293.5019610927812
 51
54.72830543962492
1001
AcDbBlockRepETag
1070
     1
1071
      220
1005
3BD7
  0
ARC
  5
3BD8
330
74
100
AcDbEntity
  8
1
 62
     2
100
AcDbCircle
 10
245.1299241287404
 20
236.6293400049203
 30
0.0
 40
0.394539011507372
100
AcDbArc
 50
64.63671819957761
 51
79.30385255034048
1001
AcDbBlockRepETag
1070
     1
1071
      221
1005
3BD8
  0
ARC
  5
3BD9
330
74
100
AcDbEntity
  8
1
 62
     2
100
AcDbCircle
 10
244.7658176130106
 20
237.6818971939937
 30
0.0
 40
0.5695982885536855
100
AcDbArc
 50
177.9924068873773
 51
251.2201303928604
1001
AcDbBlockRepETag
1070
     1
1071
      222
1005
3BD9
  0
ARC
  5
3BDA
330
74
100
AcDbEntity
  8
1
 62
     2
100
AcDbCircle
 10
244.6898380273025
 20
237.7619168426832
 30
0.0
 40
0.4969127196635341
100
AcDbArc
 50
123.972620593303
 51
186.9427422585871
1001
AcDbBlockRepETag
1070
     1
1071
      223
1005
3BDA
  0
ARC
  5
3BDB
330
74
100
AcDbEntity
  8
1
 62
     2
100
AcDbCircle
 10
244.9448220907684
 20
237.3303408782294
 30
0.0
 40
0.997747189757587
100
AcDbArc
 50
97.25055933151558
 51
122.2666272671072
1001
AcDbBlockRepETag
1070
     1
1071
      224
1005
3BDB
  0
ARC
  5
3BDC
330
74
100
AcDbEntity
  8
1
 62
     2
100
AcDbCircle
 10
245.0092321469904
 20
236.6684152080562
 30
0.0
 40
1.662625093780638
100
AcDbArc
 50
76.47984166369401
 51
96.57353133685345
1001
AcDbBlockRepETag
1070
     1
1071
      225
1005
3BDC
  0
ARC
  5
3BDD
330
74
100
AcDbEntity
  8
1
 62
     2
100
AcDbCircle
 10
245.1376987810074
 20
237.4483361007444
 30
0.0
 40
0.8761678430719483
100
AcDbArc
 50
42.46541222154781
 51
72.72164514032134
1001
AcDbBlockRepETag
1070
     1
1071
      226
1005
3BDD
  0
ARC
  5
3BDE
330
74
100
AcDbEntity
  8
1
 62
     2
100
AcDbCircle
 10
245.2007714930133
 20
237.6357140746558
 30
0.0
 40
0.7096077650176342
100
AcDbArc
 50
2.238398554163301
 51
34.71936976183194
1001
AcDbBlockRepETag
1070
     1
1071
      227
1005
3BDE
  0
ARC
  5
3BDF
330
74
100
AcDbEntity
  8
1
 62
     2
100
AcDbCircle
 10
245.0995396391601
 20
237.6471335784613
 30
0.0
 40
0.2616343042214329
100
AcDbArc
 50
3.571001014404163
 51
56.12335878194389
1001
AcDbBlockRepETag
1070
     1
1071
      228
1005
3BDF
  0
ARC
  5
3BE0
330
74
100
AcDbEntity
  8
1
 62
     2
100
AcDbCircle
 10
245.0316907953622
 20
237.5117758720417
 30
0.0
 40
0.412276560360871
100
AcDbArc
 50
58.78128796638721
 51
87.31304329837403
1001
AcDbBlockRepETag
1070
     1
1071
      229
1005
3BE0
  0
ARC
  5
3BE1
330
74
100
AcDbEntity
  8
1
 62
     2
100
AcDbCircle
 10
245.014434388605
 20
237.3963432344334
 30
0.0
 40
0.5285235767160185
100
AcDbArc
 50
86.03090563873603
 51
104.5331539160746
1001
AcDbBlockRepETag
1070
     1
1071
      230
1005
3BE1
  0
ARC
  5
3BE2
330
74
100
AcDbEntity
  8
1
 62
     2
100
AcDbCircle
 10
244.9547785668435
 20
237.6087059052023
 30
0.0
 40
0.3080181605269875
100
AcDbArc
 50
103.7041217147252
 51
130.4818774695322
1001
AcDbBlockRepETag
1070
     1
1071
      231
1005
3BE2
  0
ARC
  5
3BE3
330
74
100
AcDbEntity
  8
1
 62
     2
100
AcDbCircle
 10
244.8260818368436
 20
237.7534730091824
 30
0.0
 40
0.1144224065583335
100
AcDbArc
 50
128.5264603545972
 51
184.9888463426014
1001
AcDbBlockRepETag
1070
     1
1071
      232
1005
3BE3
  0
ARC
  5
3BE4
330
74
100
AcDbEntity
  8
1
 62
     2
100
AcDbCircle
 10
244.8343457231725
 20
237.7570055687844
 30
0.0
 40
0.1229940719050419
100
AcDbArc
 50
186.2935651103858
 51
234.8072788277034
1001
AcDbBlockRepETag
1070
     1
1071
      233
1005
3BE4
  0
ARC
  5
3BE5
330
74
100
AcDbEntity
  8
1
 62
     2
100
AcDbCircle
 10
244.9779389764112
 20
237.9708677423935
 30
0.0
 40
0.3805688590034511
100
AcDbArc
 50
235.6967601582343
 51
253.0861649824446
1001
AcDbBlockRepETag
1070
     1
1071
      234
1005
3BE5
  0
ARC
  5
3BE6
330
74
100
AcDbEntity
  8
1
 62
     2
100
AcDbCircle
 10
245.3818024372745
 20
236.8948211206355
 30
0.0
 40
0.5388029638231387
100
AcDbArc
 50
359.1861407882206
 51
74.48698187539138
1001
AcDbBlockRepETag
1070
     1
1071
      235
1005
3BE6
  0
ARC
  5
3BE7
330
74
100
AcDbEntity
  8
1
 62
   255
100
AcDbCircle
 10
247.6725782567078
 20
237.2795009997352
 30
0.0
 40
7.700000000000353
100
AcDbArc
 50
15.05465063998208
 51
344.9453493600179
1001
AcDbBlockRepETag
1070
     1
1071
      236
1005
3BE7
  0
ARC
  5
3BE8
330
74
100
AcDbEntity
  8
1
 62
   255
100
AcDbCircle
 10
255.458840175361
 20
232.7841005850198
 30
0.0
 40
1.199999999999975
100
AcDbArc
 50
110.5905893268012
 51
189.4094106731953
1001
AcDbBlockRepETag
1070
     1
1071
      237
1005
3BE8
  0
ARC
  5
3BE9
330
74
100
AcDbEntity
  8
1
 62
   255
100
AcDbCircle
 10
243.1771778419924
 20
229.493239081082
 30
0.0
 40
1.199999999999989
100
AcDbArc
 50
20.59058932680125
 51
99.40941067319371
1001
AcDbBlockRepETag
1070
     1
1071
      238
1005
3BE9
  0
ARC
  5
3BEA
330
74
100
AcDbEntity
  8
1
 62
   255
100
AcDbCircle
 10
239.8863163380546
 20
241.7749014144506
 30
0.0
 40
1.199999999999978
100
AcDbArc
 50
290.5905893268013
 51
9.409410673196941
1001
AcDbBlockRepETag
1070
     1
1071
      239
1005
3BEA
  0
ARC
  5
3BEB
330
74
100
AcDbEntity
  8
1
 62
   255
100
AcDbCircle
 10
252.1679786714233
 20
245.0657629183884
 30
0.0
 40
1.199999999999985
100
AcDbArc
 50
200.5905893268013
 51
279.4094106731937
1001
AcDbBlockRepETag
1070
     1
1071
      240
1005
3BEB
  0
ARC
  5
3BEC
330
74
100
AcDbEntity
  8
1
 62
     2
100
AcDbCircle
 10
136.6241673929539
 20
237.2795009997354
 30
0.0
 40
0.7999999999999999
100
AcDbArc
 50
149.9999999999998
 51
60.00000000000028
1001
AcDbBlockRepETag
1070
     1
1071
      241
1005
3BEC
  0
ARC
  5
3BED
330
74
100
AcDbEntity
  8
1
 62
     2
100
AcDbCircle
 10
134.1241673929539
 20
241.6096280186576
 30
0.0
 40
0.7999999999999997
100
AcDbArc
 50
149.9999999999998
 51
60.00000000000028
1001
AcDbBlockRepETag
1070
     1
1071
      242
1005
3BED
  0
ARC
  5
3BEE
330
74
100
AcDbEntity
  8
1
 62
     2
100
AcDbCircle
 10
129.1241673929539
 20
241.6096280186576
 30
0.0
 40
0.8
100
AcDbArc
 50
149.9999999999998
 51
60.00000000000028
1001
AcDbBlockRepETag
1070
     1
1071
      243
1005
3BEE
  0
ARC
  5
3BEF
330
74
100
AcDbEntity
  8
1
 62
     2
100
AcDbCircle
 10
126.6241673929539
 20
237.2795009997354
 30
0.0
 40
0.7999999999999906
100
AcDbArc
 50
149.9999999999998
 51
60.00000000000028
1001
AcDbBlockRepETag
1070
     1
1071
      244
1005
3BEF
  0
ARC
  5
3BF0
330
74
100
AcDbEntity
  8
1
 62
     2
100
AcDbCircle
 10
129.1241673929539
 20
232.9493739808132
 30
0.0
 40
0.7999999999999999
100
AcDbArc
 50
149.9999999999998
 51
60.00000000000028
1001
AcDbBlockRepETag
1070
     1
1071
      245
1005
3BF0
  0
ARC
  5
3BF1
330
74
100
AcDbEntity
  8
1
 62
     2
100
AcDbCircle
 10
134.1241673929539
 20
232.9493739808132
 30
0.0
 40
0.8000000000000058
100
AcDbArc
 50
149.9999999999998
 51
60.00000000000097
1001
AcDbBlockRepETag
1070
     1
1071
      246
1005
3BF1
  0
ARC
  5
3BF2
330
74
100
AcDbEntity
  8
1
  6
CENTER
 62
     2
100
AcDbCircle
 10
131.6241673929539
 20
237.2795009997354
 30
0.0
 40
4.999999999999995
100
AcDbArc
 50
180.0
 51
0.0
1001
AcDbBlockRepETag
1070
     1
1071
      247
1005
3BF2
  0
ARC
  5
3BF3
330
74
100
AcDbEntity
  8
1
  6
CENTER
 62
     2
100
AcDbCircle
 10
131.6241673929539
 20
237.2795009997354
 30
0.0
 40
5.0
100
AcDbArc
 50
0.0
 51
180.0
1001
AcDbBlockRepETag
1070
     1
1071
      248
1005
3BF3
  0
CIRCLE
  5
3BF4
330
74
100
AcDbEntity
  8
1
 62
   255
100
AcDbCircle
 10
250.1725782567078
 20
242.7795009997352
 30
0.0
 40
1.0
1001
AcDbBlockRepETag
1070
     1
1071
      321
1005
3BF4
  0
CIRCLE
  5
3BF5
330
74
100
AcDbEntity
  8
1
 62
     2
100
AcDbCircle
 10
252.391965508494
 20
237.8562097171614
 30
0.0
 40
0.4325000000000047
1001
AcDbBlockRepETag
1070
     1
1071
      322
1005
3BF5
  0
CIRCLE
  5
3BF6
330
74
100
AcDbEntity
  8
1
 62
   255
100
AcDbCircle
 10
126.6241673929539
 20
237.2795009997354
 30
0.0
 40
0.6400000000000717
1001
AcDbBlockRepETag
1070
     1
1071
      323
1005
3BF6
  0
CIRCLE
  5
3BF7
330
74
100
AcDbEntity
  8
1
 62
   255
100
AcDbCircle
 10
136.6241673929539
 20
237.2795009997354
 30
0.0
 40
0.6400000000000717
1001
AcDbBlockRepETag
1070
     1
1071
      324
1005
3BF7
  0
CIRCLE
  5
3BF8
330
74
100
AcDbEntity
  8
1
 62
   255
100
AcDbCircle
 10
131.6241673929539
 20
237.2795009997354
 30
0.0
 40
2.25
1001
AcDbBlockRepETag
1070
     1
1071
      325
1005
3BF8
  0
CIRCLE
  5
3BF9
330
74
100
AcDbEntity
  8
1
 62
   255
100
AcDbCircle
 10
131.6241673929539
 20
237.2795009997354
 30
0.0
 40
3.0
1001
AcDbBlockRepETag
1070
     1
1071
      326
1005
3BF9
  0
CIRCLE
  5
3BFA
330
74
100
AcDbEntity
  8
1
 62
     2
100
AcDbCircle
 10
131.6241673929539
 20
237.2795009997354
 30
0.0
 40
2.800000000000001
1001
AcDbBlockRepETag
1070
     1
1071
      327
1005
3BFA
  0
CIRCLE
  5
3BFB
330
74
100
AcDbEntity
  8
1
 62
   255
100
AcDbCircle
 10
131.6241673929539
 20
237.2795009997354
 30
0.0
 40
8.499999999999957
1001
AcDbBlockRepETag
1070
     1
1071
      328
1005
3BFB
  0
CIRCLE
  5
3BFC
330
74
100
AcDbEntity
  8
1
 62
   255
100
AcDbCircle
 10
131.6241673929539
 20
237.2795009997354
 30
0.0
 40
8.0
1001
AcDbBlockRepETag
1070
     1
1071
      329
1005
3BFC
  0
CIRCLE
  5
3BFD
330
74
100
AcDbEntity
  8
1
 62
   255
100
AcDbCircle
 10
131.6241673929539
 20
237.2795009997354
 30
0.0
 40
0.75
1001
AcDbBlockRepETag
1070
     1
1071
      330
1005
3BFD
  0
CIRCLE
  5
3BFE
330
74
100
AcDbEntity
  8
1
 62
   255
100
AcDbCircle
 10
247.6725782567078
 20
237.2795009997352
 30
0.0
 40
8.100000000000285
1001
AcDbBlockRepETag
1070
     1
1071
      331
1005
3BFE
  0
CIRCLE
  5
3BFF
330
74
100
AcDbEntity
  8
1
 62
   255
100
AcDbCircle
 10
247.6725782567078
 20
237.2795009997352
 30
0.0
 40
8.50000000000027
1001
AcDbBlockRepETag
1070
     1
1071
      332
1005
3BFF
  0
CIRCLE
  5
3C00
330
74
100
AcDbEntity
  8
1
 62
   255
100
AcDbCircle
 10
134.1241673929539
 20
241.6096280186576
 30
0.0
 40
0.6400000000000717
1001
AcDbBlockRepETag
1070
     1
1071
      333
1005
3C00
  0
CIRCLE
  5
3C01
330
74
100
AcDbEntity
  8
1
 62
   255
100
AcDbCircle
 10
129.1241673929539
 20
241.6096280186576
 30
0.0
 40
0.6400000000000717
1001
AcDbBlockRepETag
1070
     1
1071
      334
1005
3C01
  0
CIRCLE
  5
3C02
330
74
100
AcDbEntity
  8
1
 62
   255
100
AcDbCircle
 10
129.1241673929539
 20
232.9493739808132
 30
0.0
 40
0.6400000000000717
1001
AcDbBlockRepETag
1070
     1
1071
      335
1005
3C02
  0
CIRCLE
  5
3C03
330
74
100
AcDbEntity
  8
1
 62
   255
100
AcDbCircle
 10
134.1241673929539
 20
232.9493739808132
 30
0.0
 40
0.6400000000000717
1001
AcDbBlockRepETag
1070
     1
1071
      336
1005
3C03
  0
LWPOLYLINE
  5
3C04
330
74
100
AcDbEntity
  8
1
 62
   255
100
AcDbPolyline
 90
       34
 70
     0
 43
0.0
 10
175.8711094532161
 20
241.9756866018767
 42
-0.0009769546642519
 10
175.8972186665446
 20
241.974495371535
 42
-0.0029341492625439
 10
175.9233031512993
 20
241.9731007845131
 42
-0.0048994243661253
 10
175.9493381789061
 20
241.9712994841311
 42
-0.0068721834613899
 10
175.9752990207913
 20
241.9688881137087
 42
-0.0088427067984313
 10
176.001160948381
 20
241.9656633165658
 42
-0.0095030637880044
 10
176.026727426847
 20
241.9614963132536
 42
-0.0090068994587971
 10
176.052146285268
 20
241.9563811775644
 42
-0.0085261447313022
 10
176.0773918990855
 20
241.9503730131832
 42
-0.0080636793234288
 10
176.1024386437406
 20
241.9435269237953
 42
-0.0378669442572557
 10
176.2225649685373
 20
241.8985028630675
 42
-0.024694027846973
 10
176.2896539399376
 20
241.8630607784856
 42
-0.0334897219903684
 10
176.3720763661843
 20
241.8063529235876
 42
-0.0258015328239389
 10
176.4275227183511
 20
241.7575408300733
 42
-0.0354986540733165
 10
176.4918162887038
 20
241.6851045568492
 42
-0.0275664963018719
 10
176.5322882590231
 20
241.6258146948548
 42
-0.0376498403446615
 10
176.5748797545843
 20
241.5415757137681
 42
-0.0483390679895832
 10
176.6086681333591
 20
241.4304900888766
 42
-0.2207133414310847
 10
176.4918162887038
 20
240.9467422702071
 42
-0.035923586798182
 10
176.4275227183511
 20
240.8743059969832
 42
-0.0260514968998407
 10
176.3720763661843
 20
240.8254939034688
 42
-0.0338208652603897
 10
176.2896539399376
 20
240.7687860485708
 42
-0.0330853761095618
 10
176.1991996900026
 20
240.7228912358694
 42
-0.0155054379980144
 10
176.1515204862235
 20
240.7042051085114
 42
-0.0149276280579383
 10
176.1024386437406
 20
240.688319903261
 42
-0.0080636793235112
 10
176.0773918990855
 20
240.681473813873
 42
-0.0085261447313103
 10
176.052146285268
 20
240.675465649492
 42
-0.0090068994587469
 10
176.026727426847
 20
240.6703505138028
 42
-0.0095030637880622
 10
176.001160948381
 20
240.6661835104905
 42
-0.0088427067984659
 10
175.9752990207913
 20
240.6629587133477
 42
-0.0068721834614305
 10
175.9493381789061
 20
240.6605473429253
 42
-0.0048994243661794
 10
175.9233031512993
 20
240.6587460425432
 42
-0.0029341492625524
 10
175.8972186665446
 20
240.6573514555214
 42
-0.0009769546642922
 10
175.8711094532161
 20
240.6561602251797
1001
AcDbBlockRepETag
1070
     1
1071
      337
1005
3C04
  0
LWPOLYLINE
  5
3C05
330
74
100
AcDbEntity
  8
1
 62
   255
100
AcDbPolyline
 90
       81
 70
     0
 43
0.0
 10
175.8711094532161
 20
230.7322122238541
 42
-0.0005731998222052
 10
175.8971529221708
 20
230.7315319936583
 42
-0.0017202466445893
 10
175.9231880986449
 20
230.7307324736879
 42
-0.0028688743799281
 10
175.9492066901583
 20
230.7296943741681
 42
-0.0040189304780829
 10
175.9752004042305
 20
230.7282984053243
 42
-0.0051684429147263
 10
176.001160948381
 20
230.7264252773817
 42
-0.0055085508679295
 10
176.0264998739415
 20
230.7240406124126
 42
-0.00530109349975
 10
176.0517892521436
 20
230.7211078434731
 42
-0.0050967816636636
 10
176.0770191621949
 20
230.7176489064205
 42
-0.004896061438421
 10
176.1021796833028
 20
230.713685737112
 42
-0.0137681124918552
 10
176.1749267403007
 20
230.6994288401293
 42
-0.0050188055471193
 10
176.1986036511621
 20
230.6938383870807
 42
-0.0052697877447739
 10
176.2221585167376
 20
230.6877624710842
 42
-0.0055210828408092
 10
176.2455778090384
 20
230.6811793636339
 42
-0.005397078013211
 10
176.2673049727601
 20
230.6745567481605
 42
-0.0056518882758674
 10
176.2888823184959
 20
230.667455098883
 42
-0.0059107506095602
 10
176.3102899706571
 20
230.659856338034
 42
-0.0061728875694566
 10
176.3315080536549
 20
230.6517423878461
 42
-0.0064373182624897
 10
176.3525166919007
 20
230.6430951705522
 42
-0.0062048831920665
 10
176.3714813420188
 20
230.6347236970152
 42
-0.0066322190328272
 10
176.3902249721929
 20
230.6258681242893
 42
-0.0070660822414918
 10
176.4087174340597
 20
230.616503257386
 42
-0.0075045743635406
 10
176.4269285792562
 20
230.6066039013174
 42
-0.0079451261292604
 10
176.4448282594193
 20
230.596144861095
 42
-0.0076016955469954
 10
176.4605316982922
 20
230.5863030602492
 42
-0.0082233461228214
 10
176.4759168482769
 20
230.5759686852186
 42
-0.0088585310837648
 10
176.490938220016
 20
230.5651162241671
 42
-0.0095030245837427
 10
176.5055503241519
 20
230.5537201652586
 42
-0.0101507817329311
 10
176.5197076713271
 20
230.541754996657
 42
-0.0096498710296479
 10
176.5317771772429
 20
230.5307075373097
 42
-0.0104962196587478
 10
176.5433932713837
 20
230.5191817426047
 42
-0.0113720269920604
 10
176.5544918208924
 20
230.5071619964822
 42
-0.0122678777412419
 10
176.5650086929117
 20
230.4946326828827
 42
-0.0131698016069293
 10
176.5748797545843
 20
230.4815781857465
 42
-0.0125096117297185
 10
176.5830469257609
 20
230.4695384442819
 42
-0.0133993729666764
 10
176.590581855815
 20
230.4570886833788
 42
-0.0143544633408749
 10
176.5974120381583
 20
230.4442452616646
 42
-0.0153593521361848
 10
176.6034649662024
 20
230.4310245377666
 42
-0.016390982082618
 10
176.6086681333591
 20
230.4174428703122
 42
-0.0317831457794547
 10
176.615842374658
 20
230.3914574407349
 42
-0.0165450123937083
 10
176.6181538805791
 20
230.3781693442189
 42
-0.0170703015726197
 10
176.6195671105202
 20
230.364763095012
 42
-0.0701572511395681
 10
176.6158423746581
 20
230.3111380981845
 42
-0.0319980255406024
 10
176.6086681333591
 20
230.2851526686071
 42
-0.0163909820831308
 10
176.6034649662024
 20
230.2715710011527
 42
-0.0153593521361996
 10
176.5974120381583
 20
230.2583502772548
 42
-0.0143544633404595
 10
176.590581855815
 20
230.2455068555406
 42
-0.0133993729664976
 10
176.5830469257609
 20
230.2330570946375
 42
-0.0125096117295155
 10
176.5748797545843
 20
230.221017353173
 42
-0.0131698016070261
 10
176.5650086929117
 20
230.2079628560368
 42
-0.0122678777417716
 10
176.5544918208924
 20
230.1954335424373
 42
-0.0113720269918945
 10
176.5433932713837
 20
230.1834137963147
 42
-0.010496219658973
 10
176.5317771772429
 20
230.1718880016097
 42
-0.0096498710300655
 10
176.5197076713271
 20
230.1608405422625
 42
-0.0101507817330261
 10
176.5055503241519
 20
230.1488753736609
 42
-0.0095030245838273
 10
176.490938220016
 20
230.1374793147525
 42
-0.008858531083687
 10
176.4759168482769
 20
230.1266268537009
 42
-0.0082233461226985
 10
176.4605316982921
 20
230.1162924786703
 42
-0.0076016955463863
 10
176.4448282594193
 20
230.1064506778245
 42
-0.0079451261289701
 10
176.4269285792562
 20
230.0959916376021
 42
-0.0075045743632136
 10
176.4087174340597
 20
230.0860922815334
 42
-0.0070660822413319
 10
176.3902249721929
 20
230.0767274146302
 42
-0.0066322190330427
 10
176.3714813420188
 20
230.0678718419042
 42
-0.0062048831923906
 10
176.3525166919007
 20
230.0595003683671
 42
-0.0064373182625051
 10
176.3315080536549
 20
230.0508531510732
 42
-0.0061728875695861
 10
176.3102899706571
 20
230.0427392008854
 42
-0.0059107506097115
 10
176.2888823184959
 20
230.0351404400363
 42
-0.0056518882760148
 10
176.2673049727601
 20
230.0280387907588
 42
-0.0053970780131333
 10
176.2455778090384
 20
230.0214161752854
 42
-0.0055210828407355
 10
176.2221585167376
 20
230.0148330678351
 42
-0.0052697877446657
 10
176.1986036511621
 20
230.0087571518385
 42
-0.0050188055470833
 10
176.1749267403007
 20
230.0031666987901
 42
-0.0047689200931328
 10
176.151141312142
 20
229.9980399801839
 42
-0.0188533018828606
 10
176.0517892521436
 20
229.9814876954462
 42
-0.0053010934997501
 10
176.0264998739415
 20
229.9785549265067
 42
-0.0055085508680023
 10
176.001160948381
 20
229.9761702615376
 42
-0.0051684429147945
 10
175.9752004042305
 20
229.974297133595
 42
-0.0040189304781853
 10
175.9492066901583
 20
229.9729011647512
 42
-0.0028688743799623
 10
175.9231880986449
 20
229.9718630652314
 42
-0.001720246644486
 10
175.8971529221708
 20
229.971063545261
 42
-0.0005731998222318
 10
175.8711094532161
 20
229.9703833150653
1001
AcDbBlockRepETag
1070
     1
1071
      338
1005
3C05
  0
ARC
  5
3C06
330
74
100
AcDbEntity
  8
1
 62
   255
100
AcDbCircle
 10
253.9725782567082
 20
238.6795009997352
 30
0.0
 40
0.5999999999999951
100
AcDbArc
 50
90.0
 51
180.0
1001
AcDbBlockRepETag
1070
     1
1071
      339
1005
3C06
  0
ARC
  5
3C07
330
74
100
AcDbEntity
  8
1
 62
   255
100
AcDbCircle
 10
253.9725782567082
 20
235.8795009997352
 30
0.0
 40
0.6000000000000228
100
AcDbArc
 50
180.0
 51
270.0
1001
AcDbBlockRepETag
1070
     1
1071
      340
1005
3C07
  0
DIMENSION
  5
3C08
102
{ACAD_XDICTIONARY
360
459C
102
}
330
74
100
AcDbEntity
  8
1
  6
Continuous
 62
     2
100
AcDbDimension
  2
*D50
 10
201.5711094532161
 20
218.7628035207445
 30
0.0
 11
204.5711094532161
 21
220.2891282154318
 31
0.0
 70
   160
  1
6{\H0.71429x;%%P0.5}
 71
     5
 42
6.0
 73
     0
 74
     0
 75
     0
  3
DMST_1
100
AcDbAlignedDimension
 13
207.5711094532161
 23
236.620493558302
 33
0.0
 14
201.5711094532161
 24
235.0295009997354
 34
0.0
100
AcDbRotatedDimension
1001
AcDbBlockRepETag
1070
     1
1071
      341
1005
3C08
  0
DIMENSION
  5
3C09
330
74
100
AcDbEntity
  8
1
  6
Continuous
 62
     2
100
AcDbDimension
  2
*D51
 10
168.6711094532162
 20
208.7655098746739
 30
0.0
 11
171.4211094532161
 21
210.3988458853319
 31
0.0
 70
   160
 71
     5
 42
5.499999999999971
 73
     0
 74
     0
 75
     0
  3
DMST_2
100
AcDbAlignedDimension
 13
174.1711094532161
 23
229.5795009997354
 33
0.0
 14
168.6711094532162
 24
232.1795009997354
 34
0.0
100
AcDbRotatedDimension
1001
AcDbBlockRepETag
1070
     1
1071
      342
1005
3C09
  0
DIMENSION
  5
3C0A
330
74
100
AcDbEntity
  8
1
  6
Continuous
 62
     2
100
AcDbDimension
  2
*D52
 10
246.6725782567078
 20
250.732984528134
 30
0.0
 11
247.6725782567078
 21
253.182984528134
 31
0.0
 70
    32
 71
     5
 42
2.0
 73
     0
 74
     0
 75
     0
  3
DMST_2
100
AcDbAlignedDimension
 13
248.6725782567078
 23
242.4295009997352
 33
0.0
 14
246.6725782567078
 24
242.4295009997352
 34
0.0
100
AcDbRotatedDimension
1001
AcDbBlockRepETag
1070
     1
1071
      343
1005
3C0A
1001
ACAD
1000
DSTYLE
1002
{
1070
    74
1070
     1
1070
   147
1040
0.4
1070
   172
1070
     1
1002
}
  0
DIMENSION
  5
3C0B
330
74
100
AcDbEntity
  8
1
  6
Continuous
 62
     2
100
AcDbDimension
  2
*D53
 10
235.3384892842653
 20
232.2795009997352
 30
0.0
 11
234.1417475501808
 21
237.2795009997352
 31
0.0
 70
   160
 71
     5
 42
10.0
 73
     0
 74
     0
 75
     0
  3
DMST_2
100
AcDbAlignedDimension
 13
246.0395940670117
 23
242.2795009997352
 33
0.0
 14
246.1375054823209
 24
232.2795009997352
 34
0.0
 50
90.0
100
AcDbRotatedDimension
1001
AcDbBlockRepETag
1070
     1
1071
      344
1005
3C0B
  0
DIMENSION
  5
3C0C
330
74
100
AcDbEntity
  8
1
  6
Continuous
 62
     2
100
AcDbDimension
  2
*D54
 10
197.2711094532161
 20
223.9833030150439
 30
0.0
 11
193.9954720265541
 21
225.2833074524942
 31
0.0
 70
   160
  1
2.8{\H0.71429x;%%P0.1}
 71
     5
 42
2.799999999999982
 73
     0
 74
     0
 75
     0
  3
DMST_1
100
AcDbAlignedDimension
 13
200.0711094532161
 23
229.2870009997354
 33
0.0
 14
197.2711094532161
 24
228.7795009997354
 34
0.0
100
AcDbRotatedDimension
1001
AcDbBlockRepETag
1070
     1
1071
      345
1005
3C0C
1001
ACAD
1000
DSTYLE
1002
{
1070
   147
1040
0.5
1070
   172
1070
     1
1002
}
  0
DIMENSION
  5
3C0D
102
{ACAD_XDICTIONARY
360
45EE
102
}
330
74
100
AcDbEntity
  8
1
  6
Continuous
 62
     2
100
AcDbDimension
  2
*D55
 10
200.0711094532161
 20
213.7737805388097
 30
0.0
 11
197.2440086068849
 21
215.1087235715569
 31
0.0
 70
   160
 71
     5
 73
     0
 74
     0
 75
     0
  3
DMST_2
100
AcDbAlignedDimension
 13
201.0711094532161
 23
234.4795009997354
 33
0.0
 14
200.0711094532161
 24
229.2870009997354
 34
0.0
100
AcDbRotatedDimension
1001
AcDbBlockRepETag
1070
     1
1071
      346
1005
3C0D
1001
ACAD
1000
DSTYLE
1002
{
1070
   172
1070
     1
1002
}
  0
DIMENSION
  5
3C0E
102
{ACAD_XDICTIONARY
360
45C4
102
}
330
74
100
AcDbEntity
  8
1
  6
Continuous
 62
     2
100
AcDbDimension
  2
*D56
 10
201.0711094532161
 20
213.7739797505976
 30
0.0
 11
204.3211094532161
 21
215.4653213576442
 31
0.0
 70
   160
  1
(6.5)
 71
     5
 42
6.5
 73
     0
 74
     0
 75
     0
  3
DMST_3
100
AcDbAlignedDimension
 13
207.5711094532161
 23
236.620493558302
 33
0.0
 14
201.0711094532161
 24
234.4795009997354
 34
0.0
100
AcDbRotatedDimension
1001
AcDbBlockRepETag
1070
     1
1071
      347
1005
3C0E
  0
DIMENSION
  5
3C0F
330
74
100
AcDbEntity
  8
1
  6
Continuous
 62
     2
100
AcDbDimension
  2
*D57
 10
207.5711094532161
 20
208.7857778900089
 30
0.0
 11
203.8211094532161
 21
210.4510540170937
 31
0.0
 70
   160
  1
7.5{\H0.71429x;%%P0.5}
 71
     5
 42
7.5
 73
     0
 74
     0
 75
     0
  3
DMST_1
100
AcDbAlignedDimension
 13
200.0711094532161
 23
229.2870009997354
 33
0.0
 14
207.5711094532161
 24
236.620493558302
 34
0.0
100
AcDbRotatedDimension
1001
AcDbBlockRepETag
1070
     1
1071
      348
1005
3C0F
  0
DIMENSION
  5
3C10
330
74
100
AcDbEntity
  8
1
  6
Continuous
 62
     2
100
AcDbDimension
  2
*D58
 10
200.0711094532161
 20
208.7857778900089
 30
0.0
 11
187.1211094532161
 21
210.3495740646418
 31
0.0
 70
   160
 71
     5
 42
25.89999999999992
 73
     0
 74
     0
 75
     0
  3
DMST_2
100
AcDbAlignedDimension
 13
174.1711094532161
 23
229.5795009997354
 33
0.0
 14
200.0711094532161
 24
229.2870009997354
 34
0.0
100
AcDbRotatedDimension
1001
AcDbBlockRepETag
1070
     1
1071
      349
1005
3C10
  0
DIMENSION
  5
3C11
102
{ACAD_XDICTIONARY
360
42EF
102
}
330
74
100
AcDbEntity
  8
1
  6
Continuous
 62
     2
100
AcDbDimension
  2
*D59
 10
137.4241673929539
 20
250.7715022314299
 30
0.0
 11
147.354973773796
 21
251.2445695896487
 31
0.0
 70
   161
  1
M1.6x1.5 max.
 71
     5
 42
1.599999999999994
 73
     0
 74
     0
 75
     0
  3
DMST_4
100
AcDbAlignedDimension
 13
135.8241673929539
 23
237.2795009997354
 33
0.0
 14
137.4241673929539
 24
237.2795009997354
 34
0.0
1001
AcDbBlockRepETag
1070
     1
1071
      350
1005
3C11
1001
ACAD
1000
DSTYLE
1002
{
1070
   172
1070
     1
1070
   279
1070
     1
1002
}
  0
DIMENSION
  5
3C12
330
74
100
AcDbEntity
  8
1
  6
Continuous
 62
     2
100
AcDbDimension
  2
*D60
 10
142.6241673929539
 20
237.2795009997354
 30
0.0
 11
121.2680407983931
 21
231.2801646740581
 31
0.0
 70
   162
  1
6x<>
 71
     5
 42
1.047197551196597
 73
     0
 74
     0
 75
     0
  3
DMST_2
100
AcDb2LineAngularDimension
 13
128.3741673929539
 23
231.6503358751365
 33
0.0
 14
134.8741673929539
 24
242.9086661243342
 34
0.0
 15
120.624167392954
 25
237.2795009997354
 35
0.0
 16
118.9029843119115
 26
232.6493690135851
 36
0.0
1001
AcDbBlockRepETag
1070
     1
1071
      351
1005
3C12
  0
LINE
  5
3C3A
330
74
100
AcDbEntity
  8
1
 62
     2
100
AcDbLine
 10
174.1711094532161
 20
229.5795009997354
 30
0.0
 11
174.1711094532161
 21
223.2609349642248
 31
0.0
1001
AcDbBlockRepETag
1070
     1
1071
      388
1005
3C3A
  0
LINE
  5
3C46
330
74
100
AcDbEntity
  8
1
 62
     2
100
AcDbLine
 10
169.692838195913
 20
244.9795009997354
 30
0.0
 11
169.692838195913
 21
254.9973657600568
 31
0.0
1001
AcDbBlockRepETag
1070
     1
1071
      358
1005
3C46
  0
LINE
  5
3C47
330
74
100
AcDbEntity
  8
1
 62
     2
100
AcDbLine
 10
174.1711094532161
 20
244.9795009997354
 30
0.0
 11
169.192838195913
 21
244.9795009997354
 31
0.0
1001
AcDbBlockRepETag
1070
     1
1071
      359
1005
3C47
  0
SOLID
  5
3C48
330
74
100
AcDbEntity
  8
1
 62
     2
100
AcDbTrace
 10
169.692838195913
 20
244.9795009997354
 30
0.0
 11
169.465338195913
 21
246.7295009997354
 31
0.0
 12
169.920338195913
 22
246.7295009997354
 32
0.0
 13
169.920338195913
 23
246.7295009997354
 33
0.0
1001
AcDbBlockRepETag
1070
     1
1071
      360
1005
3C48
  0
TEXT
  5
3C49
330
74
100
AcDbEntity
  8
1
 62
     3
100
AcDbText
 10
169.1820817949077
 20
248.5365463931515
 30
0.0
 40
1.75
  1
%%C15.4
 50
90.0
100
AcDbText
1001
AcDbBlockRepETag
1070
     1
1071
      361
1005
3C49
  0
LINE
  5
3C4A
330
74
100
AcDbEntity
  8
1
 62
     2
100
AcDbLine
 10
217.5721801052135
 20
238.0295009997354
 30
0.0
 11
217.5721801052135
 21
250.5167876863409
 31
0.0
1001
AcDbBlockRepETag
1070
     1
1071
      399
1005
3C4A
  0
LINE
  5
3C4B
330
74
100
AcDbEntity
  8
1
 62
     2
100
AcDbLine
 10
207.3211094532161
 20
238.0295009997354
 30
0.0
 11
218.0721801052135
 21
238.0295009997354
 31
0.0
1001
AcDbBlockRepETag
1070
     1
1071
      400
1005
3C4B
  0
SOLID
  5
3C4C
330
74
100
AcDbEntity
  8
1
 62
     2
100
AcDbTrace
 10
217.5721801052135
 20
238.0295009997354
 30
0.0
 11
217.3446801052135
 21
239.7795009997354
 31
0.0
 12
217.7996801052135
 22
239.7795009997354
 32
0.0
 13
217.7996801052135
 23
239.7795009997354
 33
0.0
1001
AcDbBlockRepETag
1070
     1
1071
      401
1005
3C4C
  0
TEXT
  5
3C4D
330
74
100
AcDbEntity
  8
1
 62
     3
100
AcDbText
 10
216.4467684853484
 20
240.5652127217572
 30
0.0
 40
1.75
  1
%%C1.5
 50
90.0
100
AcDbText
1001
AcDbBlockRepETag
1070
     1
1071
      402
1005
3C4D
  0
TEXT
  5
3C4E
330
74
100
AcDbEntity
  8
1
 62
     3
100
AcDbText
 10
215.1998934853484
 20
245.0436572031275
 30
0.0
 40
1.25
  1
-0.006
 50
90.0
100
AcDbText
1001
AcDbBlockRepETag
1070
     1
1071
      403
1005
3C4E
  0
TEXT
  5
3C4F
330
74
100
AcDbEntity
  8
1
 62
     3
100
AcDbText
 10
217.2211434853484
 20
245.0436572031275
 30
0.0
 40
1.25
  1
-0.009
 50
90.0
100
AcDbText
1001
AcDbBlockRepETag
1070
     1
1071
      404
1005
3C4F
  0
LINE
  5
3C50
330
74
100
AcDbEntity
  8
1
 62
     2
100
AcDbLine
 10
212.5594934420724
 20
240.2795009997354
 30
0.0
 11
212.5594934420724
 21
250.8048397375451
 31
0.0
1001
AcDbBlockRepETag
1070
     1
1071
      393
1005
3C50
  0
LINE
  5
3C51
330
74
100
AcDbEntity
  8
1
 62
     2
100
AcDbLine
 10
200.8711094532161
 20
240.2795009997354
 30
0.0
 11
213.0594934420724
 21
240.2795009997354
 31
0.0
1001
AcDbBlockRepETag
1070
     1
1071
      394
1005
3C51
  0
SOLID
  5
3C52
330
74
100
AcDbEntity
  8
1
 62
     2
100
AcDbTrace
 10
212.5594934420724
 20
240.2795009997354
 30
0.0
 11
212.3319934420724
 21
242.0295009997354
 31
0.0
 12
212.7869934420724
 22
242.0295009997354
 32
0.0
 13
212.7869934420724
 23
242.0295009997354
 33
0.0
1001
AcDbBlockRepETag
1070
     1
1071
      395
1005
3C52
  0
TEXT
  5
3C53
330
74
100
AcDbEntity
  8
1
 62
     3
100
AcDbText
 10
211.3224860925255
 20
243.2252082544937
 30
0.0
 40
1.75
  1
%%C6
 50
90.0
100
AcDbText
1001
AcDbBlockRepETag
1070
     1
1071
      396
1005
3C53
  0
TEXT
  5
3C54
330
74
100
AcDbEntity
  8
1
 62
     3
100
AcDbText
 10
210.1106110925255
 20
245.9225294381513
 30
0.0
 40
1.25
  1
 0
 50
90.0
100
AcDbText
1001
AcDbBlockRepETag
1070
     1
1071
      397
1005
3C54
  0
TEXT
  5
3C55
330
74
100
AcDbEntity
  8
1
 62
     3
100
AcDbText
 10
212.0093610925255
 20
245.9225294381513
 30
0.0
 40
1.25
  1
-0.018
 50
90.0
100
AcDbText
1001
AcDbBlockRepETag
1070
     1
1071
      398
1005
3C55
  0
LINE
  5
3C56
330
74
100
AcDbEntity
  8
1
 62
     2
100
AcDbLine
 10
188.8333678407706
 20
245.7795009997355
 30
0.0
 11
188.8333678407706
 21
255.733920839968
 31
0.0
1001
AcDbBlockRepETag
1070
     1
1071
      366
1005
3C56
  0
SOLID
  5
3C57
330
74
100
AcDbEntity
  8
1
 62
     2
100
AcDbTrace
 10
188.8333678407706
 20
245.7795009997355
 30
0.0
 11
188.6058678407706
 21
247.5295009997355
 31
0.0
 12
189.0608678407706
 22
247.5295009997355
 32
0.0
 13
189.0608678407706
 23
247.5295009997355
 33
0.0
1001
AcDbBlockRepETag
1070
     1
1071
      368
1005
3C57
  0
TEXT
  5
3C58
330
74
100
AcDbEntity
  8
1
 62
     3
100
AcDbText
 10
187.7128241651631
 20
248.5587865335227
 30
0.0
 40
1.75
  1
%%C17
 50
90.0
100
AcDbText
1001
AcDbBlockRepETag
1070
     1
1071
      369
1005
3C58
  0
TEXT
  5
3C59
330
74
100
AcDbEntity
  8
1
 62
     3
100
AcDbText
 10
186.5009491651631
 20
252.3587526081604
 30
0.0
 40
1.25
  1
 0
 50
90.0
100
AcDbText
1001
AcDbBlockRepETag
1070
     1
1071
      370
1005
3C59
  0
TEXT
  5
3C5A
330
74
100
AcDbEntity
  8
1
 62
     3
100
AcDbText
 10
188.3996991651632
 20
252.3587526081604
 30
0.0
 40
1.25
  1
-0.1
 50
90.0
100
AcDbText
1001
AcDbBlockRepETag
1070
     1
1071
      371
1005
3C5A
  0
LINE
  5
3C5B
330
74
100
AcDbEntity
  8
1
 62
     2
100
AcDbLine
 10
176.4402661351183
 20
245.3795009997355
 30
0.0
 11
176.4402661351183
 21
253.6707559693908
 31
0.0
1001
AcDbBlockRepETag
1070
     1
1071
      362
1005
3C5B
  0
LINE
  5
3C5C
330
74
100
AcDbEntity
  8
1
 62
     2
100
AcDbLine
 10
175.8711094532161
 20
245.3795009997355
 30
0.0
 11
176.9402661351183
 21
245.3795009997355
 31
0.0
1001
AcDbBlockRepETag
1070
     1
1071
      363
1005
3C5C
  0
SOLID
  5
3C5D
330
74
100
AcDbEntity
  8
1
 62
     2
100
AcDbTrace
 10
176.4402661351183
 20
245.3795009997355
 30
0.0
 11
176.2127661351183
 21
247.1295009997355
 31
0.0
 12
176.6677661351183
 22
247.1295009997355
 32
0.0
 13
176.6677661351183
 23
247.1295009997355
 33
0.0
1001
AcDbBlockRepETag
1070
     1
1071
      364
1005
3C5D
  0
TEXT
  5
3C5E
330
74
100
AcDbEntity
  8
1
 62
     3
100
AcDbText
 10
175.783493336204
 20
249.1654879739946
 30
0.0
 40
1.75
  1
%%C16
 50
90.0
100
AcDbText
1001
AcDbBlockRepETag
1070
     1
1071
      365
1005
3C5E
  0
LINE
  5
3C5F
330
74
100
AcDbEntity
  8
1
 62
     2
100
AcDbLine
 10
198.6673847666942
 20
245.2720009997354
 30
0.0
 11
198.6673847666942
 21
261.3561317785749
 31
0.0
1001
AcDbBlockRepETag
1070
     1
1071
      372
1005
3C5F
  0
LINE
  5
3C60
330
74
100
AcDbEntity
  8
1
 62
     2
100
AcDbLine
 10
197.2711094532161
 20
245.2720009997354
 30
0.0
 11
199.1673847666942
 21
245.2720009997354
 31
0.0
1001
AcDbBlockRepETag
1070
     1
1071
      373
1005
3C60
  0
SOLID
  5
3C61
330
74
100
AcDbEntity
  8
1
 62
     2
100
AcDbTrace
 10
198.6673847666942
 20
245.2720009997354
 30
0.0
 11
198.4398847666942
 21
247.0220009997354
 31
0.0
 12
198.8948847666942
 22
247.0220009997354
 32
0.0
 13
198.8948847666942
 23
247.0220009997354
 33
0.0
1001
AcDbBlockRepETag
1070
     1
1071
      374
1005
3C61
  0
TEXT
  5
3C62
330
74
100
AcDbEntity
  8
1
 62
     3
100
AcDbText
 10
197.3091326586368
 20
247.9985812440254
 30
0.0
 40
1.75
  1
%%C15.985
 50
90.0
100
AcDbText
1001
AcDbBlockRepETag
1070
     1
1071
      375
1005
3C62
  0
TEXT
  5
3C63
330
74
100
AcDbEntity
  8
1
 62
     3
100
AcDbText
 10
196.1847576586368
 20
256.286797254752
 30
0.0
 40
1.25
  1
 0
 50
90.0
100
AcDbText
1001
AcDbBlockRepETag
1070
     1
1071
      376
1005
3C63
  0
TEXT
  5
3C64
330
74
100
AcDbEntity
  8
1
 62
     3
100
AcDbText
 10
198.0835076586368
 20
256.286797254752
 30
0.0
 40
1.25
  1
-0.015
 50
90.0
100
AcDbText
1001
AcDbBlockRepETag
1070
     1
1071
      377
1005
3C64
  0
LINE
  5
3C69
330
74
100
AcDbEntity
  8
0
 62
     2
100
AcDbLine
 10
140.9241673929539
 20
250.7715022314299
 30
0.0
 11
154.1759873052017
 21
250.7715022314299
 31
0.0
1001
AcDbBlockRepETag
1070
     1
1071
      357
1005
3C69
  0
LINE
  5
3C6B
330
74
100
AcDbEntity
  8
1
  6
CENTER
 62
     2
 48
0.8
100
AcDbLine
 10
236.6725782567075
 20
237.2795009997352
 30
0.0
 11
241.5389097423356
 21
237.2795009997354
 31
0.0
1001
AcDbBlockRepETag
1070
     1
1071
      405
1005
3C6B
  0
LINE
  5
41D4
330
74
100
AcDbEntity
  8
0
  6
Continuous
 62
   255
100
AcDbLine
 10
287.1483728248311
 20
152.6066593876763
 30
0.0
 11
287.1483728248311
 21
291.1066593876764
 31
0.0
  0
LINE
  5
41D5
330
74
100
AcDbEntity
  8
0
  6
Continuous
 62
   255
100
AcDbLine
 10
277.9700227870087
 20
152.6066593876763
 30
0.0
 11
277.9700227870086
 21
154.6066588412284
 31
0.0
  0
LINE
  5
41D6
330
74
100
AcDbEntity
  8
0
  6
Continuous
 62
   255
100
AcDbLine
 10
281.1483728248311
 20
154.6066588412284
 30
0.0
 11
281.148372824831
 21
159.1066588412283
 31
0.0
  0
LINE
  5
41D7
330
74
100
AcDbEntity
  8
0
  6
Continuous
 62
   255
100
AcDbLine
 10
90.64838962003111
 20
152.6066593876763
 30
0.0
 11
287.1483728248311
 21
152.6066593876763
 31
0.0
  0
LINE
  5
41D8
330
74
100
AcDbEntity
  8
0
  6
Continuous
 62
   255
100
AcDbLine
 10
90.64838962003111
 20
291.1066593876764
 30
0.0
 11
90.64838962003111
 21
152.6066593876764
 31
0.0
  0
LINE
  5
41D9
330
74
100
AcDbEntity
  8
0
  6
Continuous
 62
   255
100
AcDbLine
 10
90.64838962003111
 20
291.1066593876764
 30
0.0
 11
287.1483728248311
 21
291.1066593876764
 31
0.0
  0
LINE
  5
41E0
330
74
100
AcDbEntity
  8
0
  6
CENTER
 62
     2
 48
0.2
370
     9
100
AcDbLine
 10
284.4178384606335
 20
160.8786053595428
 30
0.0
 11
284.4178384606335
 21
164.3786044032589
 31
0.0
1001
AcDbBlockRepETag
1070
     1
1071
        1
1005
0
  0
LINE
  5
41E1
330
74
100
AcDbEntity
  8
0
  6
CENTER
 62
     2
 48
0.3
370
     9
100
AcDbLine
 10
277.2389301588215
 20
162.6286048814008
 30
0.0
 11
281.7389289293132
 21
162.6286048814008
 31
0.0
1001
AcDbBlockRepETag
1070
     1
1071
        9
1005
0
  0
LINE
  5
41E2
330
74
100
AcDbEntity
  8
0
  6
Continuous
 62
   255
100
AcDbLine
 10
281.4889289976195
 20
164.1786044579037
 30
0.0
 11
277.4889300905153
 21
163.3786046764829
 31
0.0
1001
AcDbBlockRepETag
1070
     1
1071
       10
1005
0
  0
LINE
  5
41E3
330
74
100
AcDbEntity
  8
0
  6
Continuous
 62
   255
100
AcDbLine
 10
281.4889289976195
 20
161.0786053048979
 30
0.0
 11
281.4889289976195
 21
164.1786044579037
 31
0.0
1001
AcDbBlockRepETag
1070
     1
1071
       11
1005
0
  0
LINE
  5
41E4
330
74
100
AcDbEntity
  8
0
  6
Continuous
 62
   255
100
AcDbLine
 10
277.4889300905153
 20
161.8786050863188
 30
0.0
 11
281.4889289976195
 21
161.0786053048979
 31
0.0
1001
AcDbBlockRepETag
1070
     1
1071
       12
1005
0
  0
LINE
  5
41E5
330
74
100
AcDbEntity
  8
0
  6
Continuous
 62
   255
100
AcDbLine
 10
277.4889300905153
 20
163.3786046764829
 30
0.0
 11
277.4889300905153
 21
161.8786050863188
 31
0.0
1001
AcDbBlockRepETag
1070
     1
1071
       13
1005
0
  0
LINE
  5
41E6
330
74
100
AcDbEntity
  8
0
  6
Continuous
 62
   255
100
AcDbLine
 10
255.6483829341184
 20
163.6066588412284
 30
0.0
 11
255.6483829341184
 21
154.6066588412284
 31
0.0
1001
AcDbBlockRepETag
1070
     1
1071
       20
1005
0
  0
LINE
  5
41E7
330
74
100
AcDbEntity
  8
0
  6
Continuous
 62
   255
100
AcDbLine
 10
213.1483930434047
 20
163.6066588412283
 30
0.0
 11
213.1483930434047
 21
154.6066588412284
 31
0.0
1001
AcDbBlockRepETag
1070
     1
1071
       22
1005
0
  0
LINE
  5
41E8
330
74
100
AcDbEntity
  8
0
  6
Continuous
 62
   255
100
AcDbLine
 10
218.1951843843757
 20
166.1062563995247
 30
0.0
 11
218.1951843843759
 21
163.6066588412283
 31
0.0
1001
AcDbBlockRepETag
1070
     1
1071
       22
1005
0
  0
LINE
  5
41E9
330
74
100
AcDbEntity
  8
0
  6
Continuous
 62
   255
100
AcDbLine
 10
263.2887575034783
 20
166.1062563995247
 30
0.0
 11
263.2887575034786
 21
163.6066588412283
 31
0.0
1001
AcDbBlockRepETag
1070
     1
1071
       22
1005
0
  0
LINE
  5
41EA
330
74
100
AcDbEntity
  8
0
  6
Continuous
 62
   255
100
AcDbLine
 10
195.6483978248246
 20
166.1062563995246
 30
0.0
 11
195.6483978248246
 21
152.6066593876763
 31
0.0
1001
AcDbBlockRepETag
1070
     1
1071
       26
1005
0
  0
LINE
  5
41F3
330
74
100
AcDbEntity
  8
0
  6
CENTER
 62
     2
 48
0.2
370
     9
100
AcDbLine
 10
282.617838952437
 20
162.6286048814008
 30
0.0
 11
286.1678379824919
 21
162.6286048814008
 31
0.0
1001
AcDbBlockRepETag
1070
     1
1071
       37
1005
0
  0
LINE
  5
41F4
330
74
100
AcDbEntity
  8
0
  6
Continuous
 62
   255
100
AcDbLine
 10
287.1483728248312
 20
154.6066588412284
 30
0.0
 11
195.6483978248246
 21
154.6066588412284
 31
0.0
1001
AcDbBlockRepETag
1070
     1
1071
       38
1005
0
  0
LINE
  5
41F5
330
74
100
AcDbEntity
  8
0
  6
Continuous
 62
   255
100
AcDbLine
 10
276.1841869137775
 20
163.6066588412283
 30
0.0
 11
263.2887575034786
 21
163.6066588412283
 31
0.0
1001
AcDbBlockRepETag
1070
     1
1071
       38
1005
0
  0
LINE
  5
41F6
330
74
100
AcDbEntity
  8
0
  6
Continuous
 62
   255
100
AcDbLine
 10
263.2887575034784
 20
163.6066588412282
 30
0.0
 11
195.6483978248246
 21
163.6066588412284
 31
0.0
1001
AcDbBlockRepETag
1070
     1
1071
       38
1005
0
  0
LINE
  5
41F7
330
74
100
AcDbEntity
  8
0
  6
Continuous
 62
   255
100
AcDbLine
 10
287.1483728248312
 20
159.1066588412284
 30
0.0
 11
255.6483829341186
 21
159.1066588412282
 31
0.0
1001
AcDbBlockRepETag
1070
     1
1071
       38
1005
0
  0
CIRCLE
  5
41F8
330
74
100
AcDbEntity
  8
0
  6
Continuous
 62
   255
100
AcDbCircle
 10
284.4178384606335
 20
162.6286048814008
 30
0.0
 40
1.549999576502847
1001
AcDbBlockRepETag
1070
     1
1071
       39
1005
0
  0
CIRCLE
  5
41F9
330
74
100
AcDbEntity
  8
0
  6
Continuous
 62
   255
100
AcDbCircle
 10
284.4178384606335
 20
162.6286048814008
 30
0.0
 40
0.7499997950820232
1001
AcDbBlockRepETag
1070
     1
1071
       40
1005
0
  0
MTEXT
  5
41FA
330
74
100
AcDbEntity
  8
0
 62
   255
100
AcDbMText
 10
260.6613485196896
 20
162.0585777289141
 30
0.0
 40
1.5
 41
0.0
 46
0.0
 71
     1
 72
     5
  1
Scale: 2:1
 73
     1
 44
1.0
1001
AcDbBlockRepETag
1070
     1
1071
       46
1005
0
  0
MTEXT
  5
41FB
330
74
100
AcDbEntity
  8
0
 62
   255
100
AcDbMText
 10
282.4051070128097
 20
158.0178490059722
 30
0.0
 40
2.25
 41
0.0
 46
0.0
 71
     1
 72
     5
  1
{\fISOCPEUR|b0|i0|c0|p34;\W1;A3}
  7
SLDTEXTSTYLE0
 73
     1
 44
1.0
1001
AcDbBlockRepETag
1070
     1
1071
       50
1005
0
  0
TEXT
  5
41FC
330
74
100
AcDbEntity
  8
0
  6
Continuous
 62
   255
100
AcDbText
 10
197.4167840187731
 20
153.3063459112098
 30
0.0
 40
0.8619565217391304
  1
This drawing remains our property. Without written approval it may not be copied, reproduced, communicated or made available to third parties.
100
AcDbText
1001
AcDbBlockRepETag
1070
     1
1071
       51
1005
0
  0
MTEXT
  5
4202
330
74
100
AcDbEntity
  8
0
 62
   255
100
AcDbMText
 10
260.3308461638653
 20
157.9905245000414
 30
0.0
 40
2.25
 41
0.0
 46
0.0
 71
     1
 72
     5
  1
{\fISOCPEUR|b0|i0|c0|p34;\W1;\C256;1.011.17N.S25}
  7
SLDTEXTSTYLE0
 73
     1
 44
1.0
1001
AcDbBlockRepETag
1070
     1
1071
       58
1005
0
  0
MTEXT
  5
4203
102
{ACAD_XDICTIONARY
360
4658
102
}
330
74
100
AcDbEntity
  8
0
 62
   255
100
AcDbMText
 10
234.6393427540254
 20
162.2726434223108
 30
0.0
 40
2.25
 41
0.0
 46
0.0
 71
     1
 72
     5
  1
\pi-6.075;{\fISOCPEUR|b0|i0|c0|p34;\W1;17N 78 .1\P\pi-10.575;Outline drawing}
  7
SLDTEXTSTYLE0
 73
     1
 44
1.0
1001
AcDbBlockRepETag
1070
     1
1071
       59
1005
0
  0
MTEXT
  5
4204
330
74
100
AcDbEntity
  8
0
 62
     1
100
AcDbMText
 10
196.851848880374
 20
161.4568167297221
 30
0.0
 40
2.5
 41
0.0
 46
0.0
 71
     1
 72
     5
  1
{\fISOCPEUR|b0|i0|c0|p34;\W1;Portescap}
  7
SLDTEXTSTYLE0
 73
     1
 44
1.0
1001
AcDbBlockRepETag
1070
     1
1071
       65
1005
0
  0
LINE
  5
4207
330
74
100
AcDbEntity
  8
0
  6
Continuous
 62
   255
100
AcDbLine
 10
276.1841869137776
 20
166.1062563995246
 30
0.0
 11
276.1841869137771
 21
159.1066588412283
 31
0.0
1001
AcDbBlockRepETag
1070
     1
1071
        5
1005
0
  0
TEXT
  5
4208
330
74
100
AcDbEntity
  8
0
  6
Continuous
 62
   255
100
AcDbText
 10
279.2260930481968
 20
153.3063459112098
 30
0.0
 40
0.8619565217391304
  1
Sheet 1 of 1
100
AcDbText
1001
AcDbBlockRepETag
1070
     1
1071
       51
1005
0
  0
LINE
  5
420A
330
74
100
AcDbEntity
  8
0
  6
Continuous
 62
   255
100
AcDbLine
 10
213.1483930434047
 20
156.6066582947804
 30
0.0
 11
195.6483978248246
 21
156.6066582947804
 31
0.0
1001
AcDbBlockRepETag
1070
     1
1071
       38
1005
0
  0
TEXT
  5
420B
330
74
100
AcDbEntity
  8
0
  6
Continuous
 62
   255
100
AcDbText
 10
197.4167840187731
 20
155.2112155977984
 30
0.0
 40
0.8619565217391304
  1
PI/R&D/F/18 Rev 00
100
AcDbText
1001
AcDbBlockRepETag
1070
     1
1071
       51
1005
0
  0
MTEXT
  5
420C
330
74
100
AcDbEntity
  8
0
  6
Continuous
 62
   255
100
AcDbMText
 10
196.5781189348778
 20
166.9067373471484
 30
0.0
 40
1.05
 41
61.26009703170726
 46
0.0
 71
     7
 72
     1
  1
Unless & otherwise specified, all dimensions and tolerances are in mm.
  7
style1
 73
     1
 44
1.0
1001
AcDbBlockRepETag
1070
     1
1071
       64
1005
0
  0
LINE
  5
420D
330
74
100
AcDbEntity
  8
0
  6
Continuous
 62
   255
100
AcDbLine
 10
195.6483978248246
 20
166.1062563995246
 30
0.0
 11
287.1483728248312
 21
166.1062563995246
 31
0.0
1001
AcDbBlockRepETag
1070
     1
1071
        3
1005
0
  0
MTEXT
  5
4210
330
74
100
AcDbEntity
  8
0
 62
   255
100
AcDbMText
 10
196.5262245265681
 20
165.5233783090472
 30
0.0
 40
1.25
 41
0.0
 46
0.0
 71
     1
 72
     5
  1
Drawn: 16.08.13 NB
 73
     1
 44
1.0
1001
AcDbBlockRepETag
1070
     1
1071
       46
1005
0
  0
MTEXT
  5
4211
330
74
100
AcDbEntity
  8
0
 62
   255
100
AcDbMText
 10
219.3360187184806
 20
165.5233783090494
 30
0.0
 40
1.25
 41
0.0
 46
0.0
 71
     1
 72
     5
  1
Checked:
 73
     1
 44
1.0
1001
AcDbBlockRepETag
1070
     1
1071
       46
1005
0
  0
MTEXT
  5
4212
330
74
100
AcDbEntity
  8
0
 62
   255
100
AcDbMText
 10
242.211012468482
 20
165.5233783090494
 30
0.0
 40
1.25
 41
0.0
 46
0.0
 71
     1
 72
     5
  1
Approved:
 73
     1
 44
1.0
1001
AcDbBlockRepETag
1070
     1
1071
       46
1005
0
  0
MTEXT
  5
4213
330
74
100
AcDbEntity
  8
0
 62
   255
100
AcDbMText
 10
264.1013846471325
 20
165.5233783090515
 30
0.0
 40
1.25
 41
0.0
 46
0.0
 71
     1
 72
     5
  1
Revision No: 00
 73
     1
 44
1.0
1001
AcDbBlockRepETag
1070
     1
1071
       46
1005
0
  0
LINE
  5
4214
330
74
100
AcDbEntity
  8
0
  6
Continuous
 62
   255
100
AcDbLine
 10
240.7419709439268
 20
166.1062563995267
 30
0.0
 11
240.741970943927
 21
163.6066588412304
 31
0.0
1001
AcDbBlockRepETag
1070
     1
1071
       22
1005
0
  0
DIMENSION
  5
42AA
102
{ACAD_XDICTIONARY
360
431D
102
}
330
74
100
AcDbEntity
  8
0
100
AcDbDimension
  2
*D83
 10
126.6241673929539
 20
254.759955326939
 30
0.0
 11
131.6241673929539
 21
254.759955326939
 31
0.0
 70
   160
  1
%%C<>
 71
     5
 42
10.0
 73
     0
 74
     0
 75
     0
  3
DMST_2
100
AcDbAlignedDimension
 13
136.6241673929539
 23
237.2795009997354
 33
0.0
 14
126.6241673929539
 24
237.2795009997354
 34
0.0
100
AcDbRotatedDimension
1001
ACAD
1000
DSTYLE
1002
{
1070
   147
1040
0.5
1070
   279
1070
     0
1002
}
  0
DIMENSION
  5
433C
330
74
100
AcDbEntity
  8
0
100
AcDbDimension
  2
*D84
 10
174.1711094532161
 20
223.9833030150439
 30
0.0
 11
171.6440532677081
 21
225.4917606638775
 31
0.0
 70
   160
 71
     5
 42
1.699999999999931
 73
     0
 74
     0
 75
     0
  3
DMST_2
100
AcDbAlignedDimension
 13
175.8711094532161
 23
229.1795009997355
 33
0.0
 14
174.1711094532161
 24
229.5795009997354
 34
0.0
100
AcDbRotatedDimension
1001
ACAD
1000
DSTYLE
1002
{
1070
   343
1005
442A
1070
   173
1070
     1
1070
   344
1005
0
1070
   147
1040
0.5
1070
   172
1070
     1
1002
}
  0
DIMENSION
  5
434A
330
74
100
AcDbEntity
  8
0
100
AcDbDimension
  2
*D85
 10
177.3711094532161
 20
223.9833030150439
 30
0.0
 11
179.4962214722281
 21
225.4502800583191
 31
0.0
 70
   160
 71
     5
 42
1.5
 73
     0
 74
     0
 75
     0
  3
DMST_2
100
AcDbAlignedDimension
 13
175.8711094532161
 23
229.1795009997355
 33
0.0
 14
177.3711094532161
 24
229.1795009997355
 34
0.0
100
AcDbRotatedDimension
1001
ACAD
1000
DSTYLE
1002
{
1070
   344
1005
0
1070
   173
1070
     1
1070
   343
1005
442A
1070
   147
1040
0.5
1070
   172
1070
     1
1002
}
  0
LINE
  5
43B3
330
74
100
AcDbEntity
  8
0
 62
     2
100
AcDbLine
 10
193.7711094532161
 20
223.9833030150439
 30
0.0
 11
191.1621957128236
 21
223.9833030150439
 31
0.0
  0
ENDSEC
  0
SECTION
  2
OBJECTS
  0
DICTIONARY
  5
C
330
0
100
AcDbDictionary
281
     1
  3
ACAD_COLOR
350
6A
  3
ACAD_GROUP
350
D
  3
ACAD_LAYOUT
350
69
  3
ACAD_MATERIAL
350
10
  3
ACAD_MLEADERSTYLE
350
6D
  3
ACAD_MLINESTYLE
350
66
  3
ACAD_PLOTSETTINGS
350
68
  3
ACAD_PLOTSTYLENAME
350
E
  3
ACAD_SCALELIST
350
3A
  3
ACAD_TABLESTYLE
350
6B
  3
ACAD_VISUALSTYLE
350
29
  3
ACDB_RECOMPOSE_DATA
350
17FF
  3
AcDbVariableDictionary
350
1811
  3
ASE_INDEX_DICTIONARY
350
30B8
  0
DICTIONARY
  5
1801
330
8
100
AcDbDictionary
280
     1
281
     1
  0
DICTIONARY
  5
3F31
330
2
100
AcDbDictionary
280
     1
281
     1
  3
ACAD_LAYERSTATES
360
3F32
  0
DICTIONARY
  5
80A
330
5C
100
AcDbDictionary
280
     1
281
     1
  3
ADSK_XREC_LAYER_RECONCILED
360
80B
  0
DICTIONARY
  5
80C
330
84
100
AcDbDictionary
280
     1
281
     1
  3
ADSK_XREC_LAYER_RECONCILED
360
80D
  0
DICTIONARY
  5
4215
330
74
100
AcDbDictionary
280
     1
281
     1
  3
ACAD_SORTENTS
360
4216
  0
DICTIONARY
  5
3255
330
229
100
AcDbDictionary
280
     1
281
     1
  3
ACAD_SORTENTS
360
32E0
  0
DICTIONARY
  5
B4E
330
B4D
100
AcDbDictionary
280
     1
281
     1
  3
ACAD_ENHANCEDBLOCK
360
B4F
  3
ACAD_SORTENTS
360
B50
  3
AcDbDynamicBlockRoundTripPurgePreventer
360
B51
  0
DICTIONARY
  5
B83
330
B7F
100
AcDbDictionary
280
     1
281
     1
  3
ACAD_ENHANCEDBLOCK
360
B87
  3
ACAD_SORTENTS
360
B84
  3
AcDbDynamicBlockRoundTripPurgePreventer
360
B88
  0
DICTIONARY
  5
B8D
330
B89
100
AcDbDictionary
280
     1
281
     1
  3
ACAD_ENHANCEDBLOCK
360
B91
  3
ACAD_SORTENTS
360
B8E
  3
AcDbDynamicBlockRoundTripPurgePreventer
360
B92
  0
DICTIONARY
  5
F59
330
F56
100
AcDbDictionary
280
     1
281
     1
  3
ACAD_ENHANCEDBLOCK
360
F5D
  3
ACAD_SORTENTS
360
F5A
  3
AcDbDynamicBlockRoundTripPurgePreventer
360
F5E
  0
DICTIONARY
  5
3D6E
330
3D6D
100
AcDbDictionary
280
     1
281
     1
  3
ACAD_SORTENTS
360
3D6F
  0
DICTIONARY
  5
3DA9
330
3DA8
100
AcDbDictionary
280
     1
281
     1
  3
ACAD_SORTENTS
360
3DAA
  0
DICTIONARY
  5
3DF1
330
3DF0
100
AcDbDictionary
280
     1
281
     1
  3
ACAD_SORTENTS
360
3DF2
  0
DICTIONARY
  5
3DF8
330
3DF7
100
AcDbDictionary
280
     1
281
     1
  3
ACAD_SORTENTS
360
3DF9
  0
DICTIONARY
  5
3E0E
330
3E0D
100
AcDbDictionary
280
     1
281
     1
  3
ACAD_SORTENTS
360
3E0F
  0
DICTIONARY
  5
3EF4
330
3EF3
100
AcDbDictionary
280
     1
281
     1
  3
ACAD_SORTENTS
360
3EF5
  0
DICTIONARY
  5
3F75
330
3F33
100
AcDbDictionary
280
     1
281
     1
  3
ACAD_SORTENTS
360
3F76
  0
DICTIONARY
  5
4656
330
3F5C
100
AcDbDictionary
280
     1
281
     1
  3
ACAD_MTEXT_2008_RT
360
4657
  0
DICTIONARY
  5
459C
330
3C08
100
AcDbDictionary
280
     1
281
     1
  3
ACAD_BREAKDATA
360
45A6
  0
DICTIONARY
  5
45EE
330
3C0D
100
AcDbDictionary
280
     1
281
     1
  3
ACAD_BREAKDATA
360
45FA
  0
DICTIONARY
  5
45C4
330
3C0E
100
AcDbDictionary
280
     1
281
     1
  3
ACAD_BREAKDATA
360
45CE
  0
DICTIONARY
  5
42EF
330
3C11
100
AcDbDictionary
280
     1
281
     1
  3
ACAD_BREAKDATA
360
42FB
  0
DICTIONARY
  5
4658
330
4203
100
AcDbDictionary
280
     1
281
     1
  3
ACAD_MTEXT_2008_RT
360
4659
  0
DICTIONARY
  5
431D
330
42AA
100
AcDbDictionary
280
     1
281
     1
  3
ACAD_BREAKDATA
360
4327
  0
DICTIONARY
  5
6A
102
{ACAD_REACTORS
330
C
102
}
330
C
100
AcDbDictionary
281
     1
  0
DICTIONARY
  5
D
102
{ACAD_REACTORS
330
C
102
}
330
C
100
AcDbDictionary
281
     1
  0
DICTIONARY
  5
69
102
{ACAD_REACTORS
330
C
102
}
330
C
100
AcDbDictionary
281
     1
  3
Layout1
350
73
  3
Model
350
77
  0
DICTIONARY
  5
10
102
{ACAD_REACTORS
330
C
102
}
330
C
100
AcDbDictionary
281
     1
  3
ByBlock
350
19
  3
ByLayer
350
11
  3
Global
350
21
  0
DICTIONARY
  5
6D
102
{ACAD_REACTORS
330
C
102
}
330
C
100
AcDbDictionary
281
     1
  3
Standard
350
6E
  0
DICTIONARY
  5
66
102
{ACAD_REACTORS
330
C
102
}
330
C
100
AcDbDictionary
281
     1
  3
Standard
350
67
  0
DICTIONARY
  5
68
102
{ACAD_REACTORS
330
C
102
}
330
C
100
AcDbDictionary
281
     1
  0
ACDBDICTIONARYWDFLT
  5
E
102
{ACAD_REACTORS
330
C
102
}
330
C
100
AcDbDictionary
281
     1
  3
Normal
350
F
100
AcDbDictionaryWithDefault
340
F
  0
DICTIONARY
  5
3A
102
{ACAD_REACTORS
330
C
102
}
330
C
100
AcDbDictionary
281
     1
  3
A0
350
3B
  3
A1
350
3C
  3
A2
350
3D
  3
A3
350
3E
  3
A4
350
3F
  3
A5
350
40
  3
A6
350
41
  3
A7
350
42
  3
A8
350
43
  3
A9
350
44
  3
B0
350
45
  3
B1
350
46
  3
B2
350
47
  3
B3
350
48
  3
B4
350
49
  3
B5
350
4A
  3
B6
350
4B
  3
B7
350
4C
  3
B8
350
4D
  3
B9
350
4E
  3
C0
350
4F
  3
C1
350
50
  3
C2
350
51
  3
C3
350
52
  3
C4
350
53
  3
C5
350
54
  3
C6
350
55
  3
C7
350
56
  3
C8
350
57
  3
C9
350
58
  3
D0
350
59
  3
D1
350
5A
  3
D2
350
5B
  0
DICTIONARY
  5
6B
102
{ACAD_REACTORS
330
C
102
}
330
C
100
AcDbDictionary
281
     1
  3
Standard
350
6C
  0
DICTIONARY
  5
29
102
{ACAD_REACTORS
330
C
102
}
330
C
100
AcDbDictionary
281
     1
  3
2dWireframe
350
2F
  3
3D Hidden
350
31
  3
3dWireframe
350
30
  3
Basic
350
2E
  3
Brighten
350
35
  3
ColorChange
350
39
  3
Conceptual
350
32
  3
Dim
350
34
  3
EdgeColorOff
350
3F28
  3
Facepattern
350
38
  3
Flat
350
2A
  3
FlatWithEdges
350
2B
  3
Gouraud
350
2C
  3
GouraudWithEdges
350
2D
  3
JitterOff
350
3F2B
  3
Linepattern
350
37
  3
OverhangOff
350
3F2E
  3
Realistic
350
33
  3
Thicken
350
36
  0
XRECORD
  5
17FF
102
{ACAD_REACTORS
330
C
102
}
330
C
100
AcDbXrecord
280
     1
 90
        1
330
6C
330
3F5C
330
4203
  0
DICTIONARY
  5
1811
102
{ACAD_REACTORS
330
C
102
}
330
C
100
AcDbDictionary
281
     1
  3
CANNOSCALE
350
1814
  3
CMLEADERSTYLE
350
1813
  3
CTABLESTYLE
350
1812
  3
DIMASSOC
350
1817
  3
INDEXCTL
350
1816
  3
LIGHTINGUNITS
350
4619
  3
MSLTSCALE
350
4618
  3
SORTENTS
350
1815
  0
DICTIONARY
  5
30B8
102
{ACAD_REACTORS
330
C
102
}
330
C
100
AcDbDictionary
281
     1
  3
ASEBlockHierarchyIndexRecord
350
30BA
1001
DCO15
1040
1613392074.329
  0
DICTIONARY
  5
3F32
102
{ACAD_REACTORS
330
3F31
102
}
330
3F31
100
AcDbDictionary
281
     1
  0
XRECORD
  5
80B
102
{ACAD_REACTORS
330
80A
102
}
330
80A
100
AcDbXrecord
280
     1
290
     1
  0
XRECORD
  5
80D
102
{ACAD_REACTORS
330
80C
102
}
330
80C
100
AcDbXrecord
280
     1
290
     1
  0
SORTENTSTABLE
  5
4216
102
{ACAD_REACTORS
330
4215
102
}
330
4215
100
AcDbSortentsTable
330
74
331
41E6
  5
3F8D
331
41F6
  5
3F9D
331
3C53
  5
3C53
331
3B7E
  5
3B7E
331
3BBD
  5
3BBD
331
3BF4
  5
3BF4
331
3B47
  5
3B47
331
3C5B
  5
3C5B
331
3B4F
  5
3B4F
331
3B86
  5
3B86
331
3BC5
  5
3BC5
331
3BFC
  5
3BFC
331
3C04
  5
3C04
331
3C63
  5
3C63
331
3B57
  5
3B57
331
3B8E
  5
3B8E
331
3B18
  5
3B18
331
3BCD
  5
3BCD
331
3C0C
  5
3C0C
331
3B96
  5
3B96
331
41D7
  5
3F7E
331
3B20
  5
3B20
331
3B9E
  5
3B9E
331
3BD5
  5
3BD5
331
3B28
  5
3B28
331
3B5F
  5
3B5F
331
3C6B
  5
3C6B
331
3BA6
  5
3BA6
331
3BDD
  5
3BDD
331
3B30
  5
3B30
331
3B67
  5
3B67
331
3B38
  5
3B38
331
3B6F
  5
3B6F
331
3BAE
  5
3BAE
331
3BE5
  5
3BE5
331
3C4C
  5
3C4C
331
3B77
  5
3B77
331
3BB6
  5
3BB6
331
3BED
  5
3BED
331
41E7
  5
3F8E
331
41F7
  5
3F9E
331
3B40
  5
3B40
331
3BF5
  5
3BF5
331
3C54
  5
3C54
331
3B48
  5
3B48
331
3B7F
  5
3B7F
331
3BBE
  5
3BBE
331
3BC6
  5
3BC6
331
3BFD
  5
3BFD
331
3B50
  5
3B50
331
3B87
  5
3B87
331
3C5C
  5
3C5C
331
3C64
  5
3C64
331
3B8F
  5
3B8F
331
3B19
  5
3B19
331
3BCE
  5
3BCE
331
3C05
  5
3C05
331
3B97
  5
3B97
331
3C0D
  5
3C0D
331
4207
  5
3FAE
331
41D8
  5
3F7F
331
3B21
  5
3B21
331
3B58
  5
3B58
331
3B29
  5
3B29
331
3B60
  5
3B60
331
3B9F
  5
3B9F
331
3BD6
  5
3BD6
331
3B31
  5
3B31
331
3B68
  5
3B68
331
3BA7
  5
3BA7
331
3BDE
  5
3BDE
331
3BAF
  5
3BAF
331
3BE6
  5
3BE6
331
3B39
  5
3B39
331
3B70
  5
3B70
331
3BB7
  5
3BB7
331
3BEE
  5
3BEE
331
3C4D
  5
3C4D
331
41E0
  5
3F87
331
41E8
  5
3F8F
331
41F8
  5
3F9F
331
3B41
  5
3B41
331
3B78
  5
3B78
331
3C55
  5
3C55
331
3B49
  5
3B49
331
3B80
  5
3B80
331
3BBF
  5
3BBF
331
3BF6
  5
3BF6
331
3C5D
  5
3C5D
331
3B51
  5
3B51
331
3B88
  5
3B88
331
3BC7
  5
3BC7
331
3BFE
  5
3BFE
331
3C06
  5
3C06
331
3B90
  5
3B90
331
3B1A
  5
3B1A
331
3BCF
  5
3BCF
331
3C0E
  5
3C0E
331
4208
  5
3FAF
331
4210
  5
3FB7
331
41D9
  5
3F80
331
3B22
  5
3B22
331
3B59
  5
3B59
331
3B98
  5
3B98
331
3BA0
  5
3BA0
331
3BD7
  5
3BD7
331
3B2A
  5
3B2A
331
3B61
  5
3B61
331
3BA8
  5
3BA8
331
3BDF
  5
3BDF
331
3B32
  5
3B32
331
3B69
  5
3B69
331
40C
  5
40C
331
3C46
  5
3C46
331
3B3A
  5
3B3A
331
3B71
  5
3B71
331
3BB0
  5
3BB0
331
3BE7
  5
3BE7
331
3C4E
  5
3C4E
331
3BEF
  5
3BEF
331
41E1
  5
3F88
331
41E9
  5
3F90
331
41F9
  5
3FA0
331
3B42
  5
3B42
331
3B79
  5
3B79
331
3BB8
  5
3BB8
331
3BC0
  5
3BC0
331
3BF7
  5
3BF7
331
3B4A
  5
3B4A
331
3B81
  5
3B81
331
3C56
  5
3C56
331
3BC8
  5
3BC8
331
3BFF
  5
3BFF
331
3B52
  5
3B52
331
3B89
  5
3B89
331
3C5E
  5
3C5E
331
3B91
  5
3B91
331
3B1B
  5
3B1B
331
3C07
  5
3C07
331
3C0F
  5
3C0F
331
4211
  5
3FB8
331
3B5A
  5
3B5A
331
3B99
  5
3B99
331
3BD0
  5
3BD0
331
3B23
  5
3B23
331
3B2B
  5
3B2B
331
3B62
  5
3B62
331
3BA1
  5
3BA1
331
3BD8
  5
3BD8
331
3B33
  5
3B33
331
3B6A
  5
3B6A
331
3BA9
  5
3BA9
331
3BE0
  5
3BE0
331
3BB1
  5
3BB1
331
3BE8
  5
3BE8
331
3B3B
  5
3B3B
331
3B72
  5
3B72
331
3C47
  5
3C47
331
3C4F
  5
3C4F
331
41E2
  5
3F89
331
41EA
  5
3F91
331
41FA
  5
3FA1
331
3BB9
  5
3BB9
331
3BF0
  5
3BF0
331
3B43
  5
3B43
331
3B7A
  5
3B7A
331
3C57
  5
3C57
331
3B4B
  5
3B4B
331
3B82
  5
3B82
331
3BC1
  5
3BC1
331
3BF8
  5
3BF8
331
3C5F
  5
3C5F
331
3B53
  5
3B53
331
3B8A
  5
3B8A
331
3B14
  5
3B14
331
3BC9
  5
3BC9
331
3C00
  5
3C00
331
3C08
  5
3C08
331
3B92
  5
3B92
331
3B1C
  5
3B1C
331
4202
  5
3FA9
331
420A
  5
3FB1
331
4212
  5
3FB9
331
3BD1
  5
3BD1
331
3C10
  5
3C10
331
3B24
  5
3B24
331
3B5B
  5
3B5B
331
3B9A
  5
3B9A
331
3BA2
  5
3BA2
331
3BD9
  5
3BD9
331
3B2C
  5
3B2C
331
3B63
  5
3B63
331
3B6B
  5
3B6B
331
3BAA
  5
3BAA
331
3BE1
  5
3BE1
331
3B34
  5
3B34
331
3C48
  5
3C48
331
3B3C
  5
3B3C
331
3B73
  5
3B73
331
3BB2
  5
3BB2
331
3BE9
  5
3BE9
331
41E3
  5
3F8A
331
41F3
  5
3F9A
331
41FB
  5
3FA2
331
3C50
  5
3C50
331
3B44
  5
3B44
331
3B7B
  5
3B7B
331
3BBA
  5
3BBA
331
3BF1
  5
3BF1
331
3BC2
  5
3BC2
331
3BF9
  5
3BF9
331
3B4C
  5
3B4C
331
3B83
  5
3B83
331
3C58
  5
3C58
331
3BCA
  5
3BCA
331
3C01
  5
3C01
331
3B15
  5
3B15
331
3B54
  5
3B54
331
3B8B
  5
3B8B
331
3C60
  5
3C60
331
3B93
  5
3B93
331
3B1D
  5
3B1D
331
3C09
  5
3C09
331
4203
  5
3FAA
331
420B
  5
3FB2
331
4213
  5
3FBA
331
41D4
  5
3F7B
331
3C11
  5
3C11
331
3B9B
  5
3B9B
331
3BD2
  5
3BD2
331
3B25
  5
3B25
331
3B2D
  5
3B2D
331
3B64
  5
3B64
331
3BA3
  5
3BA3
331
3BDA
  5
3BDA
331
3BE2
  5
3BE2
331
3B35
  5
3B35
331
3B6C
  5
3B6C
331
3BAB
  5
3BAB
331
3BB3
  5
3BB3
331
3BEA
  5
3BEA
331
3B3D
  5
3B3D
331
3B74
  5
3B74
331
3C49
  5
3C49
331
41E4
  5
3F8B
331
41F4
  5
3F9B
331
41FC
  5
3FA3
331
3C51
  5
3C51
331
3B7C
  5
3B7C
331
3BBB
  5
3BBB
331
3BF2
  5
3BF2
331
3B45
  5
3B45
331
3C59
  5
3C59
331
3B4D
  5
3B4D
331
3B84
  5
3B84
331
3BC3
  5
3BC3
331
3BFA
  5
3BFA
331
3C61
  5
3C61
331
3B55
  5
3B55
331
3B8C
  5
3B8C
331
3B16
  5
3B16
331
3BCB
  5
3BCB
331
3C02
  5
3C02
331
3C0A
  5
3C0A
331
3B1E
  5
3B1E
331
3B94
  5
3B94
331
4204
  5
3FAB
331
420C
  5
3FB3
331
41D5
  5
3F7C
331
4214
  5
3FBB
331
3BD3
  5
3BD3
331
3C12
  5
3C12
331
3C69
  5
3C69
331
3B26
  5
3B26
331
3B5D
  5
3B5D
331
3B9C
  5
3B9C
331
3BA4
  5
3BA4
331
3BDB
  5
3BDB
331
3B2E
  5
3B2E
331
3B65
  5
3B65
331
3C3A
  5
3C3A
331
3B6D
  5
3B6D
331
3BAC
  5
3BAC
331
3BE3
  5
3BE3
331
3B36
  5
3B36
331
3C4A
  5
3C4A
331
3B3E
  5
3B3E
331
3B75
  5
3B75
331
3BB4
  5
3BB4
331
3BEB
  5
3BEB
331
41E5
  5
3F8C
331
41F5
  5
3F9C
331
3BF3
  5
3BF3
331
3C52
  5
3C52
331
3B46
  5
3B46
331
3B7D
  5
3B7D
331
3BBC
  5
3BBC
331
3BC4
  5
3BC4
331
3BFB
  5
3BFB
331
3B4E
  5
3B4E
331
3B85
  5
3B85
331
3C5A
  5
3C5A
331
3C62
  5
3C62
331
3B8D
  5
3B8D
331
3BCC
  5
3BCC
331
3C03
  5
3C03
331
3B17
  5
3B17
331
3B56
  5
3B56
331
3B95
  5
3B95
331
3B1F
  5
3B1F
331
3C0B
  5
3C0B
331
420D
  5
3FB4
331
41D6
  5
3F7D
331
3B27
  5
3B27
331
3B5E
  5
3B5E
331
3B9D
  5
3B9D
331
3BD4
  5
3BD4
331
3B2F
  5
3B2F
331
3B66
  5
3B66
331
3BA5
  5
3BA5
331
3BDC
  5
3BDC
331
3BE4
  5
3BE4
331
3B37
  5
3B37
331
3B6E
  5
3B6E
331
3BAD
  5
3BAD
331
3BB5
  5
3BB5
331
3BEC
  5
3BEC
331
3B3F
  5
3B3F
331
3B76
  5
3B76
331
3C4B
  5
3C4B
  0
SORTENTSTABLE
  5
32E0
102
{ACAD_REACTORS
330
3255
102
}
330
3255
100
AcDbSortentsTable
330
229
  0
ACAD_EVALUATION_GRAPH
  5
B4F
102
{ACAD_REACTORS
330
B4E
102
}
330
B4E
100
AcDbEvalGraph
 96
        0
 97
        0
  0
SORTENTSTABLE
  5
B50
102
{ACAD_REACTORS
330
B4E
102
}
330
B4E
100
AcDbSortentsTable
330
B4D
  0
ACDB_DYNAMICBLOCKPURGEPREVENTER_VERSION
  5
B51
102
{ACAD_REACTORS
330
B4E
102
}
330
B4E
100
AcDbDynamicBlockPurgePreventer
 70
     1
  0
ACAD_EVALUATION_GRAPH
  5
B87
102
{ACAD_REACTORS
330
B83
102
}
330
B83
100
AcDbEvalGraph
 96
        0
 97
        0
  0
SORTENTSTABLE
  5
B84
102
{ACAD_REACTORS
330
B83
102
}
330
B83
100
AcDbSortentsTable
330
B7F
  0
ACDB_DYNAMICBLOCKPURGEPREVENTER_VERSION
  5
B88
102
{ACAD_REACTORS
330
B83
102
}
330
B83
100
AcDbDynamicBlockPurgePreventer
 70
     1
  0
ACAD_EVALUATION_GRAPH
  5
B91
102
{ACAD_REACTORS
330
B8D
102
}
330
B8D
100
AcDbEvalGraph
 96
        0
 97
        0
  0
SORTENTSTABLE
  5
B8E
102
{ACAD_REACTORS
330
B8D
102
}
330
B8D
100
AcDbSortentsTable
330
B89
  0
ACDB_DYNAMICBLOCKPURGEPREVENTER_VERSION
  5
B92
102
{ACAD_REACTORS
330
B8D
102
}
330
B8D
100
AcDbDynamicBlockPurgePreventer
 70
     1
  0
ACAD_EVALUATION_GRAPH
  5
F5D
102
{ACAD_REACTORS
330
F59
102
}
330
F59
100
AcDbEvalGraph
 96
        0
 97
        0
  0
SORTENTSTABLE
  5
F5A
102
{ACAD_REACTORS
330
F59
102
}
330
F59
100
AcDbSortentsTable
330
F56
  0
ACDB_DYNAMICBLOCKPURGEPREVENTER_VERSION
  5
F5E
102
{ACAD_REACTORS
330
F59
102
}
330
F59
100
AcDbDynamicBlockPurgePreventer
 70
     1
  0
SORTENTSTABLE
  5
3D6F
102
{ACAD_REACTORS
330
3D6E
102
}
330
3D6E
100
AcDbSortentsTable
330
3D6D
  0
SORTENTSTABLE
  5
3DAA
102
{ACAD_REACTORS
330
3DA9
102
}
330
3DA9
100
AcDbSortentsTable
330
3DA8
  0
SORTENTSTABLE
  5
3DF2
102
{ACAD_REACTORS
330
3DF1
102
}
330
3DF1
100
AcDbSortentsTable
330
3DF0
  0
SORTENTSTABLE
  5
3DF9
102
{ACAD_REACTORS
330
3DF8
102
}
330
3DF8
100
AcDbSortentsTable
330
3DF7
  0
SORTENTSTABLE
  5
3E0F
102
{ACAD_REACTORS
330
3E0E
102
}
330
3E0E
100
AcDbSortentsTable
330
3E0D
  0
SORTENTSTABLE
  5
3EF5
102
{ACAD_REACTORS
330
3EF4
102
}
330
3EF4
100
AcDbSortentsTable
330
3EF3
  0
SORTENTSTABLE
  5
3F76
102
{ACAD_REACTORS
330
3F75
102
}
330
3F75
100
AcDbSortentsTable
330
3F33
331
3F5D
  5
3F64
331
3F3F
  5
3F41
331
3F65
  5
3F6C
331
3F47
  5
3F4B
331
3F6D
  5
3F49
331
3F4F
  5
3F53
331
3F57
  5
3F5E
331
3F38
  5
3F3A
331
3F5E
  5
3F65
331
3F40
  5
3F42
331
3F66
  5
3F6D
331
3F48
  5
3F4C
331
3F6E
  5
3F35
331
3F50
  5
3F54
331
3F39
  5
3F3B
331
3F5F
  5
3F66
331
3F41
  5
3F43
331
3F67
  5
3F55
331
3F49
  5
3F4D
331
3F6F
  5
3F70
331
3F51
  5
3F58
331
3F58
  5
3F5F
331
3F3A
  5
3F3C
331
3F60
  5
3F67
331
3F42
  5
3F44
331
3F68
  5
3F57
331
3F4A
  5
3F4E
331
3F52
  5
3F59
331
3F70
  5
3F71
331
3F3B
  5
3F3D
331
3F59
  5
3F60
331
3F43
  5
3F45
331
3F61
  5
3F68
331
3F4B
  5
3F4F
331
3F69
  5
3F6E
331
3F53
  5
3F5A
331
3F71
  5
3F72
331
3F3C
  5
3F3E
331
3F5A
  5
3F61
331
3F44
  5
3F46
331
3F62
  5
3F69
331
3F4C
  5
3F50
331
3F35
  5
3F37
331
3F6A
  5
3F36
331
3F54
  5
3F5B
331
3F72
  5
3F73
331
3F3D
  5
3F3F
331
3F5B
  5
3F62
331
3F63
  5
3F6A
331
3F45
  5
3F47
331
3F6B
  5
3F6F
331
3F36
  5
3F38
331
3F4D
  5
3F51
331
3F73
  5
3F56
331
3F55
  5
3F5C
331
3F3E
  5
3F40
331
3F5C
  5
3F63
331
3F64
  5
3F6B
331
3F46
  5
3F4A
331
3F6C
  5
3F48
331
3F4E
  5
3F52
331
3F37
  5
3F39
331
3F56
  5
3F5D
  0
XRECORD
  5
4657
102
{ACAD_REACTORS
330
4656
102
}
330
4656
100
AcDbXrecord
280
     1
 40
283676.0
  1
\pxsm1,qc;{\fISOCPEUR|b0|i0|c0|p34;\W1;Description\POutline drawing}
  0
BREAKDATA
  5
45A6
102
{ACAD_REACTORS
330
459C
102
}
330
459C
100
AcDbBreakData
 70
     0
330
3C08
 90
        1
100
AcDbBreakPointRef
 71
     2
 72
     0
 91
        1
 10
201.5711094532161
 20
224.4981371268166
 30
0.0
 11
201.5711094532161
 21
223.4545998191316
 31
0.0
  0
BREAKDATA
  5
45FA
102
{ACAD_REACTORS
330
45EE
102
}
330
45EE
100
AcDbBreakData
 70
     0
330
3C0D
 90
        1
100
AcDbBreakPointRef
 71
     2
 72
     0
 91
        0
 10
201.0711094532161
 20
224.4539726238023
 30
0.0
 11
201.0711094532161
 21
223.4545998191316
 31
0.0
  0
BREAKDATA
  5
45CE
102
{ACAD_REACTORS
330
45C4
102
}
330
45C4
100
AcDbBreakData
 70
     0
330
3C0E
 90
        1
100
AcDbBreakPointRef
 71
     2
 72
     0
 91
        1
 10
201.0711094532161
 20
223.4419309925997
 30
0.0
 11
201.0711094532161
 21
224.4539726238023
 31
0.0
  0
BREAKDATA
  5
42FB
102
{ACAD_REACTORS
330
42EF
102
}
330
42EF
100
AcDbBreakData
 70
     0
330
3C11
 90
        1
100
AcDbBreakPointRef
 71
     2
 72
     0
 91
        3
 10
136.6241673929539
 20
251.1512392626107
 30
0.0
 11
136.6241673929539
 21
250.3258237061493
 31
0.0
  0
XRECORD
  5
4659
102
{ACAD_REACTORS
330
4658
102
}
330
4658
100
AcDbXrecord
280
     1
 40
244749.0
  1
\pxsm1,qc;{\fISOCPEUR|b0|i0|c0|p34;\W1;17N 78 .1\POutline drawing}
  0
BREAKDATA
  5
4327
102
{ACAD_REACTORS
330
431D
102
}
330
431D
100
AcDbBreakData
 70
     0
330
42AA
 90
        1
100
AcDbBreakPointRef
 71
     2
 72
     0
 91
        0
 10
136.6241673929539
 20
251.1899878046342
 30
0.0
 11
136.6241673929539
 21
250.3476385132828
 31
0.0
  0
LAYOUT
  5
73
102
{ACAD_REACTORS
330
69
102
}
330
69
100
AcDbPlotSettings
  1

  2
Microsoft Office Document Image Writer
  4

  6

 40
0.0
 41
0.0
 42
0.0
 43
0.0
 44
0.0
 45
0.0
 46
0.0
 47
0.0
 48
0.0
 49
0.0
140
0.0
141
0.0
142
1.0
143
1.0
 70
   688
 72
     0
 73
     0
 74
     5
  7
C:\Documents and Settings\sandesh.gangan\Application Data\Autodesk\AutoCAD 2008\R17.1\enu\Plot Styles\SANDESH.ctb
 75
    16
147
1.0
 76
     0
 77
     2
 78
   300
148
0.0
149
0.0
100
AcDbLayout
  1
Layout1
 70
     1
 71
     1
 10
0.0
 20
0.0
 11
12.0
 21
9.0
 12
0.0
 22
0.0
 32
0.0
 14
1.000000000000000E+20
 24
1.000000000000000E+20
 34
1.000000000000000E+20
 15
-1.000000000000000E+20
 25
-1.000000000000000E+20
 35
-1.000000000000000E+20
146
0.0
 13
0.0
 23
0.0
 33
0.0
 16
1.0
 26
0.0
 36
0.0
 17
0.0
 27
1.0
 37
0.0
 76
     0
330
70
  0
LAYOUT
  5
77
102
{ACAD_REACTORS
330
69
102
}
330
69
100
AcDbPlotSettings
  1

  2
Microsoft Office Document Image Writer
  4
Letter
  6

 40
3.174999952316284
 41
3.174999952316284
 42
3.175003051757812
 43
3.17498779296875
 44
215.8999938964844
 45
279.3999938964844
 46
0.0
 47
0.0
 48
0.0
 49
0.0
140
0.0
141
0.0
142
1.0
143
48.57433650049554
 70
 11952
 72
     0
 73
     1
 74
     0
  7
C:\Documents and Settings\sandesh.gangan\Application Data\Autodesk\AutoCAD 2008\R17.1\enu\Plot Styles\SANDESH.ctb
 75
     0
147
0.0205870027682169
 76
     0
 77
     2
 78
   300
148
1170.680222931067
149
-232.7941324961835
100
AcDbLayout
  1
Model
 70
     1
 71
     0
 10
0.0
 20
0.0
 11
12.0
 21
9.0
 12
0.0
 22
0.0
 32
0.0
 14
0.0
 24
0.0
 34
0.0
 15
0.0
 25
0.0
 35
0.0
146
0.0
 13
0.0
 23
0.0
 33
0.0
 16
1.0
 26
0.0
 36
0.0
 17
0.0
 27
1.0
 37
0.0
 76
     0
330
74
331
8C
1001
ACAD_PSEXT
1000
Microsoft Office Document Image Writer
1000
Microsoft Office Document Image Writer Driver
1000
Microsoft Document Imaging Writer Port:
1000

1070
     0
  0
MATERIAL
  5
19
102
{ACAD_XDICTIONARY
360
1A
102
}
102
{ACAD_REACTORS
330
10
102
}
330
10
100
AcDbMaterial
  1
ByBlock
 72
     0
 43
0.0208333333333333
 43
0.0
 43
0.0
 43
0.0
 43
0.0
 43
0.0208333333333333
 43
0.0
 43
0.0
 43
0.0
 43
0.0
 43
1.0
 43
0.0
 43
0.0
 43
0.0
 43
0.0
 43
1.0
 77
     0
 47
0.0208333333333333
 47
0.0
 47
0.0
 47
0.0
 47
0.0
 47
0.0208333333333333
 47
0.0
 47
0.0
 47
0.0
 47
0.0
 47
1.0
 47
0.0
 47
0.0
 47
0.0
 47
0.0
 47
1.0
171
     0
 49
0.0208333333333333
 49
0.0
 49
0.0
 49
0.0
 49
0.0
 49
0.0208333333333333
 49
0.0
 49
0.0
 49
0.0
 49
0.0
 49
1.0
 49
0.0
 49
0.0
 49
0.0
 49
0.0
 49
1.0
175
     0
142
0.0208333333333333
142
0.0
142
0.0
142
0.0
142
0.0
142
0.0208333333333333
142
0.0
142
0.0
142
0.0
142
0.0
142
1.0
142
0.0
142
0.0
142
0.0
142
0.0
142
1.0
179
     0
144
0.0208333333333333
144
0.0
144
0.0
144
0.0
144
0.0
144
0.0208333333333333
144
0.0
144
0.0
144
0.0
144
0.0
144
1.0
144
0.0
144
0.0
144
0.0
144
0.0
144
1.0
147
0.0208333333333333
147
0.0
147
0.0
147
0.0
147
0.0
147
0.0208333333333333
147
0.0
147
0.0
147
0.0
147
0.0
147
1.0
147
0.0
147
0.0
147
0.0
147
0.0
147
1.0
  0
MATERIAL
  5
11
102
{ACAD_XDICTIONARY
360
12
102
}
102
{ACAD_REACTORS
330
10
102
}
330
10
100
AcDbMaterial
  1
ByLayer
 72
     0
 43
0.0208333333333333
 43
0.0
 43
0.0
 43
0.0
 43
0.0
 43
0.0208333333333333
 43
0.0
 43
0.0
 43
0.0
 43
0.0
 43
1.0
 43
0.0
 43
0.0
 43
0.0
 43
0.0
 43
1.0
 77
     0
 47
0.0208333333333333
 47
0.0
 47
0.0
 47
0.0
 47
0.0
 47
0.0208333333333333
 47
0.0
 47
0.0
 47
0.0
 47
0.0
 47
1.0
 47
0.0
 47
0.0
 47
0.0
 47
0.0
 47
1.0
171
     0
 49
0.0208333333333333
 49
0.0
 49
0.0
 49
0.0
 49
0.0
 49
0.0208333333333333
 49
0.0
 49
0.0
 49
0.0
 49
0.0
 49
1.0
 49
0.0
 49
0.0
 49
0.0
 49
0.0
 49
1.0
175
     0
142
0.0208333333333333
142
0.0
142
0.0
142
0.0
142
0.0
142
0.0208333333333333
142
0.0
142
0.0
142
0.0
142
0.0
142
1.0
142
0.0
142
0.0
142
0.0
142
0.0
142
1.0
179
     0
144
0.0208333333333333
144
0.0
144
0.0
144
0.0
144
0.0
144
0.0208333333333333
144
0.0
144
0.0
144
0.0
144
0.0
144
1.0
144
0.0
144
0.0
144
0.0
144
0.0
144
1.0
147
0.0208333333333333
147
0.0
147
0.0
147
0.0
147
0.0
147
0.0208333333333333
147
0.0
147
0.0
147
0.0
147
0.0
147
1.0
147
0.0
147
0.0
147
0.0
147
0.0
147
1.0
  0
MATERIAL
  5
21
102
{ACAD_XDICTIONARY
360
22
102
}
102
{ACAD_REACTORS
330
10
102
}
330
10
100
AcDbMaterial
  1
Global
 72
     0
 43
0.0208333333333333
 43
0.0
 43
0.0
 43
0.0
 43
0.0
 43
0.0208333333333333
 43
0.0
 43
0.0
 43
0.0
 43
0.0
 43
1.0
 43
0.0
 43
0.0
 43
0.0
 43
0.0
 43
1.0
 77
     0
 47
0.0208333333333333
 47
0.0
 47
0.0
 47
0.0
 47
0.0
 47
0.0208333333333333
 47
0.0
 47
0.0
 47
0.0
 47
0.0
 47
1.0
 47
0.0
 47
0.0
 47
0.0
 47
0.0
 47
1.0
171
     0
 49
0.0208333333333333
 49
0.0
 49
0.0
 49
0.0
 49
0.0
 49
0.0208333333333333
 49
0.0
 49
0.0
 49
0.0
 49
0.0
 49
1.0
 49
0.0
 49
0.0
 49
0.0
 49
0.0
 49
1.0
175
     0
142
0.0208333333333333
142
0.0
142
0.0
142
0.0
142
0.0
142
0.0208333333333333
142
0.0
142
0.0
142
0.0
142
0.0
142
1.0
142
0.0
142
0.0
142
0.0
142
0.0
142
1.0
179
     0
144
0.0208333333333333
144
0.0
144
0.0
144
0.0
144
0.0
144
0.0208333333333333
144
0.0
144
0.0
144
0.0
144
0.0
144
1.0
144
0.0
144
0.0
144
0.0
144
0.0
144
1.0
147
0.0208333333333333
147
0.0
147
0.0
147
0.0
147
0.0
147
0.0208333333333333
147
0.0
147
0.0
147
0.0
147
0.0
147
1.0
147
0.0
147
0.0
147
0.0
147
0.0
147
1.0
  0
MLEADERSTYLE
  5
6E
102
{ACAD_REACTORS
330
6D
102
}
330
6D
100
AcDbMLeaderStyle
170
     2
171
     1
172
     0
 90
        2
 40
0.0
 41
0.0
173
     1
 91
-1056964608
340
62
 92
       -2
290
     1
 42
0.09
291
     1
 43
0.36
  3
Standard
 44
0.18
300

342
5D
174
     1
178
     6
175
     1
176
     0
 93
-1056964608
 45
0.18
292
     0
297
     0
 46
0.18
 94
-1056964608
 47
1.0
 49
1.0
140
1.0
293
     1
141
0.0
294
     1
177
     0
142
1.0
295
     0
296
     0
143
0.125
1001
ACAD_MLEADERVER
1070
     2
  0
MLINESTYLE
  5
67
102
{ACAD_REACTORS
330
66
102
}
330
66
100
AcDbMlineStyle
  2
STANDARD
 70
     0
  3

 62
   256
 51
90.0
 52
90.0
 71
     2
 49
0.5
 62
   256
  6
BYLAYER
 49
-0.5
 62
   256
  6
BYLAYER
  0
ACDBPLACEHOLDER
  5
F
102
{ACAD_REACTORS
330
E
102
}
330
E
  0
SCALE
  5
3B
102
{ACAD_REACTORS
330
3A
102
}
330
3A
100
AcDbScale
 70
     0
300
1:1
140
1.0
141
1.0
290
     1
  0
SCALE
  5
3C
102
{ACAD_REACTORS
330
3A
102
}
330
3A
100
AcDbScale
 70
     0
300
1:2
140
1.0
141
2.0
290
     0
  0
SCALE
  5
3D
102
{ACAD_REACTORS
330
3A
102
}
330
3A
100
AcDbScale
 70
     0
300
1:4
140
1.0
141
4.0
290
     0
  0
SCALE
  5
3E
102
{ACAD_REACTORS
330
3A
102
}
330
3A
100
AcDbScale
 70
     0
300
1:5
140
1.0
141
5.0
290
     0
  0
SCALE
  5
3F
102
{ACAD_REACTORS
330
3A
102
}
330
3A
100
AcDbScale
 70
     0
300
1:8
140
1.0
141
8.0
290
     0
  0
SCALE
  5
40
102
{ACAD_REACTORS
330
3A
102
}
330
3A
100
AcDbScale
 70
     0
300
1:10
140
1.0
141
10.0
290
     0
  0
SCALE
  5
41
102
{ACAD_REACTORS
330
3A
102
}
330
3A
100
AcDbScale
 70
     0
300
1:16
140
1.0
141
16.0
290
     0
  0
SCALE
  5
42
102
{ACAD_REACTORS
330
3A
102
}
330
3A
100
AcDbScale
 70
     0
300
1:20
140
1.0
141
20.0
290
     0
  0
SCALE
  5
43
102
{ACAD_REACTORS
330
3A
102
}
330
3A
100
AcDbScale
 70
     0
300
1:30
140
1.0
141
30.0
290
     0
  0
SCALE
  5
44
102
{ACAD_REACTORS
330
3A
102
}
330
3A
100
AcDbScale
 70
     0
300
1:40
140
1.0
141
40.0
290
     0
  0
SCALE
  5
45
102
{ACAD_REACTORS
330
3A
102
}
330
3A
100
AcDbScale
 70
     0
300
1:50
140
1.0
141
50.0
290
     0
  0
SCALE
  5
46
102
{ACAD_REACTORS
330
3A
102
}
330
3A
100
AcDbScale
 70
     0
300
1:100
140
1.0
141
100.0
290
     0
  0
SCALE
  5
47
102
{ACAD_REACTORS
330
3A
102
}
330
3A
100
AcDbScale
 70
     0
300
2:1
140
2.0
141
1.0
290
     0
  0
SCALE
  5
48
102
{ACAD_REACTORS
330
3A
102
}
330
3A
100
AcDbScale
 70
     0
300
4:1
140
4.0
141
1.0
290
     0
  0
SCALE
  5
49
102
{ACAD_REACTORS
330
3A
102
}
330
3A
100
AcDbScale
 70
     0
300
8:1
140
8.0
141
1.0
290
     0
  0
SCALE
  5
4A
102
{ACAD_REACTORS
330
3A
102
}
330
3A
100
AcDbScale
 70
     0
300
10:1
140
10.0
141
1.0
290
     0
  0
SCALE
  5
4B
102
{ACAD_REACTORS
330
3A
102
}
330
3A
100
AcDbScale
 70
     0
300
100:1
140
100.0
141
1.0
290
     0
  0
SCALE
  5
4C
102
{ACAD_REACTORS
330
3A
102
}
330
3A
100
AcDbScale
 70
     0
300
1/128" = 1'-0"
140
0.0078125
141
12.0
290
     0
  0
SCALE
  5
4D
102
{ACAD_REACTORS
330
3A
102
}
330
3A
100
AcDbScale
 70
     0
300
1/64" = 1'-0"
140
0.015625
141
12.0
290
     0
  0
SCALE
  5
4E
102
{ACAD_REACTORS
330
3A
102
}
330
3A
100
AcDbScale
 70
     0
300
1/32" = 1'-0"
140
0.03125
141
12.0
290
     0
  0
SCALE
  5
4F
102
{ACAD_REACTORS
330
3A
102
}
330
3A
100
AcDbScale
 70
     0
300
1/16" = 1'-0"
140
0.0625
141
12.0
290
     0
  0
SCALE
  5
50
102
{ACAD_REACTORS
330
3A
102
}
330
3A
100
AcDbScale
 70
     0
300
3/32" = 1'-0"
140
0.09375
141
12.0
290
     0
  0
SCALE
  5
51
102
{ACAD_REACTORS
330
3A
102
}
330
3A
100
AcDbScale
 70
     0
300
1/8" = 1'-0"
140
0.125
141
12.0
290
     0
  0
SCALE
  5
52
102
{ACAD_REACTORS
330
3A
102
}
330
3A
100
AcDbScale
 70
     0
300
3/16" = 1'-0"
140
0.1875
141
12.0
290
     0
  0
SCALE
  5
53
102
{ACAD_REACTORS
330
3A
102
}
330
3A
100
AcDbScale
 70
     0
300
1/4" = 1'-0"
140
0.25
141
12.0
290
     0
  0
SCALE
  5
54
102
{ACAD_REACTORS
330
3A
102
}
330
3A
100
AcDbScale
 70
     0
300
3/8" = 1'-0"
140
0.375
141
12.0
290
     0
  0
SCALE
  5
55
102
{ACAD_REACTORS
330
3A
102
}
330
3A
100
AcDbScale
 70
     0
300
1/2" = 1'-0"
140
0.5
141
12.0
290
     0
  0
SCALE
  5
56
102
{ACAD_REACTORS
330
3A
102
}
330
3A
100
AcDbScale
 70
     0
300
3/4" = 1'-0"
140
0.75
141
12.0
290
     0
  0
SCALE
  5
57
102
{ACAD_REACTORS
330
3A
102
}
330
3A
100
AcDbScale
 70
     0
300
1" = 1'-0"
140
1.0
141
12.0
290
     0
  0
SCALE
  5
58
102
{ACAD_REACTORS
330
3A
102
}
330
3A
100
AcDbScale
 70
     0
300
1-1/2" = 1'-0"
140
1.5
141
12.0
290
     0
  0
SCALE
  5
59
102
{ACAD_REACTORS
330
3A
102
}
330
3A
100
AcDbScale
 70
     0
300
3" = 1'-0"
140
3.0
141
12.0
290
     0
  0
SCALE
  5
5A
102
{ACAD_REACTORS
330
3A
102
}
330
3A
100
AcDbScale
 70
     0
300
6" = 1'-0"
140
6.0
141
12.0
290
     0
  0
SCALE
  5
5B
102
{ACAD_REACTORS
330
3A
102
}
330
3A
100
AcDbScale
 70
     0
300
1'-0" = 1'-0"
140
12.0
141
12.0
290
     0
  0
TABLESTYLE
  5
6C
102
{ACAD_XDICTIONARY
360
17FD
102
}
102
{ACAD_REACTORS
330
6B
102
}
330
6B
100
AcDbTableStyle
  3
Standard
 70
     0
 71
     0
 40
0.06
 41
0.06
280
     0
281
     0
  7
STANDARD
140
0.18
170
     2
 62
     0
 63
     7
283
     0
 90
      512
 91
        0
  1

274
    -2
284
     1
 64
     0
275
    -2
285
     1
 65
     0
276
    -2
286
     1
 66
     0
277
    -2
287
     1
 67
     0
278
    -2
288
     1
 68
     0
279
    -2
289
     1
 69
     0
  7
STANDARD
140
0.25
170
     5
 62
     0
 63
     7
283
     0
 90
      512
 91
        0
  1

274
    -2
284
     1
 64
     0
275
    -2
285
     1
 65
     0
276
    -2
286
     1
 66
     0
277
    -2
287
     1
 67
     0
278
    -2
288
     1
 68
     0
279
    -2
289
     1
 69
     0
  7
STANDARD
140
0.18
170
     5
 62
     0
 63
     7
283
     0
 90
      512
 91
        0
  1

274
    -2
284
     1
 64
     0
275
    -2
285
     1
 65
     0
276
    -2
286
     1
 66
     0
277
    -2
287
     1
 67
     0
278
    -2
288
     1
 68
     0
279
    -2
289
     1
 69
     0
  0
VISUALSTYLE
  5
2F
102
{ACAD_REACTORS
330
29
102
}
330
29
100
AcDbVisualStyle
  2
2dWireframe
 70
     4
 71
     0
 72
     2
 73
     0
 90
        0
 40
-0.6
 41
-30.0
 62
     5
 63
     7
 74
     1
 91
        4
 64
     7
 65
   257
 75
     1
175
     1
 42
1.0
 92
        0
 66
   257
 43
1.0
 76
     1
 77
     6
 78
     2
 67
     7
 79
     5
170
     0
171
     0
290
     0
174
     0
 93
        1
 44
0.0
173
     0
291
     0
 45
0.0
  0
VISUALSTYLE
  5
31
102
{ACAD_REACTORS
330
29
102
}
330
29
100
AcDbVisualStyle
  2
3D Hidden
 70
     6
 71
     1
 72
     2
 73
     2
 90
        0
 40
-0.6
 41
-30.0
 62
     5
 63
     7
 74
     2
 91
        2
 64
     7
 65
   257
 75
     2
175
     1
 42
40.0
 92
        0
 66
   257
 43
1.0
 76
     1
 77
     6
 78
     2
 67
     7
 79
     3
170
     0
171
     0
290
     0
174
     0
 93
        1
 44
0.0
173
     0
291
     0
 45
0.0
  0
VISUALSTYLE
  5
30
102
{ACAD_REACTORS
330
29
102
}
330
29
100
AcDbVisualStyle
  2
3dWireframe
 70
     5
 71
     0
 72
     2
 73
     0
 90
        0
 40
-0.6
 41
-30.0
 62
     5
 63
     7
 74
     1
 91
        4
 64
     7
 65
   257
 75
     1
175
     1
 42
1.0
 92
        0
 66
   257
 43
1.0
 76
     1
 77
     6
 78
     2
 67
     7
 79
     5
170
     0
171
     0
290
     0
174
     0
 93
        1
 44
0.0
173
     0
291
     0
 45
0.0
  0
VISUALSTYLE
  5
2E
102
{ACAD_REACTORS
330
29
102
}
330
29
100
AcDbVisualStyle
  2
Basic
 70
     7
 71
     1
 72
     0
 73
     1
 90
        0
 40
-0.6
 41
-30.0
 62
     5
 63
     7
 74
     0
 91
        4
 64
     7
 65
   257
 75
     1
175
     1
 42
1.0
 92
        8
 66
     7
 43
1.0
 76
     1
 77
     6
 78
     2
 67
     7
 79
     5
170
     0
171
     0
290
     0
174
     0
 93
        1
 44
0.0
173
     0
291
     1
 45
0.0
  0
VISUALSTYLE
  5
35
102
{ACAD_REACTORS
330
29
102
}
330
29
100
AcDbVisualStyle
  2
Brighten
 70
    12
 71
     2
 72
     2
 73
     0
 90
        0
 40
-0.6
 41
-30.0
 62
     5
 63
     7
 74
     1
 91
        4
 64
     7
 65
   257
 75
     1
175
     1
 42
1.0
 92
        8
 66
     7
 43
1.0
 76
     1
 77
     6
 78
     2
 67
     7
 79
     5
170
     0
171
     0
290
     0
174
     0
 93
        1
 44
50.0
173
     0
291
     1
 45
0.0
  0
VISUALSTYLE
  5
39
102
{ACAD_REACTORS
330
29
102
}
330
29
100
AcDbVisualStyle
  2
ColorChange
 70
    16
 71
     2
 72
     2
 73
     3
 90
        0
 40
-0.6
 41
-30.0
 62
     5
 63
     8
 74
     1
 91
        4
 64
     7
 65
   257
 75
     1
175
     1
 42
1.0
 92
        8
 66
     8
 43
1.0
 76
     1
 77
     6
 78
     2
 67
     7
 79
     5
170
     0
171
     0
290
     0
174
     0
 93
        1
 44
0.0
173
     0
291
     1
 45
0.0
  0
VISUALSTYLE
  5
32
102
{ACAD_REACTORS
330
29
102
}
330
29
100
AcDbVisualStyle
  2
Conceptual
 70
     9
 71
     3
 72
     2
 73
     0
 90
        0
 40
-0.6
 41
-30.0
 62
     5
 63
     7
 74
     2
 91
        2
 64
     7
 65
   257
 75
     1
175
     1
 42
40.0
 92
        8
 66
     7
 43
1.0
 76
     1
 77
     6
 78
     2
 67
     7
 79
     3
170
     0
171
     0
290
     0
174
     0
 93
        1
 44
0.0
173
     0
291
     0
 45
0.0
  0
VISUALSTYLE
  5
34
102
{ACAD_REACTORS
330
29
102
}
330
29
100
AcDbVisualStyle
  2
Dim
 70
    11
 71
     2
 72
     2
 73
     0
 90
        0
 40
-0.6
 41
-30.0
 62
     5
 63
     7
 74
     1
 91
        4
 64
     7
 65
   257
 75
     1
175
     1
 42
1.0
 92
        8
 66
     7
 43
1.0
 76
     1
 77
     6
 78
     2
 67
     7
 79
     5
170
     0
171
     0
290
     0
174
     0
 93
        1
 44
-50.0
173
     0
291
     1
 45
0.0
  0
VISUALSTYLE
  5
3F28
102
{ACAD_XDICTIONARY
360
3F29
102
}
102
{ACAD_REACTORS
330
29
102
}
330
29
100
AcDbVisualStyle
  2
EdgeColorOff
 70
    22
 71
     2
 72
     2
 73
     0
 90
        0
 40
-0.6
 41
-30.0
 62
     5
 63
     7
 74
     1
 91
        4
 64
     7
 65
   257
 75
     1
175
     1
 42
1.0
 92
        8
 66
     7
 43
1.0
 76
     1
 77
     6
 78
     2
 67
     7
 79
     5
170
     0
171
     0
290
     0
174
     0
 93
        1
 44
0.0
173
     0
291
     1
 45
0.0
  0
VISUALSTYLE
  5
38
102
{ACAD_REACTORS
330
29
102
}
330
29
100
AcDbVisualStyle
  2
Facepattern
 70
    15
 71
     2
 72
     2
 73
     0
 90
        0
 40
-0.6
 41
-30.0
 62
     5
 63
     7
 74
     1
 91
        4
 64
     7
 65
   257
 75
     1
175
     1
 42
1.0
 92
        8
 66
     7
 43
1.0
 76
     1
 77
     6
 78
     2
 67
     7
 79
     5
170
     0
171
     0
290
     0
174
     0
 93
        1
 44
0.0
173
     0
291
     1
 45
0.0
  0
VISUALSTYLE
  5
2A
102
{ACAD_REACTORS
330
29
102
}
330
29
100
AcDbVisualStyle
  2
Flat
 70
     0
 71
     2
 72
     1
 73
     1
 90
        2
 40
-0.6
 41
30.0
 62
     5
 63
     7
 74
     0
 91
        4
 64
     7
 65
   257
 75
     1
175
     1
 42
1.0
 92
        8
 66
     7
 43
1.0
 76
     1
 77
     6
 78
     2
 67
     7
 79
     5
170
     0
171
     0
290
     0
174
     0
 93
       13
 44
0.0
173
     0
291
     1
 45
0.0
  0
VISUALSTYLE
  5
2B
102
{ACAD_REACTORS
330
29
102
}
330
29
100
AcDbVisualStyle
  2
FlatWithEdges
 70
     1
 71
     2
 72
     1
 73
     1
 90
        2
 40
-0.6
 41
30.0
 62
     5
 63
     7
 74
     1
 91
        4
 64
     7
 65
   257
 75
     1
175
     1
 42
1.0
 92
        0
 66
   257
 43
1.0
 76
     1
 77
     6
 78
     2
 67
     7
 79
     5
170
     0
171
     0
290
     0
174
     0
 93
       13
 44
0.0
173
     0
291
     1
 45
0.0
  0
VISUALSTYLE
  5
2C
102
{ACAD_REACTORS
330
29
102
}
330
29
100
AcDbVisualStyle
  2
Gouraud
 70
     2
 71
     2
 72
     2
 73
     1
 90
        2
 40
-0.6
 41
30.0
 62
     5
 63
     7
 74
     0
 91
        4
 64
     7
 65
   257
 75
     1
175
     1
 42
1.0
 92
        0
 66
     7
 43
1.0
 76
     1
 77
     6
 78
     2
 67
     7
 79
     5
170
     0
171
     0
290
     0
174
     0
 93
       13
 44
0.0
173
     0
291
     1
 45
0.0
  0
VISUALSTYLE
  5
2D
102
{ACAD_REACTORS
330
29
102
}
330
29
100
AcDbVisualStyle
  2
GouraudWithEdges
 70
     3
 71
     2
 72
     2
 73
     1
 90
        2
 40
-0.6
 41
30.0
 62
     5
 63
     7
 74
     1
 91
        4
 64
     7
 65
   257
 75
     1
175
     1
 42
1.0
 92
        0
 66
   257
 43
1.0
 76
     1
 77
     6
 78
     2
 67
     7
 79
     5
170
     0
171
     0
290
     0
174
     0
 93
       13
 44
0.0
173
     0
291
     1
 45
0.0
  0
VISUALSTYLE
  5
3F2B
102
{ACAD_XDICTIONARY
360
3F2C
102
}
102
{ACAD_REACTORS
330
29
102
}
330
29
100
AcDbVisualStyle
  2
JitterOff
 70
    20
 71
     2
 72
     2
 73
     0
 90
        0
 40
-0.6
 41
-30.0
 62
     5
 63
     7
 74
     1
 91
        4
 64
     7
 65
   257
 75
     1
175
     1
 42
1.0
 92
       10
 66
     7
 43
1.0
 76
     1
 77
     6
 78
     2
 67
     7
 79
     5
170
     0
171
     0
290
     0
174
     0
 93
        1
 44
0.0
173
     0
291
     1
 45
0.0
  0
VISUALSTYLE
  5
37
102
{ACAD_REACTORS
330
29
102
}
330
29
100
AcDbVisualStyle
  2
Linepattern
 70
    14
 71
     2
 72
     2
 73
     0
 90
        0
 40
-0.6
 41
-30.0
 62
     5
 63
     7
 74
     1
 91
        4
 64
     7
 65
   257
 75
     7
175
     7
 42
1.0
 92
        8
 66
     7
 43
1.0
 76
     1
 77
     6
 78
     2
 67
     7
 79
     5
170
     0
171
     0
290
     0
174
     0
 93
        1
 44
0.0
173
     0
291
     1
 45
0.0
  0
VISUALSTYLE
  5
3F2E
102
{ACAD_XDICTIONARY
360
3F2F
102
}
102
{ACAD_REACTORS
330
29
102
}
330
29
100
AcDbVisualStyle
  2
OverhangOff
 70
    21
 71
     2
 72
     2
 73
     0
 90
        0
 40
-0.6
 41
-30.0
 62
     5
 63
     7
 74
     1
 91
        4
 64
     7
 65
   257
 75
     1
175
     1
 42
1.0
 92
        9
 66
     7
 43
1.0
 76
     1
 77
     6
 78
     2
 67
     7
 79
     5
170
     0
171
     0
290
     0
174
     0
 93
        1
 44
0.0
173
     0
291
     1
 45
0.0
  0
VISUALSTYLE
  5
33
102
{ACAD_REACTORS
330
29
102
}
330
29
100
AcDbVisualStyle
  2
Realistic
 70
     8
 71
     2
 72
     2
 73
     0
 90
        0
 40
-0.6
 41
-30.0
 62
     5
 63
     7
 74
     1
 91
        0
 64
     7
 65
   257
 75
     1
175
     1
 42
1.0
 92
        8
 66
     8
 43
1.0
 76
     1
 77
     6
 78
     2
 67
     7
 79
     5
170
     0
171
     0
290
     0
174
     0
 93
       13
 44
0.0
173
     0
291
     0
 45
0.0
  0
VISUALSTYLE
  5
36
102
{ACAD_REACTORS
330
29
102
}
330
29
100
AcDbVisualStyle
  2
Thicken
 70
    13
 71
     2
 72
     2
 73
     0
 90
        0
 40
-0.6
 41
-30.0
 62
     5
 63
     7
 74
     1
 91
        4
 64
     7
 65
   257
 75
     1
175
     1
 42
1.0
 92
       12
 66
     7
 43
1.0
 76
     1
 77
     6
 78
     2
 67
     7
 79
     5
170
     0
171
     0
290
     0
174
     0
 93
        1
 44
0.0
173
     0
291
     1
 45
0.0
  0
DICTIONARYVAR
  5
1814
102
{ACAD_REACTORS
330
1811
102
}
330
1811
100
DictionaryVariables
280
     0
  1
1:1
  0
DICTIONARYVAR
  5
1813
102
{ACAD_REACTORS
330
1811
102
}
330
1811
100
DictionaryVariables
280
     0
  1
STANDARD
  0
DICTIONARYVAR
  5
1812
102
{ACAD_REACTORS
330
1811
102
}
330
1811
100
DictionaryVariables
280
     0
  1
STANDARD
  0
DICTIONARYVAR
  5
1817
102
{ACAD_REACTORS
330
1811
102
}
330
1811
100
DictionaryVariables
280
     0
  1
1
  0
DICTIONARYVAR
  5
1816
102
{ACAD_REACTORS
330
1811
102
}
330
1811
100
DictionaryVariables
280
     0
  1
0
  0
DICTIONARYVAR
  5
4619
102
{ACAD_REACTORS
330
1811
102
}
330
1811
100
DictionaryVariables
280
     0
  1
0
  0
DICTIONARYVAR
  5
4618
102
{ACAD_REACTORS
330
1811
102
}
330
1811
100
DictionaryVariables
280
     0
  1
0
  0
DICTIONARYVAR
  5
1815
102
{ACAD_REACTORS
330
1811
102
}
330
1811
100
DictionaryVariables
280
     0
  1
127
  0
XRECORD
  5
30BA
102
{ACAD_REACTORS
330
30B8
102
}
330
30B8
100
AcDbXrecord
280
     1
330
0
330
40C
330
0
330
B82
330
B8C
  0
DICTIONARY
  5
1A
330
19
100
AcDbDictionary
280
     1
281
     1
  3
BUMPTILE
360
1C
  3
DIFFUSETILE
360
1B
  3
OPACITYTILE
360
1F
  3
REFLECTIONTILE
360
1E
  3
REFRACTIONTILE
360
20
  3
SPECULARTILE
360
1D
  0
DICTIONARY
  5
12
330
11
100
AcDbDictionary
280
     1
281
     1
  3
BUMPTILE
360
14
  3
DIFFUSETILE
360
13
  3
OPACITYTILE
360
17
  3
REFLECTIONTILE
360
16
  3
REFRACTIONTILE
360
18
  3
SPECULARTILE
360
15
  0
DICTIONARY
  5
22
330
21
100
AcDbDictionary
280
     1
281
     1
  3
BUMPTILE
360
24
  3
DIFFUSETILE
360
23
  3
OPACITYTILE
360
27
  3
REFLECTIONTILE
360
26
  3
REFRACTIONTILE
360
28
  3
SPECULARTILE
360
25
  0
DICTIONARY
  5
17FD
330
6C
100
AcDbDictionary
280
     1
281
     1
  3
ACAD_ROUNDTRIP_2008_TABLESTYLE_CELLSTYLEMAP
360
4654
  0
DICTIONARY
  5
3F29
330
3F28
100
AcDbDictionary
280
     1
281
     1
  3
ACAD_XREC_ROUNDTRIP
360
3F2A
  0
DICTIONARY
  5
3F2C
330
3F2B
100
AcDbDictionary
280
     1
281
     1
  3
ACAD_XREC_ROUNDTRIP
360
3F2D
  0
DICTIONARY
  5
3F2F
330
3F2E
100
AcDbDictionary
280
     1
281
     1
  3
ACAD_XREC_ROUNDTRIP
360
3F30
  0
XRECORD
  5
1C
102
{ACAD_REACTORS
330
1A
102
}
330
1A
100
AcDbXrecord
280
     1
270
     1
271
     1
  0
XRECORD
  5
1B
102
{ACAD_REACTORS
330
1A
102
}
330
1A
100
AcDbXrecord
280
     1
270
     1
271
     1
  0
XRECORD
  5
1F
102
{ACAD_REACTORS
330
1A
102
}
330
1A
100
AcDbXrecord
280
     1
270
     1
271
     1
  0
XRECORD
  5
1E
102
{ACAD_REACTORS
330
1A
102
}
330
1A
100
AcDbXrecord
280
     1
270
     1
271
     1
  0
XRECORD
  5
20
102
{ACAD_REACTORS
330
1A
102
}
330
1A
100
AcDbXrecord
280
     1
270
     1
271
     1
  0
XRECORD
  5
1D
102
{ACAD_REACTORS
330
1A
102
}
330
1A
100
AcDbXrecord
280
     1
270
     1
271
     1
  0
XRECORD
  5
14
102
{ACAD_REACTORS
330
12
102
}
330
12
100
AcDbXrecord
280
     1
270
     1
271
     1
  0
XRECORD
  5
13
102
{ACAD_REACTORS
330
12
102
}
330
12
100
AcDbXrecord
280
     1
270
     1
271
     1
  0
XRECORD
  5
17
102
{ACAD_REACTORS
330
12
102
}
330
12
100
AcDbXrecord
280
     1
270
     1
271
     1
  0
XRECORD
  5
16
102
{ACAD_REACTORS
330
12
102
}
330
12
100
AcDbXrecord
280
     1
270
     1
271
     1
  0
XRECORD
  5
18
102
{ACAD_REACTORS
330
12
102
}
330
12
100
AcDbXrecord
280
     1
270
     1
271
     1
  0
XRECORD
  5
15
102
{ACAD_REACTORS
330
12
102
}
330
12
100
AcDbXrecord
280
     1
270
     1
271
     1
  0
XRECORD
  5
24
102
{ACAD_REACTORS
330
22
102
}
330
22
100
AcDbXrecord
280
     1
270
     1
271
     1
  0
XRECORD
  5
23
102
{ACAD_REACTORS
330
22
102
}
330
22
100
AcDbXrecord
280
     1
270
     1
271
     1
  0
XRECORD
  5
27
102
{ACAD_REACTORS
330
22
102
}
330
22
100
AcDbXrecord
280
     1
270
     1
271
     1
  0
XRECORD
  5
26
102
{ACAD_REACTORS
330
22
102
}
330
22
100
AcDbXrecord
280
     1
270
     1
271
     1
  0
XRECORD
  5
28
102
{ACAD_REACTORS
330
22
102
}
330
22
100
AcDbXrecord
280
     1
270
     1
271
     1
  0
XRECORD
  5
25
102
{ACAD_REACTORS
330
22
102
}
330
22
100
AcDbXrecord
280
     1
270
     1
271
     1
  0
CELLSTYLEMAP
  5
4654
102
{ACAD_REACTORS
330
17FD
102
}
330
17FD
100
AcDbCellStyleMap
 90
        3
300
CELLSTYLE
  1
TABLEFORMAT_BEGIN
 90
        5
170
     1
 91
        0
 92
    32768
 62
   257
 93
        1
300
CONTENTFORMAT
  1
CONTENTFORMAT_BEGIN
 90
        0
 91
        0
 92
      512
 93
        0
300

 40
0.0
140
1.0
 94
        5
 62
     0
340
5D
144
0.25
309
CONTENTFORMAT_END
171
     0
 94
        0
309
TABLEFORMAT_END
  1
CELLSTYLE_BEGIN
 90
        1
 91
        1
300
_TITLE
309
CELLSTYLE_END
300
CELLSTYLE
  1
TABLEFORMAT_BEGIN
 90
        5
170
     1
 91
        0
 92
        0
 62
   257
 93
        1
300
CONTENTFORMAT
  1
CONTENTFORMAT_BEGIN
 90
        0
 91
        0
 92
      512
 93
        0
300

 40
0.0
140
1.0
 94
        5
 62
     0
340
5D
144
0.18
309
CONTENTFORMAT_END
171
     0
 94
        0
309
TABLEFORMAT_END
  1
CELLSTYLE_BEGIN
 90
        2
 91
        1
300
_HEADER
309
CELLSTYLE_END
300
CELLSTYLE
  1
TABLEFORMAT_BEGIN
 90
        5
170
     1
 91
        0
 92
        0
 62
   257
 93
        1
300
CONTENTFORMAT
  1
CONTENTFORMAT_BEGIN
 90
        0
 91
        0
 92
      512
 93
        0
300

 40
0.0
140
1.0
 94
        2
 62
     0
340
5D
144
0.18
309
CONTENTFORMAT_END
171
     0
 94
        0
309
TABLEFORMAT_END
  1
CELLSTYLE_BEGIN
 90
        3
 91
        2
300
_DATA
309
CELLSTYLE_END
  0
XRECORD
  5
3F2A
102
{ACAD_REACTORS
330
3F29
102
}
330
3F29
100
AcDbXrecord
280
     1
102
RTVSPropertyOp0
 70
     0
102
RTVSPropertyOp1
 70
     0
102
RTVSPropertyOp2
 70
     0
102
RTVSPropertyOp3
 70
     0
102
RTVSPropertyOp4
 70
     0
102
RTVSPropertyOp5
 70
     0
102
RTVSPropertyOp6
 70
     0
102
RTVSPropertyOp7
 70
     0
102
RTVSPropertyOp8
 70
     0
102
RTVSPropertyOp9
 70
     0
102
RTVSPropertyOp10
 70
     0
102
RTVSPropertyOp11
 70
     0
102
RTVSPropertyOp12
 70
     0
102
RTVSPropertyOp13
 70
     0
102
RTVSPropertyOp14
 70
     2
102
RTVSPropertyOp15
 70
     0
102
RTVSPropertyOp16
 70
     0
102
RTVSPropertyOp17
 70
     0
102
RTVSPropertyOp18
 70
     0
102
RTVSPropertyOp19
 70
     0
102
RTVSPropertyOp20
 70
     0
102
RTVSPropertyOp21
 70
     0
102
RTVSPropertyOp22
 70
     0
102
RTVSPropertyOp23
 70
     0
102
RTVSPropertyOp24
 70
     0
102
RTVSPropertyOp25
 70
     0
102
RTVSPropertyOp26
 70
     0
102
RTVSPropertyOp27
 70
     0
  0
XRECORD
  5
3F2D
102
{ACAD_REACTORS
330
3F2C
102
}
330
3F2C
100
AcDbXrecord
280
     1
102
RTVSPropertyOp0
 70
     0
102
RTVSPropertyOp1
 70
     0
102
RTVSPropertyOp2
 70
     0
102
RTVSPropertyOp3
 70
     0
102
RTVSPropertyOp4
 70
     0
102
RTVSPropertyOp5
 70
     0
102
RTVSPropertyOp6
 70
     0
102
RTVSPropertyOp7
 70
     0
102
RTVSPropertyOp8
 70
     0
102
RTVSPropertyOp9
 70
     0
102
RTVSPropertyOp10
 70
     0
102
RTVSPropertyOp11
 70
     0
102
RTVSPropertyOp12
 70
     0
102
RTVSPropertyOp13
 70
     0
102
RTVSPropertyOp14
 70
     2
102
RTVSPropertyOp15
 70
     0
102
RTVSPropertyOp16
 70
     0
102
RTVSPropertyOp17
 70
     0
102
RTVSPropertyOp18
 70
     0
102
RTVSPropertyOp19
 70
     0
102
RTVSPropertyOp20
 70
     0
102
RTVSPropertyOp21
 70
     0
102
RTVSPropertyOp22
 70
     0
102
RTVSPropertyOp23
 70
     0
102
RTVSPropertyOp24
 70
     0
102
RTVSPropertyOp25
 70
     0
102
RTVSPropertyOp26
 70
     0
102
RTVSPropertyOp27
 70
     0
  0
XRECORD
  5
3F30
102
{ACAD_REACTORS
330
3F2F
102
}
330
3F2F
100
AcDbXrecord
280
     1
102
RTVSPropertyOp0
 70
     0
102
RTVSPropertyOp1
 70
     0
102
RTVSPropertyOp2
 70
     0
102
RTVSPropertyOp3
 70
     0
102
RTVSPropertyOp4
 70
     0
102
RTVSPropertyOp5
 70
     0
102
RTVSPropertyOp6
 70
     0
102
RTVSPropertyOp7
 70
     0
102
RTVSPropertyOp8
 70
     0
102
RTVSPropertyOp9
 70
     0
102
RTVSPropertyOp10
 70
     0
102
RTVSPropertyOp11
 70
     0
102
RTVSPropertyOp12
 70
     0
102
RTVSPropertyOp13
 70
     0
102
RTVSPropertyOp14
 70
     2
102
RTVSPropertyOp15
 70
     0
102
RTVSPropertyOp16
 70
     0
102
RTVSPropertyOp17
 70
     0
102
RTVSPropertyOp18
 70
     0
102
RTVSPropertyOp19
 70
     0
102
RTVSPropertyOp20
 70
     0
102
RTVSPropertyOp21
 70
     0
102
RTVSPropertyOp22
 70
     0
102
RTVSPropertyOp23
 70
     0
102
RTVSPropertyOp24
 70
     0
102
RTVSPropertyOp25
 70
     0
102
RTVSPropertyOp26
 70
     0
102
RTVSPropertyOp27
 70
     0
  0
ENDSEC
  0
EOF
