  0
SECTION
  2
HEADER
  9
$ACADVER
  1
AC1021
  9
$ACADMAINTVER
 70
    25
  9
$DWGCODEPAGE
  3
ANSI_1252
  9
$LASTSAVEDBY
  1
nishant.babu
  9
$INSBASE
 10
0.0
 20
0.0
 30
0.0
  9
$EXTMIN
 10
1086.81191670666
 20
66.37891604671733
 30
0.0
  9
$EXTMAX
 10
1283.311899911461
 20
204.8789160467173
 30
0.0
  9
$LIMMIN
 10
-67.33852408336116
 20
-75.87500000000012
  9
$LIMMAX
 10
127.6614759166389
 20
62.37499999999985
  9
$ORTHOMODE
 70
     0
  9
$REGENMODE
 70
     1
  9
$FILLMODE
 70
     1
  9
$QTEXTMODE
 70
     0
  9
$MIRRTEXT
 70
     0
  9
$LTSCALE
 40
1.0
  9
$ATTMODE
 70
     1
  9
$TEXTSIZE
 40
3.5
  9
$TRACEWID
 40
0.5
  9
$TEXTSTYLE
  7
STANDARD
  9
$CLAYER
  8
0
  9
$CELTYPE
  6
ByLayer
  9
$CECOLOR
 62
   255
  9
$CELTSCALE
 40
1.0
  9
$DISPSILH
 70
     0
  9
$DIMSCALE
 40
1.0
  9
$DIMASZ
 40
0.18
  9
$DIMEXO
 40
0.0625
  9
$DIMDLI
 40
0.38
  9
$DIMRND
 40
0.0
  9
$DIMDLE
 40
0.0
  9
$DIMEXE
 40
0.18
  9
$DIMTP
 40
0.0
  9
$DIMTM
 40
0.0
  9
$DIMTXT
 40
0.18
  9
$DIMCEN
 40
0.09
  9
$DIMTSZ
 40
0.0
  9
$DIMTOL
 70
     0
  9
$DIMLIM
 70
     0
  9
$DIMTIH
 70
     1
  9
$DIMTOH
 70
     1
  9
$DIMSE1
 70
     0
  9
$DIMSE2
 70
     0
  9
$DIMTAD
 70
     0
  9
$DIMZIN
 70
     0
  9
$DIMBLK
  1

  9
$DIMASO
 70
     1
  9
$DIMSHO
 70
     1
  9
$DIMPOST
  1

  9
$DIMAPOST
  1

  9
$DIMALT
 70
     0
  9
$DIMALTD
 70
     2
  9
$DIMALTF
 40
25.4
  9
$DIMLFAC
 40
1.0
  9
$DIMTOFL
 70
     0
  9
$DIMTVP
 40
0.0
  9
$DIMTIX
 70
     0
  9
$DIMSOXD
 70
     0
  9
$DIMSAH
 70
     0
  9
$DIMBLK1
  1

  9
$DIMBLK2
  1

  9
$DIMSTYLE
  2
Standard
  9
$DIMCLRD
 70
     0
  9
$DIMCLRE
 70
     0
  9
$DIMCLRT
 70
     0
  9
$DIMTFAC
 40
1.0
  9
$DIMGAP
 40
0.09
  9
$DIMJUST
 70
     0
  9
$DIMSD1
 70
     0
  9
$DIMSD2
 70
     0
  9
$DIMTOLJ
 70
     1
  9
$DIMTZIN
 70
     0
  9
$DIMALTZ
 70
     0
  9
$DIMALTTZ
 70
     0
  9
$DIMUPT
 70
     0
  9
$DIMDEC
 70
     4
  9
$DIMTDEC
 70
     4
  9
$DIMALTU
 70
     2
  9
$DIMALTTD
 70
     2
  9
$DIMTXSTY
  7
STANDARD
  9
$DIMAUNIT
 70
     0
  9
$DIMADEC
 70
     0
  9
$DIMALTRND
 40
0.0
  9
$DIMAZIN
 70
     0
  9
$DIMDSEP
 70
    46
  9
$DIMATFIT
 70
     3
  9
$DIMFRAC
 70
     0
  9
$DIMLDRBLK
  1

  9
$DIMLUNIT
 70
     2
  9
$DIMLWD
 70
    -2
  9
$DIMLWE
 70
    -2
  9
$DIMTMOVE
 70
     0
  9
$DIMFXL
 40
1.0
  9
$DIMFXLON
 70
     0
  9
$DIMJOGANG
 40
0.7853981633974483
  9
$DIMTFILL
 70
     0
  9
$DIMTFILLCLR
 70
     0
  9
$DIMARCSYM
 70
     0
  9
$DIMLTYPE
  6

  9
$DIMLTEX1
  6

  9
$DIMLTEX2
  6

  9
$LUNITS
 70
     2
  9
$LUPREC
 70
     4
  9
$SKETCHINC
 40
0.1
  9
$FILLETRAD
 40
2.0
  9
$AUNITS
 70
     0
  9
$AUPREC
 70
     0
  9
$MENU
  1
ACAD
  9
$ELEVATION
 40
0.0
  9
$PELEVATION
 40
0.0
  9
$THICKNESS
 40
0.0
  9
$LIMCHECK
 70
     0
  9
$CHAMFERA
 40
0.0
  9
$CHAMFERB
 40
0.0
  9
$CHAMFERC
 40
0.0
  9
$CHAMFERD
 40
0.0
  9
$SKPOLY
 70
     0
  9
$TDCREATE
 40
2454985.712761829
  9
$TDUCREATE
 40
2454985.483595162
  9
$TDUPDATE
 40
2456570.723634537
  9
$TDUUPDATE
 40
2456570.494467871
  9
$TDINDWG
 40
0.0335809259
  9
$TDUSRTIMER
 40
0.0335806481
  9
$USRTIMER
 70
     1
  9
$ANGBASE
 50
0.0
  9
$ANGDIR
 70
     0
  9
$PDMODE
 70
     0
  9
$PDSIZE
 40
0.0
  9
$PLINEWID
 40
0.0
  9
$SPLFRAME
 70
     0
  9
$SPLINETYPE
 70
     6
  9
$SPLINESEGS
 70
     8
  9
$HANDSEED
  5
188F
  9
$SURFTAB1
 70
     6
  9
$SURFTAB2
 70
     6
  9
$SURFTYPE
 70
     6
  9
$SURFU
 70
     6
  9
$SURFV
 70
     6
  9
$UCSBASE
  2

  9
$UCSNAME
  2

  9
$UCSORG
 10
0.0
 20
0.0
 30
0.0
  9
$UCSXDIR
 10
1.0
 20
0.0
 30
0.0
  9
$UCSYDIR
 10
0.0
 20
1.0
 30
0.0
  9
$UCSORTHOREF
  2

  9
$UCSORTHOVIEW
 70
     0
  9
$UCSORGTOP
 10
0.0
 20
0.0
 30
0.0
  9
$UCSORGBOTTOM
 10
0.0
 20
0.0
 30
0.0
  9
$UCSORGLEFT
 10
0.0
 20
0.0
 30
0.0
  9
$UCSORGRIGHT
 10
0.0
 20
0.0
 30
0.0
  9
$UCSORGFRONT
 10
0.0
 20
0.0
 30
0.0
  9
$UCSORGBACK
 10
0.0
 20
0.0
 30
0.0
  9
$PUCSBASE
  2

  9
$PUCSNAME
  2

  9
$PUCSORG
 10
0.0
 20
0.0
 30
0.0
  9
$PUCSXDIR
 10
1.0
 20
0.0
 30
0.0
  9
$PUCSYDIR
 10
0.0
 20
1.0
 30
0.0
  9
$PUCSORTHOREF
  2

  9
$PUCSORTHOVIEW
 70
     0
  9
$PUCSORGTOP
 10
0.0
 20
0.0
 30
0.0
  9
$PUCSORGBOTTOM
 10
0.0
 20
0.0
 30
0.0
  9
$PUCSORGLEFT
 10
0.0
 20
0.0
 30
0.0
  9
$PUCSORGRIGHT
 10
0.0
 20
0.0
 30
0.0
  9
$PUCSORGFRONT
 10
0.0
 20
0.0
 30
0.0
  9
$PUCSORGBACK
 10
0.0
 20
0.0
 30
0.0
  9
$USERI1
 70
     0
  9
$USERI2
 70
     0
  9
$USERI3
 70
     0
  9
$USERI4
 70
     0
  9
$USERI5
 70
     0
  9
$USERR1
 40
0.0
  9
$USERR2
 40
0.0
  9
$USERR3
 40
0.0
  9
$USERR4
 40
0.0
  9
$USERR5
 40
0.0
  9
$WORLDVIEW
 70
     1
  9
$SHADEDGE
 70
     3
  9
$SHADEDIF
 70
    70
  9
$TILEMODE
 70
     1
  9
$MAXACTVP
 70
    64
  9
$PINSBASE
 10
0.0
 20
0.0
 30
0.0
  9
$PLIMCHECK
 70
     0
  9
$PEXTMIN
 10
1.000000000000000E+20
 20
1.000000000000000E+20
 30
1.000000000000000E+20
  9
$PEXTMAX
 10
-1.000000000000000E+20
 20
-1.000000000000000E+20
 30
-1.000000000000000E+20
  9
$PLIMMIN
 10
0.0
 20
0.0
  9
$PLIMMAX
 10
12.0
 20
9.0
  9
$UNITMODE
 70
     0
  9
$VISRETAIN
 70
     1
  9
$PLINEGEN
 70
     0
  9
$PSLTSCALE
 70
     1
  9
$TREEDEPTH
 70
  3020
  9
$CMLSTYLE
  2
Standard
  9
$CMLJUST
 70
     0
  9
$CMLSCALE
 40
1.0
  9
$PROXYGRAPHICS
 70
     1
  9
$MEASUREMENT
 70
     0
  9
$CELWEIGHT
370
    -1
  9
$ENDCAPS
280
     0
  9
$JOINSTYLE
280
     0
  9
$LWDISPLAY
290
     0
  9
$INSUNITS
 70
     4
  9
$HYPERLINKBASE
  1

  9
$STYLESHEET
  1
SSG1.ctb
  9
$XEDIT
290
     1
  9
$CEPSNTYPE
380
     0
  9
$PSTYLEMODE
290
     1
  9
$FINGERPRINTGUID
  2
{48FEE8CA-DD9E-479E-A512-7DEA098BBB57}
  9
$VERSIONGUID
  2
{5CFDE58A-013B-44E4-8F35-82742171B6BA}
  9
$EXTNAMES
290
     1
  9
$PSVPSCALE
 40
0.0
  9
$OLESTARTUP
290
     0
  9
$SORTENTS
280
   127
  9
$INDEXCTL
280
     0
  9
$HIDETEXT
280
     0
  9
$XCLIPFRAME
290
     0
  9
$HALOGAP
280
     0
  9
$OBSCOLOR
 70
   257
  9
$OBSLTYPE
280
     0
  9
$INTERSECTIONDISPLAY
280
     0
  9
$INTERSECTIONCOLOR
 70
   257
  9
$DIMASSOC
280
     1
  9
$PROJECTNAME
  1

  9
$CAMERADISPLAY
290
     0
  9
$LENSLENGTH
 40
50.0
  9
$CAMERAHEIGHT
 40
0.0
  9
$STEPSPERSEC
 40
2.0
  9
$STEPSIZE
 40
6.0
  9
$3DDWFPREC
 40
2.0
  9
$PSOLWIDTH
 40
0.25
  9
$PSOLHEIGHT
 40
4.0
  9
$LOFTANG1
 40
1.570796326794896
  9
$LOFTANG2
 40
1.570796326794896
  9
$LOFTMAG1
 40
0.0
  9
$LOFTMAG2
 40
0.0
  9
$LOFTPARAM
 70
     7
  9
$LOFTNORMALS
280
     1
  9
$LATITUDE
 40
37.795
  9
$LONGITUDE
 40
-122.394
  9
$NORTHDIRECTION
 40
0.0
  9
$TIMEZONE
 70
 -8000
  9
$LIGHTGLYPHDISPLAY
280
     1
  9
$TILEMODELIGHTSYNCH
280
     1
  9
$CMATERIAL
347
11
  9
$SOLIDHIST
280
     1
  9
$SHOWHIST
280
     1
  9
$DWFFRAME
280
     2
  9
$DGNFRAME
280
     0
  9
$REALWORLDSCALE
290
     1
  9
$INTERFERECOLOR
 62
     1
  9
$INTERFEREOBJVS
345
33
  9
$INTERFEREVPVS
346
30
  9
$CSHADOW
280
     0
  9
$SHADOWPLANELOCATION
 40
0.0
  0
ENDSEC
  0
SECTION
  2
CLASSES
  0
CLASS
  1
ACDBDICTIONARYWDFLT
  2
AcDbDictionaryWithDefault
  3
ObjectDBX Classes
 90
        0
 91
        1
280
     0
281
     0
  0
CLASS
  1
MATERIAL
  2
AcDbMaterial
  3
ObjectDBX Classes
 90
     1153
 91
        3
280
     0
281
     0
  0
CLASS
  1
VISUALSTYLE
  2
AcDbVisualStyle
  3
ObjectDBX Classes
 90
     4095
 91
       19
280
     0
281
     0
  0
CLASS
  1
SCALE
  2
AcDbScale
  3
ObjectDBX Classes
 90
     1153
 91
       33
280
     0
281
     0
  0
CLASS
  1
TABLESTYLE
  2
AcDbTableStyle
  3
ObjectDBX Classes
 90
     4095
 91
        1
280
     0
281
     0
  0
CLASS
  1
MLEADERSTYLE
  2
AcDbMLeaderStyle
  3
ACDB_MLEADERSTYLE_CLASS
 90
     4095
 91
        1
280
     0
281
     0
  0
CLASS
  1
DICTIONARYVAR
  2
AcDbDictionaryVar
  3
ObjectDBX Classes
 90
        0
 91
        8
280
     0
281
     0
  0
CLASS
  1
CELLSTYLEMAP
  2
AcDbCellStyleMap
  3
ObjectDBX Classes
 90
     1152
 91
        2
280
     0
281
     0
  0
CLASS
  1
ACAD_EVALUATION_GRAPH
  2
AcDbEvalGraph
  3
ObjectDBX Classes
 90
     1153
 91
        0
280
     0
281
     0
  0
CLASS
  1
ACAECUSTOBJ
  2
AcAeEditorObj
  3
AcAeEditorObj
 90
     1024
 91
        0
280
     0
281
     0
  0
CLASS
  1
SORTENTSTABLE
  2
AcDbSortentsTable
  3
ObjectDBX Classes
 90
        0
 91
        8
280
     0
281
     0
  0
CLASS
  1
ACDB_DYNAMICBLOCKPURGEPREVENTER_VERSION
  2
AcDbDynamicBlockPurgePreventer
  3
ObjectDBX Classes
 90
     1153
 91
        0
280
     0
281
     0
  0
ENDSEC
  0
SECTION
  2
TABLES
  0
TABLE
  2
VPORT
  5
8
330
0
100
AcDbSymbolTable
 70
     1
  0
VPORT
  5
8C
330
8
100
AcDbSymbolTableRecord
100
AcDbViewportTableRecord
  2
*Active
 70
     0
 10
0.0
 20
0.0
 11
1.0
 21
1.0
 12
1190.403587374769
 22
130.9000564307735
 13
0.0
 23
0.0
 14
1.0
 24
1.0
 15
0.0
 25
0.0
 16
0.0
 26
0.0
 36
1.0
 17
0.0
 27
0.0
 37
0.0
 40
154.2416061737057
 41
2.006430868167202
 42
50.0
 43
0.0
 44
0.0
 50
0.0
 51
0.0
 71
     0
 72
   100
 73
     1
 74
     1
 75
     0
 76
     0
 77
     0
 78
     0
281
     0
 65
     1
110
0.0
120
0.0
130
0.0
111
1.0
121
0.0
131
0.0
112
0.0
122
1.0
132
0.0
 79
     0
146
0.0
348
2F
 60
     3
 61
     5
292
     1
282
     1
141
0.0
142
0.0
 63
   250
421
  3355443
  0
ENDTAB
  0
TABLE
  2
LTYPE
  5
5
330
0
100
AcDbSymbolTable
 70
     2
  0
LTYPE
  5
62
330
5
100
AcDbSymbolTableRecord
100
AcDbLinetypeTableRecord
  2
ByBlock
 70
     0
  3

 72
    65
 73
     0
 40
0.0
  0
LTYPE
  5
63
330
5
100
AcDbSymbolTableRecord
100
AcDbLinetypeTableRecord
  2
ByLayer
 70
     0
  3

 72
    65
 73
     0
 40
0.0
  0
LTYPE
  5
64
330
5
100
AcDbSymbolTableRecord
100
AcDbLinetypeTableRecord
  2
CONTINUOUS
 70
     0
  3
Solid line
 72
    65
 73
     0
 40
0.0
  0
LTYPE
  5
7D
330
5
100
AcDbSymbolTableRecord
100
AcDbLinetypeTableRecord
  2
CENTER
 70
     0
  3
____ _ ____ _
 72
    65
 73
     4
 40
10.26315789473684
 49
6.414473684210526
 74
     0
 49
-1.282894736842103
 74
     0
 49
1.282894736842103
 74
     0
 49
-1.282894736842103
 74
     0
  0
ENDTAB
  0
TABLE
  2
LAYER
  5
2
102
{ACAD_XDICTIONARY
360
17A6
102
}
330
0
100
AcDbSymbolTable
 70
     6
  0
LAYER
  5
5C
102
{ACAD_XDICTIONARY
360
40B
102
}
330
2
100
AcDbSymbolTableRecord
100
AcDbLayerTableRecord
  2
0
 70
     0
 62
     7
  6
CONTINUOUS
370
    -3
390
F
347
21
  0
LAYER
  5
84
102
{ACAD_XDICTIONARY
360
40D
102
}
330
2
100
AcDbSymbolTableRecord
100
AcDbLayerTableRecord
  2
1
 70
     0
 62
     7
  6
CONTINUOUS
370
    -3
390
F
347
21
  0
LAYER
  5
592
330
2
100
AcDbSymbolTableRecord
100
AcDbLayerTableRecord
  2
Defpoints
 70
     0
 62
     7
  6
CONTINUOUS
290
     0
370
    -3
390
F
347
21
  0
LAYER
  5
13A3
102
{ACAD_XDICTIONARY
360
13A4
102
}
330
2
100
AcDbSymbolTableRecord
100
AcDbLayerTableRecord
  2
Dark hatch1
 70
     0
 62
     3
  6
CONTINUOUS
370
    25
390
F
347
21
1001
AcAecLayerStandard
1000

1000

  0
LAYER
  5
178D
330
2
100
AcDbSymbolTableRecord
100
AcDbLayerTableRecord
  2
DEFAULT_1
 70
     0
 62
     7
  6
CENTER
370
    -3
390
F
347
21
  0
LAYER
  5
178E
330
2
100
AcDbSymbolTableRecord
100
AcDbLayerTableRecord
  2
02___PRT_ALL_AXES
 70
     0
 62
     7
  6
CONTINUOUS
370
    -3
390
F
347
21
  0
ENDTAB
  0
TABLE
  2
STYLE
  5
3
330
0
100
AcDbSymbolTable
 70
     5
  0
STYLE
  5
5D
330
3
100
AcDbSymbolTableRecord
100
AcDbTextStyleTableRecord
  2
STANDARD
 70
     0
 40
0.0
 41
1.0
 50
0.0
 71
     0
 42
3.5
  3
isocpeur.ttf
  4

1001
ACAD
1000
ISOCPEUR
1071
       34
  0
STYLE
  5
13A5
330
3
100
AcDbSymbolTableRecord
100
AcDbTextStyleTableRecord
  2
romans
 70
     0
 40
0.0
 41
1.0
 50
0.0
 71
     0
 42
2.5
  3
isocpeur.ttf
  4

1001
ACAD
1000
ISOCPEUR
1071
       34
  0
STYLE
  5
178F
330
3
100
AcDbSymbolTableRecord
100
AcDbTextStyleTableRecord
  2
SLDTEXTSTYLE0
 70
     0
 40
0.0
 41
0.605
 50
0.0
 71
     0
 42
0.0
  3
TXT
  4

  0
STYLE
  5
1790
330
3
100
AcDbSymbolTableRecord
100
AcDbTextStyleTableRecord
  2
style1
 70
     0
 40
0.0
 41
1.0
 50
0.0
 71
     0
 42
0.2
  3
isocpeur.ttf
  4

1001
ACAD
1000
ISOCPEUR
1071
       34
  0
STYLE
  5
1791
330
3
100
AcDbSymbolTableRecord
100
AcDbTextStyleTableRecord
  2
NEW
 70
     0
 40
0.0
 41
1.0
 50
0.0
 71
     0
 42
0.2
  3
arial.ttf
  4

1001
ACAD
1000
Arial
1071
       34
  0
ENDTAB
  0
TABLE
  2
VIEW
  5
6
330
0
100
AcDbSymbolTable
 70
     0
  0
ENDTAB
  0
TABLE
  2
UCS
  5
7
330
0
100
AcDbSymbolTable
 70
     0
  0
ENDTAB
  0
TABLE
  2
APPID
  5
9
330
0
100
AcDbSymbolTable
 70
    14
  0
APPID
  5
5E
330
9
100
AcDbSymbolTableRecord
100
AcDbRegAppTableRecord
  2
ACAD
 70
     0
  0
APPID
  5
65
330
9
100
AcDbSymbolTableRecord
100
AcDbRegAppTableRecord
  2
AcadAnnotative
 70
     0
  0
APPID
  5
6F
330
9
100
AcDbSymbolTableRecord
100
AcDbRegAppTableRecord
  2
ACAD_MLEADERVER
 70
     0
  0
APPID
  5
602
330
9
100
AcDbSymbolTableRecord
100
AcDbRegAppTableRecord
  2
ACAUTHENVIRON
 70
     0
  0
APPID
  5
6DD
330
9
100
AcDbSymbolTableRecord
100
AcDbRegAppTableRecord
  2
AcDbDynamicBlockTrueName
 70
     0
  0
APPID
  5
6DE
330
9
100
AcDbSymbolTableRecord
100
AcDbRegAppTableRecord
  2
AcDbDynamicBlockGUID
 70
     0
  0
APPID
  5
6DF
330
9
100
AcDbSymbolTableRecord
100
AcDbRegAppTableRecord
  2
AcDbBlockRepETag
 70
     0
  0
APPID
  5
6E0
330
9
100
AcDbSymbolTableRecord
100
AcDbRegAppTableRecord
  2
ACAD_PSEXT
 70
     0
  0
APPID
  5
6E1
330
9
100
AcDbSymbolTableRecord
100
AcDbRegAppTableRecord
  2
ACAD_DSTYLE_DIMJAG
 70
     0
  0
APPID
  5
6E2
330
9
100
AcDbSymbolTableRecord
100
AcDbRegAppTableRecord
  2
ACAD_DSTYLE_DIMTALN
 70
     0
  0
APPID
  5
1244
330
9
100
AcDbSymbolTableRecord
100
AcDbRegAppTableRecord
  2
AcadAnnoPO
 70
     0
  0
APPID
  5
1258
330
9
100
AcDbSymbolTableRecord
100
AcDbRegAppTableRecord
  2
ACAD_EXEMPT_FROM_CAD_STANDARDS
 70
     0
  0
APPID
  5
13A6
330
9
100
AcDbSymbolTableRecord
100
AcDbRegAppTableRecord
  2
AcAecLayerStandard
 70
     0
  0
APPID
  5
179C
330
9
100
AcDbSymbolTableRecord
100
AcDbRegAppTableRecord
  2
DCO15
 70
     0
  0
ENDTAB
  0
TABLE
  2
DIMSTYLE
  5
A
330
0
100
AcDbSymbolTable
 70
    15
100
AcDbDimStyleTable
 71
     1
340
5F
  0
DIMSTYLE
105
5F
330
A
100
AcDbSymbolTableRecord
100
AcDbDimStyleTableRecord
  2
Standard
 70
     0
340
5D
  0
DIMSTYLE
105
78
102
{ACAD_REACTORS
330
14E5
330
14EB
102
}
330
A
100
AcDbSymbolTableRecord
100
AcDbDimStyleTableRecord
  2
DMST_1
 70
     0
 41
1.75
 42
0.0
 43
7.0
 44
0.5
 71
     1
 73
     0
 74
     0
 77
     1
 78
     9
140
1.75
141
0.0
146
0.7
176
     2
177
     2
178
     3
279
     2
340
5D
  0
DIMSTYLE
105
79
102
{ACAD_REACTORS
330
14E6
330
14E7
330
14E8
330
14E9
330
14EC
102
}
330
A
100
AcDbSymbolTableRecord
100
AcDbDimStyleTableRecord
  2
DMST_2
 70
     0
 41
1.75
 42
0.0
 43
7.0
 44
0.5
 73
     0
 74
     0
 77
     1
 78
     9
140
1.75
141
0.0
176
     2
177
     2
178
     3
279
     2
340
5D
  0
DIMSTYLE
105
7A
102
{ACAD_REACTORS
330
14EA
102
}
330
A
100
AcDbSymbolTableRecord
100
AcDbDimStyleTableRecord
  2
DMST_3
 70
     0
 41
1.75
 42
0.0
 43
7.0
 44
0.5
 73
     0
 74
     0
 77
     1
 78
     9
140
1.75
141
0.0
176
     2
177
     2
178
     3
279
     2
340
5D
  0
DIMSTYLE
105
7B
102
{ACAD_REACTORS
330
14ED
102
}
330
A
100
AcDbSymbolTableRecord
100
AcDbDimStyleTableRecord
  2
DMST_4
 70
     0
 41
1.75
 42
0.0
 43
7.0
 44
0.5
 73
     0
 74
     0
 77
     1
 78
     9
140
1.75
141
0.0
176
     2
177
     2
178
     3
279
     2
340
5D
  0
DIMSTYLE
105
1792
330
A
100
AcDbSymbolTableRecord
100
AcDbDimStyleTableRecord
  2
DIMSTYLE_1
 70
     0
 41
4.0
 48
0.1
 71
     1
 73
     0
 74
     0
 77
     1
 78
     8
140
2.799999999999999
144
0.6666666667
146
0.75
178
     5
271
     2
272
     2
284
     8
340
5D
341
1670
342
1670
343
1670
344
1670
  0
DIMSTYLE
105
1793
330
A
100
AcDbSymbolTableRecord
100
AcDbDimStyleTableRecord
  2
DIMSTYLE_2
 70
     0
 41
4.0
 47
0.01
 48
0.01
 73
     0
 74
     0
 77
     1
 78
     8
140
2.799999999999999
144
0.6666666667
178
     5
271
     2
272
     2
284
     8
340
5D
341
1670
342
1670
343
1670
344
1670
  0
DIMSTYLE
105
1794
330
A
100
AcDbSymbolTableRecord
100
AcDbDimStyleTableRecord
  2
DIMSTYLE_3
 70
     0
 41
4.0
 47
0.2
 48
0.2
 71
     1
 73
     0
 74
     0
 77
     1
 78
     8
140
2.799999999999999
144
0.6666666667
178
     5
271
     2
272
     2
284
     8
340
5D
341
1670
342
1670
343
1670
344
1670
  0
DIMSTYLE
105
1795
330
A
100
AcDbSymbolTableRecord
100
AcDbDimStyleTableRecord
  2
DIMSTYLE_4
 70
     0
 41
4.0
 47
0.1
 48
0.1
 71
     1
 73
     0
 74
     0
 77
     1
 78
     8
140
2.799999999999999
144
0.6666666667
271
     1
272
     1
284
     8
340
5D
341
1670
342
1670
343
1670
344
1670
  0
DIMSTYLE
105
1796
330
A
100
AcDbSymbolTableRecord
100
AcDbDimStyleTableRecord
  2
DIMSTYLE_7
 70
     0
 41
4.0
 73
     0
 74
     0
 77
     1
 78
     8
140
2.799999999999999
144
0.6666666667
178
     5
271
     0
272
     0
284
     8
340
5D
341
1670
342
1670
343
1670
344
1670
  0
DIMSTYLE
105
1797
330
A
100
AcDbSymbolTableRecord
100
AcDbDimStyleTableRecord
  2
DIMSTYLE_8
 70
     0
 41
4.0
 47
0.3
 48
0.3
 71
     1
 73
     0
 74
     0
 77
     1
 78
     8
140
2.799999999999999
144
0.6666666667
178
     5
271
     2
272
     2
284
     8
340
5D
341
1670
342
1670
343
1670
344
1670
  0
DIMSTYLE
105
1798
330
A
100
AcDbSymbolTableRecord
100
AcDbDimStyleTableRecord
  2
DIMSTYLE_9
 70
     0
 41
4.0
 48
0.1
 71
     1
 77
     1
 78
     8
140
2.799999999999999
144
0.6666666667
146
0.75
178
     5
271
     2
272
     2
284
     8
340
5D
341
1670
342
1670
343
1670
344
1670
  0
DIMSTYLE
105
1799
330
A
100
AcDbSymbolTableRecord
100
AcDbDimStyleTableRecord
  2
DIMSTYLE_10
 70
     0
 41
4.0
 47
0.9
 48
0.9
 71
     1
 73
     0
 74
     0
 77
     1
 78
     8
140
2.799999999999999
144
0.6666666667
271
     2
272
     2
284
     8
340
5D
341
1670
342
1670
343
1670
344
1670
  0
DIMSTYLE
105
179A
330
A
100
AcDbSymbolTableRecord
100
AcDbDimStyleTableRecord
  2
DIMSTYLE_11
 70
     0
 41
4.0
 47
0.1
 48
0.1
 71
     1
 73
     0
 74
     0
 77
     1
 78
     8
140
2.799999999999999
144
0.6666666667
271
     2
272
     2
284
     8
340
5D
341
1670
342
1670
343
1670
344
1670
  0
DIMSTYLE
105
179B
330
A
100
AcDbSymbolTableRecord
100
AcDbDimStyleTableRecord
  2
DIMSTYLE_12
 70
     0
 41
4.0
 47
3.0
 48
3.0
 71
     1
 73
     0
 74
     0
 77
     1
 78
     8
140
2.799999999999999
144
0.6666666667
178
     5
271
     2
272
     2
284
     8
340
5D
341
1670
342
1670
343
1670
344
1670
  0
ENDTAB
  0
TABLE
  2
BLOCK_RECORD
  5
1
330
0
100
AcDbSymbolTable
 70
    28
  0
BLOCK_RECORD
  5
74
102
{ACAD_XDICTIONARY
360
124B
102
}
330
1
100
AcDbSymbolTableRecord
100
AcDbBlockTableRecord
  2
*Model_Space
340
77
 70
     0
280
     1
281
     0
  0
BLOCK_RECORD
  5
70
330
1
100
AcDbSymbolTableRecord
100
AcDbBlockTableRecord
  2
*Paper_Space
340
73
 70
     0
280
     1
281
     0
  0
BLOCK_RECORD
  5
151D
330
1
100
AcDbSymbolTableRecord
100
AcDbBlockTableRecord
  2
*D9
340
0
 70
     0
280
     1
281
     0
  0
BLOCK_RECORD
  5
1529
330
1
100
AcDbSymbolTableRecord
100
AcDbBlockTableRecord
  2
*D10
340
0
 70
     0
280
     1
281
     0
  0
BLOCK_RECORD
  5
1535
330
1
100
AcDbSymbolTableRecord
100
AcDbBlockTableRecord
  2
*D11
340
0
 70
     0
280
     1
281
     0
  0
BLOCK_RECORD
  5
1542
330
1
100
AcDbSymbolTableRecord
100
AcDbBlockTableRecord
  2
*D12
340
0
 70
     0
280
     1
281
     0
  0
BLOCK_RECORD
  5
154E
330
1
100
AcDbSymbolTableRecord
100
AcDbBlockTableRecord
  2
*D13
340
0
 70
     0
280
     1
281
     0
  0
BLOCK_RECORD
  5
155B
330
1
100
AcDbSymbolTableRecord
100
AcDbBlockTableRecord
  2
*D14
340
0
 70
     0
280
     1
281
     0
  0
BLOCK_RECORD
  5
1567
330
1
100
AcDbSymbolTableRecord
100
AcDbBlockTableRecord
  2
*D15
340
0
 70
     0
280
     1
281
     0
  0
BLOCK_RECORD
  5
1573
330
1
100
AcDbSymbolTableRecord
100
AcDbBlockTableRecord
  2
*D16
340
0
 70
     0
280
     1
281
     0
  0
BLOCK_RECORD
  5
157F
330
1
100
AcDbSymbolTableRecord
100
AcDbBlockTableRecord
  2
*D17
340
0
 70
     0
280
     1
281
     0
  0
BLOCK_RECORD
  5
15E0
102
{ACAD_XDICTIONARY
360
15E1
102
}
330
1
100
AcDbSymbolTableRecord
100
AcDbBlockTableRecord
  2
A$C08716F59
340
0
102
{BLKREFS
331
1656
331
17D7
102
}
 70
     4
280
     1
281
     0
  0
BLOCK_RECORD
  5
161B
102
{ACAD_XDICTIONARY
360
161C
102
}
330
1
100
AcDbSymbolTableRecord
100
AcDbBlockTableRecord
  2
A$C058C21FF
340
0
 70
     4
280
     1
281
     0
  0
BLOCK_RECORD
  5
165E
330
1
100
AcDbSymbolTableRecord
100
AcDbBlockTableRecord
  2
_Dot
340
0
 70
     0
280
     1
281
     0
  0
BLOCK_RECORD
  5
1663
102
{ACAD_XDICTIONARY
360
1664
102
}
330
1
100
AcDbSymbolTableRecord
100
AcDbBlockTableRecord
  2
A$C53560A2D
340
0
102
{BLKREFS
331
166E
102
}
 70
     1
280
     1
281
     0
  0
BLOCK_RECORD
  5
166A
102
{ACAD_XDICTIONARY
360
166B
102
}
330
1
100
AcDbSymbolTableRecord
100
AcDbBlockTableRecord
  2
A$C25042B23
340
0
 70
     1
280
     1
281
     0
  0
BLOCK_RECORD
  5
1670
330
1
100
AcDbSymbolTableRecord
100
AcDbBlockTableRecord
  2
_FILLED
340
0
102
{BLKREFS
331
1679
331
167A
102
}
 70
     0
280
     1
281
     0
  0
BLOCK_RECORD
  5
1674
330
1
100
AcDbSymbolTableRecord
100
AcDbBlockTableRecord
  2
*D24
340
0
 70
     0
280
     1
281
     0
  0
BLOCK_RECORD
  5
1680
102
{ACAD_XDICTIONARY
360
1681
102
}
330
1
100
AcDbSymbolTableRecord
100
AcDbBlockTableRecord
  2
A$C274A2516
340
0
 70
     4
280
     1
281
     0
  0
BLOCK_RECORD
  5
1766
102
{ACAD_XDICTIONARY
360
1767
102
}
330
1
100
AcDbSymbolTableRecord
100
AcDbBlockTableRecord
  2
A$C217E344C
340
0
 70
     4
280
     1
281
     0
  0
BLOCK_RECORD
  5
17A8
102
{ACAD_XDICTIONARY
360
17EA
102
}
330
1
100
AcDbSymbolTableRecord
100
AcDbBlockTableRecord
  2
new A3-S11
340
0
 70
     4
280
     1
281
     0
  0
ENDTAB
  0
ENDSEC
  0
SECTION
  2
BLOCKS
  0
BLOCK
  5
75
330
74
100
AcDbEntity
  8
0
100
AcDbBlockBegin
  2
*Model_Space
 70
     0
 10
0.0
 20
0.0
 30
0.0
  3
*Model_Space
  1

  0
ENDBLK
  5
76
330
74
100
AcDbEntity
  8
0
100
AcDbBlockEnd
  0
BLOCK
  5
71
330
70
100
AcDbEntity
 67
     1
  8
0
100
AcDbBlockBegin
  2
*Paper_Space
 70
     0
 10
0.0
 20
0.0
 30
0.0
  3
*Paper_Space
  1

  0
ENDBLK
  5
72
330
70
100
AcDbEntity
 67
     1
  8
0
100
AcDbBlockEnd
  0
BLOCK
  5
151E
330
151D
100
AcDbEntity
  8
0
100
AcDbBlockBegin
  2
*D9
 70
     1
 10
0.0
 20
0.0
 30
0.0
  3
*D9
  1

  0
LINE
  5
158C
330
151D
100
AcDbEntity
  8
1
  6
Continuous
 62
     2
370
    -2
100
AcDbLine
 10
1203.416485889246
 20
155.7049697646295
 30
0.0
 11
1203.416485889246
 21
143.956114973809
 31
0.0
  0
LINE
  5
158D
330
151D
100
AcDbEntity
  8
1
  6
Continuous
 62
     2
370
    -2
100
AcDbLine
 10
1209.416485889246
 20
157.2915723050078
 30
0.0
 11
1209.416485889246
 21
143.956114973809
 31
0.0
  0
LINE
  5
158E
330
151D
100
AcDbEntity
  8
1
  6
Continuous
 62
     2
370
    -2
100
AcDbLine
 10
1205.166485889246
 20
144.456114973809
 30
0.0
 11
1207.666485889246
 21
144.456114973809
 31
0.0
  0
MTEXT
  5
158F
330
151D
100
AcDbEntity
  8
1
  6
Continuous
 62
     3
100
AcDbMText
 10
1206.478023740499
 20
146.0338393278032
 30
0.0
 40
1.75
 41
0.0
 46
0.0
 71
     5
 72
     1
  1
\A1;6{\H0.68571x;%%P0.5}
 73
     1
 44
1.0
  0
SOLID
  5
1590
330
151D
100
AcDbEntity
  8
1
  6
Continuous
 62
     2
100
AcDbTrace
 10
1205.166485889246
 20
144.7477816404756
 30
0.0
 11
1205.166485889246
 21
144.1644483071423
 31
0.0
 12
1203.416485889246
 22
144.456114973809
 32
0.0
 13
1203.416485889246
 23
144.456114973809
 33
0.0
  0
SOLID
  5
1591
330
151D
100
AcDbEntity
  8
1
  6
Continuous
 62
     2
100
AcDbTrace
 10
1207.666485889246
 20
144.7477816404756
 30
0.0
 11
1207.666485889246
 21
144.1644483071423
 31
0.0
 12
1209.416485889246
 22
144.456114973809
 32
0.0
 13
1209.416485889246
 23
144.456114973809
 33
0.0
  0
POINT
  5
1592
330
151D
100
AcDbEntity
  8
Defpoints
  6
Continuous
 62
     0
100
AcDbPoint
 10
1203.416485889246
 20
155.7049697646295
 30
0.0
  0
POINT
  5
1593
330
151D
100
AcDbEntity
  8
Defpoints
  6
Continuous
 62
     0
100
AcDbPoint
 10
1209.416485889246
 20
157.2915723050078
 30
0.0
  0
POINT
  5
1594
330
151D
100
AcDbEntity
  8
Defpoints
  6
Continuous
 62
     0
100
AcDbPoint
 10
1209.416485889246
 20
144.456114973809
 30
0.0
  0
ENDBLK
  5
151F
330
151D
100
AcDbEntity
  8
0
100
AcDbBlockEnd
  0
BLOCK
  5
152A
330
1529
100
AcDbEntity
  8
0
100
AcDbBlockBegin
  2
*D10
 70
     1
 10
0.0
 20
0.0
 30
0.0
  3
*D10
  1

  0
LINE
  5
1595
330
1529
100
AcDbEntity
  8
1
  6
Continuous
 62
     2
370
    -2
100
AcDbLine
 10
1183.216485889246
 20
154.890104924878
 30
0.0
 11
1183.216485889246
 21
133.9544374901475
 31
0.0
  0
LINE
  5
1596
330
1529
100
AcDbEntity
  8
1
  6
Continuous
 62
     2
370
    -2
100
AcDbLine
 10
1177.716485889246
 20
152.8549697646294
 30
0.0
 11
1177.716485889246
 21
133.9544374901475
 31
0.0
  0
LINE
  5
1597
330
1529
100
AcDbEntity
  8
1
  6
Continuous
 62
     2
370
    -2
100
AcDbLine
 10
1181.466485889246
 20
134.4544374901475
 30
0.0
 11
1179.466485889246
 21
134.4544374901475
 31
0.0
  0
MTEXT
  5
1598
330
1529
100
AcDbEntity
  8
1
  6
Continuous
 62
     3
100
AcDbMText
 10
1180.455298221119
 20
136.1153133991499
 30
0.0
 40
1.75
 41
0.0
 46
0.0
 71
     5
 72
     1
  1
\A1;5.5
 73
     1
 44
1.0
  0
SOLID
  5
1599
330
1529
100
AcDbEntity
  8
1
  6
Continuous
 62
     2
100
AcDbTrace
 10
1181.466485889246
 20
134.7461041568141
 30
0.0
 11
1181.466485889246
 21
134.1627708234808
 31
0.0
 12
1183.216485889246
 22
134.4544374901475
 32
0.0
 13
1183.216485889246
 23
134.4544374901475
 33
0.0
  0
SOLID
  5
159A
330
1529
100
AcDbEntity
  8
1
  6
Continuous
 62
     2
100
AcDbTrace
 10
1179.466485889246
 20
134.7461041568141
 30
0.0
 11
1179.466485889246
 21
134.1627708234808
 31
0.0
 12
1177.716485889246
 22
134.4544374901475
 32
0.0
 13
1177.716485889246
 23
134.4544374901475
 33
0.0
  0
POINT
  5
159B
330
1529
100
AcDbEntity
  8
Defpoints
  6
Continuous
 62
     0
100
AcDbPoint
 10
1183.216485889246
 20
154.890104924878
 30
0.0
  0
POINT
  5
159C
330
1529
100
AcDbEntity
  8
Defpoints
  6
Continuous
 62
     0
100
AcDbPoint
 10
1177.716485889246
 20
152.8549697646294
 30
0.0
  0
POINT
  5
159D
330
1529
100
AcDbEntity
  8
Defpoints
  6
Continuous
 62
     0
100
AcDbPoint
 10
1177.716485889246
 20
134.4544374901475
 30
0.0
  0
ENDBLK
  5
152B
330
1529
100
AcDbEntity
  8
0
100
AcDbBlockEnd
  0
BLOCK
  5
1536
330
1535
100
AcDbEntity
  8
0
100
AcDbBlockBegin
  2
*D11
 70
     1
 10
0.0
 20
0.0
 30
0.0
  3
*D11
  1

  0
LINE
  5
159E
330
1535
100
AcDbEntity
  8
1
  6
Continuous
 62
     2
370
    -2
100
AcDbLine
 10
1249.677489227542
 20
163.1049697646294
 30
0.0
 11
1249.677489227542
 21
171.9757800162855
 31
0.0
  0
LINE
  5
159F
330
1535
100
AcDbEntity
  8
1
  6
Continuous
 62
     2
370
    -2
100
AcDbLine
 10
1251.677489227542
 20
163.1049697646294
 30
0.0
 11
1251.677489227542
 21
171.9757800162855
 31
0.0
  0
LINE
  5
15A0
330
1535
100
AcDbEntity
  8
1
  6
Continuous
 62
     2
370
    -2
100
AcDbLine
 10
1247.927489227542
 20
171.4757800162855
 30
0.0
 11
1246.177489227542
 21
171.4757800162855
 31
0.0
  0
LINE
  5
15A1
330
1535
100
AcDbEntity
  8
1
  6
Continuous
 62
     2
370
    -2
100
AcDbLine
 10
1253.427489227542
 20
171.4757800162855
 30
0.0
 11
1255.177489227542
 21
171.4757800162855
 31
0.0
  0
MTEXT
  5
15A2
330
1535
100
AcDbEntity
  8
1
  6
Continuous
 62
     3
100
AcDbMText
 10
1250.660387869116
 20
172.9559962837795
 30
0.0
 40
1.75
 41
0.0
 46
0.0
 71
     5
 72
     1
  1
\A1;2
 73
     1
 44
1.0
  0
SOLID
  5
15A3
330
1535
100
AcDbEntity
  8
1
  6
Continuous
 62
     2
100
AcDbTrace
 10
1247.927489227542
 20
171.7674466829521
 30
0.0
 11
1247.927489227542
 21
171.1841133496188
 31
0.0
 12
1249.677489227542
 22
171.4757800162855
 32
0.0
 13
1249.677489227542
 23
171.4757800162855
 33
0.0
  0
SOLID
  5
15A4
330
1535
100
AcDbEntity
  8
1
  6
Continuous
 62
     2
100
AcDbTrace
 10
1253.427489227542
 20
171.7674466829521
 30
0.0
 11
1253.427489227542
 21
171.1841133496188
 31
0.0
 12
1251.677489227542
 22
171.4757800162855
 32
0.0
 13
1251.677489227542
 23
171.4757800162855
 33
0.0
  0
POINT
  5
15A5
330
1535
100
AcDbEntity
  8
Defpoints
  6
Continuous
 62
     0
100
AcDbPoint
 10
1249.677489227542
 20
163.1049697646294
 30
0.0
  0
POINT
  5
15A6
330
1535
100
AcDbEntity
  8
Defpoints
  6
Continuous
 62
     0
100
AcDbPoint
 10
1251.677489227542
 20
163.1049697646294
 30
0.0
  0
POINT
  5
15A7
330
1535
100
AcDbEntity
  8
Defpoints
  6
Continuous
 62
     0
100
AcDbPoint
 10
1251.677489227542
 20
171.4757800162855
 30
0.0
  0
ENDBLK
  5
1537
330
1535
100
AcDbEntity
  8
0
100
AcDbBlockEnd
  0
BLOCK
  5
1543
330
1542
100
AcDbEntity
  8
0
100
AcDbBlockBegin
  2
*D12
 70
     1
 10
0.0
 20
0.0
 30
0.0
  3
*D12
  1

  0
LINE
  5
15A8
330
1542
100
AcDbEntity
  8
1
  6
Continuous
 62
     2
370
    -2
100
AcDbLine
 10
1249.077489227542
 20
162.9549697646294
 30
0.0
 11
1236.666485889246
 21
162.9549697646294
 31
0.0
  0
LINE
  5
15A9
330
1542
100
AcDbEntity
  8
1
  6
Continuous
 62
     2
370
    -2
100
AcDbLine
 10
1249.077489227542
 20
152.9549697646294
 30
0.0
 11
1236.666485889246
 21
152.9549697646294
 31
0.0
  0
LINE
  5
15AA
330
1542
100
AcDbEntity
  8
1
  6
Continuous
 62
     2
370
    -2
100
AcDbLine
 10
1237.166485889246
 20
161.2049697646294
 30
0.0
 11
1237.166485889246
 21
154.7049697646294
 31
0.0
  0
MTEXT
  5
15AB
330
1542
100
AcDbEntity
  8
1
  6
Continuous
 62
     3
100
AcDbMText
 10
1235.859730197615
 20
158.0481895106761
 30
0.0
 40
1.75
 41
0.0
 46
0.0
 71
     5
 72
     1
  1
\A1;10
 11
0.0000000000000001
 21
1.0
 31
0.0
 73
     1
 44
1.0
  0
SOLID
  5
15AC
330
1542
100
AcDbEntity
  8
1
  6
Continuous
 62
     2
100
AcDbTrace
 10
1236.874819222579
 20
161.2049697646294
 30
0.0
 11
1237.458152555912
 21
161.2049697646294
 31
0.0
 12
1237.166485889246
 22
162.9549697646294
 32
0.0
 13
1237.166485889246
 23
162.9549697646294
 33
0.0
  0
SOLID
  5
15AD
330
1542
100
AcDbEntity
  8
1
  6
Continuous
 62
     2
100
AcDbTrace
 10
1236.874819222579
 20
154.7049697646294
 30
0.0
 11
1237.458152555912
 21
154.7049697646294
 31
0.0
 12
1237.166485889246
 22
152.9549697646294
 32
0.0
 13
1237.166485889246
 23
152.9549697646294
 33
0.0
  0
POINT
  5
15AE
330
1542
100
AcDbEntity
  8
Defpoints
  6
Continuous
 62
     0
100
AcDbPoint
 10
1249.077489227542
 20
162.9549697646294
 30
0.0
  0
POINT
  5
15AF
330
1542
100
AcDbEntity
  8
Defpoints
  6
Continuous
 62
     0
100
AcDbPoint
 10
1249.077489227542
 20
152.9549697646294
 30
0.0
  0
POINT
  5
15B0
330
1542
100
AcDbEntity
  8
Defpoints
  6
Continuous
 62
     0
100
AcDbPoint
 10
1237.166485889246
 20
152.9549697646294
 30
0.0
  0
ENDBLK
  5
1544
330
1542
100
AcDbEntity
  8
0
100
AcDbBlockEnd
  0
BLOCK
  5
154F
330
154E
100
AcDbEntity
  8
0
100
AcDbBlockBegin
  2
*D13
 70
     1
 10
0.0
 20
0.0
 30
0.0
  3
*D13
  1

  0
LINE
  5
15B1
330
154E
100
AcDbEntity
  8
1
  6
Continuous
 62
     2
370
    -2
100
AcDbLine
 10
1202.916485889246
 20
155.1549697646293
 30
0.0
 11
1202.916485889246
 21
138.9542741085566
 31
0.0
  0
LINE
  5
15B2
330
154E
100
AcDbEntity
  8
1
  6
Continuous
 62
     2
370
    -2
100
AcDbLine
 10
1201.916485889246
 20
149.9549697646294
 30
0.0
 11
1201.916485889246
 21
138.9542741085566
 31
0.0
  0
LINE
  5
15B3
330
154E
100
AcDbEntity
  8
1
  6
Continuous
 62
     2
370
    -2
100
AcDbLine
 10
1204.666485889246
 20
139.4542741085566
 30
0.0
 11
1206.416485889246
 21
139.4542741085566
 31
0.0
  0
LINE
  5
15B4
330
154E
100
AcDbEntity
  8
1
  6
Continuous
 62
     2
370
    -2
100
AcDbLine
 10
1200.166485889246
 20
139.4542741085566
 30
0.0
 11
1198.416485889246
 21
139.4542741085566
 31
0.0
  0
MTEXT
  5
15B5
330
154E
100
AcDbEntity
  8
1
  6
Continuous
 62
     3
100
AcDbMText
 10
1199.117224123962
 20
140.7029540663536
 30
0.0
 40
1.75
 41
0.0
 46
0.0
 71
     5
 72
     1
  1
\A1;1
 73
     1
 44
1.0
  0
SOLID
  5
15B6
330
154E
100
AcDbEntity
  8
1
  6
Continuous
 62
     2
100
AcDbTrace
 10
1204.666485889246
 20
139.7459407752233
 30
0.0
 11
1204.666485889246
 21
139.1626074418899
 31
0.0
 12
1202.916485889246
 22
139.4542741085566
 32
0.0
 13
1202.916485889246
 23
139.4542741085566
 33
0.0
  0
SOLID
  5
15B7
330
154E
100
AcDbEntity
  8
1
  6
Continuous
 62
     2
100
AcDbTrace
 10
1200.166485889246
 20
139.7459407752233
 30
0.0
 11
1200.166485889246
 21
139.1626074418899
 31
0.0
 12
1201.916485889246
 22
139.4542741085566
 32
0.0
 13
1201.916485889246
 23
139.4542741085566
 33
0.0
  0
POINT
  5
15B8
330
154E
100
AcDbEntity
  8
Defpoints
  6
Continuous
 62
     0
100
AcDbPoint
 10
1202.916485889246
 20
155.1549697646293
 30
0.0
  0
POINT
  5
15B9
330
154E
100
AcDbEntity
  8
Defpoints
  6
Continuous
 62
     0
100
AcDbPoint
 10
1201.916485889246
 20
149.9549697646294
 30
0.0
  0
POINT
  5
15BA
330
154E
100
AcDbEntity
  8
Defpoints
  6
Continuous
 62
     0
100
AcDbPoint
 10
1201.916485889246
 20
139.4542741085566
 30
0.0
  0
ENDBLK
  5
1550
330
154E
100
AcDbEntity
  8
0
100
AcDbBlockEnd
  0
BLOCK
  5
155C
330
155B
100
AcDbEntity
  8
0
100
AcDbBlockBegin
  2
*D14
 70
     1
 10
0.0
 20
0.0
 30
0.0
  3
*D14
  1

  0
LINE
  5
15BB
330
155B
100
AcDbEntity
  8
1
  6
Continuous
 62
     2
370
    -2
100
AcDbLine
 10
1202.916485889246
 20
155.1549697646293
 30
0.0
 11
1202.916485889246
 21
138.9571110637039
 31
0.0
  0
LINE
  5
15BC
330
155B
100
AcDbEntity
  8
1
  6
Continuous
 62
     2
370
    -2
100
AcDbLine
 10
1209.416485889246
 20
157.2915723050078
 30
0.0
 11
1209.416485889246
 21
138.9571110637039
 31
0.0
  0
LINE
  5
15BD
330
155B
100
AcDbEntity
  8
1
  6
Continuous
 62
     2
370
    -2
100
AcDbLine
 10
1204.666485889246
 20
139.4571110637039
 30
0.0
 11
1207.666485889246
 21
139.4571110637039
 31
0.0
  0
MTEXT
  5
15BE
330
155B
100
AcDbEntity
  8
1
  6
Continuous
 62
     3
100
AcDbMText
 10
1206.137364393284
 20
141.2598501184772
 30
0.0
 40
1.75
 41
0.0
 46
0.0
 71
     5
 72
     1
  1
\A1;(6.5)
 73
     1
 44
1.0
  0
SOLID
  5
15BF
330
155B
100
AcDbEntity
  8
1
  6
Continuous
 62
     2
100
AcDbTrace
 10
1204.666485889246
 20
139.7487777303706
 30
0.0
 11
1204.666485889246
 21
139.1654443970373
 31
0.0
 12
1202.916485889246
 22
139.4571110637039
 32
0.0
 13
1202.916485889246
 23
139.4571110637039
 33
0.0
  0
SOLID
  5
15C0
330
155B
100
AcDbEntity
  8
1
  6
Continuous
 62
     2
100
AcDbTrace
 10
1207.666485889246
 20
139.7487777303706
 30
0.0
 11
1207.666485889246
 21
139.1654443970373
 31
0.0
 12
1209.416485889246
 22
139.4571110637039
 32
0.0
 13
1209.416485889246
 23
139.4571110637039
 33
0.0
  0
POINT
  5
15C1
330
155B
100
AcDbEntity
  8
Defpoints
  6
Continuous
 62
     0
100
AcDbPoint
 10
1202.916485889246
 20
155.1549697646293
 30
0.0
  0
POINT
  5
15C2
330
155B
100
AcDbEntity
  8
Defpoints
  6
Continuous
 62
     0
100
AcDbPoint
 10
1209.416485889246
 20
157.2915723050078
 30
0.0
  0
POINT
  5
15C3
330
155B
100
AcDbEntity
  8
Defpoints
  6
Continuous
 62
     0
100
AcDbPoint
 10
1209.416485889246
 20
139.4571110637039
 30
0.0
  0
ENDBLK
  5
155D
330
155B
100
AcDbEntity
  8
0
100
AcDbBlockEnd
  0
BLOCK
  5
1568
330
1567
100
AcDbEntity
  8
0
100
AcDbBlockBegin
  2
*D15
 70
     1
 10
0.0
 20
0.0
 30
0.0
  3
*D15
  1

  0
LINE
  5
15C4
330
1567
100
AcDbEntity
  8
1
  6
Continuous
 62
     2
370
    -2
100
AcDbLine
 10
1201.916485889246
 20
149.9549697646294
 30
0.0
 11
1201.916485889246
 21
133.9519869485673
 31
0.0
  0
LINE
  5
15C5
330
1567
100
AcDbEntity
  8
1
  6
Continuous
 62
     2
370
    -2
100
AcDbLine
 10
1209.416485889246
 20
157.2915723050078
 30
0.0
 11
1209.416485889246
 21
133.9519869485673
 31
0.0
  0
LINE
  5
15C6
330
1567
100
AcDbEntity
  8
1
  6
Continuous
 62
     2
370
    -2
100
AcDbLine
 10
1203.666485889246
 20
134.4519869485673
 30
0.0
 11
1207.666485889246
 21
134.4519869485673
 31
0.0
  0
MTEXT
  5
15C7
330
1567
100
AcDbEntity
  8
1
  6
Continuous
 62
     3
100
AcDbMText
 10
1205.95462630489
 20
136.1625634849172
 30
0.0
 40
1.75
 41
0.0
 46
0.0
 71
     5
 72
     1
  1
\A1;7.5{\H0.68571x;%%P0.5}
 73
     1
 44
1.0
  0
SOLID
  5
15C8
330
1567
100
AcDbEntity
  8
1
  6
Continuous
 62
     2
100
AcDbTrace
 10
1203.666485889246
 20
134.7436536152339
 30
0.0
 11
1203.666485889246
 21
134.1603202819006
 31
0.0
 12
1201.916485889246
 22
134.4519869485673
 32
0.0
 13
1201.916485889246
 23
134.4519869485673
 33
0.0
  0
SOLID
  5
15C9
330
1567
100
AcDbEntity
  8
1
  6
Continuous
 62
     2
100
AcDbTrace
 10
1207.666485889246
 20
134.7436536152339
 30
0.0
 11
1207.666485889246
 21
134.1603202819006
 31
0.0
 12
1209.416485889246
 22
134.4519869485673
 32
0.0
 13
1209.416485889246
 23
134.4519869485673
 33
0.0
  0
POINT
  5
15CA
330
1567
100
AcDbEntity
  8
Defpoints
  6
Continuous
 62
     0
100
AcDbPoint
 10
1201.916485889246
 20
149.9549697646294
 30
0.0
  0
POINT
  5
15CB
330
1567
100
AcDbEntity
  8
Defpoints
  6
Continuous
 62
     0
100
AcDbPoint
 10
1209.416485889246
 20
157.2915723050078
 30
0.0
  0
POINT
  5
15CC
330
1567
100
AcDbEntity
  8
Defpoints
  6
Continuous
 62
     0
100
AcDbPoint
 10
1209.416485889246
 20
134.4519869485673
 30
0.0
  0
ENDBLK
  5
1569
330
1567
100
AcDbEntity
  8
0
100
AcDbBlockEnd
  0
BLOCK
  5
1574
330
1573
100
AcDbEntity
  8
0
100
AcDbBlockBegin
  2
*D16
 70
     1
 10
0.0
 20
0.0
 30
0.0
  3
*D16
  1

  0
LINE
  5
15CD
330
1573
100
AcDbEntity
  8
1
  6
Continuous
 62
     2
370
    -2
100
AcDbLine
 10
1183.216485889246
 20
154.890104924878
 30
0.0
 11
1183.216485889246
 21
133.9542709484867
 31
0.0
  0
LINE
  5
15CE
330
1573
100
AcDbEntity
  8
1
  6
Continuous
 62
     2
370
    -2
100
AcDbLine
 10
1201.916485889246
 20
149.9549697646294
 30
0.0
 11
1201.916485889246
 21
133.9542709484867
 31
0.0
  0
LINE
  5
15CF
330
1573
100
AcDbEntity
  8
1
  6
Continuous
 62
     2
370
    -2
100
AcDbLine
 10
1184.966485889246
 20
134.4542709484867
 30
0.0
 11
1200.166485889246
 21
134.4542709484867
 31
0.0
  0
MTEXT
  5
15D0
330
1573
100
AcDbEntity
  8
1
  6
Continuous
 62
     3
100
AcDbMText
 10
1192.543524984837
 20
135.7957935129477
 30
0.0
 40
1.75
 41
0.0
 46
0.0
 71
     5
 72
     1
  1
\A1;18.7
 73
     1
 44
1.0
  0
SOLID
  5
15D1
330
1573
100
AcDbEntity
  8
1
  6
Continuous
 62
     2
100
AcDbTrace
 10
1184.966485889246
 20
134.7459376151533
 30
0.0
 11
1184.966485889246
 21
134.16260428182
 31
0.0
 12
1183.216485889246
 22
134.4542709484867
 32
0.0
 13
1183.216485889246
 23
134.4542709484867
 33
0.0
  0
SOLID
  5
15D2
330
1573
100
AcDbEntity
  8
1
  6
Continuous
 62
     2
100
AcDbTrace
 10
1200.166485889246
 20
134.7459376151533
 30
0.0
 11
1200.166485889246
 21
134.16260428182
 31
0.0
 12
1201.916485889246
 22
134.4542709484867
 32
0.0
 13
1201.916485889246
 23
134.4542709484867
 33
0.0
  0
POINT
  5
15D3
330
1573
100
AcDbEntity
  8
Defpoints
  6
Continuous
 62
     0
100
AcDbPoint
 10
1183.216485889246
 20
154.890104924878
 30
0.0
  0
POINT
  5
15D4
330
1573
100
AcDbEntity
  8
Defpoints
  6
Continuous
 62
     0
100
AcDbPoint
 10
1201.916485889246
 20
149.9549697646294
 30
0.0
  0
POINT
  5
15D5
330
1573
100
AcDbEntity
  8
Defpoints
  6
Continuous
 62
     0
100
AcDbPoint
 10
1201.916485889246
 20
134.4542709484867
 30
0.0
  0
ENDBLK
  5
1575
330
1573
100
AcDbEntity
  8
0
100
AcDbBlockEnd
  0
BLOCK
  5
1580
330
157F
100
AcDbEntity
  8
0
100
AcDbBlockBegin
  2
*D17
 70
     1
 10
0.0
 20
0.0
 30
0.0
  3
*D17
  1

  0
LINE
  5
15D6
330
157F
100
AcDbEntity
  8
1
  6
Continuous
 62
     2
370
    -2
100
AcDbLine
 10
1141.594249742872
 20
157.9549697646293
 30
0.0
 11
1141.594249742872
 21
171.972512014248
 31
0.0
  0
LINE
  5
15D7
330
157F
100
AcDbEntity
  8
1
  6
Continuous
 62
     2
370
    -2
100
AcDbLine
 10
1143.194249742872
 20
157.9549697646293
 30
0.0
 11
1143.194249742872
 21
171.972512014248
 31
0.0
  0
LINE
  5
15D8
330
157F
100
AcDbEntity
  8
1
  6
Continuous
 62
     2
370
    -2
100
AcDbLine
 10
1139.844249742872
 20
171.472512014248
 30
0.0
 11
1138.094249742872
 21
171.472512014248
 31
0.0
  0
LINE
  5
15D9
330
157F
100
AcDbEntity
  8
1
  6
Continuous
 62
     2
370
    -2
100
AcDbLine
 10
1144.944249742872
 20
171.472512014248
 30
0.0
 11
1146.694249742872
 21
171.472512014248
 31
0.0
  0
MTEXT
  5
15DA
330
157F
100
AcDbEntity
  8
1
  6
Continuous
 62
     3
100
AcDbMText
 10
1151.525062579109
 20
172.8294068092443
 30
0.0
 40
1.75
 41
0.0
 46
0.0
 71
     5
 72
     1
  1
\A1;M1.6x1.5max.
 73
     1
 44
1.0
  0
SOLID
  5
15DB
330
157F
100
AcDbEntity
  8
1
  6
Continuous
 62
     2
100
AcDbTrace
 10
1139.844249742872
 20
171.7641786809147
 30
0.0
 11
1139.844249742872
 21
171.1808453475813
 31
0.0
 12
1141.594249742872
 22
171.472512014248
 32
0.0
 13
1141.594249742872
 23
171.472512014248
 33
0.0
  0
SOLID
  5
15DC
330
157F
100
AcDbEntity
  8
1
  6
Continuous
 62
     2
100
AcDbTrace
 10
1144.944249742872
 20
171.7641786809147
 30
0.0
 11
1144.944249742872
 21
171.1808453475813
 31
0.0
 12
1143.194249742872
 22
171.472512014248
 32
0.0
 13
1143.194249742872
 23
171.472512014248
 33
0.0
  0
POINT
  5
15DD
330
157F
100
AcDbEntity
  8
Defpoints
  6
Continuous
 62
     0
100
AcDbPoint
 10
1141.594249742872
 20
157.9549697646293
 30
0.0
  0
POINT
  5
15DE
330
157F
100
AcDbEntity
  8
Defpoints
  6
Continuous
 62
     0
100
AcDbPoint
 10
1143.194249742872
 20
157.9549697646293
 30
0.0
  0
POINT
  5
15DF
330
157F
100
AcDbEntity
  8
Defpoints
  6
Continuous
 62
     0
100
AcDbPoint
 10
1143.194249742872
 20
171.472512014248
 30
0.0
  0
ENDBLK
  5
1581
330
157F
100
AcDbEntity
  8
0
100
AcDbBlockEnd
  0
BLOCK
  5
15E3
330
15E0
100
AcDbEntity
  8
0
 62
   255
100
AcDbBlockBegin
  2
A$C08716F59
 70
     0
 10
0.0
 20
0.0
 30
0.0
  3
A$C08716F59
  1

  0
LINE
  5
15E4
330
15E0
100
AcDbEntity
  8
0
  6
Continuous
 62
   255
100
AcDbLine
 10
0.0
 20
12.17339149400141
 30
0.0
 11
182.9999999999895
 21
12.17339149400141
 31
0.0
  0
LINE
  5
15E5
330
15E0
100
AcDbEntity
  8
0
  6
Continuous
 62
   255
100
AcDbLine
 10
139.4722028839473
 20
8.115594329334285
 30
0.0
 11
182.9999999999895
 21
8.115594329334271
 31
0.0
  0
LINE
  5
15E6
330
15E0
100
AcDbEntity
  8
0
  6
Continuous
 62
   255
100
AcDbLine
 10
139.4722028839473
 20
4.057797164667164
 30
0.0
 11
182.9999999999895
 21
4.05779716466715
 31
0.0
  0
MTEXT
  5
15E7
330
15E0
100
AcDbEntity
  8
0
100
AcDbMText
 10
1.226077007665935
 20
16.62833710178165
 30
0.0
 40
2.494547437295386
 41
0.0
 46
0.0
 71
     1
 72
     5
  1
General tolerances ISO 2768-1 (fine)
 73
     1
 44
1.0
  0
MTEXT
  5
15E8
330
15E0
100
AcDbEntity
  8
0
100
AcDbMText
 10
1.221253973245666
 20
22.7493147206207
 30
0.0
 40
2.494547437295386
 41
0.0
 46
0.0
 71
     1
 72
     5
  1
{\fISOCPEUR|b0|i0|c0|p34;\W1;Nominal dimension in mm}
  7
SLDTEXTSTYLE0
 73
     1
 44
1.0
1001
AcDbBlockRepETag
1070
     1
1071
        3
1005
0
  0
LINE
  5
15E9
330
15E0
100
AcDbEntity
  8
0
  6
Continuous
 62
   255
100
AcDbLine
 10
58.34685140027523
 20
24.34678298800282
 30
0.0
 11
58.34685140027523
 21
0.0000000000000142
 31
0.0
1001
AcDbBlockRepETag
1070
     1
1071
        9
1005
0
  0
LINE
  5
15EA
330
15E0
100
AcDbEntity
  8
0
  6
Continuous
 62
   255
100
AcDbLine
 10
0.0
 20
24.34678298800282
 30
0.0
 11
58.34685140027528
 21
24.34678298800282
 31
0.0
1001
AcDbBlockRepETag
1070
     1
1071
       10
1005
0
  0
LINE
  5
15EB
330
15E0
100
AcDbEntity
  8
0
  6
Continuous
 62
   255
100
AcDbLine
 10
58.34685140027523
 20
24.34678298800282
 30
0.0
 11
182.9999999999895
 21
24.34678298800282
 31
0.0
1001
AcDbBlockRepETag
1070
     1
1071
       10
1005
0
  0
LINE
  5
15EC
330
15E0
100
AcDbEntity
  8
0
  6
Continuous
 62
   255
100
AcDbLine
 10
79.12237616689424
 20
12.17339149400141
 30
0.0
 11
79.12237616689424
 21
24.34678298800282
 31
0.0
1001
AcDbBlockRepETag
1070
     1
1071
       14
1005
0
  0
LINE
  5
15ED
330
15E0
100
AcDbEntity
  8
0
  6
Continuous
 62
   255
100
AcDbLine
 10
99.89790093351338
 20
12.17339149400141
 30
0.0
 11
99.89790093351338
 21
24.34678298800282
 31
0.0
1001
AcDbBlockRepETag
1070
     1
1071
       14
1005
0
  0
MTEXT
  5
15EE
330
15E0
100
AcDbEntity
  8
0
100
AcDbMText
 10
168.9677353328222
 20
16.88893582326733
 30
0.0
 40
2.494547437295386
 41
0.0
 46
0.0
 71
     1
 72
     5
  1
%%p 0.3
 73
     1
 44
1.0
1001
AcDbBlockRepETag
1070
     1
1071
       24
1005
0
  0
MTEXT
  5
15EF
330
15E0
100
AcDbEntity
  8
0
100
AcDbMText
 10
147.9410418409381
 20
16.95985493722907
 30
0.0
 40
2.494547437295386
 41
0.0
 46
0.0
 71
     1
 72
     5
  1
%%p 0.2
 73
     1
 44
1.0
1001
AcDbBlockRepETag
1070
     1
1071
       25
1005
0
  0
MTEXT
  5
15F0
330
15E0
100
AcDbEntity
  8
0
100
AcDbMText
 10
126.4009074272721
 20
16.87519524493729
 30
0.0
 40
2.494547437295386
 41
0.0
 46
0.0
 71
     1
 72
     5
  1
%%p 0.15
 73
     1
 44
1.0
1001
AcDbBlockRepETag
1070
     1
1071
       26
1005
0
  0
MTEXT
  5
15F1
330
15E0
100
AcDbEntity
  8
0
100
AcDbMText
 10
105.9463212275484
 20
16.90112504597954
 30
0.0
 40
2.494547437295386
 41
0.0
 46
0.0
 71
     1
 72
     5
  1
%%p 0.1
 73
     1
 44
1.0
1001
AcDbBlockRepETag
1070
     1
1071
       27
1005
0
  0
MTEXT
  5
15F2
330
15E0
100
AcDbEntity
  8
0
100
AcDbMText
 10
84.98914242355727
 20
17.01437400608699
 30
0.0
 40
2.494547437295386
 41
0.0
 46
0.0
 71
     1
 72
     5
  1
%%p 0.05
 73
     1
 44
1.0
1001
AcDbBlockRepETag
1070
     1
1071
       28
1005
0
  0
TEXT
  5
15F3
330
15E0
100
AcDbEntity
  8
0
  6
Continuous
100
AcDbText
 10
164.1615107706293
 20
20.37929673764472
 30
0.0
 40
2.494547437295386
  1
400 - 1000
100
AcDbText
1001
AcDbBlockRepETag
1070
     1
1071
       37
1005
0
  0
MTEXT
  5
15F4
330
15E0
100
AcDbEntity
  8
0
100
AcDbMText
 10
144.158621869803
 20
22.96803362317041
 30
0.0
 40
2.494547437295386
 41
0.0
 46
0.0
 71
     1
 72
     5
  1
120 - 400
 73
     1
 44
1.0
1001
AcDbBlockRepETag
1070
     1
1071
       29
1005
0
  0
MTEXT
  5
15F5
330
15E0
100
AcDbEntity
  8
0
100
AcDbMText
 10
124.3756636317091
 20
22.72513565785164
 30
0.0
 40
2.494547437295386
 41
0.0
 46
0.0
 71
     1
 72
     5
  1
30 - 120
 73
     1
 44
1.0
1001
AcDbBlockRepETag
1070
     1
1071
       30
1005
0
  0
MTEXT
  5
15F6
330
15E0
100
AcDbEntity
  8
0
100
AcDbMText
 10
104.9462539288026
 20
22.75232551006025
 30
0.0
 40
2.494547437295386
 41
0.0
 46
0.0
 71
     1
 72
     5
  1
6 - 30
 73
     1
 44
1.0
1001
AcDbBlockRepETag
1070
     1
1071
       31
1005
0
  0
MTEXT
  5
15F7
330
15E0
100
AcDbEntity
  8
0
100
AcDbMText
 10
85.07950812762828
 20
22.70556959691623
 30
0.0
 40
2.494547437295386
 41
0.0
 46
0.0
 71
     1
 72
     5
  1
3 - 6
 73
     1
 44
1.0
1001
AcDbBlockRepETag
1070
     1
1071
       32
1005
0
  0
MTEXT
  5
15F8
330
15E0
100
AcDbEntity
  8
0
100
AcDbMText
 10
63.01858838858902
 20
22.78653418981571
 30
0.0
 40
2.494547437295386
 41
0.0
 46
0.0
 71
     1
 72
     5
  1
0.5 - 3
 73
     1
 44
1.0
1001
AcDbBlockRepETag
1070
     1
1071
       33
1005
0
  0
MTEXT
  5
15F9
330
15E0
100
AcDbEntity
  8
0
100
AcDbMText
 10
63.43852565896918
 20
16.8478471152647
 30
0.0
 40
2.494547437295386
 41
0.0
 46
0.0
 71
     1
 72
     5
  1
%%p 0.05
 73
     1
 44
1.0
1001
AcDbBlockRepETag
1070
     1
1071
       34
1005
0
  0
LINE
  5
15FA
330
15E0
100
AcDbEntity
  8
0
  6
Continuous
 62
   255
100
AcDbLine
 10
0.0
 20
18.2600872410037
 30
0.0
 11
182.9999999999897
 21
18.260087241002
 31
0.0
  0
LINE
  5
15FB
330
15E0
100
AcDbEntity
  8
0
  6
Continuous
 62
   255
100
AcDbLine
 10
0.0
 20
0.0
 30
0.0
 11
182.9999999999895
 21
0.0
 31
0.0
  0
LINE
  5
15FC
330
15E0
100
AcDbEntity
  8
0
  6
Continuous
 62
   255
100
AcDbLine
 10
0.0
 20
6.086695747002281
 30
0.0
 11
139.4722028839473
 21
6.086695747001002
 31
0.0
  0
MTEXT
  5
15FD
330
15E0
100
AcDbEntity
  8
0
100
AcDbMText
 10
1.201782440435636
 20
10.72252304166511
 30
0.0
 40
2.494547437295386
 41
0.0
 46
0.0
 71
     1
 72
     5
  1
{\fISOCPEUR|b0|i0|c0|p34;\W1;Shorter arm length of angle in mm}
  7
SLDTEXTSTYLE0
 73
     1
 44
1.0
1001
AcDbBlockRepETag
1070
     1
1071
        0
1005
0
  0
MTEXT
  5
15FE
330
15E0
100
AcDbEntity
  8
0
100
AcDbMText
 10
61.86525580137936
 20
10.6131426958143
 30
0.0
 40
2.494547437295386
 41
0.0
 46
0.0
 71
     1
 72
     5
  1
0 - 10
 73
     1
 44
1.0
1001
AcDbBlockRepETag
1070
     1
1071
       33
1005
0
  0
MTEXT
  5
15FF
330
15E0
100
AcDbEntity
  8
0
100
AcDbMText
 10
64.26181913627715
 20
4.674455621263291
 30
0.0
 40
2.494547437295386
 41
0.0
 46
0.0
 71
     1
 72
     5
  1
%%P 1%%D
 73
     1
 44
1.0
1001
AcDbBlockRepETag
1070
     1
1071
       34
1005
0
  0
MTEXT
  5
1600
330
15E0
100
AcDbEntity
  8
0
100
AcDbMText
 10
77.03151478382711
 20
10.6131426958143
 30
0.0
 40
2.494547437295386
 41
0.0
 46
0.0
 71
     1
 72
     5
  1
10 - 50
 73
     1
 44
1.0
1001
AcDbBlockRepETag
1070
     1
1071
       33
1005
0
  0
MTEXT
  5
1601
330
15E0
100
AcDbEntity
  8
0
100
AcDbMText
 10
78.88210132936956
 20
4.674455621263291
 30
0.0
 40
2.494547437295386
 41
0.0
 46
0.0
 71
     1
 72
     5
  1
%%P 0.5%%D
 73
     1
 44
1.0
1001
AcDbBlockRepETag
1070
     1
1071
       34
1005
0
  0
MTEXT
  5
1602
330
15E0
100
AcDbEntity
  8
0
100
AcDbMText
 10
92.59088918373743
 20
10.6131426958143
 30
0.0
 40
2.494547437295386
 41
0.0
 46
0.0
 71
     1
 72
     5
  1
50 - 120
 73
     1
 44
1.0
1001
AcDbBlockRepETag
1070
     1
1071
       33
1005
0
  0
MTEXT
  5
1603
330
15E0
100
AcDbEntity
  8
0
100
AcDbMText
 10
93.18809940139329
 20
4.674455621263291
 30
0.0
 40
2.494547437295386
 41
0.0
 46
0.0
 71
     1
 72
     5
  1
%%P 0.333%%D
 73
     1
 44
1.0
1001
AcDbBlockRepETag
1070
     1
1071
       34
1005
0
  0
MTEXT
  5
1604
330
15E0
100
AcDbEntity
  8
0
100
AcDbMText
 10
107.5423679565415
 20
10.6131426958143
 30
0.0
 40
2.494547437295386
 41
0.0
 46
0.0
 71
     1
 72
     5
  1
120 - 400
 73
     1
 44
1.0
1001
AcDbBlockRepETag
1070
     1
1071
       33
1005
0
  0
MTEXT
  5
1605
330
15E0
100
AcDbEntity
  8
0
100
AcDbMText
 10
109.7564886466487
 20
4.674455621263291
 30
0.0
 40
2.494547437295386
 41
0.0
 46
0.0
 71
     1
 72
     5
  1
%%P 0.166%%D
 73
     1
 44
1.0
1001
AcDbBlockRepETag
1070
     1
1071
       34
1005
0
  0
MTEXT
  5
1606
330
15E0
100
AcDbEntity
  8
0
100
AcDbMText
 10
123.9025409958209
 20
10.6131426958143
 30
0.0
 40
2.494547437295386
 41
0.0
 46
0.0
 71
     1
 72
     5
  1
{\W0.9;400 - 1000}
 73
     1
 44
1.0
1001
AcDbBlockRepETag
1070
     1
1071
       33
1005
0
  0
MTEXT
  5
1607
330
15E0
100
AcDbEntity
  8
0
100
AcDbMText
 10
125.3174912143491
 20
4.674455621263291
 30
0.0
 40
2.494547437295386
 41
0.0
 46
0.0
 71
     1
 72
     5
  1
%%P 0.083%%D
 73
     1
 44
1.0
1001
AcDbBlockRepETag
1070
     1
1071
       34
1005
0
  0
MTEXT
  5
1608
330
15E0
100
AcDbEntity
  8
0
100
AcDbMText
 10
1.226077007665821
 20
4.82201452720912
 30
0.0
 40
2.494547437295386
 41
0.0
 46
0.0
 71
     1
 72
     5
  1
General tolerances ISO 2768-1 (fine)
 73
     1
 44
1.0
  0
LINE
  5
1609
330
15E0
100
AcDbEntity
  8
0
  6
Continuous
 62
   255
100
AcDbLine
 10
74.57192169700966
 20
12.17339149400141
 30
0.0
 11
74.57192169700966
 21
0.0000000000000142
 31
0.0
1001
AcDbBlockRepETag
1070
     1
1071
        9
1005
0
  0
LINE
  5
160A
330
15E0
100
AcDbEntity
  8
0
  6
Continuous
 62
   255
100
AcDbLine
 10
90.79699199374408
 20
12.17339149400141
 30
0.0
 11
90.79699199374408
 21
0.0000000000000142
 31
0.0
1001
AcDbBlockRepETag
1070
     1
1071
        9
1005
0
  0
LINE
  5
160B
330
15E0
100
AcDbEntity
  8
0
  6
Continuous
 62
   255
100
AcDbLine
 10
107.0220622904785
 20
12.17339149400141
 30
0.0
 11
107.0220622904785
 21
0.0000000000000142
 31
0.0
1001
AcDbBlockRepETag
1070
     1
1071
        9
1005
0
  0
LINE
  5
160C
330
15E0
100
AcDbEntity
  8
0
  6
Continuous
 62
   255
100
AcDbLine
 10
123.2471325872129
 20
12.17339149400141
 30
0.0
 11
123.2471325872129
 21
0.0000000000000142
 31
0.0
1001
AcDbBlockRepETag
1070
     1
1071
        9
1005
0
  0
LINE
  5
160D
330
15E0
100
AcDbEntity
  8
0
  6
Continuous
 62
   255
100
AcDbLine
 10
139.4722028839473
 20
12.17339149400141
 30
0.0
 11
139.4722028839473
 21
0.0000000000000142
 31
0.0
1001
AcDbBlockRepETag
1070
     1
1071
        9
1005
0
  0
TOLERANCE
  5
160E
330
15E0
100
AcDbEntity
  8
0
100
AcDbFcf
  3
Standard
 10
140.3018912761555
 20
10.16670485428646
 30
0.0
  1
%%v%%v%%vH1%%v%%v
1001
ACAD
1000
DSTYLE
1002
{
1070
    40
1040
0.5
1070
   140
1040
3.24
1070
   147
1040
1.62
1002
}
  0
MTEXT
  5
160F
330
15E0
100
AcDbEntity
  8
0
100
AcDbMText
 10
144.6501712219154
 20
11.25538089487233
 30
0.0
 40
1.995637949836309
 41
0.0
 46
0.0
 71
     1
 72
     5
  1
.....
 73
     1
 44
1.0
1001
AcDbBlockRepETag
1070
     1
1071
       34
1005
0
  0
MTEXT
  5
1610
330
15E0
100
AcDbEntity
  8
0
100
AcDbMText
 10
148.0466459170135
 20
11.25538089487233
 30
0.0
 40
1.995637949836309
 41
0.0
 46
0.0
 71
     1
 72
     5
  1
Horizontal CTQ Dimensions
 73
     1
 44
1.0
1001
AcDbBlockRepETag
1070
     1
1071
       34
1005
0
  0
TOLERANCE
  5
1611
330
15E0
100
AcDbEntity
  8
0
100
AcDbFcf
  3
Standard
 10
140.3018912761555
 20
6.108907689619343
 30
0.0
  1
%%v%%v%%vV1%%v%%v
1001
ACAD
1000
DSTYLE
1002
{
1070
    40
1040
0.5
1070
   140
1040
3.24
1070
   147
1040
1.62
1002
}
  0
MTEXT
  5
1612
330
15E0
100
AcDbEntity
  8
0
100
AcDbMText
 10
144.6501712219154
 20
7.197583730205209
 30
0.0
 40
1.995637949836309
 41
0.0
 46
0.0
 71
     1
 72
     5
  1
.....
 73
     1
 44
1.0
1001
AcDbBlockRepETag
1070
     1
1071
       34
1005
0
  0
MTEXT
  5
1613
330
15E0
100
AcDbEntity
  8
0
100
AcDbMText
 10
148.0466459170135
 20
7.197583730205209
 30
0.0
 40
1.995637949836309
 41
0.0
 46
0.0
 71
     1
 72
     5
  1
Vertical CTQ Dimensions
 73
     1
 44
1.0
1001
AcDbBlockRepETag
1070
     1
1071
       34
1005
0
  0
TOLERANCE
  5
1614
330
15E0
100
AcDbEntity
  8
0
100
AcDbFcf
  3
Standard
 10
140.3018912761555
 20
2.051110524952221
 30
0.0
  1
%%v%%v%%vS1%%v%%v
1001
ACAD
1000
DSTYLE
1002
{
1070
    40
1040
0.5
1070
   140
1040
3.24
1070
   147
1040
1.62
1002
}
  0
MTEXT
  5
1615
330
15E0
100
AcDbEntity
  8
0
100
AcDbMText
 10
144.6501712219154
 20
3.139786565538088
 30
0.0
 40
1.995637949836309
 41
0.0
 46
0.0
 71
     1
 72
     5
  1
.....
 73
     1
 44
1.0
1001
AcDbBlockRepETag
1070
     1
1071
       34
1005
0
  0
MTEXT
  5
1616
330
15E0
100
AcDbEntity
  8
0
100
AcDbMText
 10
148.0466459170135
 20
3.139786565538088
 30
0.0
 40
1.995637949836309
 41
0.0
 46
0.0
 71
     1
 72
     5
  1
GD&T & Other Features
 73
     1
 44
1.0
1001
AcDbBlockRepETag
1070
     1
1071
       34
1005
0
  0
LINE
  5
1617
330
15E0
100
AcDbEntity
  8
0
  6
Continuous
 62
   255
100
AcDbLine
 10
120.6734257001324
 20
12.17339149400141
 30
0.0
 11
120.6734257001324
 21
24.34678298800282
 31
0.0
1001
AcDbBlockRepETag
1070
     1
1071
       14
1005
0
  0
LINE
  5
1618
330
15E0
100
AcDbEntity
  8
0
  6
Continuous
 62
   255
100
AcDbLine
 10
141.4489504667515
 20
12.17339149400141
 30
0.0
 11
141.4489504667515
 21
24.34678298800282
 31
0.0
1001
AcDbBlockRepETag
1070
     1
1071
       14
1005
0
  0
LINE
  5
1619
330
15E0
100
AcDbEntity
  8
0
  6
Continuous
 62
   255
100
AcDbLine
 10
162.2244752333704
 20
12.17339149400141
 30
0.0
 11
162.2244752333704
 21
24.34678298800282
 31
0.0
1001
AcDbBlockRepETag
1070
     1
1071
       14
1005
0
  0
ENDBLK
  5
161A
330
15E0
100
AcDbEntity
  8
0
 62
   255
100
AcDbBlockEnd
  0
BLOCK
  5
161E
330
161B
100
AcDbEntity
  8
0
100
AcDbBlockBegin
  2
A$C058C21FF
 70
     0
 10
0.0
 20
0.0
 30
0.0
  3
A$C058C21FF
  1

  0
LINE
  5
161F
330
161B
100
AcDbEntity
  8
0
  6
Continuous
 62
   255
100
AcDbLine
 10
392.9999664095999
 20
-277.0
 30
0.0
 11
392.9999664095999
 21
0.0
 31
0.0
  0
LINE
  5
1620
330
161B
100
AcDbEntity
  8
0
  6
Continuous
 62
   255
100
AcDbLine
 10
10.0
 20
-277.0
 30
0.0
 11
392.9999664095999
 21
-277.0
 31
0.0
  0
LINE
  5
1621
330
161B
100
AcDbEntity
  8
0
  6
Continuous
 62
   255
100
AcDbLine
 10
0.0
 20
0.0
 30
0.0
 11
0.0
 21
-222.0000000000001
 31
0.0
  0
LINE
  5
1622
330
161B
100
AcDbEntity
  8
0
  6
Continuous
 62
   255
100
AcDbLine
 10
0.0
 20
0.0
 30
0.0
 11
392.9999664095999
 21
0.0
 31
0.0
  0
LINE
  5
1623
330
161B
100
AcDbEntity
  8
1
 62
     2
100
AcDbLine
 10
212.9999664095992
 20
-240.7736213082135
 30
0.0
 11
212.9999664095992
 21
-233.1532223398645
 31
0.0
1001
AcDbBlockRepETag
1070
     1
1071
     2034
1005
0
  0
LINE
  5
1624
330
161B
100
AcDbEntity
  8
1
 62
     2
100
AcDbLine
 10
377.9999664095851
 20
-240.7736213082135
 30
0.0
 11
212.9999664095992
 21
-240.7736213082135
 31
0.0
1001
AcDbBlockRepETag
1070
     1
1071
     2035
1005
0
  0
LINE
  5
1625
330
161B
100
AcDbEntity
  8
1
 62
     2
100
AcDbLine
 10
377.9999664095851
 20
-233.1532223398645
 30
0.0
 11
377.9999664095851
 21
-240.7736213082135
 31
0.0
1001
AcDbBlockRepETag
1070
     1
1071
     2036
1005
0
  0
LINE
  5
1626
330
161B
100
AcDbEntity
  8
1
 62
     2
100
AcDbLine
 10
212.9999664095992
 20
-233.1532223398645
 30
0.0
 11
377.9999664095851
 21
-233.1532223398645
 31
0.0
1001
AcDbBlockRepETag
1070
     1
1071
     2037
1005
0
  0
TEXT
  5
1627
330
161B
100
AcDbEntity
  8
1
 62
     3
100
AcDbText
 10
214.4930914539439
 20
-238.5485951401706
 30
0.0
 40
3.299999999999733
  1
Technology: Description - no. x.xxx.xx.xxxx
100
AcDbText
1001
AcDbBlockRepETag
1070
     1
1071
     2042
1005
0
  0
LINE
  5
1628
330
161B
100
AcDbEntity
  8
0
  6
Continuous
 62
   255
100
AcDbLine
 10
10.0
 20
-222.0
 30
0.0
 11
10.0
 21
-277.0
 31
0.0
1001
AcDbBlockRepETag
1070
     1
1071
     1946
1005
0
  0
LINE
  5
1629
330
161B
100
AcDbEntity
  8
0
  6
Continuous
 62
   255
100
AcDbLine
 10
10.0
 20
-222.0
 30
0.0
 11
0.0
 21
-222.0
 31
0.0
  0
TEXT
  5
162A
330
161B
100
AcDbEntity
  8
1
 62
     4
100
AcDbText
 10
2.500000000000001
 20
-237.5000000000001
 30
0.0
 40
5.0
  1
Drg. No.
 50
270.0
 72
     1
 11
5.0
 21
-249.5000000000001
 31
0.0
100
AcDbText
 73
     2
  0
LINE
  5
162B
330
161B
100
AcDbEntity
  8
0
  6
CENTER
 62
     2
 48
0.2
370
     9
100
AcDbLine
 10
386.4999681855563
 20
-259.423144560453
 30
0.0
 11
386.4999681855563
 21
-252.4231464730208
 31
0.0
1001
AcDbBlockRepETag
1070
     1
1071
        1
1005
0
  0
LINE
  5
162C
330
161B
100
AcDbEntity
  8
0
  6
Continuous
 62
   255
100
AcDbLine
 10
383.8712940050734
 20
-262.0000040983596
 30
0.0
 11
383.8712940050734
 21
-273.0000010928959
 31
0.0
1001
AcDbBlockRepETag
1070
     1
1071
        5
1005
0
  0
LINE
  5
162D
330
161B
100
AcDbEntity
  8
0
  6
CENTER
 62
     2
 48
0.2
370
     9
100
AcDbLine
 10
371.4999722839166
 20
-255.9231455167369
 30
0.0
 11
380.4999698249001
 21
-255.9231455167369
 31
0.0
1001
AcDbBlockRepETag
1070
     1
1071
        9
1005
0
  0
LINE
  5
162E
330
161B
100
AcDbEntity
  8
0
  6
Continuous
 62
   255
100
AcDbLine
 10
379.9999699615125
 20
-252.8231463637312
 30
0.0
 11
371.9999721473041
 21
-254.4231459265728
 31
0.0
1001
AcDbBlockRepETag
1070
     1
1071
       10
1005
0
  0
LINE
  5
162F
330
161B
100
AcDbEntity
  8
0
  6
Continuous
 62
   255
100
AcDbLine
 10
379.9999699615125
 20
-259.0231446697427
 30
0.0
 11
379.9999699615125
 21
-252.8231463637312
 31
0.0
1001
AcDbBlockRepETag
1070
     1
1071
       11
1005
0
  0
LINE
  5
1630
330
161B
100
AcDbEntity
  8
0
  6
Continuous
 62
   255
100
AcDbLine
 10
371.9999721473041
 20
-257.423145106901
 30
0.0
 11
379.9999699615125
 21
-259.0231446697427
 31
0.0
1001
AcDbBlockRepETag
1070
     1
1071
       12
1005
0
  0
LINE
  5
1631
330
161B
100
AcDbEntity
  8
0
  6
Continuous
 62
   255
100
AcDbLine
 10
371.9999721473041
 20
-254.4231459265728
 30
0.0
 11
371.9999721473041
 21
-257.423145106901
 31
0.0
1001
AcDbBlockRepETag
1070
     1
1071
       13
1005
0
  0
LINE
  5
1632
330
161B
100
AcDbEntity
  8
0
  6
Continuous
 62
   255
100
AcDbLine
 10
352.9999773385603
 20
-262.0000040983596
 30
0.0
 11
352.9999773385601
 21
-250.0008059763035
 31
0.0
1001
AcDbBlockRepETag
1070
     1
1071
       19
1005
0
  0
LINE
  5
1633
330
161B
100
AcDbEntity
  8
0
  6
Continuous
 62
   255
100
AcDbLine
 10
318.9999866281746
 20
-262.0000040983596
 30
0.0
 11
318.9999866281746
 21
-273.0000010928959
 31
0.0
1001
AcDbBlockRepETag
1070
     1
1071
       20
1005
0
  0
LINE
  5
1634
330
161B
100
AcDbEntity
  8
0
  6
Continuous
 62
   255
100
AcDbLine
 10
352.9999773385601
 20
-262.0000040983594
 30
0.0
 11
392.9999664096001
 21
-262.0000040983596
 31
0.0
1001
AcDbBlockRepETag
1070
     1
1071
       21
1005
0
  0
LINE
  5
1635
330
161B
100
AcDbEntity
  8
0
  6
Continuous
 62
   255
100
AcDbLine
 10
245.0000068467473
 20
-262.0000040983596
 30
0.0
 11
245.0000068467473
 21
-273.0000010928959
 31
0.0
1001
AcDbBlockRepETag
1070
     1
1071
       22
1005
0
  0
LINE
  5
1636
330
161B
100
AcDbEntity
  8
0
  6
Continuous
 62
   255
100
AcDbLine
 10
257.6666700525782
 20
-256.0008059763035
 30
0.0
 11
257.6666700525779
 21
-273.0000010928959
 31
0.0
1001
AcDbBlockRepETag
1070
     1
1071
       22
1005
0
  0
LINE
  5
1637
330
161B
100
AcDbEntity
  8
0
  6
Continuous
 62
   255
100
AcDbLine
 10
210.000016409587
 20
-233.1532223398645
 30
0.0
 11
210.000016409587
 21
-277.0
 31
0.0
1001
AcDbBlockRepETag
1070
     1
1071
       26
1005
0
  0
LINE
  5
1638
330
161B
100
AcDbEntity
  8
0
  6
Continuous
 62
   255
100
AcDbLine
 10
367.9999732402
 20
-250.0008059763035
 30
0.0
 11
367.9999732402
 21
-262.0000040983596
 31
0.0
1001
AcDbBlockRepETag
1070
     1
1071
       27
1005
0
  0
LINE
  5
1639
330
161B
100
AcDbEntity
  8
0
  6
Continuous
 62
   255
100
AcDbLine
 10
185.0000232401867
 20
-257.5000053278675
 30
0.0
 11
185.0000232401869
 21
-277.0
 31
0.0
1001
AcDbBlockRepETag
1070
     1
1071
       29
1005
0
  0
LINE
  5
163A
330
161B
100
AcDbEntity
  8
0
  6
Continuous
 62
     2
370
     9
100
AcDbLine
 10
27.00001640958703
 20
-266.5000028688518
 30
0.0
 11
210.000016409587
 21
-266.5000028688518
 31
0.0
1001
AcDbBlockRepETag
1070
     1
1071
       30
1005
0
  0
LINE
  5
163B
330
161B
100
AcDbEntity
  8
0
  6
Continuous
 62
   255
100
AcDbLine
 10
27.00001640958703
 20
-271.0000016393439
 30
0.0
 11
210.000016409587
 21
-271.0000016393439
 31
0.0
1001
AcDbBlockRepETag
1070
     1
1071
       31
1005
0
  0
LINE
  5
163C
330
161B
100
AcDbEntity
  8
0
  6
Continuous
 62
   255
100
AcDbLine
 10
27.00001640958703
 20
-277.0
 30
0.0
 11
27.00001640958681
 21
-233.1532223398645
 31
0.0
1001
AcDbBlockRepETag
1070
     1
1071
       32
1005
0
  0
LINE
  5
163D
330
161B
100
AcDbEntity
  8
0
  6
Continuous
 62
     2
370
     9
100
AcDbLine
 10
210.000016409587
 20
-262.0000040983596
 30
0.0
 11
27.00001640958703
 21
-262.0000040983596
 31
0.0
1001
AcDbBlockRepETag
1070
     1
1071
       33
1005
0
  0
LINE
  5
163E
330
161B
100
AcDbEntity
  8
0
  6
Continuous
 62
   255
100
AcDbLine
 10
160.0000300707861
 20
-257.5000053278675
 30
0.0
 11
160.0000300707863
 21
-277.0
 31
0.0
1001
AcDbBlockRepETag
1070
     1
1071
       34
1005
0
  0
LINE
  5
163F
330
161B
100
AcDbEntity
  8
0
  6
Continuous
 62
   255
100
AcDbLine
 10
135.0000369013846
 20
-257.5000053278675
 30
0.0
 11
135.0000369013846
 21
-277.0
 31
0.0
1001
AcDbBlockRepETag
1070
     1
1071
       35
1005
0
  0
LINE
  5
1640
330
161B
100
AcDbEntity
  8
0
  6
Continuous
 62
   255
100
AcDbLine
 10
33.90006452432795
 20
-257.5000053278675
 30
0.0
 11
33.90006452432795
 21
-277.0
 31
0.0
1001
AcDbBlockRepETag
1070
     1
1071
       36
1005
0
  0
LINE
  5
1641
330
161B
100
AcDbEntity
  8
0
  6
CENTER
 62
     2
 48
0.2
370
     9
100
AcDbLine
 10
382.8999691691633
 20
-255.9231455167369
 30
0.0
 11
389.9999672292731
 21
-255.9231455167369
 31
0.0
1001
AcDbBlockRepETag
1070
     1
1071
       37
1005
0
  0
LINE
  5
1642
330
161B
100
AcDbEntity
  8
0
  6
Continuous
 62
   255
100
AcDbLine
 10
392.9999664096001
 20
-273.0000010928959
 30
0.0
 11
210.000016409587
 21
-273.0000010928959
 31
0.0
1001
AcDbBlockRepETag
1070
     1
1071
       38
1005
0
  0
CIRCLE
  5
1643
330
161B
100
AcDbEntity
  8
0
  6
Continuous
 62
   255
100
AcDbCircle
 10
386.4999681855563
 20
-255.9231455167369
 30
0.0
 40
3.099999153005696
1001
AcDbBlockRepETag
1070
     1
1071
       39
1005
0
  0
CIRCLE
  5
1644
330
161B
100
AcDbEntity
  8
0
  6
Continuous
 62
   255
100
AcDbCircle
 10
386.4999681855563
 20
-255.9231455167369
 30
0.0
 40
1.499999590164046
1001
AcDbBlockRepETag
1070
     1
1071
       40
1005
0
  0
MTEXT
  5
1645
330
161B
100
AcDbEntity
  8
0
 62
   255
100
AcDbMText
 10
356.8782500675213
 20
-252.7695148487513
 30
0.0
 40
1.999999453552061
 41
0.0
 46
0.0
 71
     1
 72
     5
  1
Scale
 73
     1
 44
1.0
1001
AcDbBlockRepETag
1070
     1
1071
       46
1005
0
  0
MTEXT
  5
1646
330
161B
100
AcDbEntity
  8
0
 62
   255
100
AcDbMText
 10
384.7939704696303
 20
-264.9195248175762
 30
0.0
 40
4.508695652173912
 41
0.0
 46
0.0
 71
     1
 72
     5
  1
{\fISOCPEUR|b0|i0|c0|p34;\W1;A3}
  7
SLDTEXTSTYLE0
 73
     1
 44
1.0
1001
AcDbBlockRepETag
1070
     1
1071
       50
1005
0
  0
TEXT
  5
1647
330
161B
100
AcDbEntity
  8
0
  6
Continuous
 62
   255
100
AcDbText
 10
213.5367887974839
 20
-275.600626952933
 30
0.0
 40
1.72391304347826
  1
This drawing remains our property. Without written approval it may not be copied, reproduced or communicated or made available to third parties.
100
AcDbText
1001
AcDbBlockRepETag
1070
     1
1071
       51
1005
0
  0
MTEXT
  5
1648
330
161B
100
AcDbEntity
  8
0
 62
   255
100
AcDbMText
 10
28.38043281742353
 20
-272.4012695934838
 30
0.0
 40
1.999999453552061
 41
0.0
 46
0.0
 71
     1
 72
     5
  1
No.
 73
     1
 44
1.0
1001
AcDbBlockRepETag
1070
     1
1071
       52
1005
0
  0
MTEXT
  5
1649
330
161B
100
AcDbEntity
  8
0
 62
   255
100
AcDbMText
 10
62.8916152131303
 20
-272.5568974675624
 30
0.0
 40
1.999999453552061
 41
0.0
 46
0.0
 71
     1
 72
     5
  1
Modifications
 73
     1
 44
1.0
1001
AcDbBlockRepETag
1070
     1
1071
       53
1005
0
  0
MTEXT
  5
164A
330
161B
100
AcDbEntity
  8
0
 62
   255
100
AcDbMText
 10
113.8766488820463
 20
-272.4090513971577
 30
0.0
 40
1.999999453552061
 41
0.0
 46
0.0
 71
     1
 72
     5
  1
Communication
 73
     1
 44
1.0
1001
AcDbBlockRepETag
1070
     1
1071
       54
1005
0
  0
MTEXT
  5
164B
330
161B
100
AcDbEntity
  8
0
 62
   255
100
AcDbMText
 10
143.9645104743263
 20
-272.4579818509886
 30
0.0
 40
1.999999453552061
 41
0.0
 46
0.0
 71
     1
 72
     5
  1
Drawn
 73
     1
 44
1.0
1001
AcDbBlockRepETag
1070
     1
1071
       55
1005
0
  0
MTEXT
  5
164C
330
161B
100
AcDbEntity
  8
0
 62
   255
100
AcDbMText
 10
191.619644925147
 20
-272.537497781863
 30
0.0
 40
1.999999453552061
 41
0.0
 46
0.0
 71
     1
 72
     5
  1
Approved
 73
     1
 44
1.0
1001
AcDbBlockRepETag
1070
     1
1071
       56
1005
0
  0
MTEXT
  5
164D
330
161B
100
AcDbEntity
  8
0
 62
   255
100
AcDbMText
 10
336.1114445882952
 20
-264.9508328035223
 30
0.0
 40
4.508695652173912
 41
0.0
 46
0.0
 71
     1
 72
     5
  1
{\fISOCPEUR|b0|i0|c0|p34;\W1;Drg. No.}
  7
SLDTEXTSTYLE0
 73
     1
 44
1.0
1001
AcDbBlockRepETag
1070
     1
1071
       58
1005
0
  0
MTEXT
  5
164E
330
161B
100
AcDbEntity
  8
0
 62
   255
100
AcDbMText
 10
266.8224219787517
 20
-264.9557813549702
 30
0.0
 40
4.508695652173912
 41
0.0
 46
0.0
 71
     1
 72
     5
  1
{\fISOCPEUR|b0|i0|c0|p34;\W1;Description}
  7
SLDTEXTSTYLE0
 73
     1
 44
1.0
1001
AcDbBlockRepETag
1070
     1
1071
       59
1005
0
  0
MTEXT
  5
164F
330
161B
100
AcDbEntity
  8
0
 62
   255
100
AcDbMText
 10
358.084726654057
 20
-256.6405790150835
 30
0.0
 40
2.499999316940077
 41
0.0
 46
0.0
 71
     1
 72
     5
  1
X:1
 73
     1
 44
1.0
1001
AcDbBlockRepETag
1070
     1
1071
       60
1005
0
  0
MTEXT
  5
1650
330
161B
100
AcDbEntity
  8
0
 62
     1
100
AcDbMText
 10
214.8544231156891
 20
-262.8294794084584
 30
0.0
 40
3.999998907104123
 41
0.0
 46
0.0
 71
     1
 72
     5
  1
{\fISOCPEUR|b0|i0|c0|p34;\W1;Portescap}
  7
SLDTEXTSTYLE0
 73
     1
 44
1.0
1001
AcDbBlockRepETag
1070
     1
1071
       65
1005
0
  0
LINE
  5
1651
330
161B
100
AcDbEntity
  8
0
  6
Continuous
 62
   255
100
AcDbLine
 10
110.0000437319843
 20
-257.5000053278675
 30
0.0
 11
110.0000437319845
 21
-277.0
 31
0.0
1001
AcDbBlockRepETag
1070
     1
1071
       66
1005
0
  0
MTEXT
  5
1652
330
161B
100
AcDbEntity
  8
0
 62
   255
100
AcDbMText
 10
167.3053807416859
 20
-272.4579818509886
 30
0.0
 40
1.999999453552061
 41
0.0
 46
0.0
 71
     1
 72
     5
  1
Checked
 73
     1
 44
1.0
1001
AcDbBlockRepETag
1070
     1
1071
       67
1005
0
  0
LINE
  5
1653
330
161B
100
AcDbEntity
  8
0
  6
Continuous
 62
   255
100
AcDbLine
 10
374.7426216005465
 20
-262.0000040983596
 30
0.0
 11
374.7426216005463
 21
-277.0
 31
0.0
1001
AcDbBlockRepETag
1070
     1
1071
        5
1005
0
  0
MTEXT
  5
1654
330
161B
100
AcDbEntity
  8
0
 62
   255
100
AcDbMText
 10
376.1389629657326
 20
-264.9195248175762
 30
0.0
 40
4.508695652173912
 41
0.0
 46
0.0
 71
     1
 72
     5
  1
{\fISOCPEUR|b0|i0|c0|p34;\W1;00}
  7
SLDTEXTSTYLE0
 73
     1
 44
1.0
1001
AcDbBlockRepETag
1070
     1
1071
       50
1005
0
  0
TEXT
  5
1655
330
161B
100
AcDbEntity
  8
0
  6
Continuous
 62
   255
100
AcDbText
 10
377.1554068563314
 20
-275.600626952933
 30
0.0
 40
1.72391304347826
  1
Sheet 1 of 1
100
AcDbText
1001
AcDbBlockRepETag
1070
     1
1071
       51
1005
0
  0
INSERT
  5
1656
330
161B
100
AcDbEntity
  8
0
 62
   255
100
AcDbBlockReference
  2
A$C08716F59
 10
27.00001640958681
 20
-257.5000053278673
 30
0.0
  0
LINE
  5
1657
330
161B
100
AcDbEntity
  8
0
  6
Continuous
 62
   255
100
AcDbLine
 10
245.0000068467473
 20
-269.0000021857919
 30
0.0
 11
210.000016409587
 21
-269.0000021857919
 31
0.0
1001
AcDbBlockRepETag
1070
     1
1071
       38
1005
0
  0
TEXT
  5
1658
330
161B
100
AcDbEntity
  8
0
  6
Continuous
 62
   255
100
AcDbText
 10
213.5367887974839
 20
-271.7908875797558
 30
0.0
 40
1.72391304347826
  1
PI/R&D/F/18 Rev 00
100
AcDbText
1001
AcDbBlockRepETag
1070
     1
1071
       51
1005
0
  0
MTEXT
  5
1659
330
161B
100
AcDbEntity
  8
0
  6
Continuous
 62
   255
100
AcDbMText
 10
211.8594586296933
 20
-254.9213169641921
 30
0.0
 40
2.499999316940077
 41
122.5201940634145
 46
0.0
 71
     7
 72
     1
  1
All dimensions and tolerances are in mm unless & otherwise specified.
  7
style1
 73
     1
 44
1.0
1001
AcDbBlockRepETag
1070
     1
1071
       64
1005
0
  0
LINE
  5
165A
330
161B
100
AcDbEntity
  8
0
  6
Continuous
 62
   255
100
AcDbLine
 10
210.000016409587
 20
-262.0008059763035
 30
0.0
 11
257.6666700525782
 21
-262.0008059763035
 31
0.0
1001
AcDbBlockRepETag
1070
     1
1071
        3
1005
0
  0
LINE
  5
165B
330
161B
100
AcDbEntity
  8
0
  6
Continuous
 62
   255
100
AcDbLine
 10
210.000016409587
 20
-250.0008059763035
 30
0.0
 11
392.9999664096001
 21
-250.0008059763035
 31
0.0
1001
AcDbBlockRepETag
1070
     1
1071
        3
1005
0
  0
LINE
  5
165C
330
161B
100
AcDbEntity
  8
0
  6
Continuous
 62
   255
100
AcDbLine
 10
210.000016409587
 20
-256.0008059763035
 30
0.0
 11
352.9999773385601
 21
-256.0008059763033
 31
0.0
1001
AcDbBlockRepETag
1070
     1
1071
        3
1005
0
  0
ENDBLK
  5
165D
330
161B
100
AcDbEntity
  8
0
100
AcDbBlockEnd
  0
BLOCK
  5
165F
330
165E
100
AcDbEntity
  8
0
 62
   255
100
AcDbBlockBegin
  2
_Dot
 70
     0
 10
0.0
 20
0.0
 30
0.0
  3
_Dot
  1

  0
LWPOLYLINE
  5
1660
330
165E
100
AcDbEntity
  8
0
  6
ByBlock
 62
     0
100
AcDbPolyline
 90
        2
 70
     1
 43
0.5
 10
-0.25
 20
0.0
 42
1.0
 10
0.25
 20
0.0
 42
1.0
  0
LINE
  5
1661
330
165E
100
AcDbEntity
  8
0
  6
ByBlock
 62
     0
370
    -2
100
AcDbLine
 10
-0.5
 20
0.0
 30
0.0
 11
-1.0
 21
0.0
 31
0.0
  0
ENDBLK
  5
1662
330
165E
100
AcDbEntity
  8
0
 62
   255
100
AcDbBlockEnd
  0
BLOCK
  5
1666
330
1663
100
AcDbEntity
  8
0
 62
     1
100
AcDbBlockBegin
  2
A$C53560A2D
 70
     0
 10
0.0
 20
0.0
 30
0.0
  3
A$C53560A2D
  1

  0
HATCH
  5
1667
330
1663
100
AcDbEntity
  8
0
 62
     1
100
AcDbHatch
 10
0.0
 20
0.0
 30
0.0
210
0.0
220
0.0
230
1.0
  2
SOLID
 70
     1
 71
     0
 91
        1
 92
        7
 72
     0
 73
     1
 93
        8
 10
10.40639350736074
 20
-3.429580398453509
 10
9.8090548631219
 20
-3.429580398453495
 10
10.52161847102905
 20
-4.26222404987655
 10
9.562357823425486
 20
-5.017847907603865
 10
-0.1711005509629331
 20
-5.017847907603837
 10
-0.2076899027981653
 20
-5.086662246294196
 10
10.08230402145517
 20
-5.08666224629421
 10
11.12297052199432
 20
-4.266913789282654
 97
        0
 75
     0
 76
     1
 47
0.0237982239116982
 98
        1
 10
10.7687455105808
 20
-4.08916775948434
450
        0
451
        0
460
0.0
461
0.0
452
        0
462
0.0
453
        0
470

1001
ACAD
1010
0.0
1020
0.0
1030
0.0
  0
HATCH
  5
1668
330
1663
100
AcDbEntity
  8
0
 62
     3
100
AcDbHatch
 10
0.0
 20
0.0
 30
0.0
210
0.0
220
0.0
230
1.0
  2
SOLID
 70
     1
 71
     0
 91
       11
 92
        7
 72
     0
 73
     1
 93
        7
 10
1.491379020905242
 20
-2.772946682047759
 10
0.995217842298814
 20
-2.772946682047745
 10
-0.0788238170088675
 20
-4.792918690406423
 10
0.3668365951625674
 20
-4.792918690406409
 10
1.182574505556942
 20
-3.200386665146865
 10
1.390757209580954
 20
-4.792918690406395
 10
1.800184269306669
 20
-4.792918690406423
 97
        0
 92
        7
 72
     1
 73
     1
 93
       17
 10
3.143752721671432
 20
-3.44625859844703
 42
0.0
 10
2.816525880617575
 20
-3.446258598447073
 42
0.0
 10
2.903841276975811
 20
-3.02813051420415
 42
0.0
 10
2.485710676876635
 20
-3.16864853873723
 42
0.0
 10
2.427738889498414
 20
-3.44625859844703
 42
0.0
 10
2.156102845410657
 20
-3.44625859844703
 42
0.0
 10
2.108120116639497
 20
-3.699877260551375
 42
0.0
 10
2.37477709420176
 20
-3.699877260551375
 42
0.0
 10
2.197341484950982
 20
-4.54956488114216
 42
0.2314303255157967
 10
2.229132535142696
 20
-4.7375738797856
 42
0.2425677700453667
 10
2.562303738103139
 20
-4.840349188736823
 42
0.0
 10
2.853955581357979
 20
-4.793092213000164
 42
0.0
 10
2.904529503834567
 20
-4.550908380596794
 42
0.0
 10
2.695000291198482
 20
-4.550908380596808
 42
-0.4760549668863254
 10
2.615472085050157
 20
-4.409046856609066
 42
0.0
 10
2.763564085320922
 20
-3.699877260551403
 42
0.0
 10
3.095769992900443
 20
-3.699877260551403
 42
0.0
 97
        0
 92
        7
 72
     1
 73
     1
 93
       15
 10
3.902783104379238
 20
-3.703880319999356
 42
-0.2432435292258966
 10
4.1605810466001
 20
-3.728705991916442
 42
-0.2718544080322752
 10
4.214411423471688
 20
-3.906094591215776
 42
0.0
 10
4.02511501860107
 20
-4.8125801186696
 42
0.0
 10
4.425338595686184
 20
-4.812580118669615
 42
0.0
 10
4.618640162861424
 20
-3.843814600173104
 42
0.1442413094369809
 10
4.566882367577647
 20
-3.577394862249789
 42
0.1968270941560047
 10
4.312159611171807
 20
-3.438006898026017
 42
0.1671955009294615
 10
3.972511122600565
 20
-3.482973954396257
 42
0.0984224330473735
 10
3.770569059989043
 20
-3.640211074021848
 42
0.0
 10
3.934493518721126
 20
-2.855224430784346
 42
0.0
 10
3.53819104308144
 20
-2.85522443078436
 42
0.0
 10
3.129447181708883
 20
-4.812580118669629
 42
0.0
 10
3.525749657348569
 20
-4.812580118669629
 42
0.0
 10
3.717837455778578
 20
-3.892727417841854
 42
-0.1681505465182262
 97
        0
 92
        7
 72
     0
 73
     1
 93
        4
 10
5.6096725110404
 20
-2.855224430784303
 10
5.213370035400828
 20
-2.855224430784332
 10
4.804626174028157
 20
-4.8125801186696
 10
5.200928649667844
 20
-4.812580118669572
 97
        0
 92
        7
 72
     1
 73
     1
 93
       11
 10
6.952147240856731
 20
-3.566721980052093
 42
0.2003410362329726
 10
6.566896274917382
 20
-3.394380580118323
 42
0.1459636918781203
 10
6.221479418630622
 20
-3.437237506523857
 42
0.1329827864341785
 10
5.809957292924593
 20
-3.742009934847047
 42
0.1181218657170001
 10
5.613713825998559
 20
-4.246632228047602
 42
0.1453361361738481
 10
5.692211359379541
 20
-4.650330645507111
 42
0.1097723388638702
 10
5.927703226469532
 20
-4.840965604516455
 42
0.0801939741507773
 10
6.283139453583146
 20
-4.8800657463362
 42
0.1155273130323037
 10
6.714757499090808
 20
-4.716668932821008
 42
0.1356436716811775
 10
6.998631608933408
 20
-4.369984603229582
 42
0.1011385320105559
 10
7.113012828394801
 20
-3.973673703014938
 42
0.236317674944661
 97
        0
 92
       22
 72
     1
 73
     1
 93
       10
 10
6.677527194323886
 20
-4.138839615245061
 42
-0.0759023682782946
 10
6.566982042139159
 20
-4.423877995135413
 42
-0.2200816587143609
 10
6.300965840747892
 20
-4.599996581122823
 42
-0.1552209024106451
 10
6.095458780820706
 20
-4.534235363900407
 42
-0.2297088204471921
 10
6.019242210293441
 20
-4.338318807139089
 42
-0.0336344069359854
 10
6.05840294270996
 20
-4.066696381694796
 42
-0.0476503727704049
 10
6.143663624704515
 20
-3.862071844709262
 42
-0.1164757194866423
 10
6.339107330614126
 20
-3.691551275783936
 42
-0.2102767852864467
 10
6.596864975328571
 20
-3.697069810236698
 42
-0.1775077200810246
 10
6.697202341601666
 20
-3.873877008374407
 42
-0.1210907755229007
 97
        0
 92
        7
 72
     1
 73
     1
 93
       15
 10
7.838830780765817
 20
-3.892727417841783
 42
-0.1681505465179636
 10
8.02377642936608
 20
-3.703880319999441
 42
-0.2432435292261799
 10
8.281574371587225
 20
-3.72870599191637
 42
-0.2718544080325296
 10
8.335404748458813
 20
-3.906094591215861
 42
0.0
 10
8.146108343588196
 20
-4.812580118669558
 42
0.0
 10
8.546331920673253
 20
-4.812580118669586
 42
0.0
 10
8.739633487848607
 20
-3.843814600173075
 42
0.1869559109727573
 10
8.708571975710412
 20
-3.55414738959827
 42
0.2282764169136722
 10
8.434241485182553
 20
-3.416409065064058
 42
0.1548211452724478
 10
8.093504447587747
 20
-3.482973954396229
 42
0.0984224330473456
 10
7.891562384976282
 20
-3.640211074021777
 42
0.0
 10
7.935547234632508
 20
-3.429580398453509
 42
0.0
 10
7.539244758992822
 20
-3.429580398453509
 42
0.0
 10
7.250440506696122
 20
-4.812580118669558
 42
0.0
 10
7.646742982335752
 20
-4.812580118669572
 42
0.0
 97
        0
 92
        7
 72
     0
 73
     1
 93
        4
 10
9.625982522468632
 20
-3.429580398453524
 10
9.229680046829003
 20
-3.429580398453509
 10
8.940875794532303
 20
-4.812580118669558
 10
9.337178270172046
 20
-4.8125801186696
 97
        0
 92
        7
 72
     0
 73
     1
 93
        4
 10
9.745922131544659
 20
-2.855224430784318
 10
9.34961965590503
 20
-2.855224430784332
 10
9.27698869286246
 20
-3.203033026980861
 10
9.673291168502146
 20
-3.203033026980861
 97
        0
 92
        7
 72
     0
 73
     1
 93
        4
 10
12.03240295060681
 20
-3.429580398453509
 10
11.44364835907379
 20
-3.429580398453495
 10
10.87989922911413
 20
-3.888285852559178
 10
11.10949294143216
 20
-4.156570318460708
 97
        0
 92
        7
 72
     0
 73
     1
 93
        4
 10
11.05743489431273
 20
-4.407247884316163
 10
10.70348876138359
 20
-4.686056509542012
 10
11.02721331439767
 20
-5.064334590103314
 10
11.61975957304332
 20
-5.064334590103271
 97
        0
 75
     0
 76
     1
 47
0.0237982239116982
 98
       11
 10
1.427474595215414
 20
-3.466921616530399
 10
2.540276924309466
 20
-3.529962242013326
 10
3.403077140388461
 20
-3.872105201460513
 10
5.128677572546564
 20
-4.050614633904856
 10
6.869154243317836
 20
-3.872105201460513
 10
6.869154243317836
 20
-3.872105201460513
 10
7.657574707896685
 20
-4.18449635002436
 10
9.221850949254132
 20
-4.184360945182802
 10
9.578826617252673
 20
-3.161037064634811
 10
11.41130113635171
 20
-3.803588918816572
 10
11.19711616802232
 20
-4.874509392213795
450
        0
451
        0
460
0.0
461
0.0
452
        0
462
0.0
453
        0
470

1001
ACAD
1010
0.0
1020
0.0
1030
0.0
  0
ENDBLK
  5
1669
330
1663
100
AcDbEntity
  8
0
 62
     1
100
AcDbBlockEnd
  0
BLOCK
  5
166D
330
166A
100
AcDbEntity
  8
0
 62
     1
100
AcDbBlockBegin
  2
A$C25042B23
 70
     0
 10
0.0
 20
0.0
 30
0.0
  3
A$C25042B23
  1

  0
INSERT
  5
166E
330
166A
100
AcDbEntity
  8
0
 62
     1
100
AcDbBlockReference
  2
A$C53560A2D
 10
0.0000000000001137
 20
0.0
 30
0.0
  0
ENDBLK
  5
166F
330
166A
100
AcDbEntity
  8
0
 62
     1
100
AcDbBlockEnd
  0
BLOCK
  5
1671
330
1670
100
AcDbEntity
  8
0
100
AcDbBlockBegin
  2
_FILLED
 70
     0
 10
0.0
 20
0.0
 30
0.0
  3
_FILLED
  1

  0
SOLID
  5
1672
330
1670
100
AcDbEntity
  8
0
  6
ByBlock
 62
     0
100
AcDbTrace
 10
0.0
 20
0.0
 30
0.0
 11
-1.0
 21
0.1875
 31
0.0
 12
-1.0
 22
-0.1875
 32
0.0
 13
-1.0
 23
-0.1875
 33
0.0
  0
ENDBLK
  5
1673
330
1670
100
AcDbEntity
  8
0
  6
ByBlock
 62
     0
100
AcDbBlockEnd
  0
BLOCK
  5
1675
330
1674
100
AcDbEntity
  8
0
100
AcDbBlockBegin
  2
*D24
 70
     1
 10
0.0
 20
0.0
 30
0.0
  3
*D24
  1

  0
LINE
  5
1676
330
1674
100
AcDbEntity
  8
0
  6
Continuous
 62
     0
370
    -2
100
AcDbLine
 10
1802.555021500383
 20
-480.9336425058048
 30
0.0
 11
1802.555021500383
 21
-488.3557146914714
 31
0.0
  0
LINE
  5
1677
330
1674
100
AcDbEntity
  8
0
  6
Continuous
 62
     0
370
    -2
100
AcDbLine
 10
1847.055021181983
 20
-481.2336410539381
 30
0.0
 11
1847.055021181983
 21
-488.3557146914714
 31
0.0
  0
LINE
  5
1678
330
1674
100
AcDbEntity
  8
0
  6
Continuous
 62
     0
370
    -2
100
AcDbLine
 10
1806.555021500383
 20
-488.1757146914714
 30
0.0
 11
1843.055021181983
 21
-488.1757146914714
 31
0.0
  0
INSERT
  5
1679
330
1674
100
AcDbEntity
  8
0
  6
Continuous
 62
     0
370
    -2
100
AcDbBlockReference
  2
_FILLED
 10
1802.555021500383
 20
-488.1757146914714
 30
0.0
 41
4.0
 42
4.0
 43
4.0
 50
180.0
  0
INSERT
  5
167A
330
1674
100
AcDbEntity
  8
0
  6
Continuous
 62
     0
370
    -2
100
AcDbBlockReference
  2
_FILLED
 10
1847.055021181983
 20
-488.1757146914714
 30
0.0
 41
4.0
 42
4.0
 43
4.0
  0
MTEXT
  5
167B
330
1674
100
AcDbEntity
  8
0
  6
Continuous
 62
     5
100
AcDbMText
 10
1824.805021341183
 20
-486.6857146914714
 30
0.0
 40
2.799999999999999
 41
0.0
 46
0.0
 71
     5
 72
     1
  1
\A1;29.67±0.3
 73
     1
 44
1.0
  0
POINT
  5
167C
330
1674
100
AcDbEntity
  8
Defpoints
  6
Continuous
 62
     0
100
AcDbPoint
 10
1802.555021500383
 20
-480.8711425058048
 30
0.0
  0
POINT
  5
167D
330
1674
100
AcDbEntity
  8
Defpoints
  6
Continuous
 62
     0
100
AcDbPoint
 10
1847.055021181983
 20
-481.1711410539381
 30
0.0
  0
POINT
  5
167E
330
1674
100
AcDbEntity
  8
Defpoints
  6
Continuous
 62
     0
100
AcDbPoint
 10
1847.055021181983
 20
-488.1757146914714
 30
0.0
  0
ENDBLK
  5
167F
330
1674
100
AcDbEntity
  8
0
100
AcDbBlockEnd
  0
BLOCK
  5
1683
330
1680
100
AcDbEntity
  8
0
100
AcDbBlockBegin
  2
A$C274A2516
 70
     0
 10
0.0
 20
0.0
 30
0.0
  3
A$C274A2516
  1

  0
DIMENSION
  5
1684
330
1680
100
AcDbEntity
  8
0
  6
Continuous
 62
     2
100
AcDbDimension
  2
*D24
 10
49.41318594722497
 20
1.185548929283584
 30
0.0
 11
27.1631861064252
 21
1.185548929283584
 31
0.0
 12
-1797.641835234758
 22
489.361263620755
 32
0.0
 70
   128
 71
     0
 72
     0
 41
0.0
 42
29.66666645588333
 73
     0
 74
     0
 75
     0
  3
DIMSTYLE_8
100
AcDbAlignedDimension
 13
4.913186265624972
 23
8.490121114950227
 33
0.0
 14
49.41318594722497
 24
8.19012256681691
 34
0.0
100
AcDbRotatedDimension
  0
LINE
  5
1685
330
1680
100
AcDbEntity
  8
0
  6
Continuous
 62
     7
100
AcDbLine
 10
4.913186265624972
 20
30.62336891321689
 30
0.0
 11
4.913186265624972
 21
9.023539983350246
 31
0.0
  0
LINE
  5
1686
330
1680
100
AcDbEntity
  8
0
  6
Continuous
 62
     7
100
AcDbLine
 10
5.113185485291523
 20
30.82345444728361
 30
0.0
 11
5.113185485291523
 21
8.823454449283588
 31
0.0
  0
LINE
  5
1687
330
1680
100
AcDbEntity
  8
0
  6
Continuous
 62
     7
100
AcDbLine
 10
4.913187226958598
 20
30.62345408315025
 30
0.0
 11
5.11318663495831
 21
30.82345346661691
 31
0.0
  0
LINE
  5
1688
330
1680
100
AcDbEntity
  8
0
  6
Continuous
 62
     7
100
AcDbLine
 10
4.913187226958598
 20
9.023454813416947
 30
0.0
 11
5.11318663495831
 21
8.823455429950229
 31
0.0
  0
LWPOLYLINE
  5
1689
330
1680
100
AcDbEntity
  8
0
  6
Continuous
 62
     7
100
AcDbPolyline
 90
        3
 70
     0
 43
0.0
 10
8.213186495558602
 20
10.47664903488356
 10
8.175811462891488
 20
10.67089466321692
 10
8.163188469091892
 20
10.85374136828358
  0
LINE
  5
168A
330
1680
100
AcDbEntity
  8
0
  6
Continuous
 62
     7
100
AcDbLine
 10
7.713187482491775
 20
30.82345444728361
 30
0.0
 11
7.713187482491775
 21
8.823454449283588
 31
0.0
  0
LINE
  5
168B
330
1680
100
AcDbEntity
  8
0
  6
Continuous
 62
     7
100
AcDbLine
 10
7.913186265624972
 20
30.62337005035028
 30
0.0
 11
7.913186265624972
 21
9.023538846216922
 31
0.0
  0
LINE
  5
168C
330
1680
100
AcDbEntity
  8
0
  6
Continuous
 62
     7
100
AcDbLine
 10
8.213190692692023
 20
8.823454448283598
 30
0.0
 11
8.213188470958357
 21
10.47664542421694
 31
0.0
  0
LINE
  5
168D
330
1680
100
AcDbEntity
  8
0
  6
Continuous
 62
     7
100
AcDbLine
 10
8.21318847575867
 20
29.17026347688358
 30
0.0
 11
8.213190692692023
 21
30.8234544482836
 31
0.0
  0
LINE
  5
168E
330
1680
100
AcDbEntity
  8
0
  6
Continuous
 62
     7
100
AcDbLine
 10
8.213188774424907
 20
11.17667091475027
 30
0.0
 11
8.213186622558623
 21
28.47024295441696
 31
0.0
  0
LINE
  5
168F
330
1680
100
AcDbEntity
  8
0
  6
Continuous
 62
     7
100
AcDbLine
 10
9.163186265624972
 20
28.92428466195026
 30
0.0
 11
9.163186265624972
 21
28.58013880015028
 31
0.0
  0
LINE
  5
1690
330
1680
100
AcDbEntity
  8
0
  6
Continuous
 62
     7
100
AcDbLine
 10
9.163186265624972
 20
11.06677009641692
 30
0.0
 11
9.163186265624972
 21
10.72262423461694
 31
0.0
  0
LINE
  5
1691
330
1680
100
AcDbEntity
  8
0
  6
Continuous
 62
     7
100
AcDbLine
 10
10.11318626562524
 20
29.46918227648359
 30
0.0
 11
10.11318626562524
 21
28.6785390486836
 31
0.0
  0
LINE
  5
1692
330
1680
100
AcDbEntity
  8
0
  6
Continuous
 62
     7
100
AcDbLine
 10
10.11318626562524
 20
28.58013880015028
 30
0.0
 11
10.11318626562524
 21
28.03524118561694
 31
0.0
  0
LINE
  5
1693
330
1680
100
AcDbEntity
  8
0
  6
Continuous
 62
     7
100
AcDbLine
 10
10.11318626562524
 20
11.61166771095025
 30
0.0
 11
10.11318626562524
 21
11.06677009641692
 31
0.0
  0
LINE
  5
1694
330
1680
100
AcDbEntity
  8
0
  6
Continuous
 62
     7
100
AcDbLine
 10
10.11318626562524
 20
10.1777266200836
 30
0.0
 11
10.11318626562524
 21
10.96836984788359
 31
0.0
  0
LINE
  5
1695
330
1680
100
AcDbEntity
  8
0
  6
Continuous
 62
     7
100
AcDbLine
 10
10.71318626562515
 20
10.1777266200836
 30
0.0
 11
10.71318626562515
 21
10.96836984788359
 31
0.0
  0
LINE
  5
1696
330
1680
100
AcDbEntity
  8
0
  6
Continuous
 62
     7
100
AcDbLine
 10
10.71318626562515
 20
11.06677009641692
 30
0.0
 11
10.71318626562515
 21
11.61166771095025
 31
0.0
  0
LINE
  5
1697
330
1680
100
AcDbEntity
  8
0
  6
Continuous
 62
     7
100
AcDbLine
 10
10.71318626562515
 20
28.03524118561694
 30
0.0
 11
10.71318626562515
 21
28.58013880015028
 31
0.0
  0
LINE
  5
1698
330
1680
100
AcDbEntity
  8
0
  6
Continuous
 62
     7
100
AcDbLine
 10
10.71318626562515
 20
28.6785390486836
 30
0.0
 11
10.71318626562515
 21
29.46918227648359
 31
0.0
  0
LWPOLYLINE
  5
1699
330
1680
100
AcDbEntity
  8
0
  6
Continuous
 62
     7
100
AcDbPolyline
 90
        3
 70
     0
 43
0.0
 10
8.163188469091892
 20
28.79316752828362
 10
8.17583730295837
 20
28.9762081701503
 10
8.213186495224817
 20
29.17025986061691
  0
LWPOLYLINE
  5
169A
330
1680
100
AcDbEntity
  8
0
  6
Continuous
 62
     7
100
AcDbPolyline
 90
        3
 70
     0
 43
0.0
 10
8.163188469091892
 20
10.85374136828358
 10
8.175650471758217
 20
11.02190699701691
 10
8.213186521692023
 20
11.17666580955023
  0
LWPOLYLINE
  5
169B
330
1680
100
AcDbEntity
  8
0
  6
Continuous
 62
     7
100
AcDbPolyline
 90
        4
 70
     0
 43
0.0
 10
8.21318847575867
 20
29.17026347688358
 10
8.377277491491895
 20
29.35729460461693
 10
8.610037768691654
 20
29.51662803501694
 10
8.764919697225195
 20
29.58531678115026
  0
LINE
  5
169C
330
1680
100
AcDbEntity
  8
0
  6
Continuous
 62
     7
100
AcDbLine
 10
7.913186265624972
 20
30.52345381181692
 30
0.0
 11
8.213190692692023
 21
30.82345822101689
 31
0.0
  0
LINE
  5
169D
330
1680
100
AcDbEntity
  8
0
  6
Continuous
 62
     7
100
AcDbLine
 10
7.913186265624972
 20
9.123458754616933
 30
0.0
 11
8.213190692692023
 21
8.823454448283598
 31
0.0
  0
LWPOLYLINE
  5
169E
330
1680
100
AcDbEntity
  8
0
  6
Continuous
 62
     7
100
AcDbPolyline
 90
        3
 70
     0
 43
0.0
 10
8.213186301024961
 20
28.4702436676169
 10
8.175676291091804
 20
28.62482283895025
 10
8.163188469091892
 20
28.79316752828362
  0
LINE
  5
169F
330
1680
100
AcDbEntity
  8
0
  6
Continuous
 62
     7
100
AcDbLine
 10
11.66318626562497
 20
10.72262423461694
 30
0.0
 11
11.66318626562497
 21
11.06677009641692
 31
0.0
  0
LINE
  5
16A0
330
1680
100
AcDbEntity
  8
0
  6
Continuous
 62
     7
100
AcDbLine
 10
11.66318626562497
 20
28.58013880015028
 30
0.0
 11
11.66318626562497
 21
28.92428466195026
 31
0.0
  0
LWPOLYLINE
  5
16A1
330
1680
100
AcDbEntity
  8
0
  6
Continuous
 62
     7
100
AcDbPolyline
 90
        6
 70
     0
 43
0.0
 10
12.71318626562515
 20
10.8127819610836
 10
12.67443109789155
 20
10.5988917218836
 10
12.5559666740919
 20
10.39820804301695
 10
12.36716347122501
 20
10.22491104148361
 10
12.12976482955855
 20
10.08585990861689
 10
12.05166921982481
 20
10.05490441075022
  0
LWPOLYLINE
  5
16A2
330
1680
100
AcDbEntity
  8
0
  6
Continuous
 62
     7
100
AcDbPolyline
 90
        4
 70
     0
 43
0.0
 10
12.71318626562515
 20
28.8341269354836
 10
12.66649113462517
 20
28.58702137181694
 10
12.53107403609192
 20
28.3411981496169
 10
12.31666526162507
 20
28.10848064181693
  0
LINE
  5
16A3
330
1680
100
AcDbEntity
  8
0
  6
Continuous
 62
     7
100
AcDbLine
 10
12.31666526162507
 20
28.10848064181693
 30
0.0
 11
12.03189305542537
 21
27.89767473495027
 31
0.0
  0
LWPOLYLINE
  5
16A4
330
1680
100
AcDbEntity
  8
0
  6
Continuous
 62
     7
100
AcDbPolyline
 90
       21
 70
     0
 43
0.0
 10
12.01340827709191
 20
27.88626525815022
 10
12.17785728969193
 20
27.99867631768359
 10
12.31844215395858
 20
28.1212776510169
 10
12.43326170075852
 20
28.25241128548356
 10
12.52076319275829
 20
28.39030386348355
 10
12.57976332229191
 20
28.53309062461693
 10
12.60946421382505
 20
28.67884062275022
 10
12.60946421382505
 20
28.82558283928359
 10
12.57976332229191
 20
28.97133283748355
 10
12.52076319275829
 20
29.1141195985503
 10
12.43326170075852
 20
29.25201217661692
 10
12.31844215395858
 20
29.3831458110169
 10
12.17785728969193
 20
29.50574714435021
 10
12.01340827709191
 20
29.61815820388358
 10
11.82731900695853
 20
29.71885882295027
 10
11.62210601735842
 20
29.80648719828361
 10
11.40054446209205
 20
29.87985830655026
 10
11.16563058095835
 20
29.93797992935026
 10
10.92054118129181
 20
29.98006607141696
 10
10.66859067669202
 20
30.00554758995026
 10
10.41318626562497
 20
30.01407989101693
  0
LINE
  5
16A5
330
1680
100
AcDbEntity
  8
0
  6
Continuous
 62
     7
100
AcDbLine
 10
12.03189305542537
 20
27.89767473495027
 30
0.0
 11
11.97977812602539
 21
27.86622437968361
 31
0.0
  0
LINE
  5
16A6
330
1680
100
AcDbEntity
  8
0
  6
Continuous
 62
     7
100
AcDbLine
 10
11.98388822782499
 20
27.86866520768359
 30
0.0
 11
12.01340827709191
 21
27.88626525815022
 31
0.0
  0
LWPOLYLINE
  5
16A7
330
1680
100
AcDbEntity
  8
0
  6
Continuous
 62
     7
100
AcDbPolyline
 90
        4
 70
     0
 43
0.0
 10
8.769914140758373
 20
10.05817810475025
 10
8.601865428958717
 20
10.13479476535025
 10
8.377584375958576
 20
10.28934797315026
 10
8.213188470958357
 20
10.47664542421694
  0
LINE
  5
16A8
330
1680
100
AcDbEntity
  8
0
  6
Continuous
 62
     7
100
AcDbLine
 10
11.98388822782499
 20
11.7782436888836
 30
0.0
 11
11.82731900695853
 21
11.86134425741693
 31
0.0
  0
LINE
  5
16A9
330
1680
100
AcDbEntity
  8
0
  6
Continuous
 62
     7
100
AcDbLine
 10
12.01340827709191
 20
11.76064363841692
 30
0.0
 11
11.98388822782499
 21
11.7782436888836
 31
0.0
  0
LINE
  5
16AA
330
1680
100
AcDbEntity
  8
0
  6
Continuous
 62
     7
100
AcDbLine
 10
11.98019621955836
 20
11.78028050148356
 30
0.0
 11
12.0739060570254
 21
11.72254413188358
 31
0.0
  0
LWPOLYLINE
  5
16AB
330
1680
100
AcDbEntity
  8
0
  6
Continuous
 62
     7
100
AcDbPolyline
 90
        5
 70
     0
 43
0.0
 10
12.0739060570254
 20
11.72254413188358
 10
12.34085617735855
 20
11.51650455168357
 10
12.53970442229183
 20
11.29378797568358
 10
12.6674515269583
 20
11.05729195595023
 10
12.71318626562515
 20
10.8127819610836
  0
LWPOLYLINE
  5
16AC
330
1680
100
AcDbEntity
  8
0
  6
Continuous
 62
     7
100
AcDbPolyline
 90
        3
 70
     0
 43
0.0
 10
8.213188774424907
 20
11.17667091475027
 10
8.378099694958564
 20
11.40762558268358
 10
8.611091128691896
 20
11.62239074941692
  0
LINE
  5
16AD
330
1680
100
AcDbEntity
  8
0
  6
Continuous
 62
     7
100
AcDbLine
 10
11.82731900695853
 20
27.78556463915021
 30
0.0
 11
11.98388822782499
 21
27.86866520768359
 31
0.0
  0
LWPOLYLINE
  5
16AE
330
1680
100
AcDbEntity
  8
0
  6
Continuous
 62
     7
100
AcDbPolyline
 90
        8
 70
     0
 43
0.0
 10
11.97977812602539
 20
27.86622437968361
 10
11.68366860235846
 20
27.71753302475025
 10
11.26093544162495
 20
27.57328605748359
 10
10.77782911862505
 20
27.48484447441689
 10
10.27437961162513
 20
27.46812908748359
 10
9.778741541358158
 20
27.52504237128363
 10
9.329011910491772
 20
27.64532754215025
 10
8.951168479492025
 20
27.80833628295028
  0
LINE
  5
16AF
330
1680
100
AcDbEntity
  8
0
  6
Continuous
 62
     7
100
AcDbLine
 10
11.62210601735842
 20
27.69793626375025
 30
0.0
 11
11.82731900695853
 21
27.78556463915021
 31
0.0
  0
LWPOLYLINE
  5
16B0
330
1680
100
AcDbEntity
  8
0
  6
Continuous
 62
     7
100
AcDbPolyline
 90
        6
 70
     0
 43
0.0
 10
11.62210601735842
 20
11.94897263281694
 10
11.40054446209205
 20
12.0223437410836
 10
11.16563058095835
 20
12.0804653638836
 10
10.92054118129181
 20
12.12255150595024
 10
10.66859067669202
 20
12.14803302441692
 10
10.41318626562497
 20
12.1565653254836
  0
LINE
  5
16B1
330
1680
100
AcDbEntity
  8
0
  6
Continuous
 62
     7
100
AcDbLine
 10
11.82731900695853
 20
11.86134425741693
 30
0.0
 11
11.62210601735842
 21
11.94897263281694
 31
0.0
  0
LINE
  5
16B2
330
1680
100
AcDbEntity
  8
0
  6
Continuous
 62
     7
100
AcDbLine
 10
7.913185039758445
 20
9.023454759816956
 30
0.0
 11
7.713185951958166
 21
8.8234557004169
 31
0.0
  0
LWPOLYLINE
  5
16B3
330
1680
100
AcDbEntity
  8
0
  6
Continuous
 62
     7
100
AcDbPolyline
 90
       21
 70
     0
 43
0.0
 10
41.41318626562497
 20
9.632829005550263
 10
41.66859067669202
 20
9.641361306616943
 10
41.9205411812918
 20
9.66684282515024
 10
42.16563058095835
 20
9.708928967216934
 10
42.40054446209206
 20
9.767050590016935
 10
42.62210601735842
 20
9.840421698283591
 10
42.82731900695853
 20
9.92805007361693
 10
43.01340827709191
 20
10.02875069268361
 10
43.17785728969193
 20
10.14116175221693
 10
43.31844215395858
 20
10.26376308555024
 10
43.43326170075852
 20
10.39489671995028
 10
43.5207631927583
 20
10.53278929801695
 10
43.57976332229191
 20
10.67557605908359
 10
43.60946421382505
 20
10.82132605728361
 10
43.60946421382505
 20
10.96806827381692
 10
43.57976332229191
 20
11.11381827195026
 10
43.5207631927583
 20
11.25660503308359
 10
43.43326170075852
 20
11.39449761108358
 10
43.31844215395858
 20
11.5256312455503
 10
43.17785728969193
 20
11.64823257888361
 10
43.01340827709191
 20
11.76064363841692
  0
LWPOLYLINE
  5
16B4
330
1680
100
AcDbEntity
  8
0
  6
Continuous
 62
     7
100
AcDbPolyline
 90
       21
 70
     0
 43
0.0
 10
10.41318626562497
 20
9.632829005550263
 10
10.66859067669202
 20
9.641361306616943
 10
10.92054118129181
 20
9.66684282515024
 10
11.16563058095835
 20
9.708928967216934
 10
11.40054446209205
 20
9.767050590016935
 10
11.62210601735842
 20
9.840421698283591
 10
11.82731900695853
 20
9.92805007361693
 10
12.01340827709191
 20
10.02875069268361
 10
12.17785728969193
 20
10.14116175221693
 10
12.31844215395858
 20
10.26376308555024
 10
12.43326170075852
 20
10.39489671995028
 10
12.52076319275829
 20
10.53278929801695
 10
12.57976332229191
 20
10.67557605908359
 10
12.60946421382505
 20
10.82132605728361
 10
12.60946421382505
 20
10.96806827381692
 10
12.57976332229191
 20
11.11381827195026
 10
12.52076319275829
 20
11.25660503308359
 10
12.43326170075852
 20
11.39449761108358
 10
12.31844215395858
 20
11.5256312455503
 10
12.17785728969193
 20
11.64823257888361
 10
12.01340827709191
 20
11.76064363841692
  0
LINE
  5
16B5
330
1680
100
AcDbEntity
  8
02___PRT_ALL_AXES
  6
Continuous
 62
     7
100
AcDbLine
 10
49.21318626562515
 20
8.323454448283598
 30
0.0
 11
44.11318626562525
 21
8.323454448283598
 31
0.0
  0
LINE
  5
16B6
330
1680
100
AcDbEntity
  8
02___PRT_ALL_AXES
  6
Continuous
 62
     7
100
AcDbLine
 10
43.61319140775822
 20
8.823454448283598
 30
0.0
 11
8.213190692692023
 21
8.823454448283598
 31
0.0
  0
LINE
  5
16B7
330
1680
100
AcDbEntity
  8
02___PRT_ALL_AXES
  6
Continuous
 62
     7
100
AcDbLine
 10
5.113185653358414
 20
8.823454448283598
 30
0.0
 11
7.713187204091809
 21
8.823454448283598
 31
0.0
  0
LINE
  5
16B8
330
1680
100
AcDbEntity
  8
0
  6
Continuous
 62
     7
100
AcDbLine
 10
10.11318626562524
 20
10.1777266200836
 30
0.0
 11
10.71318626562515
 21
10.1777266200836
 31
0.0
  0
LINE
  5
16B9
330
1680
100
AcDbEntity
  8
0
  6
Continuous
 62
     7
100
AcDbLine
 10
41.11318626562524
 20
10.1777266200836
 30
0.0
 11
41.71318626562515
 21
10.1777266200836
 31
0.0
  0
LINE
  5
16BA
330
1680
100
AcDbEntity
  8
0
  6
Continuous
 62
     7
100
AcDbLine
 10
10.11318626562524
 20
10.42347223335025
 30
0.0
 11
10.71318626562515
 21
10.42347223335025
 31
0.0
  0
LINE
  5
16BB
330
1680
100
AcDbEntity
  8
0
  6
Continuous
 62
     7
100
AcDbLine
 10
41.11318626562524
 20
10.42347223335025
 30
0.0
 11
41.71318626562515
 21
10.42347223335025
 31
0.0
  0
LINE
  5
16BC
330
1680
100
AcDbEntity
  8
0
  6
Continuous
 62
     7
100
AcDbLine
 10
9.163186265624972
 20
10.72262423461694
 30
0.0
 11
10.11318626562524
 21
10.72262423461694
 31
0.0
  0
LINE
  5
16BD
330
1680
100
AcDbEntity
  8
0
  6
Continuous
 62
     7
100
AcDbLine
 10
10.71318626562515
 20
10.72262423461694
 30
0.0
 11
11.66318626562497
 21
10.72262423461694
 31
0.0
  0
LINE
  5
16BE
330
1680
100
AcDbEntity
  8
0
  6
Continuous
 62
     7
100
AcDbLine
 10
40.16318626562497
 20
10.72262423461694
 30
0.0
 11
41.11318626562524
 21
10.72262423461694
 31
0.0
  0
LINE
  5
16BF
330
1680
100
AcDbEntity
  8
0
  6
Continuous
 62
     7
100
AcDbLine
 10
41.71318626562515
 20
10.72262423461694
 30
0.0
 11
42.66318626562497
 21
10.72262423461694
 31
0.0
  0
LINE
  5
16C0
330
1680
100
AcDbEntity
  8
0
  6
Continuous
 62
     7
100
AcDbLine
 10
9.163186265624972
 20
10.96836984788359
 30
0.0
 11
10.11318626562524
 21
10.96836984788359
 31
0.0
  0
LINE
  5
16C1
330
1680
100
AcDbEntity
  8
0
  6
Continuous
 62
     7
100
AcDbLine
 10
10.71318626562515
 20
10.96836984788359
 30
0.0
 11
11.66318626562497
 21
10.96836984788359
 31
0.0
  0
LINE
  5
16C2
330
1680
100
AcDbEntity
  8
0
  6
Continuous
 62
     7
100
AcDbLine
 10
40.16318626562497
 20
10.96836984788359
 30
0.0
 11
41.11318626562524
 21
10.96836984788359
 31
0.0
  0
LINE
  5
16C3
330
1680
100
AcDbEntity
  8
0
  6
Continuous
 62
     7
100
AcDbLine
 10
41.71318626562515
 20
10.96836984788359
 30
0.0
 11
42.66318626562497
 21
10.96836984788359
 31
0.0
  0
LINE
  5
16C4
330
1680
100
AcDbEntity
  8
0
  6
Continuous
 62
     7
100
AcDbLine
 10
42.66318626562497
 20
11.06677009641692
 30
0.0
 11
41.71318626562515
 21
11.06677009641692
 31
0.0
  0
LINE
  5
16C5
330
1680
100
AcDbEntity
  8
0
  6
Continuous
 62
     7
100
AcDbLine
 10
41.11318626562524
 20
11.06677009641692
 30
0.0
 11
40.16318626562497
 21
11.06677009641692
 31
0.0
  0
LINE
  5
16C6
330
1680
100
AcDbEntity
  8
0
  6
Continuous
 62
     7
100
AcDbLine
 10
11.66318626562497
 20
11.06677009641692
 30
0.0
 11
10.71318626562515
 21
11.06677009641692
 31
0.0
  0
LINE
  5
16C7
330
1680
100
AcDbEntity
  8
0
  6
Continuous
 62
     7
100
AcDbLine
 10
10.11318626562524
 20
11.06677009641692
 30
0.0
 11
9.163186265624972
 21
11.06677009641692
 31
0.0
  0
LINE
  5
16C8
330
1680
100
AcDbEntity
  8
0
  6
Continuous
 62
     7
100
AcDbLine
 10
41.71318626562515
 20
11.61166771095025
 30
0.0
 11
41.11318626562524
 21
11.61166771095025
 31
0.0
  0
LINE
  5
16C9
330
1680
100
AcDbEntity
  8
0
  6
Continuous
 62
     7
100
AcDbLine
 10
10.71318626562515
 20
11.61166771095025
 30
0.0
 11
10.11318626562524
 21
11.61166771095025
 31
0.0
  0
LWPOLYLINE
  5
16CA
330
1680
100
AcDbEntity
  8
0
  6
Continuous
 62
     7
100
AcDbPolyline
 90
       21
 70
     0
 43
0.0
 10
10.41318626562497
 20
9.632829005550263
 10
10.15778185455838
 20
9.641361306616943
 10
9.905831350024982
 20
9.66684282515024
 10
9.660741950292049
 20
9.708928967216934
 10
9.42582806922519
 20
9.767050590016935
 10
9.20426651389198
 20
9.840421698283591
 10
8.999053524291866
 20
9.92805007361693
 10
8.812964254158487
 20
10.02875069268361
 10
8.64851524155847
 20
10.14116175221693
 10
8.507930377291813
 20
10.26376308555024
 10
8.393110830491878
 20
10.39489671995028
 10
8.305609338558497
 20
10.53278929801695
 10
8.246609209024882
 20
10.67557605908359
 10
8.21690831742535
 20
10.82132605728361
 10
8.21690831742535
 20
10.96806827381692
 10
8.246609209024882
 20
11.11381827195026
 10
8.305609338558497
 20
11.25660503308359
 10
8.393110830491878
 20
11.39449761108358
 10
8.507930377291813
 20
11.5256312455503
 10
8.64851524155847
 20
11.64823257888361
 10
8.812964254158487
 20
11.76064363841692
  0
LWPOLYLINE
  5
16CB
330
1680
100
AcDbEntity
  8
0
  6
Continuous
 62
     7
100
AcDbPolyline
 90
       10
 70
     0
 43
0.0
 10
41.41318626562497
 20
9.632829005550263
 10
41.15778185455837
 20
9.641361306616943
 10
40.90583135002498
 20
9.66684282515024
 10
40.66074195029204
 20
9.708928967216934
 10
40.42582806922519
 20
9.767050590016935
 10
40.20426651389198
 20
9.840421698283591
 10
39.99905352429187
 20
9.92805007361693
 10
39.81296425415849
 20
10.02875069268361
 10
39.64851524155847
 20
10.14116175221693
 10
39.50793037729182
 20
10.26376308555024
  0
LINE
  5
16CC
330
1680
100
AcDbEntity
  8
0
  6
Continuous
 62
     7
100
AcDbLine
 10
7.913185039758445
 20
30.62345413675024
 30
0.0
 11
7.713185951958166
 21
30.82345319615024
 31
0.0
  0
LINE
  5
16CD
330
1680
100
AcDbEntity
  8
0
  6
Continuous
 62
     7
100
AcDbLine
 10
8.611091128691896
 20
11.62239074941692
 30
0.0
 11
8.846855555958427
 21
11.78085906961695
 31
0.0
  0
LINE
  5
16CE
330
1680
100
AcDbEntity
  8
0
  6
Continuous
 62
     7
100
AcDbLine
 10
8.812964254158487
 20
11.76064363841692
 30
0.0
 11
8.842484303424953
 21
11.7782436888836
 31
0.0
  0
LWPOLYLINE
  5
16CF
330
1680
100
AcDbEntity
  8
0
  6
Continuous
 62
     7
100
AcDbPolyline
 90
       10
 70
     0
 43
0.0
 10
8.846855555958427
 20
11.78085906961695
 10
8.909865266558426
 20
11.81646682221691
 10
9.268224909958462
 20
11.9796173426169
 10
9.669420999091926
 20
12.09903001928359
 10
10.09046133275842
 20
12.16631348475022
 10
10.51934873755863
 20
12.17995032475028
 10
10.94555498662521
 20
12.13972932795025
 10
11.35820502309161
 20
12.04646390721694
 10
11.74243219462505
 20
11.90343902028354
 10
11.98019621955836
 20
11.78028050148356
  0
LINE
  5
16D0
330
1680
100
AcDbEntity
  8
0
  6
Continuous
 62
     7
100
AcDbLine
 10
42.40054446209206
 20
27.6245651554836
 30
0.0
 11
42.62210601735842
 21
27.69793626375025
 31
0.0
  0
LINE
  5
16D1
330
1680
100
AcDbEntity
  8
02___PRT_ALL_AXES
  6
Continuous
 62
     7
100
AcDbLine
 10
59.21318626562515
 20
12.8234544482836
 30
0.0
 11
49.41318626562497
 21
12.8234544482836
 31
0.0
  0
LINE
  5
16D2
330
1680
100
AcDbEntity
  8
0
  6
Continuous
 62
     7
100
AcDbLine
 10
75.81325582075852
 20
13.55505757315023
 30
0.0
 11
76.2641004612251
 21
13.55505757315023
 31
0.0
  0
LINE
  5
16D3
330
1680
100
AcDbEntity
  8
02___PRT_ALL_AXES
  6
Continuous
 62
     7
100
AcDbLine
 10
62.71318626562515
 20
15.3234544482836
 30
0.0
 11
59.61318626562524
 21
15.3234544482836
 31
0.0
  0
LINE
  5
16D4
330
1680
100
AcDbEntity
  8
02___PRT_ALL_AXES
  6
Continuous
 62
     7
100
AcDbLine
 10
64.84464883915871
 20
15.3234544482836
 30
0.0
 11
72.54464883915852
 21
15.3234544482836
 31
0.0
  0
LWPOLYLINE
  5
16D5
330
1680
100
AcDbEntity
  8
02___PRT_ALL_AXES
  6
Continuous
 62
     7
100
AcDbPolyline
 90
        6
 70
     0
 43
0.0
 10
39.77301669529197
 20
10.05605731708357
 10
39.64442661809199
 20
10.11192043455025
 10
39.4255164399583
 20
10.25008211135025
 10
39.2544540539584
 20
10.41807823615028
 10
39.14794905195822
 20
10.60985040681692
 10
39.11318626562525
 20
10.8127819610836
  0
LINE
  5
16D6
330
1680
100
AcDbEntity
  8
0
  6
Continuous
 62
     7
100
AcDbLine
 10
8.999053524291866
 20
27.78556463915021
 30
0.0
 11
8.842484303424953
 21
27.86866520768359
 31
0.0
  0
LINE
  5
16D7
330
1680
100
AcDbEntity
  8
0
  6
Continuous
 62
     7
100
AcDbLine
 10
8.951168479492025
 20
27.80833628295028
 30
0.0
 11
8.846290845491694
 21
27.86628302555028
 31
0.0
  0
LINE
  5
16D8
330
1680
100
AcDbEntity
  8
0
  6
Continuous
 62
     7
100
AcDbLine
 10
8.842484303424953
 20
27.86866520768359
 30
0.0
 11
8.812964254158487
 21
27.88626525815022
 31
0.0
  0
LWPOLYLINE
  5
16D9
330
1680
100
AcDbEntity
  8
0
  6
Continuous
 62
     7
100
AcDbPolyline
 90
        4
 70
     0
 43
0.0
 10
8.846290845491694
 20
27.86628302555028
 10
8.637064237225331
 20
28.0047897214169
 10
8.387900010158318
 20
28.22842845488361
 10
8.213186622558623
 20
28.47024295441696
  0
LWPOLYLINE
  5
16DA
330
1680
100
AcDbEntity
  8
0
  6
Continuous
 62
     7
100
AcDbPolyline
 90
       21
 70
     0
 43
0.0
 10
8.812964254158487
 20
27.88626525815022
 10
8.64851524155847
 20
27.99867631768359
 10
8.507930377291813
 20
28.1212776510169
 10
8.393110830491878
 20
28.25241128548356
 10
8.305609338558497
 20
28.39030386348355
 10
8.246609209024882
 20
28.53309062461693
 10
8.21690831742535
 20
28.67884062275022
 10
8.21690831742535
 20
28.82558283928359
 10
8.246609209024882
 20
28.97133283748355
 10
8.305609338558497
 20
29.1141195985503
 10
8.393110830491878
 20
29.25201217661692
 10
8.507930377291813
 20
29.3831458110169
 10
8.64851524155847
 20
29.50574714435021
 10
8.812964254158487
 20
29.61815820388358
 10
8.999053524291866
 20
29.71885882295027
 10
9.20426651389198
 20
29.80648719828361
 10
9.42582806922519
 20
29.87985830655026
 10
9.660741950292049
 20
29.93797992935026
 10
9.905831350024982
 20
29.98006607141696
 10
10.15778185455838
 20
30.00554758995026
 10
10.41318626562497
 20
30.01407989101693
  0
LWPOLYLINE
  5
16DB
330
1680
100
AcDbEntity
  8
0
  6
Continuous
 62
     7
100
AcDbPolyline
 90
       11
 70
     0
 43
0.0
 10
39.39311083049188
 20
29.25201217661692
 10
39.50793037729182
 20
29.3831458110169
 10
39.64851524155847
 20
29.50574714435021
 10
39.81296425415849
 20
29.61815820388358
 10
39.99905352429187
 20
29.71885882295027
 10
40.20426651389198
 20
29.80648719828361
 10
40.42582806922519
 20
29.87985830655026
 10
40.66074195029204
 20
29.93797992935026
 10
40.90583135002498
 20
29.98006607141696
 10
41.15778185455837
 20
30.00554758995026
 10
41.41318626562497
 20
30.01407989101693
  0
LINE
  5
16DC
330
1680
100
AcDbEntity
  8
0
  6
Continuous
 62
     7
100
AcDbLine
 10
43.91318702595845
 20
31.12345368788357
 30
0.0
 11
44.11318703935831
 21
31.3234536744169
 31
0.0
  0
LWPOLYLINE
  5
16DD
330
1680
100
AcDbEntity
  8
0
  6
Continuous
 62
     7
100
AcDbPolyline
 90
       21
 70
     0
 43
0.0
 10
43.01340827709191
 20
27.88626525815022
 10
43.17785728969193
 20
27.99867631768359
 10
43.31844215395858
 20
28.1212776510169
 10
43.43326170075852
 20
28.25241128548356
 10
43.5207631927583
 20
28.39030386348355
 10
43.57976332229191
 20
28.53309062461693
 10
43.60946421382505
 20
28.67884062275022
 10
43.60946421382505
 20
28.82558283928359
 10
43.57976332229191
 20
28.97133283748355
 10
43.5207631927583
 20
29.1141195985503
 10
43.43326170075852
 20
29.25201217661692
 10
43.31844215395858
 20
29.3831458110169
 10
43.17785728969193
 20
29.50574714435021
 10
43.01340827709191
 20
29.61815820388358
 10
42.82731900695853
 20
29.71885882295027
 10
42.62210601735842
 20
29.80648719828361
 10
42.40054446209206
 20
29.87985830655026
 10
42.16563058095835
 20
29.93797992935026
 10
41.9205411812918
 20
29.98006607141696
 10
41.66859067669202
 20
30.00554758995026
 10
41.41318626562497
 20
30.01407989101693
  0
LINE
  5
16DE
330
1680
100
AcDbEntity
  8
02___PRT_ALL_AXES
  6
Continuous
 62
     7
100
AcDbLine
 10
43.15921761275831
 20
27.98272772895024
 30
0.0
 11
42.98023344755847
 21
27.86655554935027
 31
0.0
  0
LINE
  5
16DF
330
1680
100
AcDbEntity
  8
0
  6
Continuous
 62
     7
100
AcDbLine
 10
42.98388822782499
 20
27.86866520768359
 30
0.0
 11
43.01340827709191
 21
27.88626525815022
 31
0.0
  0
LWPOLYLINE
  5
16E0
330
1680
100
AcDbEntity
  8
02___PRT_ALL_AXES
  6
Continuous
 62
     7
100
AcDbPolyline
 90
        9
 70
     0
 43
0.0
 10
42.98023344755847
 20
27.86655554935027
 10
42.80901453729166
 20
27.77486596028359
 10
42.39429650742522
 20
27.61138776188358
 10
41.928421784492
 20
27.50450175335027
 10
41.43819929842493
 20
27.46540149768362
 10
40.95061893615866
 20
27.49683860835029
 10
40.48882221582516
 20
27.59439606895029
 10
40.08916822289165
 20
27.74109663588359
 10
39.8460619485586
 20
27.86641231781692
  0
LINE
  5
16E1
330
1680
100
AcDbEntity
  8
0
  6
Continuous
 62
     7
100
AcDbLine
 10
8.842484303424953
 20
11.7782436888836
 30
0.0
 11
8.999053524291866
 21
11.86134425741693
 31
0.0
  0
LINE
  5
16E2
330
1680
100
AcDbEntity
  8
0
  6
Continuous
 62
     7
100
AcDbLine
 10
42.82731900695853
 20
27.78556463915021
 30
0.0
 11
42.98388822782499
 21
27.86866520768359
 31
0.0
  0
LINE
  5
16E3
330
1680
100
AcDbEntity
  8
0
  6
Continuous
 62
     7
100
AcDbLine
 10
42.62210601735842
 20
27.69793626375025
 30
0.0
 11
42.82731900695853
 21
27.78556463915021
 31
0.0
  0
LWPOLYLINE
  5
16E4
330
1680
100
AcDbEntity
  8
0
  6
Continuous
 62
     7
100
AcDbPolyline
 90
        7
 70
     0
 43
0.0
 10
8.999053524291866
 20
11.86134425741693
 10
9.20426651389198
 20
11.94897263281694
 10
9.42582806922519
 20
12.0223437410836
 10
9.660741950292049
 20
12.0804653638836
 10
9.905831350024982
 20
12.12255150595024
 10
10.15778185455838
 20
12.14803302441692
 10
10.41318626562497
 20
12.1565653254836
  0
LINE
  5
16E5
330
1680
100
AcDbEntity
  8
02___PRT_ALL_AXES
  6
Continuous
 62
     7
100
AcDbLine
 10
63.96318626562515
 20
17.3234544482836
 30
0.0
 11
62.91318626562542
 21
17.3234544482836
 31
0.0
  0
LINE
  5
16E6
330
1680
100
AcDbEntity
  8
0
  6
Continuous
 62
     7
100
AcDbLine
 10
63.96318626562515
 20
17.34845444828357
 30
0.0
 11
64.54464883915853
 21
17.34845444828357
 31
0.0
  0
LINE
  5
16E7
330
1680
100
AcDbEntity
  8
DEFAULT_1
  6
CENTER
 62
     7
100
AcDbLine
 10
-0.0000000000004547
 20
19.8234544482836
 30
0.0
 11
76.70446733482504
 21
19.8234544482836
 31
0.0
  0
LINE
  5
16E8
330
1680
100
AcDbEntity
  8
DEFAULT_1
  6
CENTER
 62
     7
100
AcDbLine
 10
78.11318626562524
 20
19.8234544482836
 30
0.0
 11
78.32265226969184
 21
19.8234544482836
 31
0.0
  0
LWPOLYLINE
  5
16E9
330
1680
100
AcDbEntity
  8
0
  6
Continuous
 62
     7
100
AcDbPolyline
 90
        3
 70
     0
 43
0.0
 10
9.42582806922519
 20
27.6245651554836
 10
9.20426651389198
 20
27.69793626375025
 10
8.999053524291866
 20
27.78556463915021
  0
LWPOLYLINE
  5
16EA
330
1680
100
AcDbEntity
  8
0
  6
Continuous
 62
     7
100
AcDbPolyline
 90
        7
 70
     0
 43
0.0
 10
42.82731900695853
 20
11.86134425741693
 10
42.62210601735842
 20
11.94897263281694
 10
42.40054446209206
 20
12.0223437410836
 10
42.16563058095835
 20
12.0804653638836
 10
41.9205411812918
 20
12.12255150595024
 10
41.66859067669202
 20
12.14803302441692
 10
41.41318626562497
 20
12.1565653254836
  0
LINE
  5
16EB
330
1680
100
AcDbEntity
  8
0
  6
Continuous
 62
     7
100
AcDbLine
 10
42.98388822782499
 20
11.7782436888836
 30
0.0
 11
42.82731900695853
 21
11.86134425741693
 31
0.0
  0
LINE
  5
16EC
330
1680
100
AcDbEntity
  8
0
  6
Continuous
 62
     7
100
AcDbLine
 10
43.01340827709191
 20
11.76064363841692
 30
0.0
 11
42.98388822782499
 21
11.7782436888836
 31
0.0
  0
LWPOLYLINE
  5
16ED
330
1680
100
AcDbEntity
  8
02___PRT_ALL_AXES
  6
Continuous
 62
     7
100
AcDbPolyline
 90
        4
 70
     0
 43
0.0
 10
42.97853385902499
 20
11.78138856748359
 10
43.24902805335841
 20
11.59573806175029
 10
43.46120142175869
 20
11.39296609455027
 10
43.61319140775822
 20
11.17665563381689
  0
LINE
  5
16EE
330
1680
100
AcDbEntity
  8
0
  6
Continuous
 62
     7
100
AcDbLine
 10
43.91318702589205
 20
8.523455208683571
 30
0.0
 11
44.11318703935831
 21
8.323455222150244
 31
0.0
  0
LWPOLYLINE
  5
16EF
330
1680
100
AcDbEntity
  8
0
  6
Continuous
 62
     7
100
AcDbPolyline
 90
       12
 70
     0
 43
0.0
 10
39.50793037729182
 20
10.26376308555024
 10
39.39311083049188
 20
10.39489671995028
 10
39.3056093385585
 20
10.53278929801695
 10
39.24660920902488
 20
10.67557605908359
 10
39.21690831742535
 20
10.82132605728361
 10
39.21690831742535
 20
10.96806827381692
 10
39.24660920902488
 20
11.11381827195026
 10
39.3056093385585
 20
11.25660503308359
 10
39.39311083049188
 20
11.39449761108358
 10
39.50793037729182
 20
11.5256312455503
 10
39.64851524155847
 20
11.64823257888361
 10
39.81296425415849
 20
11.76064363841692
  0
LWPOLYLINE
  5
16F0
330
1680
100
AcDbEntity
  8
02___PRT_ALL_AXES
  6
Continuous
 62
     7
100
AcDbPolyline
 90
        6
 70
     0
 43
0.0
 10
39.11318626562525
 20
28.8341269354836
 10
39.16044855149176
 20
29.06949238961693
 10
39.29227063082499
 20
29.27403493368359
 10
39.49641674062514
 20
29.44784101315025
 10
39.76867322069166
 20
29.59390772641695
 10
39.78672640802506
 20
29.60022301515028
  0
LINE
  5
16F1
330
1680
100
AcDbEntity
  8
02___PRT_ALL_AXES
  6
Continuous
 62
     7
100
AcDbLine
 10
43.61319140775822
 20
28.47025326275025
 30
0.0
 11
43.43241391342508
 21
28.22182367648361
 31
0.0
  0
LINE
  5
16F2
330
1680
100
AcDbEntity
  8
02___PRT_ALL_AXES
  6
Continuous
 62
     7
100
AcDbLine
 10
43.43241391342508
 20
28.22182367648361
 30
0.0
 11
43.15921761275831
 21
27.98272772895024
 31
0.0
  0
LINE
  5
16F3
330
1680
100
AcDbEntity
  8
0
  6
Continuous
 62
     7
100
AcDbLine
 10
63.96318626562515
 20
22.29845444828356
 30
0.0
 11
64.54464883915853
 21
22.29845444828356
 31
0.0
  0
LINE
  5
16F4
330
1680
100
AcDbEntity
  8
02___PRT_ALL_AXES
  6
Continuous
 62
     7
100
AcDbLine
 10
63.96318626562515
 20
22.3234544482836
 30
0.0
 11
62.91318626562542
 21
22.3234544482836
 31
0.0
  0
LINE
  5
16F5
330
1680
100
AcDbEntity
  8
02___PRT_ALL_AXES
  6
Continuous
 62
     7
100
AcDbLine
 10
62.71318626562515
 20
24.3234544482836
 30
0.0
 11
59.61318626562524
 21
24.3234544482836
 31
0.0
  0
LINE
  5
16F6
330
1680
100
AcDbEntity
  8
02___PRT_ALL_AXES
  6
Continuous
 62
     7
100
AcDbLine
 10
64.84464883915871
 20
24.3234544482836
 30
0.0
 11
72.54464883915852
 21
24.3234544482836
 31
0.0
  0
LWPOLYLINE
  5
16F7
330
1680
100
AcDbEntity
  8
0
  6
Continuous
 62
     7
100
AcDbPolyline
 90
        6
 70
     0
 43
0.0
 10
12.04259319489165
 20
29.59820850961688
 10
12.07146388182491
 20
29.58788928708356
 10
12.3382100314252
 20
29.44227035141694
 10
12.53790027635841
 20
29.26977614608359
 10
12.66688022749167
 20
29.06718919615025
 10
12.71318626562515
 20
28.8341269354836
  0
LINE
  5
16F8
330
1680
100
AcDbEntity
  8
0
  6
Continuous
 62
     7
100
AcDbLine
 10
40.16318626562497
 20
28.92428466195026
 30
0.0
 11
40.16318626562497
 21
28.58013880015028
 31
0.0
  0
LINE
  5
16F9
330
1680
100
AcDbEntity
  8
0
  6
Continuous
 62
     7
100
AcDbLine
 10
40.16318626562497
 20
11.06677009641692
 30
0.0
 11
40.16318626562497
 21
10.72262423461694
 31
0.0
  0
LINE
  5
16FA
330
1680
100
AcDbEntity
  8
0
  6
Continuous
 62
     7
100
AcDbLine
 10
41.11318626562524
 20
29.46918227648359
 30
0.0
 11
41.11318626562524
 21
28.6785390486836
 31
0.0
  0
LINE
  5
16FB
330
1680
100
AcDbEntity
  8
0
  6
Continuous
 62
     7
100
AcDbLine
 10
41.11318626562524
 20
28.58013880015028
 30
0.0
 11
41.11318626562524
 21
28.03524118561694
 31
0.0
  0
LINE
  5
16FC
330
1680
100
AcDbEntity
  8
0
  6
Continuous
 62
     7
100
AcDbLine
 10
41.11318626562524
 20
11.61166771095025
 30
0.0
 11
41.11318626562524
 21
11.06677009641692
 31
0.0
  0
LINE
  5
16FD
330
1680
100
AcDbEntity
  8
0
  6
Continuous
 62
     7
100
AcDbLine
 10
41.11318626562524
 20
10.1777266200836
 30
0.0
 11
41.11318626562524
 21
10.96836984788359
 31
0.0
  0
LINE
  5
16FE
330
1680
100
AcDbEntity
  8
0
  6
Continuous
 62
     7
100
AcDbLine
 10
41.71318626562515
 20
10.1777266200836
 30
0.0
 11
41.71318626562515
 21
10.96836984788359
 31
0.0
  0
LINE
  5
16FF
330
1680
100
AcDbEntity
  8
0
  6
Continuous
 62
     7
100
AcDbLine
 10
41.71318626562515
 20
11.06677009641692
 30
0.0
 11
41.71318626562515
 21
11.61166771095025
 31
0.0
  0
LINE
  5
1700
330
1680
100
AcDbEntity
  8
0
  6
Continuous
 62
     7
100
AcDbLine
 10
41.71318626562515
 20
28.03524118561694
 30
0.0
 11
41.71318626562515
 21
28.58013880015028
 31
0.0
  0
LINE
  5
1701
330
1680
100
AcDbEntity
  8
0
  6
Continuous
 62
     7
100
AcDbLine
 10
41.71318626562515
 20
28.6785390486836
 30
0.0
 11
41.71318626562515
 21
29.46918227648359
 31
0.0
  0
LWPOLYLINE
  5
1702
330
1680
100
AcDbEntity
  8
02___PRT_ALL_AXES
  6
Continuous
 62
     7
100
AcDbPolyline
 90
        4
 70
     0
 43
0.0
 10
39.11318626562525
 20
10.8127819610836
 10
39.16499459789202
 20
11.07328668095027
 10
39.30931667415871
 20
11.32446876541689
 10
39.53384360609152
 20
11.55951985668361
  0
LWPOLYLINE
  5
1703
330
1680
100
AcDbEntity
  8
0
  6
Continuous
 62
     7
100
AcDbPolyline
 90
        5
 70
     0
 43
0.0
 10
41.41318626562497
 20
27.49034357108354
 10
41.66859067669202
 20
27.49887587215023
 10
41.9205411812918
 20
27.5243573906169
 10
42.16563058095835
 20
27.56644353268359
 10
42.40054446209206
 20
27.6245651554836
  0
LWPOLYLINE
  5
1704
330
1680
100
AcDbEntity
  8
0
  6
Continuous
 62
     7
100
AcDbPolyline
 90
        6
 70
     0
 43
0.0
 10
10.41318626562497
 20
27.49034357108354
 10
10.66859067669202
 20
27.49887587215023
 10
10.92054118129181
 20
27.5243573906169
 10
11.16563058095835
 20
27.56644353268359
 10
11.40054446209205
 20
27.6245651554836
 10
11.62210601735842
 20
27.69793626375025
  0
LINE
  5
1705
330
1680
100
AcDbEntity
  8
0
  6
Continuous
 62
     7
100
AcDbLine
 10
75.81325582075852
 20
26.09185132341691
 30
0.0
 11
76.2641004612251
 21
26.09185132341691
 31
0.0
  0
LINE
  5
1706
330
1680
100
AcDbEntity
  8
02___PRT_ALL_AXES
  6
Continuous
 62
     7
100
AcDbLine
 10
59.21318626562515
 20
26.8234544482836
 30
0.0
 11
49.41318626562497
 21
26.8234544482836
 31
0.0
  0
LINE
  5
1707
330
1680
100
AcDbEntity
  8
0
  6
Continuous
 62
     7
100
AcDbLine
 10
10.11318626562524
 20
28.03524118561694
 30
0.0
 11
10.71318626562515
 21
28.03524118561694
 31
0.0
  0
LINE
  5
1708
330
1680
100
AcDbEntity
  8
0
  6
Continuous
 62
     7
100
AcDbLine
 10
41.11318626562524
 20
28.03524118561694
 30
0.0
 11
41.71318626562515
 21
28.03524118561694
 31
0.0
  0
LINE
  5
1709
330
1680
100
AcDbEntity
  8
0
  6
Continuous
 62
     7
100
AcDbLine
 10
9.163186265624972
 20
28.58013880015028
 30
0.0
 11
10.11318626562524
 21
28.58013880015028
 31
0.0
  0
LINE
  5
170A
330
1680
100
AcDbEntity
  8
0
  6
Continuous
 62
     7
100
AcDbLine
 10
10.71318626562515
 20
28.58013880015028
 30
0.0
 11
11.66318626562497
 21
28.58013880015028
 31
0.0
  0
LINE
  5
170B
330
1680
100
AcDbEntity
  8
0
  6
Continuous
 62
     7
100
AcDbLine
 10
40.16318626562497
 20
28.58013880015028
 30
0.0
 11
41.11318626562524
 21
28.58013880015028
 31
0.0
  0
LINE
  5
170C
330
1680
100
AcDbEntity
  8
0
  6
Continuous
 62
     7
100
AcDbLine
 10
41.71318626562515
 20
28.58013880015028
 30
0.0
 11
42.66318626562497
 21
28.58013880015028
 31
0.0
  0
LINE
  5
170D
330
1680
100
AcDbEntity
  8
0
  6
Continuous
 62
     7
100
AcDbLine
 10
42.66318626562497
 20
28.6785390486836
 30
0.0
 11
41.71318626562515
 21
28.6785390486836
 31
0.0
  0
LINE
  5
170E
330
1680
100
AcDbEntity
  8
0
  6
Continuous
 62
     7
100
AcDbLine
 10
41.11318626562524
 20
28.6785390486836
 30
0.0
 11
40.16318626562497
 21
28.6785390486836
 31
0.0
  0
LINE
  5
170F
330
1680
100
AcDbEntity
  8
0
  6
Continuous
 62
     7
100
AcDbLine
 10
11.66318626562497
 20
28.6785390486836
 30
0.0
 11
10.71318626562515
 21
28.6785390486836
 31
0.0
  0
LINE
  5
1710
330
1680
100
AcDbEntity
  8
0
  6
Continuous
 62
     7
100
AcDbLine
 10
10.11318626562524
 20
28.6785390486836
 30
0.0
 11
9.163186265624972
 21
28.6785390486836
 31
0.0
  0
LINE
  5
1711
330
1680
100
AcDbEntity
  8
0
  6
Continuous
 62
     7
100
AcDbLine
 10
42.66318626562497
 20
28.92428466195026
 30
0.0
 11
41.71318626562515
 21
28.92428466195026
 31
0.0
  0
LINE
  5
1712
330
1680
100
AcDbEntity
  8
0
  6
Continuous
 62
     7
100
AcDbLine
 10
41.11318626562524
 20
28.92428466195026
 30
0.0
 11
40.16318626562497
 21
28.92428466195026
 31
0.0
  0
LINE
  5
1713
330
1680
100
AcDbEntity
  8
0
  6
Continuous
 62
     7
100
AcDbLine
 10
11.66318626562497
 20
28.92428466195026
 30
0.0
 11
10.71318626562515
 21
28.92428466195026
 31
0.0
  0
LINE
  5
1714
330
1680
100
AcDbEntity
  8
0
  6
Continuous
 62
     7
100
AcDbLine
 10
10.11318626562524
 20
28.92428466195026
 30
0.0
 11
9.163186265624972
 21
28.92428466195026
 31
0.0
  0
LINE
  5
1715
330
1680
100
AcDbEntity
  8
0
  6
Continuous
 62
     7
100
AcDbLine
 10
41.71318626562515
 20
29.22343666321694
 30
0.0
 11
41.11318626562524
 21
29.22343666321694
 31
0.0
  0
LINE
  5
1716
330
1680
100
AcDbEntity
  8
0
  6
Continuous
 62
     7
100
AcDbLine
 10
10.71318626562515
 20
29.22343666321694
 30
0.0
 11
10.11318626562524
 21
29.22343666321694
 31
0.0
  0
LINE
  5
1717
330
1680
100
AcDbEntity
  8
0
  6
Continuous
 62
     7
100
AcDbLine
 10
41.71318626562515
 20
29.46918227648359
 30
0.0
 11
41.11318626562524
 21
29.46918227648359
 31
0.0
  0
LINE
  5
1718
330
1680
100
AcDbEntity
  8
0
  6
Continuous
 62
     7
100
AcDbLine
 10
10.71318626562515
 20
29.46918227648359
 30
0.0
 11
10.11318626562524
 21
29.46918227648359
 31
0.0
  0
LWPOLYLINE
  5
1719
330
1680
100
AcDbEntity
  8
0
  6
Continuous
 62
     7
100
AcDbPolyline
 90
        5
 70
     0
 43
0.0
 10
10.41318626562497
 20
27.49034357108354
 10
10.15778185455838
 20
27.49887587215023
 10
9.905831350024982
 20
27.5243573906169
 10
9.660741950292049
 20
27.56644353268359
 10
9.42582806922519
 20
27.6245651554836
  0
LWPOLYLINE
  5
171A
330
1680
100
AcDbEntity
  8
0
  6
Continuous
 62
     7
100
AcDbPolyline
 90
        5
 70
     0
 43
0.0
 10
41.41318626562497
 20
27.49034357108354
 10
41.15778185455837
 20
27.49887587215023
 10
40.90583135002498
 20
27.5243573906169
 10
40.66074195029204
 20
27.56644353268359
 10
40.42582806922519
 20
27.6245651554836
  0
LINE
  5
171B
330
1680
100
AcDbEntity
  8
0
  6
Continuous
 62
     7
100
AcDbLine
 10
59.41318652195832
 20
15.43892494615028
 30
0.0
 11
59.61318652869204
 21
15.32345490395028
 31
0.0
  0
LWPOLYLINE
  5
171C
330
1680
100
AcDbEntity
  8
02___PRT_ALL_AXES
  6
Continuous
 62
     7
100
AcDbPolyline
 90
        3
 70
     0
 43
0.0
 10
43.61319140775822
 20
11.17665563381689
 10
43.65074690562505
 20
11.02177461821696
 10
43.66318882502537
 20
10.85373746681693
  0
LINE
  5
171D
330
1680
100
AcDbEntity
  8
0
  6
Continuous
 62
     7
100
AcDbLine
 10
42.66318626562497
 20
10.72262423461694
 30
0.0
 11
42.66318626562497
 21
11.06677009641692
 31
0.0
  0
LINE
  5
171E
330
1680
100
AcDbEntity
  8
0
  6
Continuous
 62
     7
100
AcDbLine
 10
42.66318626562497
 20
28.58013880015028
 30
0.0
 11
42.66318626562497
 21
28.92428466195026
 31
0.0
  0
LINE
  5
171F
330
1680
100
AcDbEntity
  8
02___PRT_ALL_AXES
  6
Continuous
 62
     7
100
AcDbLine
 10
43.61319140775822
 20
28.47025326275025
 30
0.0
 11
43.61319140775822
 21
11.17665563381689
 31
0.0
  0
LINE
  5
1720
330
1680
100
AcDbEntity
  8
02___PRT_ALL_AXES
  6
Continuous
 62
     7
100
AcDbLine
 10
43.61319140775822
 20
30.8234544482836
 30
0.0
 11
43.61319140775822
 21
29.17025099088363
 31
0.0
  0
LINE
  5
1721
330
1680
100
AcDbEntity
  8
02___PRT_ALL_AXES
  6
Continuous
 62
     7
100
AcDbLine
 10
43.61319140775822
 20
10.47665790568356
 30
0.0
 11
43.61319140775822
 21
8.823454448283598
 31
0.0
  0
LINE
  5
1722
330
1680
100
AcDbEntity
  8
0
  6
Continuous
 62
     7
100
AcDbLine
 10
43.91318626562497
 20
31.12345444828361
 30
0.0
 11
43.91318626562497
 21
8.523454448283587
 31
0.0
  0
LINE
  5
1723
330
1680
100
AcDbEntity
  8
0
  6
Continuous
 62
     7
100
AcDbLine
 10
44.11318626562525
 20
31.3234544482836
 30
0.0
 11
44.11318626562525
 21
8.323454448283598
 31
0.0
  0
LWPOLYLINE
  5
1724
330
1680
100
AcDbEntity
  8
02___PRT_ALL_AXES
  6
Continuous
 62
     7
100
AcDbPolyline
 90
        3
 70
     0
 43
0.0
 10
43.66318882502537
 20
10.85373746681693
 10
43.6507402092252
 20
10.67220416781691
 10
43.61319140775822
 20
10.47665790568356
  0
LWPOLYLINE
  5
1725
330
1680
100
AcDbEntity
  8
02___PRT_ALL_AXES
  6
Continuous
 62
     7
100
AcDbPolyline
 90
        3
 70
     0
 43
0.0
 10
43.66318882502537
 20
28.79317142975026
 10
43.65074688849154
 20
28.62513416755025
 10
43.61319140775822
 20
28.47025326275025
  0
LINE
  5
1726
330
1680
100
AcDbEntity
  8
02___PRT_ALL_AXES
  6
Continuous
 62
     7
100
AcDbLine
 10
39.53384360609152
 20
11.55951985668361
 30
0.0
 11
39.8475691519584
 21
11.78118883388356
 31
0.0
  0
LINE
  5
1727
330
1680
100
AcDbEntity
  8
0
  6
Continuous
 62
     7
100
AcDbLine
 10
39.81296425415849
 20
11.76064363841692
 30
0.0
 11
39.84248430342495
 21
11.7782436888836
 31
0.0
  0
LINE
  5
1728
330
1680
100
AcDbEntity
  8
0
  6
Continuous
 62
     7
100
AcDbLine
 10
59.41318652195832
 20
24.20798395041692
 30
0.0
 11
59.61318652869204
 21
24.32345399261692
 31
0.0
  0
LINE
  5
1729
330
1680
100
AcDbEntity
  8
0
  6
Continuous
 62
     7
100
AcDbLine
 10
64.54464808415832
 20
24.15025067495026
 30
0.0
 11
64.84464805395828
 21
24.32345580808357
 31
0.0
  0
LINE
  5
172A
330
1680
100
AcDbEntity
  8
0
  6
Continuous
 62
     7
100
AcDbLine
 10
39.84248430342495
 20
11.7782436888836
 30
0.0
 11
39.99905352429187
 21
11.86134425741693
 31
0.0
  0
LWPOLYLINE
  5
172B
330
1680
100
AcDbEntity
  8
02___PRT_ALL_AXES
  6
Continuous
 62
     7
100
AcDbPolyline
 90
        9
 70
     0
 43
0.0
 10
39.8475691519584
 20
11.78118883388356
 10
40.20635389162499
 20
11.95570138255021
 10
40.63169842215848
 20
12.09023600781694
 10
41.0822266723585
 20
12.16552035155024
 10
41.53168914069192
 20
12.17954458795026
 10
41.95729988995845
 20
12.13784087781692
 10
42.34391442109199
 20
12.05066546201692
 10
42.686284191092
 20
11.92825538915025
 10
42.97853385902499
 20
11.78138856748359
  0
LWPOLYLINE
  5
172C
330
1680
100
AcDbEntity
  8
0
  6
Continuous
 62
     7
100
AcDbPolyline
 90
        7
 70
     0
 43
0.0
 10
39.99905352429187
 20
11.86134425741693
 10
40.20426651389198
 20
11.94897263281694
 10
40.42582806922519
 20
12.0223437410836
 10
40.66074195029204
 20
12.0804653638836
 10
40.90583135002498
 20
12.12255150595024
 10
41.15778185455837
 20
12.14803302441692
 10
41.41318626562497
 20
12.1565653254836
  0
LINE
  5
172D
330
1680
100
AcDbEntity
  8
02___PRT_ALL_AXES
  6
Continuous
 62
     7
100
AcDbLine
 10
73.77248473789177
 20
25.30813938808359
 30
0.0
 11
72.54464883915852
 21
24.79955310641691
 31
0.0
  0
LINE
  5
172E
330
1680
100
AcDbEntity
  8
0
  6
Continuous
 62
     7
100
AcDbLine
 10
72.54464883915852
 20
24.79955310641691
 30
0.0
 11
76.2275286377585
 21
26.32505186761688
 31
0.0
  0
LINE
  5
172F
330
1680
100
AcDbEntity
  8
0
  6
Continuous
 62
     7
100
AcDbLine
 10
76.70446733482504
 20
24.08722389368359
 30
0.0
 11
76.69626779875852
 21
24.08382753468362
 31
0.0
  0
LINE
  5
1730
330
1680
100
AcDbEntity
  8
0
  6
Continuous
 62
     7
100
AcDbLine
 10
75.81325582075852
 20
26.09185132341691
 30
0.0
 11
73.77248473789177
 21
25.25476281128357
 31
0.0
  0
LINE
  5
1731
330
1680
100
AcDbEntity
  8
02___PRT_ALL_AXES
  6
Continuous
 62
     7
100
AcDbLine
 10
43.61319140775822
 20
30.8234544482836
 30
0.0
 11
8.213190692692023
 21
30.8234544482836
 31
0.0
  0
LINE
  5
1732
330
1680
100
AcDbEntity
  8
02___PRT_ALL_AXES
  6
Continuous
 62
     7
100
AcDbLine
 10
5.113185653358414
 20
30.8234544482836
 30
0.0
 11
7.713187204091809
 21
30.8234544482836
 31
0.0
  0
LINE
  5
1733
330
1680
100
AcDbEntity
  8
02___PRT_ALL_AXES
  6
Continuous
 62
     7
100
AcDbLine
 10
49.21318626562515
 20
31.3234544482836
 30
0.0
 11
44.11318626562525
 21
31.3234544482836
 31
0.0
  0
LINE
  5
1734
330
1680
100
AcDbEntity
  8
0
  6
Continuous
 62
     7
100
AcDbLine
 10
40.42582806922519
 20
27.6245651554836
 30
0.0
 11
40.20426651389198
 21
27.69793626375025
 31
0.0
  0
LWPOLYLINE
  5
1735
330
1680
100
AcDbEntity
  8
02___PRT_ALL_AXES
  6
Continuous
 62
     7
100
AcDbPolyline
 90
        5
 70
     0
 43
0.0
 10
43.03860304122508
 20
29.60093602615024
 10
43.05660348575838
 20
29.59438191215026
 10
43.28751771022507
 20
29.47515727575023
 10
43.4760371846919
 20
29.33306799728359
 10
43.61319140775822
 20
29.17025099088363
  0
LINE
  5
1736
330
1680
100
AcDbEntity
  8
0
  6
Continuous
 62
     7
100
AcDbLine
 10
75.81325582075852
 20
13.55505757315023
 30
0.0
 11
73.77248473789177
 21
14.39214608528363
 31
0.0
  0
LINE
  5
1737
330
1680
100
AcDbEntity
  8
02___PRT_ALL_AXES
  6
Continuous
 62
     7
100
AcDbLine
 10
73.77248473789177
 20
14.33876950848361
 30
0.0
 11
72.54464883915852
 21
14.84735579015023
 31
0.0
  0
LINE
  5
1738
330
1680
100
AcDbEntity
  8
0
  6
Continuous
 62
     7
100
AcDbLine
 10
76.2275286377585
 20
13.32185702895026
 30
0.0
 11
72.54464883915852
 21
14.84735579015023
 31
0.0
  0
LINE
  5
1739
330
1680
100
AcDbEntity
  8
0
  6
Continuous
 62
     7
100
AcDbLine
 10
76.69626779875852
 20
15.56308136188357
 30
0.0
 11
76.70446733482504
 21
15.55968500288355
 31
0.0
  0
LINE
  5
173A
330
1680
100
AcDbEntity
  8
0
  6
Continuous
 62
     7
100
AcDbLine
 10
40.20426651389198
 20
27.69793626375025
 30
0.0
 11
39.99905352429187
 21
27.78556463915021
 31
0.0
  0
LINE
  5
173B
330
1680
100
AcDbEntity
  8
0
  6
Continuous
 62
     7
100
AcDbLine
 10
39.99905352429187
 20
27.78556463915021
 30
0.0
 11
39.84248430342495
 21
27.86866520768359
 31
0.0
  0
LINE
  5
173C
330
1680
100
AcDbEntity
  8
0
  6
Continuous
 62
     7
100
AcDbLine
 10
64.54464808409193
 20
15.49665822161688
 30
0.0
 11
64.84464805382504
 21
15.32345308855025
 31
0.0
  0
LINE
  5
173D
330
1680
100
AcDbEntity
  8
0
  6
Continuous
 62
     7
100
AcDbLine
 10
39.84248430342495
 20
27.86866520768359
 30
0.0
 11
39.81296425415849
 21
27.88626525815022
 31
0.0
  0
LINE
  5
173E
330
1680
100
AcDbEntity
  8
02___PRT_ALL_AXES
  6
Continuous
 62
     7
100
AcDbLine
 10
39.8460619485586
 20
27.86641231781692
 30
0.0
 11
39.75954476629204
 21
27.91977853595023
 31
0.0
  0
LWPOLYLINE
  5
173F
330
1680
100
AcDbEntity
  8
0
  6
Continuous
 62
     7
100
AcDbPolyline
 90
       11
 70
     0
 43
0.0
 10
39.81296425415849
 20
27.88626525815022
 10
39.64851524155847
 20
27.99867631768359
 10
39.50793037729182
 20
28.1212776510169
 10
39.39311083049188
 20
28.25241128548356
 10
39.3056093385585
 20
28.39030386348355
 10
39.24660920902488
 20
28.53309062461693
 10
39.21690831742535
 20
28.67884062275022
 10
39.21690831742535
 20
28.82558283928359
 10
39.24660920902488
 20
28.97133283748355
 10
39.3056093385585
 20
29.1141195985503
 10
39.39311083049188
 20
29.25201217661692
  0
LWPOLYLINE
  5
1740
330
1680
100
AcDbEntity
  8
02___PRT_ALL_AXES
  6
Continuous
 62
     7
100
AcDbPolyline
 90
        5
 70
     0
 43
0.0
 10
39.75954476629204
 20
27.91977853595023
 10
39.48865860949172
 20
28.12750994781692
 10
39.28553069702502
 20
28.35471486661692
 10
39.15730953762523
 20
28.59403280715026
 10
39.11318626562525
 20
28.8341269354836
  0
LWPOLYLINE
  5
1741
330
1680
100
AcDbEntity
  8
02___PRT_ALL_AXES
  6
Continuous
 62
     7
100
AcDbPolyline
 90
        3
 70
     0
 43
0.0
 10
43.61319140775822
 20
29.17025099088363
 10
43.65074019022495
 20
28.97470487241691
 10
43.66318882502537
 20
28.79317142975026
  0
LINE
  5
1742
330
1680
100
AcDbEntity
  8
0
  6
Continuous
 62
     7
100
AcDbLine
 10
49.21318626562515
 20
31.3234544482836
 30
0.0
 11
49.21318626562515
 21
8.323454448283598
 31
0.0
  0
LINE
  5
1743
330
1680
100
AcDbEntity
  8
0
  6
Continuous
 62
     7
100
AcDbLine
 10
49.41318626562497
 20
31.12345444828361
 30
0.0
 11
49.41318626562497
 21
8.523454448283587
 31
0.0
  0
LWPOLYLINE
  5
1744
330
1680
100
AcDbEntity
  8
02___PRT_ALL_AXES
  6
Continuous
 62
     7
100
AcDbPolyline
 90
        4
 70
     0
 43
0.0
 10
43.61319140775822
 20
10.47665790568356
 10
43.43828767595868
 20
10.28035732901691
 10
43.17980454762483
 20
10.11080966541692
 10
43.06335927129157
 20
10.0628952830836
  0
LINE
  5
1745
330
1680
100
AcDbEntity
  8
0
  6
Continuous
 62
     7
100
AcDbLine
 10
43.91318877169169
 20
9.123451952416928
 30
0.0
 11
43.61319140775822
 21
8.823454448283598
 31
0.0
  0
LINE
  5
1746
330
1680
100
AcDbEntity
  8
0
  6
Continuous
 62
     7
100
AcDbLine
 10
43.91318877169169
 20
30.52345694415027
 30
0.0
 11
43.61319140775822
 21
30.8234544482836
 31
0.0
  0
LINE
  5
1747
330
1680
100
AcDbEntity
  8
0
  6
Continuous
 62
     7
100
AcDbLine
 10
49.41318538062524
 20
8.523455333483582
 30
0.0
 11
49.21318536495846
 21
8.323455349150265
 31
0.0
  0
LINE
  5
1748
330
1680
100
AcDbEntity
  8
0
  6
Continuous
 62
     7
100
AcDbLine
 10
62.91318597202508
 20
15.43892501075021
 30
0.0
 11
62.71318596429182
 21
15.32345497028359
 31
0.0
  0
LINE
  5
1749
330
1680
100
AcDbEntity
  8
0
  6
Continuous
 62
     7
100
AcDbLine
 10
62.91318597202508
 20
24.20798388581693
 30
0.0
 11
62.71318596429182
 21
24.32345392628355
 31
0.0
  0
LINE
  5
174A
330
1680
100
AcDbEntity
  8
0
  6
Continuous
 62
     7
100
AcDbLine
 10
49.41318538055838
 20
31.12345356315024
 30
0.0
 11
49.21318536489207
 21
31.32345354748355
 31
0.0
  0
LINE
  5
174B
330
1680
100
AcDbEntity
  8
0
  6
Continuous
 62
     7
100
AcDbLine
 10
59.21318626562515
 20
26.8234544482836
 30
0.0
 11
59.21318626562515
 21
12.8234544482836
 31
0.0
  0
LINE
  5
174C
330
1680
100
AcDbEntity
  8
0
  6
Continuous
 62
     7
100
AcDbLine
 10
59.41318772909153
 20
13.02345298548357
 30
0.0
 11
59.21318777209171
 21
12.82345294241691
 31
0.0
  0
LINE
  5
174D
330
1680
100
AcDbEntity
  8
0
  6
Continuous
 62
     7
100
AcDbLine
 10
59.41318772889189
 20
26.62345591121692
 30
0.0
 11
59.21318777195847
 21
26.82345595428359
 31
0.0
  0
LINE
  5
174E
330
1680
100
AcDbEntity
  8
0
  6
Continuous
 62
     7
100
AcDbLine
 10
59.41318626562497
 20
26.62345444835023
 30
0.0
 11
59.41318626562497
 21
13.02345444821691
 31
0.0
  0
LINE
  5
174F
330
1680
100
AcDbEntity
  8
0
  6
Continuous
 62
     7
100
AcDbLine
 10
59.61318626562524
 20
24.3234544482836
 30
0.0
 11
59.61318626562524
 21
15.3234544482836
 31
0.0
  0
LINE
  5
1750
330
1680
100
AcDbEntity
  8
0
  6
Continuous
 62
     7
100
AcDbLine
 10
62.71318626562515
 20
24.3234544482836
 30
0.0
 11
62.71318626562515
 21
15.3234544482836
 31
0.0
  0
LINE
  5
1751
330
1680
100
AcDbEntity
  8
0
  6
Continuous
 62
     7
100
AcDbLine
 10
62.91318626562542
 20
24.20798439448362
 30
0.0
 11
62.91318626562542
 21
15.43892450208358
 31
0.0
  0
LINE
  5
1752
330
1680
100
AcDbEntity
  8
0
  6
Continuous
 62
     7
100
AcDbLine
 10
63.96318626562515
 20
17.3234544482836
 30
0.0
 11
63.96318626562515
 21
22.3234544482836
 31
0.0
  0
LINE
  5
1753
330
1680
100
AcDbEntity
  8
0
  6
Continuous
 62
     7
100
AcDbLine
 10
64.54464883915853
 20
15.49665952895026
 30
0.0
 11
64.54464883915853
 21
24.15024936755026
 31
0.0
  0
LINE
  5
1754
330
1680
100
AcDbEntity
  8
0
  6
Continuous
 62
     7
100
AcDbLine
 10
64.84464883915871
 20
15.3234544482836
 30
0.0
 11
64.84464883915871
 21
24.3234544482836
 31
0.0
  0
LINE
  5
1755
330
1680
100
AcDbEntity
  8
0
  6
Continuous
100
AcDbLine
 10
77.61318626562524
 20
19.8234544482836
 30
0.0
 11
76.70446733482504
 21
18.52576521148359
 31
0.0
  0
LINE
  5
1756
330
1680
100
AcDbEntity
  8
0
  6
Continuous
 62
     7
100
AcDbLine
 10
73.77248473789177
 20
14.33876950848361
 30
0.0
 11
73.80152175915873
 21
14.38023560835023
 31
0.0
  0
LINE
  5
1757
330
1680
100
AcDbEntity
  8
0
  6
Continuous
100
AcDbLine
 10
77.61318626562524
 20
19.8234544482836
 30
0.0
 11
76.70446733482504
 21
21.12114368508361
 31
0.0
  0
LINE
  5
1758
330
1680
100
AcDbEntity
  8
0
  6
Continuous
 62
     7
100
AcDbLine
 10
73.80152175915873
 20
25.26667328821691
 30
0.0
 11
73.77248473789177
 21
25.30813938808359
 31
0.0
  0
LINE
  5
1759
330
1680
100
AcDbEntity
  8
02___PRT_ALL_AXES
  6
Continuous
 62
     7
100
AcDbLine
 10
72.54464883915852
 20
14.84735579015023
 30
0.0
 11
72.54464883915852
 21
24.79955310641691
 31
0.0
  0
LINE
  5
175A
330
1680
100
AcDbEntity
  8
0
  6
Continuous
 62
     7
100
AcDbLine
 10
73.77248473789177
 20
14.33876950848361
 30
0.0
 11
73.77248473789177
 21
14.39214608528363
 31
0.0
  0
LINE
  5
175B
330
1680
100
AcDbEntity
  8
0
  6
Continuous
 62
     7
100
AcDbLine
 10
73.77248473789177
 20
25.25476281128357
 30
0.0
 11
73.77248473789177
 21
25.30813938808359
 31
0.0
  0
LINE
  5
175C
330
1680
100
AcDbEntity
  8
0
  6
Continuous
 62
     7
100
AcDbLine
 10
75.81325582075852
 20
26.09185132341691
 30
0.0
 11
75.81325582075852
 21
13.55505757315023
 31
0.0
  0
LINE
  5
175D
330
1680
100
AcDbEntity
  8
0
  6
Continuous
 62
     7
100
AcDbLine
 10
76.2641004612251
 20
26.09185132341691
 30
0.0
 11
76.2641004612251
 21
13.55505757315023
 31
0.0
  0
LINE
  5
175E
330
1680
100
AcDbEntity
  8
0
  6
Continuous
 62
     7
100
AcDbLine
 10
76.70446733482504
 20
24.04572918255025
 30
0.0
 11
76.70446733482504
 21
15.60117971401695
 31
0.0
  0
LINE
  5
175F
330
1680
100
AcDbEntity
  8
0
  6
Continuous
 62
     7
100
AcDbLine
 10
76.70446733482504
 20
15.55968500288355
 30
0.0
 11
76.2275286377585
 21
13.32185702895026
 31
0.0
  0
LINE
  5
1760
330
1680
100
AcDbEntity
  8
0
  6
Continuous
100
AcDbLine
 10
76.70446733482504
 20
15.55968500288355
 30
0.0
 11
77.61318626562524
 21
19.8234544482836
 31
0.0
  0
LINE
  5
1761
330
1680
100
AcDbEntity
  8
0
  6
Continuous
 62
     7
100
AcDbLine
 10
76.70446733482504
 20
15.60117971401695
 30
0.0
 11
76.2641004612251
 21
13.55505757315023
 31
0.0
  0
LINE
  5
1762
330
1680
100
AcDbEntity
  8
0
  6
Continuous
 62
     7
100
AcDbLine
 10
76.70446733482504
 20
24.04572918255025
 30
0.0
 11
76.2641004612251
 21
26.09185132341691
 31
0.0
  0
LINE
  5
1763
330
1680
100
AcDbEntity
  8
0
  6
Continuous
 62
     7
100
AcDbLine
 10
76.2275286377585
 20
26.32505186761688
 30
0.0
 11
76.70446733482504
 21
24.08722389368359
 31
0.0
  0
LINE
  5
1764
330
1680
100
AcDbEntity
  8
0
  6
Continuous
100
AcDbLine
 10
76.70446733482504
 20
24.08722389368359
 30
0.0
 11
77.61318626562524
 21
19.8234544482836
 31
0.0
  0
ENDBLK
  5
1765
330
1680
100
AcDbEntity
  8
0
100
AcDbBlockEnd
  0
BLOCK
  5
1769
330
1766
100
AcDbEntity
  8
0
100
AcDbBlockBegin
  2
A$C217E344C
 70
     0
 10
0.0
 20
0.0
 30
0.0
  3
A$C217E344C
  1

  0
LINE
  5
176A
330
1766
100
AcDbEntity
  8
0
  6
Continuous
 62
     7
100
AcDbLine
 10
10.61903407103273
 20
5.231602809099399
 30
0.0
 11
10.99941157729927
 21
7.938129400232696
 31
0.0
  0
LINE
  5
176B
330
1766
100
AcDbEntity
  8
0
  6
Continuous
 62
     7
100
AcDbLine
 10
12.00058802289914
 20
15.06186996823271
 30
0.0
 11
12.38096552916613
 21
17.76839655936601
 31
0.0
  0
LINE
  5
176C
330
1766
100
AcDbEntity
  8
0
  6
Continuous
 62
     7
100
AcDbLine
 10
12.38096552916613
 20
5.231602809099399
 30
0.0
 11
12.00058802289914
 21
7.938129400232696
 31
0.0
  0
LINE
  5
176D
330
1766
100
AcDbEntity
  8
0
  6
Continuous
 62
     7
100
AcDbLine
 10
10.99941157729927
 20
15.06186996823271
 30
0.0
 11
10.61903407103273
 21
17.76839655936601
 31
0.0
  0
CIRCLE
  5
176E
330
1766
100
AcDbEntity
  8
0
  6
Continuous
 62
     7
100
AcDbCircle
 10
3.056252113232403
 20
6.624999684232648
 30
0.0
 40
1.349968612533333
  0
ARC
  5
176F
330
1766
100
AcDbEntity
  8
0
  6
Continuous
 62
     2
100
AcDbCircle
 10
3.056252113232403
 20
6.624999684232648
 30
0.0
 40
1.25
100
AcDbArc
 50
255.0000000000056
 51
195.0000000000007
  0
CIRCLE
  5
1770
330
1766
100
AcDbEntity
  8
0
  6
Continuous
 62
     7
100
AcDbCircle
 10
3.056252113232403
 20
6.624999684232648
 30
0.0
 40
1.049999999999999
  0
CIRCLE
  5
1771
330
1766
100
AcDbEntity
  8
0
  6
Continuous
 62
     7
100
AcDbCircle
 10
11.49999980009943
 20
11.49999968423265
 30
0.0
 40
11.5
  0
CIRCLE
  5
1772
330
1766
100
AcDbEntity
  8
0
  6
Continuous
 62
     7
100
AcDbCircle
 10
11.49999980009943
 20
11.49999968423265
 30
0.0
 40
11.29999854813333
  0
CIRCLE
  5
1773
330
1766
100
AcDbEntity
  8
0
  6
Continuous
 62
     7
100
AcDbCircle
 10
11.49999980009943
 20
11.49999968423265
 30
0.0
 40
7.0
  0
CIRCLE
  5
1774
330
1766
100
AcDbEntity
  8
0
  6
Continuous
 62
     7
100
AcDbCircle
 10
11.49999980009943
 20
11.49999968423265
 30
0.0
 40
6.800000496733333
  0
CIRCLE
  5
1775
330
1766
100
AcDbEntity
  8
0
  6
Continuous
 62
     7
100
AcDbCircle
 10
11.49999980009943
 20
11.49999968423265
 30
0.0
 40
6.700000782333333
  0
CIRCLE
  5
1776
330
1766
100
AcDbEntity
  8
0
  6
Continuous
 62
     7
100
AcDbCircle
 10
11.49999980009943
 20
11.49999968423265
 30
0.0
 40
6.5
  0
ARC
  5
1777
330
1766
100
AcDbEntity
  8
0
  6
Continuous
 62
     7
100
AcDbCircle
 10
11.49999980009943
 20
11.49999968423265
 30
0.0
 40
6.329999999999999
100
AcDbArc
 50
278.0000000000137
 51
81.99999999998622
  0
ARC
  5
1778
330
1766
100
AcDbEntity
  8
0
  6
Continuous
 62
     7
100
AcDbCircle
 10
11.49999980009943
 20
11.49999968423265
 30
0.0
 40
6.329999999999999
100
AcDbArc
 50
98.00000000001377
 51
261.9999999999862
  0
ARC
  5
1779
330
1766
100
AcDbEntity
  8
0
  6
Continuous
 62
     7
100
AcDbCircle
 10
11.49999980009943
 20
11.49999968423265
 30
0.0
 40
6.299999210733333
100
AcDbArc
 50
262.0201162354896
 51
277.9798732255151
  0
ARC
  5
177A
330
1766
100
AcDbEntity
  8
0
  6
Continuous
 62
     7
100
AcDbCircle
 10
11.49999980009943
 20
11.49999968423265
 30
0.0
 40
6.299999210733333
100
AcDbArc
 50
82.02011623548957
 51
97.97987322551509
  0
ARC
  5
177B
330
1766
100
AcDbEntity
  8
0
  6
Continuous
 62
     7
100
AcDbCircle
 10
11.49999980009943
 20
11.49999968423265
 30
0.0
 40
5.484684939799999
100
AcDbArc
 50
81.99999999998622
 51
98.00000000001377
  0
ARC
  5
177C
330
1766
100
AcDbEntity
  8
0
  6
Continuous
 62
     7
100
AcDbCircle
 10
11.49999980009943
 20
11.49999968423265
 30
0.0
 40
5.484684939799999
100
AcDbArc
 50
261.9999999999862
 51
278.0000000000137
  0
ARC
  5
177D
330
1766
100
AcDbEntity
  8
0
  6
Continuous
 62
     7
100
AcDbCircle
 10
11.49999980009943
 20
11.49999968423265
 30
0.0
 40
4.263769445399999
100
AcDbArc
 50
98.00000000001377
 51
261.9999999999862
  0
ARC
  5
177E
330
1766
100
AcDbEntity
  8
0
  6
Continuous
 62
     7
100
AcDbCircle
 10
11.49999980009943
 20
11.49999968423265
 30
0.0
 40
4.263769445399999
100
AcDbArc
 50
278.0000000000137
 51
81.99999999998622
  0
ARC
  5
177F
330
1766
100
AcDbEntity
  8
0
  6
Continuous
 62
     7
100
AcDbCircle
 10
11.49999980009943
 20
11.49999968423265
 30
0.0
 40
3.596874822533333
100
AcDbArc
 50
81.99999999998622
 51
98.00000000001377
  0
ARC
  5
1780
330
1766
100
AcDbEntity
  8
0
  6
Continuous
 62
     7
100
AcDbCircle
 10
11.49999980009943
 20
11.49999968423265
 30
0.0
 40
3.596874822533333
100
AcDbArc
 50
261.9999999999862
 51
278.0000000000137
  0
CIRCLE
  5
1781
330
1766
100
AcDbEntity
  8
02___PRT_ALL_AXES
  6
Continuous
 62
     7
100
AcDbCircle
 10
11.49999980009943
 20
11.49999968423265
 30
0.0
 40
3.342773023466666
  0
CIRCLE
  5
1782
330
1766
100
AcDbEntity
  8
0
  6
Continuous
 62
     7
100
AcDbCircle
 10
11.49999980009943
 20
11.49999968423265
 30
0.0
 40
2.673196196599999
  0
CIRCLE
  5
1783
330
1766
100
AcDbEntity
  8
0
  6
Continuous
 62
     7
100
AcDbCircle
 10
11.49999980009943
 20
11.49999968423265
 30
0.0
 40
2.5
  0
CIRCLE
  5
1784
330
1766
100
AcDbEntity
  8
0
  6
Continuous
 62
     7
100
AcDbCircle
 10
11.49999980009943
 20
11.49999968423265
 30
0.0
 40
2.474999999999999
  0
CIRCLE
  5
1785
330
1766
100
AcDbEntity
  8
0
  6
Continuous
 62
     7
100
AcDbCircle
 10
11.49999980009943
 20
11.49999968423265
 30
0.0
 40
2.199972844133333
  0
CIRCLE
  5
1786
330
1766
100
AcDbEntity
  8
0
  6
Continuous
 62
     7
100
AcDbCircle
 10
19.9437474870324
 20
6.624999684232648
 30
0.0
 40
1.349968612533333
  0
ARC
  5
1787
330
1766
100
AcDbEntity
  8
0
  6
Continuous
 62
     2
100
AcDbCircle
 10
19.9437474870324
 20
6.624999684232648
 30
0.0
 40
1.25
100
AcDbArc
 50
255.0000000000056
 51
195.0000000000007
  0
CIRCLE
  5
1788
330
1766
100
AcDbEntity
  8
0
  6
Continuous
 62
     7
100
AcDbCircle
 10
19.9437474870324
 20
6.624999684232648
 30
0.0
 40
1.049999999999999
  0
CIRCLE
  5
1789
330
1766
100
AcDbEntity
  8
0
  6
Continuous
 62
     7
100
AcDbCircle
 10
11.49999980009943
 20
21.24999968423265
 30
0.0
 40
1.349968612533333
  0
ARC
  5
178A
330
1766
100
AcDbEntity
  8
0
  6
Continuous
 62
     2
100
AcDbCircle
 10
11.49999980009943
 20
21.24999968423265
 30
0.0
 40
1.25
100
AcDbArc
 50
255.0000000000056
 51
195.0000000000007
  0
CIRCLE
  5
178B
330
1766
100
AcDbEntity
  8
0
  6
Continuous
 62
     7
100
AcDbCircle
 10
11.49999980009943
 20
21.24999968423265
 30
0.0
 40
1.049999999999999
  0
ENDBLK
  5
178C
330
1766
100
AcDbEntity
  8
0
100
AcDbBlockEnd
  0
BLOCK
  5
17EC
330
17A8
100
AcDbEntity
  8
0
100
AcDbBlockBegin
  2
new A3-S11
 70
     0
 10
0.0
 20
0.0
 30
0.0
  3
new A3-S11
  1

  0
LINE
  5
17A9
330
17A8
100
AcDbEntity
  8
0
  6
Continuous
 62
   255
100
AcDbLine
 10
795.462730356111
 20
-277.0
 30
0.0
 11
795.462730356111
 21
0.0
 31
0.0
  0
LINE
  5
17AA
330
17A8
100
AcDbEntity
  8
0
  6
Continuous
 62
   255
100
AcDbLine
 10
412.4627639465111
 20
-277.0
 30
0.0
 11
795.462730356111
 21
-277.0
 31
0.0
  0
LINE
  5
17AB
330
17A8
100
AcDbEntity
  8
0
  6
Continuous
 62
   255
100
AcDbLine
 10
402.4627639465111
 20
0.0
 30
0.0
 11
402.4627639465111
 21
-222.0000000000001
 31
0.0
  0
LINE
  5
17AC
330
17A8
100
AcDbEntity
  8
0
  6
Continuous
 62
   255
100
AcDbLine
 10
402.4627639465111
 20
0.0
 30
0.0
 11
795.462730356111
 21
0.0
 31
0.0
  0
LINE
  5
17AD
330
17A8
100
AcDbEntity
  8
1
 62
     2
100
AcDbLine
 10
615.4627303561103
 20
-240.7736213082135
 30
0.0
 11
615.4627303561103
 21
-233.1532223398645
 31
0.0
1001
AcDbBlockRepETag
1070
     1
1071
     2034
1005
0
  0
LINE
  5
17AE
330
17A8
100
AcDbEntity
  8
1
 62
     2
100
AcDbLine
 10
755.4627303560963
 20
-240.7736213082135
 30
0.0
 11
615.4627303561103
 21
-240.7736213082135
 31
0.0
1001
AcDbBlockRepETag
1070
     1
1071
     2035
1005
0
  0
LINE
  5
17AF
330
17A8
100
AcDbEntity
  8
1
 62
     2
100
AcDbLine
 10
755.4627303560963
 20
-233.1532223398645
 30
0.0
 11
755.4627303560963
 21
-240.7736213082135
 31
0.0
1001
AcDbBlockRepETag
1070
     1
1071
     2036
1005
0
  0
LINE
  5
17B0
330
17A8
100
AcDbEntity
  8
1
 62
     2
100
AcDbLine
 10
615.4627303561103
 20
-233.1532223398645
 30
0.0
 11
755.4627303560963
 21
-233.1532223398645
 31
0.0
1001
AcDbBlockRepETag
1070
     1
1071
     2037
1005
0
  0
LINE
  5
17B1
330
17A8
100
AcDbEntity
  8
0
  6
Continuous
 62
   255
100
AcDbLine
 10
412.4627639465111
 20
-222.0
 30
0.0
 11
412.4627639465111
 21
-277.0
 31
0.0
1001
AcDbBlockRepETag
1070
     1
1071
     1946
1005
0
  0
LINE
  5
17B2
330
17A8
100
AcDbEntity
  8
0
  6
Continuous
 62
   255
100
AcDbLine
 10
412.4627639465111
 20
-222.0
 30
0.0
 11
402.4627639465111
 21
-222.0
 31
0.0
  0
LINE
  5
17B3
330
17A8
100
AcDbEntity
  8
0
  6
CENTER
 62
     2
 48
0.2
370
     9
100
AcDbLine
 10
790.0016616277157
 20
-260.4561080562671
 30
0.0
 11
790.0016616277157
 21
-253.4561099688349
 31
0.0
1001
AcDbBlockRepETag
1070
     1
1071
        1
1005
0
  0
LINE
  5
17B4
330
17A8
100
AcDbEntity
  8
0
  6
CENTER
 62
     2
 48
0.2
370
     9
100
AcDbLine
 10
775.6438450240919
 20
-256.956109012551
 30
0.0
 11
784.6438425650753
 21
-256.956109012551
 31
0.0
1001
AcDbBlockRepETag
1070
     1
1071
        9
1005
0
  0
LINE
  5
17B5
330
17A8
100
AcDbEntity
  8
0
  6
Continuous
 62
   255
100
AcDbLine
 10
784.1438427016878
 20
-253.8561098595453
 30
0.0
 11
776.1438448874794
 21
-255.4561094223869
 31
0.0
1001
AcDbBlockRepETag
1070
     1
1071
       10
1005
0
  0
LINE
  5
17B6
330
17A8
100
AcDbEntity
  8
0
  6
Continuous
 62
   255
100
AcDbLine
 10
784.1438427016878
 20
-260.0561081655568
 30
0.0
 11
784.1438427016878
 21
-253.8561098595453
 31
0.0
1001
AcDbBlockRepETag
1070
     1
1071
       11
1005
0
  0
LINE
  5
17B7
330
17A8
100
AcDbEntity
  8
0
  6
Continuous
 62
   255
100
AcDbLine
 10
776.1438448874794
 20
-258.4561086027151
 30
0.0
 11
784.1438427016878
 21
-260.0561081655568
 31
0.0
1001
AcDbBlockRepETag
1070
     1
1071
       12
1005
0
  0
LINE
  5
17B8
330
17A8
100
AcDbEntity
  8
0
  6
Continuous
 62
   255
100
AcDbLine
 10
776.1438448874794
 20
-255.4561094223869
 30
0.0
 11
776.1438448874794
 21
-258.4561086027151
 31
0.0
1001
AcDbBlockRepETag
1070
     1
1071
       13
1005
0
  0
LINE
  5
17B9
330
17A8
100
AcDbEntity
  8
0
  6
Continuous
 62
   255
100
AcDbLine
 10
732.4627505746857
 20
-255.0000010928959
 30
0.0
 11
732.4627505746857
 21
-273.0000010928959
 31
0.0
1001
AcDbBlockRepETag
1070
     1
1071
       20
1005
0
  0
LINE
  5
17BA
330
17A8
100
AcDbEntity
  8
0
  6
Continuous
 62
   255
100
AcDbLine
 10
647.4627707932584
 20
-255.0000010928961
 30
0.0
 11
647.4627707932584
 21
-273.0000010928959
 31
0.0
1001
AcDbBlockRepETag
1070
     1
1071
       22
1005
0
  0
LINE
  5
17BB
330
17A8
100
AcDbEntity
  8
0
  6
Continuous
 62
   255
100
AcDbLine
 10
612.4627803560981
 20
-233.1532223398645
 30
0.0
 11
612.4627803560981
 21
-277.0
 31
0.0
1001
AcDbBlockRepETag
1070
     1
1071
       26
1005
0
  0
LINE
  5
17BC
330
17A8
100
AcDbEntity
  8
0
  6
Continuous
 62
   255
100
AcDbLine
 10
587.4627871866977
 20
-257.5000053278675
 30
0.0
 11
587.462787186698
 21
-277.0
 31
0.0
1001
AcDbBlockRepETag
1070
     1
1071
       29
1005
0
  0
LINE
  5
17BD
330
17A8
100
AcDbEntity
  8
0
  6
Continuous
 62
     2
370
     9
100
AcDbLine
 10
429.4627803560981
 20
-266.5000028688518
 30
0.0
 11
612.4627803560981
 21
-266.5000028688518
 31
0.0
1001
AcDbBlockRepETag
1070
     1
1071
       30
1005
0
  0
LINE
  5
17BE
330
17A8
100
AcDbEntity
  8
0
  6
Continuous
 62
   255
100
AcDbLine
 10
429.4627803560981
 20
-271.0000016393439
 30
0.0
 11
612.4627803560981
 21
-271.0000016393439
 31
0.0
1001
AcDbBlockRepETag
1070
     1
1071
       31
1005
0
  0
LINE
  5
17BF
330
17A8
100
AcDbEntity
  8
0
  6
Continuous
 62
   255
100
AcDbLine
 10
429.4627803560981
 20
-277.0
 30
0.0
 11
429.4627803560979
 21
-233.1532223398645
 31
0.0
1001
AcDbBlockRepETag
1070
     1
1071
       32
1005
0
  0
LINE
  5
17C0
330
17A8
100
AcDbEntity
  8
0
  6
Continuous
 62
     2
370
     9
100
AcDbLine
 10
612.4627803560981
 20
-262.0000040983596
 30
0.0
 11
429.4627803560981
 21
-262.0000040983596
 31
0.0
1001
AcDbBlockRepETag
1070
     1
1071
       33
1005
0
  0
LINE
  5
17C1
330
17A8
100
AcDbEntity
  8
0
  6
Continuous
 62
   255
100
AcDbLine
 10
562.4627940172972
 20
-257.5000053278675
 30
0.0
 11
562.4627940172975
 21
-277.0
 31
0.0
1001
AcDbBlockRepETag
1070
     1
1071
       34
1005
0
  0
LINE
  5
17C2
330
17A8
100
AcDbEntity
  8
0
  6
Continuous
 62
   255
100
AcDbLine
 10
537.4628008478957
 20
-257.5000053278675
 30
0.0
 11
537.4628008478957
 21
-277.0
 31
0.0
1001
AcDbBlockRepETag
1070
     1
1071
       35
1005
0
  0
LINE
  5
17C3
330
17A8
100
AcDbEntity
  8
0
  6
Continuous
 62
   255
100
AcDbLine
 10
436.362828470839
 20
-257.5000053278675
 30
0.0
 11
436.362828470839
 21
-277.0
 31
0.0
1001
AcDbBlockRepETag
1070
     1
1071
       36
1005
0
  0
LINE
  5
17C4
330
17A8
100
AcDbEntity
  8
0
  6
CENTER
 62
     2
 48
0.2
370
     9
100
AcDbLine
 10
786.4016626113227
 20
-256.956109012551
 30
0.0
 11
793.5016606714325
 21
-256.956109012551
 31
0.0
1001
AcDbBlockRepETag
1070
     1
1071
       37
1005
0
  0
LINE
  5
17C5
330
17A8
100
AcDbEntity
  8
0
  6
Continuous
 62
   255
100
AcDbLine
 10
795.4627303561112
 20
-273.0000010928959
 30
0.0
 11
612.4627803560981
 21
-273.0000010928959
 31
0.0
1001
AcDbBlockRepETag
1070
     1
1071
       38
1005
0
  0
CIRCLE
  5
17C6
330
17A8
100
AcDbEntity
  8
0
  6
Continuous
 62
   255
100
AcDbCircle
 10
790.0016616277157
 20
-256.956109012551
 30
0.0
 40
3.099999153005696
1001
AcDbBlockRepETag
1070
     1
1071
       39
1005
0
  0
CIRCLE
  5
17C7
330
17A8
100
AcDbEntity
  8
0
  6
Continuous
 62
   255
100
AcDbCircle
 10
790.0016616277157
 20
-256.956109012551
 30
0.0
 40
1.499999590164046
1001
AcDbBlockRepETag
1070
     1
1071
       40
1005
0
  0
MTEXT
  5
17C8
330
17A8
100
AcDbEntity
  8
0
 62
   255
100
AcDbMText
 10
742.4886817458279
 20
-258.0961633175244
 30
0.0
 40
3.0
 41
0.0
 46
0.0
 71
     1
 72
     5
  1
Scale: X:1
 73
     1
 44
1.0
1001
AcDbBlockRepETag
1070
     1
1071
       46
1005
0
  0
MTEXT
  5
17C9
330
17A8
100
AcDbEntity
  8
0
 62
   255
100
AcDbMText
 10
785.9761987320682
 20
-266.1776207634082
 30
0.0
 40
4.5
 41
0.0
 46
0.0
 71
     1
 72
     5
  1
{\fISOCPEUR|b0|i0|c0|p34;\W1;A3}
  7
SLDTEXTSTYLE0
 73
     1
 44
1.0
1001
AcDbBlockRepETag
1070
     1
1071
       50
1005
0
  0
TEXT
  5
17CA
330
17A8
100
AcDbEntity
  8
0
  6
Continuous
 62
   255
100
AcDbText
 10
615.999552743995
 20
-275.600626952933
 30
0.0
 40
1.72391304347826
  1
This drawing remains our property. Without written approval it may not be copied, reproduced, communicated or made available to third parties.
100
AcDbText
1001
AcDbBlockRepETag
1070
     1
1071
       51
1005
0
  0
MTEXT
  5
17CB
330
17A8
100
AcDbEntity
  8
0
 62
   255
100
AcDbMText
 10
430.8431967639346
 20
-272.4012695934838
 30
0.0
 40
1.999999453552061
 41
0.0
 46
0.0
 71
     1
 72
     5
  1
No.
 73
     1
 44
1.0
1001
AcDbBlockRepETag
1070
     1
1071
       52
1005
0
  0
MTEXT
  5
17CC
330
17A8
100
AcDbEntity
  8
0
 62
   255
100
AcDbMText
 10
465.3543791596414
 20
-272.5568974675624
 30
0.0
 40
1.999999453552061
 41
0.0
 46
0.0
 71
     1
 72
     5
  1
Modifications
 73
     1
 44
1.0
1001
AcDbBlockRepETag
1070
     1
1071
       53
1005
0
  0
MTEXT
  5
17CD
330
17A8
100
AcDbEntity
  8
0
 62
   255
100
AcDbMText
 10
516.3394128285574
 20
-272.4090513971577
 30
0.0
 40
1.999999453552061
 41
0.0
 46
0.0
 71
     1
 72
     5
  1
Communication
 73
     1
 44
1.0
1001
AcDbBlockRepETag
1070
     1
1071
       54
1005
0
  0
MTEXT
  5
17CE
330
17A8
100
AcDbEntity
  8
0
 62
   255
100
AcDbMText
 10
546.4272744208374
 20
-272.4579818509886
 30
0.0
 40
1.999999453552061
 41
0.0
 46
0.0
 71
     1
 72
     5
  1
Drawn
 73
     1
 44
1.0
1001
AcDbBlockRepETag
1070
     1
1071
       55
1005
0
  0
MTEXT
  5
17CF
330
17A8
100
AcDbEntity
  8
0
 62
   255
100
AcDbMText
 10
594.082408871658
 20
-272.537497781863
 30
0.0
 40
1.999999453552061
 41
0.0
 46
0.0
 71
     1
 72
     5
  1
Approved
 73
     1
 44
1.0
1001
AcDbBlockRepETag
1070
     1
1071
       56
1005
0
  0
MTEXT
  5
17D0
330
17A8
100
AcDbEntity
  8
0
 62
   255
100
AcDbMText
 10
747.2395558258272
 20
-266.23226977527
 30
0.0
 40
4.5
 41
0.0
 46
0.0
 71
     1
 72
     5
  1
{\fISOCPEUR|b0|i0|c0|p34;\W1;\C256;Drg. No.}
  7
SLDTEXTSTYLE0
 73
     1
 44
1.0
1001
AcDbBlockRepETag
1070
     1
1071
       58
1005
0
  0
MTEXT
  5
17D1
102
{ACAD_XDICTIONARY
360
188B
102
}
330
17A8
100
AcDbEntity
  8
0
 62
   255
100
AcDbMText
 10
690.4446702144996
 20
-257.668031930731
 30
0.0
 40
4.5
 41
0.0
 46
0.0
 71
     1
 72
     5
  1
\pi-15.075;{\fISOCPEUR|b0|i0|c0|p34;\W1;Description\P\pi-21.15;Outline drawing}
  7
SLDTEXTSTYLE0
 73
     1
 44
1.0
1001
AcDbBlockRepETag
1070
     1
1071
       59
1005
0
  0
MTEXT
  5
17D2
330
17A8
100
AcDbEntity
  8
0
 62
     1
100
AcDbMText
 10
614.8696824671969
 20
-259.2996853159084
 30
0.0
 40
5.0
 41
0.0
 46
0.0
 71
     1
 72
     5
  1
{\fISOCPEUR|b0|i0|c0|p34;\W1;Portescap}
  7
SLDTEXTSTYLE0
 73
     1
 44
1.0
1001
AcDbBlockRepETag
1070
     1
1071
       65
1005
0
  0
LINE
  5
17D3
330
17A8
100
AcDbEntity
  8
0
  6
Continuous
 62
   255
100
AcDbLine
 10
512.4628076784954
 20
-257.5000053278675
 30
0.0
 11
512.4628076784956
 21
-277.0
 31
0.0
1001
AcDbBlockRepETag
1070
     1
1071
       66
1005
0
  0
MTEXT
  5
17D4
330
17A8
100
AcDbEntity
  8
0
 62
   255
100
AcDbMText
 10
569.768144688197
 20
-272.4579818509886
 30
0.0
 40
1.999999453552061
 41
0.0
 46
0.0
 71
     1
 72
     5
  1
Checked
 73
     1
 44
1.0
1001
AcDbBlockRepETag
1070
     1
1071
       67
1005
0
  0
LINE
  5
17D5
330
17A8
100
AcDbEntity
  8
0
  6
Continuous
 62
   255
100
AcDbLine
 10
773.534358534004
 20
-250.0008059763035
 30
0.0
 11
773.534358534003
 21
-264.0000010928961
 31
0.0
1001
AcDbBlockRepETag
1070
     1
1071
        5
1005
0
  0
TEXT
  5
17D6
330
17A8
100
AcDbEntity
  8
0
  6
Continuous
 62
   255
100
AcDbText
 10
779.6181708028425
 20
-275.600626952933
 30
0.0
 40
1.72391304347826
  1
Sheet 1 of 1
100
AcDbText
1001
AcDbBlockRepETag
1070
     1
1071
       51
1005
0
  0
INSERT
  5
17D7
330
17A8
100
AcDbEntity
  8
0
 62
   255
100
AcDbBlockReference
  2
A$C08716F59
 10
429.4627803560979
 20
-257.5000053278673
 30
0.0
  0
LINE
  5
17D8
330
17A8
100
AcDbEntity
  8
0
  6
Continuous
 62
   255
100
AcDbLine
 10
647.4627707932584
 20
-269.0000021857919
 30
0.0
 11
612.4627803560981
 21
-269.0000021857919
 31
0.0
1001
AcDbBlockRepETag
1070
     1
1071
       38
1005
0
  0
TEXT
  5
17D9
330
17A8
100
AcDbEntity
  8
0
  6
Continuous
 62
   255
100
AcDbText
 10
615.999552743995
 20
-271.7908875797558
 30
0.0
 40
1.72391304347826
  1
PI/R&D/F/18 Rev 00
100
AcDbText
1001
AcDbBlockRepETag
1070
     1
1071
       51
1005
0
  0
MTEXT
  5
17DA
330
17A8
100
AcDbEntity
  8
0
  6
Continuous
 62
   255
100
AcDbMText
 10
614.3222225762045
 20
-248.3998440810558
 30
0.0
 40
2.1
 41
122.5201940634145
 46
0.0
 71
     7
 72
     1
  1
Unless & otherwise specified, all dimensions and tolerances are in mm.
  7
style1
 73
     1
 44
1.0
1001
AcDbBlockRepETag
1070
     1
1071
       64
1005
0
  0
LINE
  5
17DB
330
17A8
100
AcDbEntity
  8
0
  6
Continuous
 62
   255
100
AcDbLine
 10
612.4627803560981
 20
-250.0008059763035
 30
0.0
 11
795.4627303561112
 21
-250.0008059763035
 31
0.0
1001
AcDbBlockRepETag
1070
     1
1071
        3
1005
0
  0
LINE
  5
17DC
330
17A8
100
AcDbEntity
  8
0
  6
Continuous
 62
   255
100
AcDbLine
 10
773.5343585340038
 20
-255.000001092896
 30
0.0
 11
747.743499713406
 21
-255.0000010928961
 31
0.0
1001
AcDbBlockRepETag
1070
     1
1071
       38
1005
0
  0
LINE
  5
17DD
330
17A8
100
AcDbEntity
  8
0
  6
Continuous
 62
   255
100
AcDbLine
 10
795.4627303561112
 20
-264.0000010928959
 30
0.0
 11
732.4627505746859
 21
-264.0000010928962
 31
0.0
1001
AcDbBlockRepETag
1070
     1
1071
       38
1005
0
  0
MTEXT
  5
17DE
330
17A8
100
AcDbEntity
  8
1
 62
     4
100
AcDbMText
 10
408.137763946511
 20
-249.4153946635623
 30
0.0
 40
4.5
 41
49.18666449634293
 46
0.0
 71
     2
 72
     5
  1
{\C256;Drg. No.}
 11
-0.0000000000000002
 21
-1.0
 31
0.0
 73
     1
 44
1.0
  0
LINE
  5
17DF
330
17A8
100
AcDbEntity
  8
0
  6
Continuous
 62
   255
100
AcDbLine
 10
783.462730356111
 20
-273.0000010928959
 30
0.0
 11
783.4627303561108
 21
-264.000001092896
 31
0.0
  0
MTEXT
  5
17E0
330
17A8
100
AcDbEntity
  8
1
 62
     3
100
AcDbMText
 10
616.955855400455
 20
-235.2485951401709
 30
0.0
 40
3.5
 41
134.8361601943441
 46
0.0
 71
     1
 72
     5
  1
Technology: Description - no. x.xxx.xx.xxxx
 73
     1
 44
1.0
  0
LINE
  5
17E1
330
17A8
100
AcDbEntity
  8
0
  6
Continuous
 62
   255
100
AcDbLine
 10
657.5563534752002
 20
-250.0008059763033
 30
0.0
 11
657.5563534752006
 21
-255.000001092896
 31
0.0
1001
AcDbBlockRepETag
1070
     1
1071
       22
1005
0
  0
LINE
  5
17E2
330
17A8
100
AcDbEntity
  8
0
  6
Continuous
 62
   255
100
AcDbLine
 10
747.7434997134055
 20
-250.0008059763033
 30
0.0
 11
747.743499713406
 21
-255.000001092896
 31
0.0
1001
AcDbBlockRepETag
1070
     1
1071
       22
1005
0
  0
LINE
  5
17E3
330
17A8
100
AcDbEntity
  8
0
  6
Continuous
 62
   255
100
AcDbLine
 10
777.1060302804662
 20
-277.0
 30
0.0
 11
777.106030280466
 21
-273.0000010928959
 31
0.0
  0
MTEXT
  5
17E4
330
17A8
100
AcDbEntity
  8
0
 62
   255
100
AcDbMText
 10
614.2184337595852
 20
-251.1665621572582
 30
0.0
 40
2.5
 41
0.0
 46
0.0
 71
     1
 72
     5
  1
Drawn:
 73
     1
 44
1.0
1001
AcDbBlockRepETag
1070
     1
1071
       46
1005
0
  0
MTEXT
  5
17E5
330
17A8
100
AcDbEntity
  8
0
 62
   255
100
AcDbMText
 10
659.8380221434101
 20
-251.1665621572539
 30
0.0
 40
2.5
 41
0.0
 46
0.0
 71
     1
 72
     5
  1
Checked:
 73
     1
 44
1.0
1001
AcDbBlockRepETag
1070
     1
1071
       46
1005
0
  0
MTEXT
  5
17E6
330
17A8
100
AcDbEntity
  8
0
 62
   255
100
AcDbMText
 10
705.588009643413
 20
-251.1665621572539
 30
0.0
 40
2.5
 41
0.0
 46
0.0
 71
     1
 72
     5
  1
Approved:
 73
     1
 44
1.0
1001
AcDbBlockRepETag
1070
     1
1071
       46
1005
0
  0
MTEXT
  5
17E7
330
17A8
100
AcDbEntity
  8
0
 62
   255
100
AcDbMText
 10
749.3687540007138
 20
-251.1665621572497
 30
0.0
 40
2.5
 41
0.0
 46
0.0
 71
     1
 72
     5
  1
Revision No: 00
 73
     1
 44
1.0
1001
AcDbBlockRepETag
1070
     1
1071
       46
1005
0
  0
LINE
  5
17E8
330
17A8
100
AcDbEntity
  8
0
  6
Continuous
 62
   255
100
AcDbLine
 10
747.7434997134057
 20
-255.0000010928962
 30
0.0
 11
612.4627803560981
 21
-255.0000010928959
 31
0.0
1001
AcDbBlockRepETag
1070
     1
1071
       38
1005
0
  0
LINE
  5
17E9
330
17A8
100
AcDbEntity
  8
0
  6
Continuous
 62
   255
100
AcDbLine
 10
702.6499265943025
 20
-250.0008059762993
 30
0.0
 11
702.649926594303
 21
-255.0000010928919
 31
0.0
1001
AcDbBlockRepETag
1070
     1
1071
       22
1005
0
  0
ENDBLK
  5
17ED
330
17A8
100
AcDbEntity
  8
0
100
AcDbBlockEnd
  0
ENDSEC
  0
SECTION
  2
ENTITIES
  0
LINE
  5
13EF
330
74
100
AcDbEntity
  8
1
 62
   255
100
AcDbLine
 10
1183.316485889246
 20
153.0549697646294
 30
0.0
 11
1183.316485889246
 21
165.6549697646294
 31
0.0
  0
LINE
  5
13F0
330
74
100
AcDbEntity
  8
1
 62
   255
100
AcDbLine
 10
1183.316485889246
 20
152.8549697646294
 30
0.0
 11
1183.316485889246
 21
153.0549697646294
 31
0.0
  0
LINE
  5
13F1
330
74
100
AcDbEntity
  8
1
 62
   255
100
AcDbLine
 10
1183.316485889246
 20
150.2549697646294
 30
0.0
 11
1183.316485889246
 21
152.8549697646294
 31
0.0
  0
LINE
  5
13F2
330
74
100
AcDbEntity
  8
1
  6
CENTER
 62
     2
100
AcDbLine
 10
1148.394249742872
 20
157.9549697646293
 30
0.0
 11
1126.394249742872
 21
157.9549697646294
 31
0.0
  0
LINE
  5
13F3
330
74
100
AcDbEntity
  8
1
 62
     2
100
AcDbLine
 10
1201.416485889246
 20
149.4549697646294
 30
0.0
 11
1201.416485889246
 21
166.4549697646294
 31
0.0
  0
LINE
  5
13F4
330
74
100
AcDbEntity
  8
1
 62
   255
100
AcDbLine
 10
1201.416485889246
 20
149.4549697646294
 30
0.0
 11
1190.28251129303
 21
149.4549697646294
 31
0.0
  0
LINE
  5
13F5
330
74
100
AcDbEntity
  8
1
 62
   255
100
AcDbLine
 10
1201.416485889246
 20
166.4549697646294
 30
0.0
 11
1190.28251129303
 21
166.4549697646294
 31
0.0
  0
LINE
  5
13F6
330
74
100
AcDbEntity
  8
1
 62
   255
100
AcDbLine
 10
1183.316485889246
 20
159.9549697646294
 30
0.0
 11
1184.916485889246
 21
159.9549697646294
 31
0.0
  0
LINE
  5
13F7
330
74
100
AcDbEntity
  8
1
 62
   255
100
AcDbLine
 10
1184.116485889246
 20
159.9549697646294
 30
0.0
 11
1184.116485889245
 21
155.9549697646294
 31
0.0
  0
LINE
  5
13F8
330
74
100
AcDbEntity
  8
1
 62
   255
100
AcDbLine
 10
1183.766485889246
 20
159.9549697646294
 30
0.0
 11
1183.766485889246
 21
155.9549697646294
 31
0.0
  0
LINE
  5
13F9
330
74
100
AcDbEntity
  8
1
 62
   255
100
AcDbLine
 10
1183.816485889246
 20
165.6549697646294
 30
0.0
 11
1183.316485889246
 21
165.6549697646294
 31
0.0
  0
LINE
  5
13FA
330
74
100
AcDbEntity
  8
1
 62
   255
100
AcDbLine
 10
1202.916485889246
 20
160.2049697646294
 30
0.0
 11
1203.416485889246
 21
160.2049697646294
 31
0.0
  0
LINE
  5
13FB
330
74
100
AcDbEntity
  8
1
 62
   255
100
AcDbLine
 10
1203.416485889246
 20
155.7049697646295
 30
0.0
 11
1203.416485889246
 21
160.2049697646294
 31
0.0
  0
LINE
  5
13FC
330
74
100
AcDbEntity
  8
1
 62
   255
100
AcDbLine
 10
1209.416485889246
 20
157.2915723050078
 30
0.0
 11
1209.416485889246
 21
158.6183672242508
 31
0.0
  0
LINE
  5
13FD
330
74
100
AcDbEntity
  8
1
  6
CENTER
 62
     2
100
AcDbLine
 10
1211.916485889246
 20
157.9549697646294
 30
0.0
 11
1199.317732509649
 21
157.9549697646294
 31
0.0
  0
LINE
  5
13FE
330
74
100
AcDbEntity
  8
1
 62
   255
100
AcDbLine
 10
1203.416485889246
 20
155.7049697646295
 30
0.0
 11
1202.916485889246
 21
155.7049697646295
 31
0.0
  0
LINE
  5
13FF
330
74
100
AcDbEntity
  8
1
 62
   255
100
AcDbLine
 10
1203.416485889246
 20
157.2049697646294
 30
0.0
 11
1209.166485889246
 21
157.2049697646294
 31
0.0
  0
LINE
  5
1400
330
74
100
AcDbEntity
  8
1
 62
   255
100
AcDbLine
 10
1209.166485889246
 20
158.7049697646294
 30
0.0
 11
1203.416485889246
 21
158.7049697646293
 31
0.0
  0
LINE
  5
1401
330
74
100
AcDbEntity
  8
1
 62
   255
100
AcDbLine
 10
1183.316485889246
 20
150.2549697646294
 30
0.0
 11
1183.816485889246
 21
150.2549697646294
 31
0.0
  0
LINE
  5
1402
330
74
100
AcDbEntity
  8
1
 62
     2
100
AcDbLine
 10
1202.716485889246
 20
154.9549697646293
 30
0.0
 11
1202.716485889246
 21
160.9549697646293
 31
0.0
  0
LINE
  5
1403
330
74
100
AcDbEntity
  8
1
 62
     2
100
AcDbLine
 10
1190.28251129303
 20
166.4549697646294
 30
0.0
 11
1190.28251129303
 21
149.4549697646294
 31
0.0
  0
LINE
  5
1404
330
74
100
AcDbEntity
  8
1
 62
   255
100
AcDbLine
 10
1189.416485889246
 20
149.9549697646294
 30
0.0
 11
1189.416485889246
 21
165.9549697646294
 31
0.0
  0
LINE
  5
1405
330
74
100
AcDbEntity
  8
1
 62
   255
100
AcDbLine
 10
1202.916485889246
 20
160.7549697646293
 30
0.0
 11
1202.716485889246
 21
160.9549697646293
 31
0.0
  0
LINE
  5
1406
330
74
100
AcDbEntity
  8
1
 62
   255
100
AcDbLine
 10
1202.716485889246
 20
160.9549697646293
 30
0.0
 11
1201.916485889246
 21
160.9549697646293
 31
0.0
  0
LINE
  5
1407
330
74
100
AcDbEntity
  8
1
 62
   255
100
AcDbLine
 10
1201.416485889246
 20
166.4549697646294
 30
0.0
 11
1201.916485889246
 21
165.9549697646294
 31
0.0
  0
LINE
  5
1408
330
74
100
AcDbEntity
  8
1
 62
   255
100
AcDbLine
 10
1189.416485889246
 20
165.9549697646294
 30
0.0
 11
1190.28251129303
 21
166.4549697646294
 31
0.0
  0
LINE
  5
1409
330
74
100
AcDbEntity
  8
1
 62
   255
100
AcDbLine
 10
1184.916485889246
 20
165.9549697646294
 30
0.0
 11
1189.416485889246
 21
165.9549697646294
 31
0.0
  0
LINE
  5
140A
330
74
100
AcDbEntity
  8
1
 62
   255
100
AcDbLine
 10
1202.716485889246
 20
154.9549697646293
 30
0.0
 11
1202.916485889246
 21
155.1549697646293
 31
0.0
  0
LINE
  5
140B
330
74
100
AcDbEntity
  8
1
 62
   255
100
AcDbLine
 10
1201.916485889246
 20
149.9549697646294
 30
0.0
 11
1201.416485889246
 21
149.4549697646294
 31
0.0
  0
LINE
  5
140C
330
74
100
AcDbEntity
  8
1
 62
   255
100
AcDbLine
 10
1184.916485889246
 20
149.9549697646294
 30
0.0
 11
1189.416485889246
 21
149.9549697646294
 31
0.0
  0
LINE
  5
140D
330
74
100
AcDbEntity
  8
1
 62
   255
100
AcDbLine
 10
1190.28251129303
 20
149.4549697646294
 30
0.0
 11
1189.416485889246
 21
149.9549697646294
 31
0.0
  0
LINE
  5
140E
330
74
100
AcDbEntity
  8
1
 62
   255
100
AcDbLine
 10
1202.916485889246
 20
160.7549697646293
 30
0.0
 11
1202.916485889246
 21
155.1549697646293
 31
0.0
  0
LINE
  5
140F
330
74
100
AcDbEntity
  8
1
 62
   255
100
AcDbLine
 10
1184.916485889246
 20
165.9549697646294
 30
0.0
 11
1184.916485889246
 21
159.9549697646294
 31
0.0
  0
LINE
  5
1410
330
74
100
AcDbEntity
  8
1
 62
   255
100
AcDbLine
 10
1202.716485889246
 20
154.9549697646293
 30
0.0
 11
1201.916485889246
 21
154.9549697646293
 31
0.0
  0
LINE
  5
1411
330
74
100
AcDbEntity
  8
1
 62
   255
100
AcDbLine
 10
1201.916485889246
 20
149.9549697646294
 30
0.0
 11
1201.916485889246
 21
165.9549697646294
 31
0.0
  0
LINE
  5
1412
330
74
100
AcDbEntity
  8
1
 62
   255
100
AcDbLine
 10
1209.166485889246
 20
158.7049697646294
 30
0.0
 11
1209.416485889246
 21
158.6183672242508
 31
0.0
  0
LINE
  5
1413
330
74
100
AcDbEntity
  8
1
 62
   255
100
AcDbLine
 10
1209.416485889246
 20
157.2915723050078
 30
0.0
 11
1209.166485889246
 21
157.2049697646294
 31
0.0
  0
LINE
  5
1414
330
74
100
AcDbEntity
  8
1
 62
     3
100
AcDbLine
 10
1177.716485889246
 20
152.8549697646294
 30
0.0
 11
1177.716485889246
 21
153.0549697646294
 31
0.0
  0
LINE
  5
1415
330
74
100
AcDbEntity
  8
1
 62
   255
100
AcDbLine
 10
1177.716485889246
 20
153.0549697646294
 30
0.0
 11
1183.316485889246
 21
153.0549697646294
 31
0.0
  0
LINE
  5
1416
330
74
100
AcDbEntity
  8
1
 62
   255
100
AcDbLine
 10
1177.716485889246
 20
152.8549697646294
 30
0.0
 11
1183.316485889246
 21
152.8549697646294
 31
0.0
  0
LINE
  5
1417
330
74
100
AcDbEntity
  8
1
 62
   255
100
AcDbLine
 10
1177.716485889246
 20
162.8549697646293
 30
0.0
 11
1177.716485889246
 21
163.0549697646293
 31
0.0
  0
LINE
  5
1418
330
74
100
AcDbEntity
  8
1
 62
   255
100
AcDbLine
 10
1183.316485889246
 20
162.8549697646293
 30
0.0
 11
1177.716485889246
 21
162.8549697646293
 31
0.0
  0
LINE
  5
1419
330
74
100
AcDbEntity
  8
1
 62
   255
100
AcDbLine
 10
1183.316485889246
 20
163.0549697646293
 30
0.0
 11
1177.716485889246
 21
163.0549697646293
 31
0.0
  0
LINE
  5
141A
330
74
100
AcDbEntity
  8
1
  6
CENTER
 62
     2
100
AcDbLine
 10
1137.394249742872
 20
146.9549697646294
 30
0.0
 11
1137.394249742872
 21
168.9549697646293
 31
0.0
  0
LINE
  5
141B
330
74
100
AcDbEntity
  8
1
  6
CENTER
 62
     2
100
AcDbLine
 10
1244.583583219574
 20
157.9549697646294
 30
0.0
 11
1239.677489227542
 21
157.9549697646294
 31
0.0
  0
LINE
  5
141C
330
74
100
AcDbEntity
  8
1
  6
CENTER
 62
     2
100
AcDbLine
 10
1250.677489227542
 20
155.9885344471144
 30
0.0
 11
1250.677489227542
 21
146.9549697646291
 31
0.0
  0
LINE
  5
141D
330
74
100
AcDbEntity
  8
1
  6
CENTER
 62
     2
100
AcDbLine
 10
1250.677489227542
 20
168.9549697646296
 30
0.0
 11
1250.677489227542
 21
159.9935431159644
 31
0.0
  0
LINE
  5
141E
330
74
100
AcDbEntity
  8
1
  6
CENTER
 62
     2
100
AcDbLine
 10
1261.677489227542
 20
157.9549697646294
 30
0.0
 11
1256.05363395261
 21
157.9549697646294
 31
0.0
  0
LINE
  5
141F
330
74
100
AcDbEntity
  8
1
 62
     3
100
AcDbLine
 10
1249.677489227542
 20
162.8049697646294
 30
0.0
 11
1251.677489227542
 21
162.8049697646294
 31
0.0
  0
LINE
  5
1420
330
74
100
AcDbEntity
  8
1
 62
     3
100
AcDbLine
 10
1251.677489227542
 20
162.8049697646294
 30
0.0
 11
1251.677489227542
 21
163.1049697646294
 31
0.0
  0
LINE
  5
1421
330
74
100
AcDbEntity
  8
1
 62
     3
100
AcDbLine
 10
1251.677489227542
 20
163.1049697646294
 30
0.0
 11
1249.677489227542
 21
163.1049697646294
 31
0.0
  0
LINE
  5
1422
330
74
100
AcDbEntity
  8
1
 62
     3
100
AcDbLine
 10
1249.677489227542
 20
163.1049697646294
 30
0.0
 11
1249.677489227542
 21
162.8049697646294
 31
0.0
  0
LINE
  5
1423
330
74
100
AcDbEntity
  8
1
  6
CENTER
 62
     2
100
AcDbLine
 10
1249.077489227542
 20
162.9549697646294
 30
0.0
 11
1252.002489227543
 21
162.9549697646294
 31
0.0
  0
LINE
  5
1424
330
74
100
AcDbEntity
  8
1
 62
   255
100
AcDbLine
 10
1256.377489227544
 20
159.3549697646294
 30
0.0
 11
1256.377489227544
 21
156.5549697646294
 31
0.0
  0
LINE
  5
1425
330
74
100
AcDbEntity
  8
1
 62
     2
100
AcDbLine
 10
1247.872129822274
 20
158.2822297779218
 30
0.0
 11
1248.530820202031
 21
158.0894641007696
 31
0.0
  0
LINE
  5
1426
330
74
100
AcDbEntity
  8
1
 62
     2
100
AcDbLine
 10
1248.365576919981
 20
158.338898336058
 30
0.0
 11
1248.914748773459
 21
158.338898336058
 31
0.0
  0
LINE
  5
1427
330
74
100
AcDbEntity
  8
1
 62
     2
100
AcDbLine
 10
1247.58735605356
 20
157.8180917007779
 30
0.0
 11
1248.208061754892
 21
157.6924927758712
 31
0.0
  0
LINE
  5
1428
330
74
100
AcDbEntity
  8
1
 62
     2
100
AcDbLine
 10
1247.634986868698
 20
157.5960489825866
 30
0.0
 11
1247.123082106793
 21
157.5960489825866
 31
0.0
  0
LINE
  5
1429
330
74
100
AcDbEntity
  8
1
 62
     2
100
AcDbLine
 10
1247.636826993155
 20
161.0198346043807
 30
0.0
 11
1246.425619652411
 21
158.9219619517102
 31
0.0
  0
LINE
  5
142A
330
74
100
AcDbEntity
  8
1
 62
     2
100
AcDbLine
 10
1246.558616410849
 20
158.8451762374245
 30
0.0
 11
1247.814156004406
 21
161.0198346043807
 31
0.0
  0
LINE
  5
142B
330
74
100
AcDbEntity
  8
1
 62
     2
100
AcDbLine
 10
1247.814156004406
 20
161.0198346043807
 30
0.0
 11
1247.636826993155
 21
161.0198346043807
 31
0.0
  0
LINE
  5
142C
330
74
100
AcDbEntity
  8
1
 62
     2
100
AcDbLine
 10
1247.011309660316
 20
157.7502078598675
 30
0.0
 11
1245.946643382734
 21
157.7502078598675
 31
0.0
  0
LINE
  5
142D
330
74
100
AcDbEntity
  8
1
 62
     2
100
AcDbLine
 10
1246.969510678221
 20
157.5966364312961
 30
0.0
 11
1246.454934002362
 21
157.5966364312961
 31
0.0
  0
LINE
  5
142E
330
74
100
AcDbEntity
  8
1
 62
     2
100
AcDbLine
 10
1245.353365506194
 20
157.0647632918343
 30
0.0
 11
1244.097825912636
 21
154.890104924878
 31
0.0
  0
LINE
  5
142F
330
74
100
AcDbEntity
  8
1
 62
     2
100
AcDbLine
 10
1244.097825912636
 20
154.890104924878
 30
0.0
 11
1244.275154923887
 21
154.890104924878
 31
0.0
  0
LINE
  5
1430
330
74
100
AcDbEntity
  8
1
 62
     2
100
AcDbLine
 10
1244.275154923887
 20
154.890104924878
 30
0.0
 11
1245.486362264631
 21
156.9879775775486
 31
0.0
  0
LINE
  5
1431
330
74
100
AcDbEntity
  8
1
 62
     2
100
AcDbLine
 10
1250.325196564427
 20
157.5799697646294
 30
0.0
 11
1250.884066335641
 21
157.5799697646294
 31
0.0
  0
LINE
  5
1432
330
74
100
AcDbEntity
  8
1
 62
     2
100
AcDbLine
 10
1250.339836420666
 20
158.3049697646294
 30
0.0
 11
1250.890091765853
 21
158.3049697646294
 31
0.0
  0
LINE
  5
1433
330
74
100
AcDbEntity
  8
1
 62
     2
100
AcDbLine
 10
1252.202408261853
 20
157.8896624137734
 30
0.0
 11
1252.202408261853
 21
157.6994934836224
 31
0.0
  0
LINE
  5
1434
330
74
100
AcDbEntity
  8
1
 62
     2
100
AcDbLine
 10
1251.671747683321
 20
157.7368426526367
 30
0.0
 11
1252.148093507078
 21
157.8472452147007
 31
0.0
  0
LINE
  5
1435
330
74
100
AcDbEntity
  8
1
 62
     2
100
AcDbLine
 10
1251.034066335641
 20
158.2987095845812
 30
0.0
 11
1251.553664106775
 21
158.2987095845812
 31
0.0
  0
LINE
  5
1436
330
74
100
AcDbEntity
  8
1
 62
     2
100
AcDbLine
 10
1251.373936257698
 20
158.0629016825163
 30
0.0
 11
1252.026408670449
 21
158.1912048722546
 31
0.0
  0
LINE
  5
1437
330
74
100
AcDbEntity
  8
1
 62
     2
100
AcDbLine
 10
1252.202408261853
 20
157.1152936996557
 30
0.0
 11
1252.242600640717
 21
156.9652936996557
 31
0.0
  0
LINE
  5
1438
330
74
100
AcDbEntity
  8
1
 62
     2
100
AcDbLine
 10
1252.814376479328
 20
156.9652936996557
 30
0.0
 11
1252.242600640717
 21
156.9652936996557
 31
0.0
  0
LINE
  5
1439
330
74
100
AcDbEntity
  8
1
 62
     2
100
AcDbLine
 10
1252.752408261853
 20
157.1152936996557
 30
0.0
 11
1252.752408261853
 21
158.3852955757325
 31
0.0
  0
LINE
  5
143A
330
74
100
AcDbEntity
  8
1
 62
     2
100
AcDbLine
 10
1253.514376479328
 20
158.7141784820556
 30
0.0
 11
1253.514376479328
 21
158.9141784820556
 31
0.0
  0
LINE
  5
143B
330
74
100
AcDbEntity
  8
1
 62
     2
100
AcDbLine
 10
1253.514376479328
 20
158.9141784820556
 30
0.0
 11
1252.964376479329
 21
158.9141784820556
 31
0.0
  0
LINE
  5
143C
330
74
100
AcDbEntity
  8
1
 62
     2
100
AcDbLine
 10
1252.964376479329
 20
158.9141784820556
 30
0.0
 11
1252.964376479329
 21
156.3641784820556
 31
0.0
  0
LINE
  5
143D
330
74
100
AcDbEntity
  8
1
 62
     2
100
AcDbLine
 10
1252.964376479329
 20
156.3641784820556
 30
0.0
 11
1253.514376479328
 21
156.3641784820556
 31
0.0
  0
LINE
  5
143E
330
74
100
AcDbEntity
  8
1
 62
     2
100
AcDbLine
 10
1253.514376479328
 20
156.3641784820556
 30
0.0
 11
1253.514376479328
 21
157.1641784820556
 31
0.0
  0
LINE
  5
143F
330
74
100
AcDbEntity
  8
1
 62
     2
100
AcDbLine
 10
1246.409765749044
 20
158.9295021855809
 30
0.0
 11
1246.177840488448
 21
158.5277958506686
 31
0.0
  0
LINE
  5
1440
330
74
100
AcDbEntity
  8
1
 62
     2
100
AcDbLine
 10
1246.573073396615
 20
158.8352164712953
 30
0.0
 11
1246.341148136018
 21
158.4335101363828
 31
0.0
  0
LINE
  5
1441
330
74
100
AcDbEntity
  8
1
 62
     2
100
AcDbLine
 10
1245.376836832978
 20
158.1597316693913
 30
0.0
 11
1245.965338534307
 21
158.1597316693913
 31
0.0
  0
LINE
  5
1442
330
74
100
AcDbEntity
  8
1
 62
     2
100
AcDbLine
 10
1245.728899852639
 20
157.7502078598675
 30
0.0
 11
1245.965338534307
 21
158.1597316693913
 31
0.0
  0
LINE
  5
1443
330
74
100
AcDbEntity
  8
1
 62
     2
100
AcDbLine
 10
1245.728899852639
 20
157.7502078598675
 30
0.0
 11
1245.376836832978
 21
157.7502078598675
 31
0.0
  0
LINE
  5
1444
330
74
100
AcDbEntity
  8
1
 62
     2
100
AcDbLine
 10
1246.183082064402
 20
158.1597316693913
 30
0.0
 11
1245.946643382734
 21
157.7502078598675
 31
0.0
  0
LINE
  5
1445
330
74
100
AcDbEntity
  8
1
 62
     2
100
AcDbLine
 10
1246.183082064402
 20
158.1597316693913
 30
0.0
 11
1246.535145084064
 21
158.1597316693913
 31
0.0
  0
LINE
  5
1446
330
74
100
AcDbEntity
  8
1
 62
     2
100
AcDbLine
 10
1245.734141428594
 20
157.3821436785903
 30
0.0
 11
1245.502216167998
 21
156.9804373436779
 31
0.0
  0
LINE
  5
1447
330
74
100
AcDbEntity
  8
1
 62
     2
100
AcDbLine
 10
1245.338908520428
 20
157.0747230579635
 30
0.0
 11
1245.570833781024
 21
157.4764293928759
 31
0.0
  0
LINE
  5
1448
330
74
100
AcDbEntity
  8
1
 62
     3
100
AcDbLine
 10
1253.177489227542
 20
163.4549697646294
 30
0.0
 11
1253.287489227542
 21
163.5649697646294
 31
0.0
  0
LINE
  5
1449
330
74
100
AcDbEntity
  8
1
 62
     3
100
AcDbLine
 10
1253.177489227542
 20
163.4549697646294
 30
0.0
 11
1253.067489227542
 21
163.5649697646294
 31
0.0
  0
LINE
  5
144A
330
74
100
AcDbEntity
  8
1
 62
     3
100
AcDbLine
 10
1253.067489227542
 20
163.3449697646294
 30
0.0
 11
1253.177489227542
 21
163.4549697646294
 31
0.0
  0
LINE
  5
144B
330
74
100
AcDbEntity
  8
1
 62
     3
100
AcDbLine
 10
1253.287489227542
 20
162.8149697646294
 30
0.0
 11
1253.177489227542
 21
162.7049697646294
 31
0.0
  0
LINE
  5
144C
330
74
100
AcDbEntity
  8
1
 62
     3
100
AcDbLine
 10
1253.177489227542
 20
162.7049697646294
 30
0.0
 11
1253.067489227542
 21
162.8149697646294
 31
0.0
  0
LINE
  5
144D
330
74
100
AcDbEntity
  8
1
 62
     3
100
AcDbLine
 10
1252.537489227542
 20
163.3449697646294
 30
0.0
 11
1252.427489227542
 21
163.4549697646294
 31
0.0
  0
LINE
  5
144E
330
74
100
AcDbEntity
  8
1
 62
     3
100
AcDbLine
 10
1253.177489227542
 20
164.2049697646294
 30
0.0
 11
1253.067489227542
 21
164.0949697646294
 31
0.0
  0
LINE
  5
144F
330
74
100
AcDbEntity
  8
1
 62
     3
100
AcDbLine
 10
1253.177489227542
 20
164.2049697646294
 30
0.0
 11
1253.287489227542
 21
164.0949697646294
 31
0.0
  0
LINE
  5
1450
330
74
100
AcDbEntity
  8
1
 62
     3
100
AcDbLine
 10
1253.927489227542
 20
163.4549697646294
 30
0.0
 11
1253.817489227542
 21
163.5649697646294
 31
0.0
  0
LINE
  5
1451
330
74
100
AcDbEntity
  8
1
 62
     3
100
AcDbLine
 10
1253.927489227542
 20
163.4549697646294
 30
0.0
 11
1253.817489227542
 21
163.3449697646294
 31
0.0
  0
LINE
  5
1452
330
74
100
AcDbEntity
  8
1
 62
     3
100
AcDbLine
 10
1252.537489227542
 20
163.5649697646294
 30
0.0
 11
1252.427489227542
 21
163.4549697646294
 31
0.0
  0
LINE
  5
1453
330
74
100
AcDbEntity
  8
1
 62
     3
100
AcDbLine
 10
1253.817489227542
 20
163.3449697646294
 30
0.0
 11
1253.287489227542
 21
163.3449697646294
 31
0.0
  0
LINE
  5
1454
330
74
100
AcDbEntity
  8
1
 62
     3
100
AcDbLine
 10
1253.067489227542
 20
163.3449697646294
 30
0.0
 11
1252.537489227542
 21
163.3449697646294
 31
0.0
  0
LINE
  5
1455
330
74
100
AcDbEntity
  8
1
 62
     3
100
AcDbLine
 10
1253.927489227542
 20
163.4549697646294
 30
0.0
 11
1252.427489227542
 21
163.4549697646294
 31
0.0
  0
LINE
  5
1456
330
74
100
AcDbEntity
  8
1
 62
     3
100
AcDbLine
 10
1253.817489227542
 20
163.5649697646294
 30
0.0
 11
1253.287489227542
 21
163.5649697646294
 31
0.0
  0
LINE
  5
1457
330
74
100
AcDbEntity
  8
1
 62
     3
100
AcDbLine
 10
1253.067489227542
 20
163.5649697646294
 30
0.0
 11
1252.537489227542
 21
163.5649697646294
 31
0.0
  0
LINE
  5
1458
330
74
100
AcDbEntity
  8
1
 62
     3
100
AcDbLine
 10
1253.287489227542
 20
162.8149697646294
 30
0.0
 11
1253.287489227542
 21
163.3449697646294
 31
0.0
  0
LINE
  5
1459
330
74
100
AcDbEntity
  8
1
 62
     3
100
AcDbLine
 10
1253.287489227542
 20
163.5649697646294
 30
0.0
 11
1253.287489227542
 21
164.0949697646294
 31
0.0
  0
LINE
  5
145A
330
74
100
AcDbEntity
  8
1
 62
     3
100
AcDbLine
 10
1253.067489227542
 20
162.8149697646294
 30
0.0
 11
1253.067489227542
 21
163.3449697646294
 31
0.0
  0
LINE
  5
145B
330
74
100
AcDbEntity
  8
1
 62
     3
100
AcDbLine
 10
1253.067489227542
 20
163.5649697646294
 30
0.0
 11
1253.067489227542
 21
164.0949697646294
 31
0.0
  0
LINE
  5
145C
330
74
100
AcDbEntity
  8
1
 62
     3
100
AcDbLine
 10
1253.287489227542
 20
163.3449697646294
 30
0.0
 11
1253.177489227542
 21
163.4549697646294
 31
0.0
  0
LINE
  5
145D
330
74
100
AcDbEntity
  8
1
 62
     3
100
AcDbLine
 10
1253.177489227542
 20
164.2049697646294
 30
0.0
 11
1253.177489227542
 21
162.7049697646294
 31
0.0
  0
LINE
  5
145E
330
74
100
AcDbEntity
  8
1
 62
   255
100
AcDbLine
 10
1256.977489227543
 20
155.9549697646294
 30
0.0
 11
1258.113213805552
 21
155.9549697646294
 31
0.0
  0
LINE
  5
145F
330
74
100
AcDbEntity
  8
1
 62
   255
100
AcDbLine
 10
1258.113213805552
 20
159.9549697646294
 30
0.0
 11
1256.977489227543
 21
159.9549697646294
 31
0.0
  0
LINE
  5
1460
330
74
100
AcDbEntity
  8
1
  6
CENTER
 62
     2
100
AcDbLine
 10
1252.277489227543
 20
152.9549697646294
 30
0.0
 11
1249.077489227542
 21
152.9549697646294
 31
0.0
  0
LINE
  5
1461
330
74
100
AcDbEntity
  8
1
 62
     3
100
AcDbLine
 10
1251.677489227542
 20
153.1049697646294
 30
0.0
 11
1249.677489227542
 21
153.1049697646294
 31
0.0
  0
LINE
  5
1462
330
74
100
AcDbEntity
  8
1
 62
     3
100
AcDbLine
 10
1251.677489227542
 20
152.8049697646294
 30
0.0
 11
1251.677489227542
 21
153.1049697646294
 31
0.0
  0
LINE
  5
1463
330
74
100
AcDbEntity
  8
1
 62
     3
100
AcDbLine
 10
1249.677489227542
 20
152.8049697646294
 30
0.0
 11
1251.677489227542
 21
152.8049697646294
 31
0.0
  0
LINE
  5
1464
330
74
100
AcDbEntity
  8
1
 62
     3
100
AcDbLine
 10
1249.677489227542
 20
153.1049697646294
 30
0.0
 11
1249.677489227542
 21
152.8049697646294
 31
0.0
  0
LINE
  5
1465
330
74
100
AcDbEntity
  8
1
 62
     3
100
AcDbLine
 10
1183.316485889246
 20
161.0198346043807
 30
0.0
 11
1183.216485889246
 21
161.0198346043807
 31
0.0
  0
LINE
  5
1466
330
74
100
AcDbEntity
  8
1
 62
     3
100
AcDbLine
 10
1183.216485889246
 20
161.0198346043807
 30
0.0
 11
1183.216485889246
 21
154.890104924878
 31
0.0
  0
LINE
  5
1467
330
74
100
AcDbEntity
  8
1
 62
     3
100
AcDbLine
 10
1183.216485889246
 20
154.890104924878
 30
0.0
 11
1183.316485889246
 21
154.890104924878
 31
0.0
  0
LINE
  5
1468
330
74
100
AcDbEntity
  8
1
 62
   255
100
AcDbLine
 10
1183.816485889246
 20
150.2549697646294
 30
0.0
 11
1183.816485889246
 21
150.3655033802252
 31
0.0
  0
LINE
  5
1469
330
74
100
AcDbEntity
  8
1
 62
   255
100
AcDbLine
 10
1183.816485889246
 20
150.3655033802252
 30
0.0
 11
1184.916485889246
 21
150.3655033802252
 31
0.0
  0
LINE
  5
146A
330
74
100
AcDbEntity
  8
1
 62
   255
100
AcDbLine
 10
1184.916485889246
 20
150.3655033802252
 30
0.0
 11
1184.916485889246
 21
149.9549697646294
 31
0.0
  0
LINE
  5
146B
330
74
100
AcDbEntity
  8
1
 62
   255
100
AcDbLine
 10
1183.816485889246
 20
165.5444361490336
 30
0.0
 11
1183.816485889246
 21
165.6549697646294
 31
0.0
  0
LINE
  5
146C
330
74
100
AcDbEntity
  8
1
 62
   255
100
AcDbLine
 10
1183.816485889246
 20
165.5444361490336
 30
0.0
 11
1184.916485889246
 21
165.5444361490336
 31
0.0
  0
LINE
  5
146D
330
74
100
AcDbEntity
  8
1
 62
   255
100
AcDbLine
 10
1184.916485889246
 20
159.9549697646294
 30
0.0
 11
1184.916485889246
 21
155.9549697646294
 31
0.0
  0
LINE
  5
146E
330
74
100
AcDbEntity
  8
1
 62
   255
100
AcDbLine
 10
1183.316485889246
 20
155.9549697646294
 30
0.0
 11
1184.916485889246
 21
155.9549697646294
 31
0.0
  0
LINE
  5
146F
330
74
100
AcDbEntity
  8
1
 62
   255
100
AcDbLine
 10
1184.916485889246
 20
155.9549697646294
 30
0.0
 11
1184.916485889246
 21
150.3655033802252
 31
0.0
  0
LINE
  5
1470
330
74
100
AcDbEntity
  8
1
 62
     2
100
AcDbLine
 10
1209.166485889246
 20
158.4549697646294
 30
0.0
 11
1209.166485889246
 21
157.4549697646294
 31
0.0
  0
LINE
  5
1474
330
74
100
AcDbEntity
  8
1
  6
CENTER
 62
     2
100
AcDbLine
 10
1195.906509912696
 20
157.9549697646294
 30
0.0
 11
1180.716485889246
 21
157.9549697646294
 31
0.0
  0
ARC
  5
1475
330
74
100
AcDbEntity
  8
1
 62
     2
100
AcDbCircle
 10
1132.394249742872
 20
157.9549697646294
 30
0.0
 40
0.7999999999999968
100
AcDbArc
 50
149.9999999999979
 51
60.00000000000007
  0
ARC
  5
1476
330
74
100
AcDbEntity
  8
1
 62
     2
100
AcDbCircle
 10
1142.394249742872
 20
157.9549697646293
 30
0.0
 40
0.8
100
AcDbArc
 50
149.9999999999979
 51
60.00000000000007
  0
ARC
  5
1477
330
74
100
AcDbEntity
  8
1
 62
   255
100
AcDbCircle
 10
1258.463751146196
 20
153.459569349914
 30
0.0
 40
1.199999999999985
100
AcDbArc
 50
110.5905893268031
 51
189.4094106731925
  0
ARC
  5
1478
330
74
100
AcDbEntity
  8
1
 62
   255
100
AcDbCircle
 10
1246.182088812828
 20
150.1687078459762
 30
0.0
 40
1.199999999999989
100
AcDbArc
 50
20.59058932680409
 51
99.40941067319036
  0
ARC
  5
1479
330
74
100
AcDbEntity
  8
1
 62
   255
100
AcDbCircle
 10
1242.891227308889
 20
162.4503701793446
 30
0.0
 40
1.199999999999959
100
AcDbArc
 50
290.5905893268031
 51
9.409410673194859
  0
ARC
  5
147A
330
74
100
AcDbEntity
  8
1
 62
   255
100
AcDbCircle
 10
1255.172889642257
 20
165.7412316832826
 30
0.0
 40
1.199999999999989
100
AcDbArc
 50
200.5905893267976
 51
279.4094106731969
  0
ARC
  5
147B
330
74
100
AcDbEntity
  8
1
 62
     2
100
AcDbCircle
 10
1248.386713408109
 20
157.5702898855297
 30
0.0
 40
0.5388029638231388
100
AcDbArc
 50
359.1861407882213
 51
74.48698187539638
  0
ARC
  5
147C
330
74
100
AcDbEntity
  8
1
 62
     2
100
AcDbCircle
 10
1247.982849947245
 20
158.6463365072877
 30
0.0
 40
0.3805688590034354
100
AcDbArc
 50
235.696760158238
 51
253.0861649824471
  0
ARC
  5
147D
330
74
100
AcDbEntity
  8
1
 62
     2
100
AcDbCircle
 10
1247.839256694007
 20
158.4324743336786
 30
0.0
 40
0.1229940719050701
100
AcDbArc
 50
186.2935651103851
 51
234.8072788277046
  0
ARC
  5
147E
330
74
100
AcDbEntity
  8
1
 62
     2
100
AcDbCircle
 10
1247.830992807679
 20
158.4289417740766
 30
0.0
 40
0.1144224065583335
100
AcDbArc
 50
128.5264603545986
 51
184.9888463425998
  0
ARC
  5
147F
330
74
100
AcDbEntity
  8
1
 62
     2
100
AcDbCircle
 10
1247.959689537678
 20
158.2841746700965
 30
0.0
 40
0.3080181605269808
100
AcDbArc
 50
103.7041217147225
 51
130.4818774695303
  0
ARC
  5
1480
330
74
100
AcDbEntity
  8
1
 62
     2
100
AcDbCircle
 10
1248.01934535944
 20
158.0718119993276
 30
0.0
 40
0.5285235767160171
100
AcDbArc
 50
86.03090563874175
 51
104.5331539160754
  0
ARC
  5
1481
330
74
100
AcDbEntity
  8
1
 62
     2
100
AcDbCircle
 10
1248.036601766197
 20
158.1872446369359
 30
0.0
 40
0.4122765603608709
100
AcDbArc
 50
58.78128796638889
 51
87.31304329837973
  0
ARC
  5
1482
330
74
100
AcDbEntity
  8
1
 62
     2
100
AcDbCircle
 10
1248.104450609995
 20
158.3226023433555
 30
0.0
 40
0.2616343042214046
100
AcDbArc
 50
3.571001014405179
 51
56.12335878194303
  0
ARC
  5
1483
330
74
100
AcDbEntity
  8
1
 62
     2
100
AcDbCircle
 10
1248.205682463847
 20
158.31118283955
 30
0.0
 40
0.7096077650176344
100
AcDbArc
 50
2.238398554162507
 51
34.71936976183865
  0
ARC
  5
1484
330
74
100
AcDbEntity
  8
1
 62
     2
100
AcDbCircle
 10
1248.142609751843
 20
158.1238048656386
 30
0.0
 40
0.8761678430719477
100
AcDbArc
 50
42.46541222154625
 51
72.72164514032154
  0
ARC
  5
1485
330
74
100
AcDbEntity
  8
1
 62
     2
100
AcDbCircle
 10
1248.014143117825
 20
157.3438839729504
 30
0.0
 40
1.662625093780645
100
AcDbArc
 50
76.47984166369169
 51
96.57353133685431
  0
ARC
  5
1486
330
74
100
AcDbEntity
  8
1
 62
     2
100
AcDbCircle
 10
1247.949733061602
 20
158.0058096431236
 30
0.0
 40
0.9977471897575835
100
AcDbArc
 50
97.25055933151143
 51
122.2666272671059
  0
ARC
  5
1487
330
74
100
AcDbEntity
  8
1
 62
     2
100
AcDbCircle
 10
1247.694748998137
 20
158.4373856075774
 30
0.0
 40
0.4969127196635342
100
AcDbArc
 50
123.9726205933002
 51
186.9427422585869
  0
ARC
  5
1488
330
74
100
AcDbEntity
  8
1
 62
     2
100
AcDbCircle
 10
1247.770728583845
 20
158.3573659588879
 30
0.0
 40
0.5695982885536856
100
AcDbArc
 50
177.9924068873782
 51
251.2201303928542
  0
ARC
  5
1489
330
74
100
AcDbEntity
  8
1
 62
     2
100
AcDbCircle
 10
1248.134835099574
 20
157.3048087698145
 30
0.0
 40
0.3945390115073839
100
AcDbArc
 50
64.63671819957339
 51
79.30385255034285
  0
ARC
  5
148A
330
74
100
AcDbEntity
  8
1
 62
     2
100
AcDbCircle
 10
1248.203613167673
 20
157.5196167381706
 30
0.0
 40
0.1735637416289202
100
AcDbArc
 50
293.5019610927963
 51
54.7283054396192
  0
ARC
  5
148B
330
74
100
AcDbEntity
  8
1
 62
     2
100
AcDbCircle
 10
1248.020350180146
 20
158.0405841394828
 30
0.0
 40
0.7254832859422323
100
AcDbArc
 50
252.2571000899995
 51
290.3657620762392
  0
ARC
  5
148C
330
74
100
AcDbEntity
  8
1
 62
     2
100
AcDbCircle
 10
1247.902877903462
 20
157.5966513674655
 30
0.0
 40
0.2678917120307123
100
AcDbArc
 50
180.1288361630428
 51
247.2455026943762
  0
ARC
  5
148D
330
74
100
AcDbEntity
  8
1
 62
     2
100
AcDbCircle
 10
1247.889802866056
 20
157.6818491692484
 30
0.0
 40
0.7715065746422372
100
AcDbArc
 50
186.3851417398388
 51
269.0211949597616
  0
ARC
  5
148E
330
74
100
AcDbEntity
  8
1
 62
     2
100
AcDbCircle
 10
1248.019537562955
 20
158.8838265603026
 30
0.0
 40
1.978539625436219
100
AcDbArc
 50
265.8578006350345
 51
280.6565302443233
  0
ARC
  5
148F
330
74
100
AcDbEntity
  8
1
 62
     2
100
AcDbCircle
 10
1248.284031219729
 20
157.5822773776195
 30
0.0
 40
0.6508120230899505
100
AcDbArc
 50
278.9617243080944
 51
348.3217181094084
  0
ARC
  5
1490
330
74
100
AcDbEntity
  8
1
 62
     2
100
AcDbCircle
 10
1248.335116027329
 20
157.5280594502358
 30
0.0
 40
0.5913577368655762
100
AcDbArc
 50
352.4678246460811
 51
3.352051021683305
  0
ARC
  5
1491
330
74
100
AcDbEntity
  8
1
 62
     2
100
AcDbCircle
 10
1245.955990958522
 20
157.9549697646294
 30
0.0
 40
1.075000000000015
100
AcDbArc
 50
55.90395624184647
 51
64.09604375814999
  0
ARC
  5
1492
330
74
100
AcDbEntity
  8
1
 62
     2
100
AcDbCircle
 10
1245.955990958522
 20
157.9549697646294
 30
0.0
 40
1.075000000000023
100
AcDbArc
 50
234.9682569884531
 51
235.9039562418465
  0
ARC
  5
1493
330
74
100
AcDbEntity
  8
1
 62
     2
100
AcDbCircle
 10
1245.955990958522
 20
157.9549697646294
 30
0.0
 40
0.614285714285666
100
AcDbArc
 50
68.82913730888899
 51
160.5287793655141
  0
ARC
  5
1494
330
74
100
AcDbEntity
  8
1
 62
     2
100
AcDbCircle
 10
1245.955990958522
 20
157.9549697646294
 30
0.0
 40
1.074999999999979
100
AcDbArc
 50
54.96825698846908
 51
55.90395624184647
  0
ARC
  5
1495
330
74
100
AcDbEntity
  8
1
 62
     2
100
AcDbCircle
 10
1245.955990958522
 20
157.9549697646294
 30
0.0
 40
0.614285714285657
100
AcDbArc
 50
248.829137308868
 51
324.314665287345
  0
ARC
  5
1496
330
74
100
AcDbEntity
  8
1
 62
     2
100
AcDbCircle
 10
1245.955990958522
 20
157.9549697646294
 30
0.0
 40
1.074999999999987
100
AcDbArc
 50
245.0317430115384
 51
340.5287793655113
  0
ARC
  5
1497
330
74
100
AcDbEntity
  8
1
 62
     2
100
AcDbCircle
 10
1245.955990958522
 20
157.9549697646294
 30
0.0
 40
1.075000000000039
100
AcDbArc
 50
235.9039562418465
 51
244.0960437581501
  0
ARC
  5
1498
330
74
100
AcDbEntity
  8
1
 62
     2
100
AcDbCircle
 10
1249.915390146618
 20
157.8367365541368
 30
0.0
 40
0.4836015759598677
100
AcDbArc
 50
305.4684144888863
 51
327.9305401430972
  0
ARC
  5
1499
330
74
100
AcDbEntity
  8
1
 62
     2
100
AcDbCircle
 10
1250.002182841206
 20
157.7104346025533
 30
0.0
 40
0.3303851981792061
100
AcDbArc
 50
230.0917370479805
 51
305.9193432639916
  0
ARC
  5
149A
330
74
100
AcDbEntity
  8
1
 62
     2
100
AcDbCircle
 10
1250.12302826716
 20
157.8657154287169
 30
0.0
 40
0.5270719857531332
100
AcDbArc
 50
202.0939454835057
 51
230.8445232966038
  0
ARC
  5
149B
330
74
100
AcDbEntity
  8
1
 62
     2
100
AcDbCircle
 10
1250.325415231848
 20
157.9549697646294
 30
0.0
 40
0.7481971655607742
100
AcDbArc
 50
157.4023781944875
 51
202.5976218055124
  0
ARC
  5
149C
330
74
100
AcDbEntity
  8
1
 62
     2
100
AcDbCircle
 10
1250.12302826716
 20
158.0442241005419
 30
0.0
 40
0.527071985753084
100
AcDbArc
 50
129.1554767034047
 51
157.9060545164943
  0
ARC
  5
149D
330
74
100
AcDbEntity
  8
1
 62
     2
100
AcDbCircle
 10
1250.002182841206
 20
158.1995049267054
 30
0.0
 40
0.3303851981791695
100
AcDbArc
 50
54.08065673602421
 51
129.9082629520194
  0
ARC
  5
149E
330
74
100
AcDbEntity
  8
1
 62
     2
100
AcDbCircle
 10
1249.915390146618
 20
158.0732029751219
 30
0.0
 40
0.4836015759599257
100
AcDbArc
 50
28.63652889743028
 51
54.53158551112187
  0
ARC
  5
149F
330
74
100
AcDbEntity
  8
1
 62
     2
100
AcDbCircle
 10
1249.927293937087
 20
158.0248451671431
 30
0.0
 40
1.00272102261456
100
AcDbArc
 50
16.22227620512046
 51
52.86102797304688
  0
ARC
  5
14A0
330
74
100
AcDbEntity
  8
1
 62
     2
100
AcDbCircle
 10
1250.002116364387
 20
157.9985568030966
 30
0.0
 40
0.9814131476799595
100
AcDbArc
 50
57.27420254208591
 51
136.0502188068098
  0
ARC
  5
14A1
330
74
100
AcDbEntity
  8
1
 62
     2
100
AcDbCircle
 10
1250.059342302606
 20
157.9907096399398
 30
0.0
 40
1.028623299164499
100
AcDbArc
 50
137.9481366576458
 51
176.0205507906637
  0
ARC
  5
14A2
330
74
100
AcDbEntity
  8
1
 62
     2
100
AcDbCircle
 10
1250.053957391001
 20
157.9345296046199
 30
0.0
 40
1.028698467137294
100
AcDbArc
 50
172.8766239739134
 51
235.5985041754798
  0
ARC
  5
14A3
330
74
100
AcDbEntity
  8
1
 62
     2
100
AcDbCircle
 10
1250.00248889116
 20
157.9086511531313
 30
0.0
 40
0.97866329669831
100
AcDbArc
 50
237.2289410863249
 51
309.0427997753126
  0
ARC
  5
14A4
330
74
100
AcDbEntity
  8
1
 62
     2
100
AcDbCircle
 10
1250.179681629594
 20
157.7156557815739
 30
0.0
 40
0.7173343079112118
100
AcDbArc
 50
307.760459910636
 51
349.0966350619435
  0
ARC
  5
14A5
330
74
100
AcDbEntity
  8
1
 62
     2
100
AcDbCircle
 10
1251.702713980263
 20
157.5510320412075
 30
0.0
 40
0.1905621477568069
100
AcDbArc
 50
131.58964758017
 51
252.8159919270066
  0
ARC
  5
14A6
330
74
100
AcDbEntity
  8
1
 62
     2
100
AcDbCircle
 10
1251.798693537536
 20
157.7963788393385
 30
0.0
 40
0.4537200381544129
100
AcDbArc
 50
250.3894893354079
 51
316.952901625654
  0
ARC
  5
14A7
330
74
100
AcDbEntity
  8
1
 62
     2
100
AcDbCircle
 10
1251.84569840849
 20
157.7017668705759
 30
0.0
 40
0.3567170976755327
100
AcDbArc
 50
322.9156222189745
 51
359.6348468849811
  0
ARC
  5
14A8
330
74
100
AcDbEntity
  8
1
 62
     2
100
AcDbCircle
 10
1252.133450023696
 20
157.9219793546236
 30
0.0
 40
0.0761552577016298
100
AcDbArc
 50
281.0861410469224
 51
334.8900926194238
  0
ARC
  5
14A9
330
74
100
AcDbEntity
  8
1
 62
     2
100
AcDbCircle
 10
1251.792151383914
 20
157.3440719911588
 30
0.0
 40
0.4108112019339221
100
AcDbArc
 50
107.0429014412722
 51
121.7100357920579
  0
ARC
  5
14AA
330
74
100
AcDbEntity
  8
1
 62
     2
100
AcDbCircle
 10
1251.969507965154
 20
157.9656208916468
 30
0.0
 40
0.9977471897576023
100
AcDbArc
 50
57.73337273290165
 51
82.74944066849514
  0
ARC
  5
14AB
330
74
100
AcDbEntity
  8
1
 62
     2
100
AcDbCircle
 10
1251.908515032392
 20
157.5649182155266
 30
0.0
 40
1.402978733492052
100
AcDbArc
 50
82.34378391563009
 51
104.9757465340326
  0
ARC
  5
14AC
330
74
100
AcDbEntity
  8
1
 62
     2
100
AcDbCircle
 10
1251.767356898705
 20
158.2163354938202
 30
0.0
 40
0.7379027989559354
100
AcDbArc
 50
107.4588209309883
 51
173.5905571643492
  0
ARC
  5
14AD
330
74
100
AcDbEntity
  8
1
 62
     2
100
AcDbCircle
 10
1251.814790416762
 20
158.2824135918787
 30
0.0
 40
0.2616343042215377
100
AcDbArc
 50
122.1554758653637
 51
176.4289989855899
  0
ARC
  5
14AE
330
74
100
AcDbEntity
  8
1
 62
     2
100
AcDbCircle
 10
1251.903694688323
 20
158.0727155726732
 30
0.0
 40
0.4878378852445107
100
AcDbArc
 50
74.68763965666494
 51
117.8836563148277
  0
ARC
  5
14AF
330
74
100
AcDbEntity
  8
1
 62
     2
100
AcDbCircle
 10
1251.955127495702
 20
158.2336131698346
 30
0.0
 40
0.3191490062903121
100
AcDbArc
 50
51.51696063121316
 51
75.96542806312372
  0
ARC
  5
14B0
330
74
100
AcDbEntity
  8
1
 62
     2
100
AcDbCircle
 10
1252.079131579895
 20
158.3852955757325
 30
0.0
 40
0.1232766819566962
100
AcDbArc
 50
0.0
 51
52.76269019625493
  0
ARC
  5
14B1
330
74
100
AcDbEntity
  8
1
 62
     2
100
AcDbCircle
 10
1252.00550747228
 20
158.3870006024577
 30
0.0
 40
0.1969081716197323
100
AcDbArc
 50
276.0932501958406
 51
359.5038699748774
  0
ARC
  5
14B2
330
74
100
AcDbEntity
  8
1
 62
     2
100
AcDbCircle
 10
1251.505814416153
 20
157.5089200965451
 30
0.0
 40
0.5694624186657751
100
AcDbArc
 50
103.3903229930321
 51
156.8471072650267
  0
ARC
  5
14B3
330
74
100
AcDbEntity
  8
1
 62
     2
100
AcDbCircle
 10
1251.43406633564
 20
157.5187400382306
 30
0.0
 40
0.5000000000000541
100
AcDbArc
 50
154.648551110034
 51
223.1100370045297
  0
ARC
  5
14B4
330
74
100
AcDbEntity
  8
1
 62
     2
100
AcDbCircle
 10
1251.641660673259
 20
157.7130716062983
 30
0.0
 40
0.7843592223910233
100
AcDbArc
 50
223.1100370045297
 51
284.5342506250621
  0
ARC
  5
14B5
330
74
100
AcDbEntity
  8
1
 62
     2
100
AcDbCircle
 10
1251.529049783876
 20
158.14196785206
 30
0.0
 40
1.227791291334791
100
AcDbArc
 50
284.5982688476189
 51
303.2594211752122
  0
ARC
  5
14B6
330
74
100
AcDbEntity
  8
1
 62
     2
100
AcDbCircle
 10
1252.926271939998
 20
157.0993203145222
 30
0.0
 40
0.1745958980366353
100
AcDbArc
 50
174.7507982057934
 51
230.1423410222319
  0
ARC
  5
14B7
330
74
100
AcDbEntity
  8
1
 62
     2
100
AcDbCircle
 10
1252.263551944039
 20
158.3826140872563
 30
0.0
 40
0.4888636720463444
100
AcDbArc
 50
0.3142772754630992
 51
60.78437105940903
  0
ARC
  5
14B8
330
74
100
AcDbEntity
  8
1
 62
     2
100
AcDbCircle
 10
1253.910410667695
 20
158.1415144543182
 30
0.0
 40
0.3730276136189323
100
AcDbArc
 50
87.47008502281417
 51
136.5799055420052
  0
ARC
  5
14B9
330
74
100
AcDbEntity
  8
1
 62
     2
100
AcDbCircle
 10
1254.296058268521
 20
157.9574381957207
 30
0.0
 40
0.7906502646428689
100
AcDbArc
 50
146.1442890429885
 51
213.8557109570128
  0
ARC
  5
14BA
330
74
100
AcDbEntity
  8
1
 62
     2
100
AcDbCircle
 10
1253.9503728125
 20
157.7551038659304
 30
0.0
 40
0.3916275847081883
100
AcDbArc
 50
217.4505604600969
 51
266.560380979301
  0
ARC
  5
14BB
330
74
100
AcDbEntity
  8
1
 62
     2
100
AcDbCircle
 10
1253.912232002275
 20
157.7216158852939
 30
0.0
 40
0.3577339928333332
100
AcDbArc
 50
272.3461602088826
 51
321.4559807280528
  0
ARC
  5
14BC
330
74
100
AcDbEntity
  8
1
 62
     2
100
AcDbCircle
 10
1253.683062778278
 20
157.9138511224944
 30
0.0
 40
0.6568022781091703
100
AcDbArc
 50
320.7970028564137
 51
2.210109371242342
  0
ARC
  5
14BD
330
74
100
AcDbEntity
  8
1
 62
     2
100
AcDbCircle
 10
1253.683062778278
 20
157.9645091265615
 30
0.0
 40
0.6568022781091858
100
AcDbArc
 50
357.789890628765
 51
39.20299714359634
  0
ARC
  5
14BE
330
74
100
AcDbEntity
  8
1
 62
     2
100
AcDbCircle
 10
1253.912232002275
 20
158.156744363762
 30
0.0
 40
0.3577339928334582
100
AcDbArc
 50
38.54401927196732
 51
87.65383979111735
  0
ARC
  5
14BF
330
74
100
AcDbEntity
  8
1
 62
     2
100
AcDbCircle
 10
1254.076057009583
 20
158.2111452094453
 30
0.0
 40
0.7540076202663676
100
AcDbArc
 50
87.08691260928448
 51
138.1528172867906
  0
ARC
  5
14C0
330
74
100
AcDbEntity
  8
1
 62
     2
100
AcDbCircle
 10
1254.076057009583
 20
157.667211754666
 30
0.0
 40
0.7540076202664558
100
AcDbArc
 50
221.8471827132098
 51
272.9130873907156
  0
ARC
  5
14C1
330
74
100
AcDbEntity
  8
1
 62
     2
100
AcDbCircle
 10
1253.935622357184
 20
157.9081491145132
 30
0.0
 40
1.009916162051098
100
AcDbArc
 50
280.1950069440624
 51
323.5809410223552
  0
ARC
  5
14C2
330
74
100
AcDbEntity
  8
1
 62
     2
100
AcDbCircle
 10
1253.775553931755
 20
157.9019325032697
 30
0.0
 40
1.139431462527
100
AcDbArc
 50
328.6175359496966
 51
1.873230365027028
  0
ARC
  5
14C3
330
74
100
AcDbEntity
  8
1
 62
     2
100
AcDbCircle
 10
1253.744339960407
 20
157.9632253322949
 30
0.0
 40
1.170283600934485
100
AcDbArc
 50
358.8226101774176
 51
32.07830459275522
  0
ARC
  5
14C4
330
74
100
AcDbEntity
  8
1
 62
     2
100
AcDbCircle
 10
1253.948244733497
 20
157.993208124708
 30
0.0
 40
0.9850802971434642
100
AcDbArc
 50
36.90485018984221
 51
80.29078426813931
  0
ARC
  5
14C5
330
74
100
AcDbEntity
  8
1
 62
     2
100
AcDbCircle
 10
1245.955990958522
 20
157.9549697646294
 30
0.0
 40
1.074999999999969
100
AcDbArc
 50
64.09604375814999
 51
65.03174301155275
  0
ARC
  5
14C6
330
74
100
AcDbEntity
  8
1
 62
     2
100
AcDbCircle
 10
1245.955990958522
 20
157.9549697646294
 30
0.0
 40
1.074999999999909
100
AcDbArc
 50
349.019424572385
 51
54.96825698846908
  0
ARC
  5
14C7
330
74
100
AcDbEntity
  8
1
 62
     2
100
AcDbCircle
 10
1245.955990958522
 20
157.9549697646294
 30
0.0
 40
0.6142857142856509
100
AcDbArc
 50
19.4712206344958
 51
51.17086269113829
  0
ARC
  5
14C8
330
74
100
AcDbEntity
  8
1
 62
     2
100
AcDbCircle
 10
1245.955990958522
 20
157.9549697646294
 30
0.0
 40
1.074999999999969
100
AcDbArc
 50
244.0960437581501
 51
245.0317430115384
  0
ARC
  5
14C9
330
74
100
AcDbEntity
  8
1
 62
     2
100
AcDbCircle
 10
1245.955990958522
 20
157.9549697646294
 30
0.0
 40
1.074999999999904
100
AcDbArc
 50
65.03174301155275
 51
234.9682569884531
  0
ARC
  5
14CA
330
74
100
AcDbEntity
  8
1
 62
     2
100
AcDbCircle
 10
1245.955990958522
 20
157.9549697646294
 30
0.0
 40
0.6142857142858377
100
AcDbArc
 50
199.4712206344859
 51
231.1708626911131
  0
ARC
  5
14CB
330
74
100
AcDbEntity
  8
1
 62
   255
100
AcDbCircle
 10
1250.677489227542
 20
157.9549697646294
 30
0.0
 40
7.700000000000352
100
AcDbArc
 50
15.05465063997989
 51
344.9453493600183
  0
ARC
  5
14CC
330
74
100
AcDbEntity
  8
1
 62
   255
100
AcDbCircle
 10
1250.677489227542
 20
157.9549697646294
 30
0.0
 40
6.281278341185235
100
AcDbArc
 50
342.2977244205827
 51
17.70227557941805
  0
ARC
  5
14CD
330
74
100
AcDbEntity
  8
1
 62
     2
100
AcDbCircle
 10
1250.677489227542
 20
157.9549697646294
 30
0.0
 40
6.781278341185204
100
AcDbArc
 50
342.8466814949079
 51
17.15331850509328
  0
ARC
  5
14CE
330
74
100
AcDbEntity
  8
1
 62
     2
100
AcDbCircle
 10
1250.677489227542
 20
157.9549697646294
 30
0.0
 40
7.000000000000037
100
AcDbArc
 50
343.3984504009775
 51
16.6015495990218
  0
ARC
  5
14CF
330
74
100
AcDbEntity
  8
1
 62
     2
100
AcDbCircle
 10
1250.677489227542
 20
157.9549697646294
 30
0.0
 40
7.550000000000252
100
AcDbArc
 50
344.6389497819862
 51
15.36105021801371
  0
ARC
  5
14D0
330
74
100
AcDbEntity
  8
1
 62
   255
100
AcDbCircle
 10
1250.677489227542
 20
157.9549697646294
 30
0.0
 40
7.650000000000164
100
AcDbArc
 50
344.8446003377077
 51
15.15539966229235
  0
ARC
  5
14D1
330
74
100
AcDbEntity
  8
1
  6
CENTER
 62
     2
100
AcDbCircle
 10
1137.394249742872
 20
157.9549697646293
 30
0.0
 40
5.0
100
AcDbArc
 50
0.0
 51
180.0
  0
ARC
  5
14D2
330
74
100
AcDbEntity
  8
1
  6
CENTER
 62
     2
100
AcDbCircle
 10
1137.394249742872
 20
157.9549697646293
 30
0.0
 40
5.0
100
AcDbArc
 50
180.0
 51
0.0
  0
CIRCLE
  5
14D3
330
74
100
AcDbEntity
  8
1
 62
   255
100
AcDbCircle
 10
1137.394249742872
 20
157.9549697646293
 30
0.0
 40
2.249999999999903
  0
CIRCLE
  5
14D4
330
74
100
AcDbEntity
  8
1
 62
   255
100
AcDbCircle
 10
1137.394249742872
 20
157.9549697646293
 30
0.0
 40
3.0
  0
CIRCLE
  5
14D5
330
74
100
AcDbEntity
  8
1
 62
   255
100
AcDbCircle
 10
1137.394249742872
 20
157.9549697646293
 30
0.0
 40
8.499999999999957
  0
CIRCLE
  5
14D6
330
74
100
AcDbEntity
  8
1
 62
     2
100
AcDbCircle
 10
1137.394249742872
 20
157.9549697646293
 30
0.0
 40
8.0
  0
CIRCLE
  5
14D7
330
74
100
AcDbEntity
  8
1
 62
   255
100
AcDbCircle
 10
1137.394249742872
 20
157.9549697646293
 30
0.0
 40
0.75
  0
CIRCLE
  5
14D8
330
74
100
AcDbEntity
  8
1
 62
   255
100
AcDbCircle
 10
1250.677489227542
 20
157.9549697646294
 30
0.0
 40
8.100000000000278
  0
CIRCLE
  5
14D9
330
74
100
AcDbEntity
  8
1
 62
   255
100
AcDbCircle
 10
1250.677489227542
 20
157.9549697646294
 30
0.0
 40
8.500000000000255
  0
CIRCLE
  5
14DA
330
74
100
AcDbEntity
  8
1
 62
     2
100
AcDbCircle
 10
1255.396876479328
 20
158.5316784820556
 30
0.0
 40
0.4325000000000041
  0
CIRCLE
  5
14DB
330
74
100
AcDbEntity
  8
1
 62
   255
100
AcDbCircle
 10
1253.177489227542
 20
163.4549697646294
 30
0.0
 40
1.0
  0
CIRCLE
  5
14DC
330
74
100
AcDbEntity
  8
1
 62
     2
100
AcDbCircle
 10
1137.394249742872
 20
157.9549697646293
 30
0.0
 40
2.799999999999982
  0
CIRCLE
  5
14DD
330
74
100
AcDbEntity
  8
1
 62
   255
100
AcDbCircle
 10
1142.394249742872
 20
157.9549697646293
 30
0.0
 40
0.6104999999999983
  0
CIRCLE
  5
14DE
330
74
100
AcDbEntity
  8
1
 62
   255
100
AcDbCircle
 10
1132.394249742872
 20
157.9549697646294
 30
0.0
 40
0.6105000000000019
  0
LWPOLYLINE
  5
14DF
330
74
100
AcDbEntity
  8
1
 62
   255
100
AcDbPolyline
 90
       34
 70
     0
 43
0.0
 10
1184.916485889246
 20
162.6511553667705
 42
-0.0009769546642519
 10
1184.942595102574
 20
162.6499641364289
 42
-0.0029341492625847
 10
1184.968679587329
 20
162.6485695494071
 42
-0.004899424366246
 10
1184.994714614936
 20
162.646768249025
 42
-0.0068721834614339
 10
1185.020675456821
 20
162.6443568786026
 42
-0.008842706798364
 10
1185.046537384411
 20
162.6411320814598
 42
-0.0095030637880195
 10
1185.072103862877
 20
162.6369650781475
 42
-0.0090068994587429
 10
1185.097522721298
 20
162.6318499424583
 42
-0.0085261447313067
 10
1185.122768335115
 20
162.6258417780772
 42
-0.0080636793234291
 10
1185.14781507977
 20
162.6189956886892
 42
-0.0378669442572548
 10
1185.267941404567
 20
162.5739716279615
 42
-0.0246940278469836
 10
1185.335030375967
 20
162.5385295433796
 42
-0.0334897219902701
 10
1185.417452802214
 20
162.4818216884815
 42
-0.0258015328239279
 10
1185.472899154381
 20
162.4330095949671
 42
-0.0354986540733456
 10
1185.537192724734
 20
162.3605733217432
 42
-0.0275664963018891
 10
1185.577664695053
 20
162.3012834597487
 42
-0.037649840344683
 10
1185.620256190614
 20
162.2170444786621
 42
-0.0483390679896011
 10
1185.654044569389
 20
162.1059588537706
 42
-0.2207133414310639
 10
1185.537192724734
 20
161.6222110351011
 42
-0.0359235867980619
 10
1185.472899154381
 20
161.5497747618771
 42
-0.0260514968998653
 10
1185.417452802214
 20
161.5009626683627
 42
-0.0338208652605701
 10
1185.335030375967
 20
161.4442548134647
 42
-0.0330853761095415
 10
1185.244576126033
 20
161.3983600007634
 42
-0.0155054379980955
 10
1185.196896922253
 20
161.3796738734053
 42
-0.0149276280579343
 10
1185.14781507977
 20
161.363788668155
 42
-0.0080636793235298
 10
1185.122768335115
 20
161.356942578767
 42
-0.0085261447313719
 10
1185.097522721298
 20
161.3509344143859
 42
-0.0090068994588226
 10
1185.072103862877
 20
161.3458192786967
 42
-0.0095030637881129
 10
1185.046537384411
 20
161.3416522753845
 42
-0.0088427067983814
 10
1185.020675456821
 20
161.3384274782416
 42
-0.0068721834613868
 10
1184.994714614936
 20
161.3360161078193
 42
-0.004899424366168
 10
1184.968679587329
 20
161.3342148074372
 42
-0.0029341492626024
 10
1184.942595102574
 20
161.3328202204154
 42
-0.0009769546643087
 10
1184.916485889246
 20
161.3316289900737
  0
LWPOLYLINE
  5
14E0
330
74
100
AcDbEntity
  8
1
 62
   255
100
AcDbPolyline
 90
       81
 70
     0
 43
0.0
 10
1184.916485889246
 20
151.407680988748
 42
-0.0005731998222389
 10
1184.942529358201
 20
151.4070007585523
 42
-0.0017202466445882
 10
1184.968564534675
 20
151.4062012385819
 42
-0.0028688743799515
 10
1184.994583126188
 20
151.4051631390621
 42
-0.0040189304780829
 10
1185.02057684026
 20
151.4037671702182
 42
-0.0051684429147263
 10
1185.046537384411
 20
151.4018940422757
 42
-0.0055085508679327
 10
1185.071876309971
 20
151.3995093773065
 42
-0.0053010934997844
 10
1185.097165688173
 20
151.3965766083671
 42
-0.0050967816636609
 10
1185.122395598225
 20
151.3931176713144
 42
-0.0048960614383869
 10
1185.147556119333
 20
151.3891545020059
 42
-0.0137681124918279
 10
1185.22030317633
 20
151.3748976050231
 42
-0.0050188055471517
 10
1185.243980087192
 20
151.3693071519747
 42
-0.0052697877448414
 10
1185.267534952767
 20
151.3632312359782
 42
-0.005521082840851
 10
1185.290954245068
 20
151.3566481285279
 42
-0.0053970780131326
 10
1185.31268140879
 20
151.3500255130545
 42
-0.0056518882758641
 10
1185.334258754526
 20
151.3429238637769
 42
-0.0059107506094225
 10
1185.355666406687
 20
151.3353251029279
 42
-0.0061728875693651
 10
1185.376884489685
 20
151.32721115274
 42
-0.0064373182625843
 10
1185.39789312793
 20
151.3185639354462
 42
-0.0062048831921777
 10
1185.416857778049
 20
151.3101924619092
 42
-0.0066322190328245
 10
1185.435601408223
 20
151.3013368891832
 42
-0.0070660822412224
 10
1185.45409387009
 20
151.29197202228
 42
-0.0075045743635379
 10
1185.472305015286
 20
151.2820726662114
 42
-0.0079451261292233
 10
1185.490204695449
 20
151.271613625989
 42
-0.0076016955470368
 10
1185.505908134322
 20
151.2617718251432
 42
-0.0082233461228161
 10
1185.521293284307
 20
151.2514374501125
 42
-0.0088585310835459
 10
1185.536314656046
 20
151.240584989061
 42
-0.0095030245839843
 10
1185.550926760182
 20
151.2291889301525
 42
-0.0101507817327906
 10
1185.565084107357
 20
151.217223761551
 42
-0.0096498710295021
 10
1185.577153613273
 20
151.2061763022037
 42
-0.0104962196586711
 10
1185.588769707414
 20
151.1946505074987
 42
-0.0113720269920976
 10
1185.599868256922
 20
151.1826307613762
 42
-0.0122678777413461
 10
1185.610385128941
 20
151.1701014477767
 42
-0.0131698016072756
 10
1185.620256190614
 20
151.1570469506404
 42
-0.0125096117296917
 10
1185.628423361791
 20
151.1450072091759
 42
-0.0133993729664707
 10
1185.635958291845
 20
151.1325574482728
 42
-0.0143544633402051
 10
1185.642788474188
 20
151.1197140265586
 42
-0.0153593521366228
 10
1185.648841402232
 20
151.1064933026606
 42
-0.0163909820825687
 10
1185.654044569389
 20
151.0929116352062
 42
-0.0317831457791191
 10
1185.661218810688
 20
151.0669262056289
 42
-0.0165450123937113
 10
1185.663530316609
 20
151.0536381091129
 42
-0.0170703015726216
 10
1185.66494354655
 20
151.040231859906
 42
-0.0701572511395849
 10
1185.661218810688
 20
150.9866068630784
 42
-0.0319980255405828
 10
1185.654044569389
 20
150.9606214335011
 42
-0.0163909820833413
 10
1185.648841402232
 20
150.9470397660467
 42
-0.015359352136522
 10
1185.642788474188
 20
150.9338190421488
 42
-0.0143544633403288
 10
1185.635958291845
 20
150.9209756204346
 42
-0.0133993729662228
 10
1185.628423361791
 20
150.9085258595315
 42
-0.0125096117298498
 10
1185.620256190614
 20
150.896486118067
 42
-0.0131698016068271
 10
1185.610385128941
 20
150.8834316209308
 42
-0.0122678777416405
 10
1185.599868256922
 20
150.8709023073312
 42
-0.0113720269920592
 10
1185.588769707414
 20
150.8588825612087
 42
-0.0104962196588215
 10
1185.577153613273
 20
150.8473567665036
 42
-0.0096498710300593
 10
1185.565084107357
 20
150.8363093071565
 42
-0.0101507817327424
 10
1185.550926760182
 20
150.8243441385549
 42
-0.0095030245838659
 10
1185.536314656046
 20
150.8129480796464
 42
-0.0088585310836924
 10
1185.521293284307
 20
150.8020956185949
 42
-0.008223346122957
 10
1185.505908134322
 20
150.7917612435643
 42
-0.007601695546712
 10
1185.490204695449
 20
150.7819194427185
 42
-0.0079451261289326
 10
1185.472305015286
 20
150.771460402496
 42
-0.0075045743632896
 10
1185.45409387009
 20
150.7615610464273
 42
-0.0070660822413703
 10
1185.435601408223
 20
150.752196179524
 42
-0.0066322190328573
 10
1185.416857778049
 20
150.7433406067981
 42
-0.0062048831923902
 10
1185.39789312793
 20
150.7349691332611
 42
-0.0064373182625376
 10
1185.376884489685
 20
150.7263219159671
 42
-0.0061728875695329
 10
1185.355666406687
 20
150.7182079657793
 42
-0.0059107506095829
 10
1185.334258754526
 20
150.7106092049303
 42
-0.0056518882758908
 10
1185.31268140879
 20
150.7035075556528
 42
-0.0053970780131258
 10
1185.290954245068
 20
150.6968849401794
 42
-0.0055210828407003
 10
1185.267534952767
 20
150.6903018327291
 42
-0.0052697877447033
 10
1185.243980087192
 20
150.6842259167325
 42
-0.005018805547049
 10
1185.22030317633
 20
150.678635463684
 42
-0.0047689200932755
 10
1185.196517748172
 20
150.6735087450779
 42
-0.0188533018828853
 10
1185.097165688173
 20
150.6569564603402
 42
-0.0053010934998541
 10
1185.071876309971
 20
150.6540236914007
 42
-0.0055085508680687
 10
1185.046537384411
 20
150.6516390264316
 42
-0.0051684429147868
 10
1185.02057684026
 20
150.649765898489
 42
-0.0040189304781081
 10
1184.994583126188
 20
150.6483699296452
 42
-0.0028688743799514
 10
1184.968564534675
 20
150.6473318301254
 42
-0.0017202466445891
 10
1184.942529358201
 20
150.646532310155
 42
-0.0005731998222051
 10
1184.916485889246
 20
150.6458520799592
  0
ARC
  5
14E1
330
74
100
AcDbEntity
  8
1
 62
   255
100
AcDbCircle
 10
1256.977489227543
 20
156.5549697646294
 30
0.0
 40
0.5999999999999944
100
AcDbArc
 50
180.0
 51
270.0
  0
ARC
  5
14E2
330
74
100
AcDbEntity
  8
1
 62
   255
100
AcDbCircle
 10
1256.977489227543
 20
159.3549697646294
 30
0.0
 40
0.5999999999999944
100
AcDbArc
 50
90.0
 51
180.0
  0
DIMENSION
  5
14E5
330
74
100
AcDbEntity
  8
1
  6
Continuous
 62
     2
100
AcDbDimension
  2
*D9
 10
1209.416485889246
 20
144.456114973809
 30
0.0
 11
1206.478023740499
 21
146.0338393278032
 31
0.0
 70
   160
  1
<>{\H0.68571x;%%P0.5}
 71
     5
 42
6.0
 73
     0
 74
     0
 75
     0
  3
DMST_1
100
AcDbAlignedDimension
 13
1203.416485889246
 23
155.7049697646295
 33
0.0
 14
1209.416485889246
 24
157.2915723050078
 34
0.0
100
AcDbRotatedDimension
1001
ACAD
1000
DSTYLE
1002
{
1070
   147
1040
0.09
1070
    72
1070
     0
1070
    71
1070
     0
1002
}
  0
DIMENSION
  5
14E6
330
74
100
AcDbEntity
  8
1
  6
Continuous
 62
     2
100
AcDbDimension
  2
*D10
 10
1177.716485889246
 20
134.4544374901475
 30
0.0
 11
1180.455298221119
 21
136.1153133991499
 31
0.0
 70
   160
 71
     5
 42
5.5
 73
     0
 74
     0
 75
     0
  3
DMST_2
100
AcDbAlignedDimension
 13
1183.216485889246
 23
154.890104924878
 33
0.0
 14
1177.716485889246
 24
152.8549697646294
 34
0.0
100
AcDbRotatedDimension
  0
DIMENSION
  5
14E7
330
74
100
AcDbEntity
  8
1
  6
Continuous
 62
     2
100
AcDbDimension
  2
*D11
 10
1251.677489227542
 20
171.4757800162855
 30
0.0
 11
1250.660387869116
 21
172.9559962837795
 31
0.0
 70
   160
 71
     5
 42
2.0
 73
     0
 74
     0
 75
     0
  3
DMST_2
100
AcDbAlignedDimension
 13
1249.677489227542
 23
163.1049697646294
 33
0.0
 14
1251.677489227542
 24
163.1049697646294
 34
0.0
100
AcDbRotatedDimension
  0
DIMENSION
  5
14E8
330
74
100
AcDbEntity
  8
1
  6
Continuous
 62
     2
100
AcDbDimension
  2
*D12
 10
1237.166485889246
 20
152.9549697646294
 30
0.0
 11
1235.859730197615
 21
158.0481895106761
 31
0.0
 70
   160
 71
     5
 42
10.0
 73
     0
 74
     0
 75
     0
  3
DMST_2
100
AcDbAlignedDimension
 13
1249.077489227542
 23
162.9549697646294
 33
0.0
 14
1249.077489227542
 24
152.9549697646294
 34
0.0
 50
90.0
100
AcDbRotatedDimension
  0
DIMENSION
  5
14E9
330
74
100
AcDbEntity
  8
1
  6
Continuous
 62
     2
100
AcDbDimension
  2
*D13
 10
1201.916485889246
 20
139.4542741085566
 30
0.0
 11
1199.117224123962
 21
140.7029540663536
 31
0.0
 70
   160
 71
     5
 73
     0
 74
     0
 75
     0
  3
DMST_2
100
AcDbAlignedDimension
 13
1202.916485889246
 23
155.1549697646293
 33
0.0
 14
1201.916485889246
 24
149.9549697646294
 34
0.0
100
AcDbRotatedDimension
  0
DIMENSION
  5
14EA
330
74
100
AcDbEntity
  8
1
  6
Continuous
 62
     2
100
AcDbDimension
  2
*D14
 10
1209.416485889246
 20
139.4571110637039
 30
0.0
 11
1206.137364393284
 21
141.2598501184772
 31
0.0
 70
   160
  1
(<>)
 71
     5
 42
6.499999999999545
 73
     0
 74
     0
 75
     0
  3
DMST_3
100
AcDbAlignedDimension
 13
1202.916485889246
 23
155.1549697646293
 33
0.0
 14
1209.416485889246
 24
157.2915723050078
 34
0.0
100
AcDbRotatedDimension
  0
DIMENSION
  5
14EB
330
74
100
AcDbEntity
  8
1
  6
Continuous
 62
     2
100
AcDbDimension
  2
*D15
 10
1209.416485889246
 20
134.4519869485673
 30
0.0
 11
1205.95462630489
 21
136.1625634849172
 31
0.0
 70
   160
  1
<>{\H0.68571x;%%P0.5}
 71
     5
 42
7.499999999999545
 73
     0
 74
     0
 75
     0
  3
DMST_1
100
AcDbAlignedDimension
 13
1201.916485889246
 23
149.9549697646294
 33
0.0
 14
1209.416485889246
 24
157.2915723050078
 34
0.0
100
AcDbRotatedDimension
1001
ACAD
1000
DSTYLE
1002
{
1070
   147
1040
0.09
1070
    72
1070
     0
1070
    71
1070
     0
1002
}
  0
DIMENSION
  5
14EC
330
74
100
AcDbEntity
  8
1
  6
Continuous
 62
     2
100
AcDbDimension
  2
*D16
 10
1201.916485889246
 20
134.4542709484867
 30
0.0
 11
1192.543524984837
 21
135.7957935129477
 31
0.0
 70
   160
 71
     5
 42
18.70000000000004
 73
     0
 74
     0
 75
     0
  3
DMST_2
100
AcDbAlignedDimension
 13
1183.216485889246
 23
154.890104924878
 33
0.0
 14
1201.916485889246
 24
149.9549697646294
 34
0.0
100
AcDbRotatedDimension
  0
DIMENSION
  5
14ED
330
74
100
AcDbEntity
  8
1
  6
Continuous
 62
     2
100
AcDbDimension
  2
*D17
 10
1143.194249742872
 20
171.472512014248
 30
0.0
 11
1151.525062579109
 21
172.8294068092443
 31
0.0
 70
   161
  1
M<>x1.5max.
 71
     5
 42
1.600000000000136
 73
     0
 74
     0
 75
     0
  3
DMST_4
100
AcDbAlignedDimension
 13
1141.594249742872
 23
157.9549697646293
 33
0.0
 14
1143.194249742872
 24
157.9549697646293
 34
0.0
  0
LINE
  5
14EE
330
74
100
AcDbEntity
  8
1
 62
     2
100
AcDbLine
 10
1184.916485889246
 20
144.4426421324578
 30
0.0
 11
1184.916485889246
 21
144.4426421324578
 31
0.0
  0
LINE
  5
14EF
330
74
100
AcDbEntity
  8
1
 62
     2
100
AcDbLine
 10
1183.216485889245
 20
144.4426421324578
 30
0.0
 11
1184.916485889246
 21
144.4426421324578
 31
0.0
  0
LINE
  5
14F0
330
74
100
AcDbEntity
  8
1
 62
     2
100
AcDbLine
 10
1183.216485889245
 20
144.4426421324578
 30
0.0
 11
1179.716485889246
 21
144.4426421324578
 31
0.0
  0
LINE
  5
14F1
330
74
100
AcDbEntity
  8
1
 62
     2
100
AcDbLine
 10
1183.216485889245
 20
154.890104924878
 30
0.0
 11
1183.216485889245
 21
143.9426421324578
 31
0.0
  0
LINE
  5
14F2
330
74
100
AcDbEntity
  8
1
 62
     2
100
AcDbLine
 10
1184.916485889246
 20
149.9549697646294
 30
0.0
 11
1184.916485889246
 21
143.9426421324578
 31
0.0
  0
SOLID
  5
14F3
330
74
100
AcDbEntity
  8
1
 62
     2
100
AcDbTrace
 10
1183.216485889245
 20
144.4426421324578
 30
0.0
 11
1181.466485889246
 21
144.2151421324578
 31
0.0
 12
1181.466485889246
 22
144.6701421324578
 32
0.0
 13
1181.466485889246
 23
144.6701421324578
 33
0.0
  0
TEXT
  5
14F4
330
74
100
AcDbEntity
  8
1
 62
     3
100
AcDbText
 10
1179.389209386396
 20
145.4418453453784
 30
0.0
 40
1.75
  1
1.7
100
AcDbText
  0
LINE
  5
14F5
330
74
100
AcDbEntity
  8
1
 62
     2
100
AcDbLine
 10
1184.916485889246
 20
144.4426421324578
 30
0.0
 11
1189.416485889246
 21
144.4426421324578
 31
0.0
  0
LINE
  5
14F6
330
74
100
AcDbEntity
  8
1
 62
     2
100
AcDbLine
 10
1189.416485889246
 20
144.4426421324578
 30
0.0
 11
1192.916485889246
 21
144.4426421324578
 31
0.0
  0
LINE
  5
14F7
330
74
100
AcDbEntity
  8
1
 62
     2
100
AcDbLine
 10
1184.916485889246
 20
149.9549697646294
 30
0.0
 11
1184.916485889246
 21
143.9426421324578
 31
0.0
  0
LINE
  5
14F8
330
74
100
AcDbEntity
  8
1
 62
     2
100
AcDbLine
 10
1189.416485889246
 20
149.9549697646294
 30
0.0
 11
1189.416485889246
 21
143.9426421324578
 31
0.0
  0
LINE
  5
14F9
330
74
100
AcDbEntity
  8
1
 62
     2
100
AcDbLine
 10
1184.297767455708
 20
143.8239236989196
 30
0.0
 11
1185.535204322784
 21
145.0613605659961
 31
0.0
  0
SOLID
  5
14FA
330
74
100
AcDbEntity
  8
1
 62
     2
100
AcDbTrace
 10
1189.416485889246
 20
144.4426421324578
 30
0.0
 11
1191.166485889246
 21
144.6701421324578
 31
0.0
 12
1191.166485889246
 22
144.2151421324578
 32
0.0
 13
1191.166485889246
 23
144.2151421324578
 33
0.0
  0
TEXT
  5
14FB
330
74
100
AcDbEntity
  8
1
 62
     3
100
AcDbText
 10
1185.696742098105
 20
145.4418453453784
 30
0.0
 40
1.75
  1
4.5
100
AcDbText
  0
LINE
  5
14FC
330
74
100
AcDbEntity
  8
1
 62
     2
100
AcDbLine
 10
1181.997132567556
 20
165.6549697646294
 30
0.0
 11
1181.997132567556
 21
173.8171757451484
 31
0.0
  0
LINE
  5
14FD
330
74
100
AcDbEntity
  8
1
 62
     2
100
AcDbLine
 10
1183.316485889246
 20
165.6549697646294
 30
0.0
 11
1181.497132567556
 21
165.6549697646294
 31
0.0
  0
SOLID
  5
14FE
330
74
100
AcDbEntity
  8
1
 62
     2
100
AcDbTrace
 10
1181.997132567556
 20
165.6549697646294
 30
0.0
 11
1181.769632567556
 21
167.4049697646294
 31
0.0
 12
1182.224632567556
 22
167.4049697646294
 32
0.0
 13
1182.224632567556
 23
167.4049697646294
 33
0.0
  0
TEXT
  5
14FF
330
74
100
AcDbEntity
  8
1
 62
     3
100
AcDbText
 10
1181.397627867653
 20
168.0907376699317
 30
0.0
 40
1.75
  1
%%C15.4
 50
90.0
100
AcDbText
  0
LINE
  5
1500
330
74
100
AcDbEntity
  8
1
 62
     2
100
AcDbLine
 10
1214.436695378438
 20
158.7049697646294
 30
0.0
 11
1214.436695378438
 21
169.5641869147109
 31
0.0
  0
LINE
  5
1501
330
74
100
AcDbEntity
  8
1
 62
     2
100
AcDbLine
 10
1209.166485889246
 20
158.7049697646294
 30
0.0
 11
1214.936695378438
 21
158.7049697646294
 31
0.0
  0
SOLID
  5
1502
330
74
100
AcDbEntity
  8
1
 62
     2
100
AcDbTrace
 10
1214.436695378438
 20
158.7049697646294
 30
0.0
 11
1214.209195378438
 21
160.4549697646294
 31
0.0
 12
1214.664195378438
 22
160.4549697646294
 32
0.0
 13
1214.664195378438
 23
160.4549697646294
 33
0.0
  0
TEXT
  5
1503
330
74
100
AcDbEntity
  8
1
 62
     3
100
AcDbText
 10
1213.394344608794
 20
161.1872548890443
 30
0.0
 40
1.75
  1
%%C1.5
 50
90.0
100
AcDbText
  0
TEXT
  5
1504
330
74
100
AcDbEntity
  8
1
 62
     3
100
AcDbText
 10
1212.030943464136
 20
166.0964464288036
 30
0.0
 40
1.225
  1
-0.006
 50
90.0
100
AcDbText
  0
TEXT
  5
1505
330
74
100
AcDbEntity
  8
1
 62
     3
100
AcDbText
 10
1214.052193464136
 20
166.0964464288036
 30
0.0
 40
1.225
  1
-0.009
 50
90.0
100
AcDbText
  0
LINE
  5
1506
330
74
100
AcDbEntity
  8
1
 62
     2
100
AcDbLine
 10
1208.155574110452
 20
160.9549697646294
 30
0.0
 11
1208.155574110452
 21
170.4426564348606
 31
0.0
  0
LINE
  5
1507
330
74
100
AcDbEntity
  8
1
 62
     2
100
AcDbLine
 10
1202.716485889246
 20
160.9549697646294
 30
0.0
 11
1208.655574110452
 21
160.9549697646294
 31
0.0
  0
SOLID
  5
1508
330
74
100
AcDbEntity
  8
1
 62
     2
100
AcDbTrace
 10
1208.155574110452
 20
160.9549697646294
 30
0.0
 11
1207.928074110452
 21
162.7049697646293
 31
0.0
 12
1208.383074110452
 22
162.7049697646293
 32
0.0
 13
1208.383074110452
 23
162.7049697646293
 33
0.0
  0
TEXT
  5
1509
330
74
100
AcDbEntity
  8
1
 62
     3
100
AcDbText
 10
1206.93792351205
 20
163.3963626811189
 30
0.0
 40
1.75
  1
%%C6
 50
90.0
100
AcDbText
  0
TEXT
  5
150A
330
74
100
AcDbEntity
  8
1
 62
     3
100
AcDbText
 10
1205.589351841485
 20
166.3756564348606
 30
0.0
 40
1.225
  1
 0
 50
90.0
100
AcDbText
  0
TEXT
  5
150B
330
74
100
AcDbEntity
  8
1
 62
     3
100
AcDbText
 10
1207.488101841485
 20
166.3756564348606
 30
0.0
 40
1.225
  1
-0.018
 50
90.0
100
AcDbText
  0
LINE
  5
150C
330
74
100
AcDbEntity
  8
1
 62
     2
100
AcDbLine
 10
1198.908810048124
 20
166.4549697646294
 30
0.0
 11
1198.940168961654
 21
175.302631374088
 31
0.0
  0
SOLID
  5
150D
330
74
100
AcDbEntity
  8
1
 62
     2
100
AcDbTrace
 10
1198.908810048124
 20
166.4549697646294
 30
0.0
 11
1198.681310048124
 21
168.2049697646295
 31
0.0
 12
1199.136310048124
 22
168.2049697646295
 32
0.0
 13
1199.136310048124
 23
168.2049697646295
 33
0.0
  0
TEXT
  5
150E
330
74
100
AcDbEntity
  8
1
 62
     3
100
AcDbText
 10
1197.854576585991
 20
168.450332997205
 30
0.0
 40
1.75
  1
%%C17
 50
90.0
100
AcDbText
  0
TEXT
  5
150F
330
74
100
AcDbEntity
  8
1
 62
     3
100
AcDbText
 10
1196.357688267981
 20
172.3622854383728
 30
0.0
 40
1.225
  1
 0
 50
90.0
100
AcDbText
  0
TEXT
  5
1510
330
74
100
AcDbEntity
  8
1
 62
     3
100
AcDbText
 10
1198.256438267981
 20
172.3622854383728
 30
0.0
 40
1.225
  1
-0.1
 50
90.0
100
AcDbText
  0
LINE
  5
1511
330
74
100
AcDbEntity
  8
1
 62
     2
100
AcDbLine
 10
1188.060795250828
 20
165.9549697646294
 30
0.0
 11
1188.060795250828
 21
172.6599771140993
 31
0.0
  0
LINE
  5
1512
330
74
100
AcDbEntity
  8
1
 62
     2
100
AcDbLine
 10
1184.916485889246
 20
165.9549697646294
 30
0.0
 11
1188.560795250828
 21
165.9549697646294
 31
0.0
  0
SOLID
  5
1513
330
74
100
AcDbEntity
  8
1
 62
     2
100
AcDbTrace
 10
1188.060795250828
 20
165.9549697646294
 30
0.0
 11
1187.833295250828
 21
167.7049697646294
 31
0.0
 12
1188.288295250828
 22
167.7049697646294
 32
0.0
 13
1188.288295250828
 23
167.7049697646294
 33
0.0
  0
TEXT
  5
1514
330
74
100
AcDbEntity
  8
1
 62
     3
100
AcDbText
 10
1187.619393749208
 20
168.4760478158546
 30
0.0
 40
1.75
  1
%%C16
 50
90.0
100
AcDbText
  0
LINE
  5
1515
330
74
100
AcDbEntity
  8
1
 62
     2
100
AcDbLine
 10
1132.394249742872
 20
176.4535574150675
 30
0.0
 11
1139.091749742872
 21
176.4535574150675
 31
0.0
  0
LINE
  5
1516
330
74
100
AcDbEntity
  8
1
 62
     2
100
AcDbLine
 10
1132.394249742872
 20
157.9549697646294
 30
0.0
 11
1132.394249742872
 21
176.9535574150676
 31
0.0
  0
SOLID
  5
1517
330
74
100
AcDbEntity
  8
1
 62
     2
100
AcDbTrace
 10
1132.394249742872
 20
176.4535574150675
 30
0.0
 11
1134.144249742872
 21
176.6810574150675
 31
0.0
 12
1134.144249742872
 22
176.2260574150675
 32
0.0
 13
1134.144249742872
 23
176.2260574150675
 33
0.0
  0
TEXT
  5
1518
330
74
100
AcDbEntity
  8
1
 62
     3
100
AcDbText
 10
1135.602772968971
 20
177.4535574150676
 30
0.0
 40
1.75
  1
%%C10
100
AcDbText
  0
LINE
  5
1519
330
74
100
AcDbEntity
  8
0
 62
     2
100
AcDbLine
 10
1141.594249742872
 20
171.472512014248
 30
0.0
 11
1157.975375525907
 21
171.472512014248
 31
0.0
  0
LINE
  5
151A
330
74
100
AcDbEntity
  8
0
 62
     2
100
AcDbLine
 10
1201.916485889246
 20
139.4542741085566
 30
0.0
 11
1202.924996754688
 21
139.4556925861303
 31
0.0
  0
LINE
  5
151B
330
74
100
AcDbEntity
  8
0
 62
     2
100
AcDbLine
 10
1249.677489227542
 20
171.4757800162855
 30
0.0
 11
1251.677489227542
 21
171.4757800162855
 31
0.0
  0
LINE
  5
17F2
330
74
100
AcDbEntity
  8
0
  6
Continuous
 62
   255
100
AcDbLine
 10
1283.31189991146
 20
66.37891604671733
 30
0.0
 11
1283.31189991146
 21
204.8789160467173
 31
0.0
  0
LINE
  5
17F3
330
74
100
AcDbEntity
  8
0
  6
Continuous
 62
   255
100
AcDbLine
 10
1274.133549873638
 20
66.37891604671733
 30
0.0
 11
1274.133549873638
 21
68.37891550026938
 31
0.0
  0
LINE
  5
17F4
330
74
100
AcDbEntity
  8
0
  6
Continuous
 62
   255
100
AcDbLine
 10
1277.31189991146
 20
68.37891550026938
 30
0.0
 11
1277.31189991146
 21
72.87891550026933
 31
0.0
  0
LINE
  5
17F5
330
74
100
AcDbEntity
  8
0
  6
Continuous
 62
   255
100
AcDbLine
 10
1086.81191670666
 20
66.37891604671733
 30
0.0
 11
1283.31189991146
 21
66.37891604671733
 31
0.0
  0
LINE
  5
17F6
330
74
100
AcDbEntity
  8
0
  6
Continuous
 62
   255
100
AcDbLine
 10
1086.81191670666
 20
204.8789160467173
 30
0.0
 11
1086.81191670666
 21
66.37891604671735
 31
0.0
  0
LINE
  5
17F7
330
74
100
AcDbEntity
  8
0
  6
Continuous
 62
   255
100
AcDbLine
 10
1086.81191670666
 20
204.8789160467173
 30
0.0
 11
1283.31189991146
 21
204.8789160467173
 31
0.0
  0
LINE
  5
17FE
330
74
100
AcDbEntity
  8
0
  6
CENTER
 62
     2
 48
0.2
370
     9
100
AcDbLine
 10
1280.581365547263
 20
74.65086201858378
 30
0.0
 11
1280.581365547263
 21
78.1508610622999
 31
0.0
1001
AcDbBlockRepETag
1070
     1
1071
        1
1005
0
  0
LINE
  5
17FF
330
74
100
AcDbEntity
  8
0
  6
CENTER
 62
     2
 48
0.2
370
     9
100
AcDbLine
 10
1273.402457245451
 20
76.40086154044183
 30
0.0
 11
1277.902456015943
 21
76.40086154044183
 31
0.0
1001
AcDbBlockRepETag
1070
     1
1071
        9
1005
0
  0
LINE
  5
1800
330
74
100
AcDbEntity
  8
0
  6
Continuous
 62
   255
100
AcDbLine
 10
1277.652456084249
 20
77.95086111694468
 30
0.0
 11
1273.652457177145
 21
77.15086133552387
 31
0.0
1001
AcDbBlockRepETag
1070
     1
1071
       10
1005
0
  0
LINE
  5
1801
330
74
100
AcDbEntity
  8
0
  6
Continuous
 62
   255
100
AcDbLine
 10
1277.652456084249
 20
74.85086196393893
 30
0.0
 11
1277.652456084249
 21
77.95086111694468
 31
0.0
1001
AcDbBlockRepETag
1070
     1
1071
       11
1005
0
  0
LINE
  5
1802
330
74
100
AcDbEntity
  8
0
  6
Continuous
 62
   255
100
AcDbLine
 10
1273.652457177145
 20
75.65086174535981
 30
0.0
 11
1277.652456084249
 21
74.85086196393893
 31
0.0
1001
AcDbBlockRepETag
1070
     1
1071
       12
1005
0
  0
LINE
  5
1803
330
74
100
AcDbEntity
  8
0
  6
Continuous
 62
   255
100
AcDbLine
 10
1273.652457177145
 20
77.15086133552387
 30
0.0
 11
1273.652457177145
 21
75.65086174535981
 31
0.0
1001
AcDbBlockRepETag
1070
     1
1071
       13
1005
0
  0
LINE
  5
1804
330
74
100
AcDbEntity
  8
0
  6
Continuous
 62
   255
100
AcDbLine
 10
1251.811910020748
 20
77.37891550026938
 30
0.0
 11
1251.811910020748
 21
68.37891550026938
 31
0.0
1001
AcDbBlockRepETag
1070
     1
1071
       20
1005
0
  0
LINE
  5
1805
330
74
100
AcDbEntity
  8
0
  6
Continuous
 62
   255
100
AcDbLine
 10
1209.311920130034
 20
77.37891550026927
 30
0.0
 11
1209.311920130034
 21
68.37891550026938
 31
0.0
1001
AcDbBlockRepETag
1070
     1
1071
       22
1005
0
  0
LINE
  5
1806
330
74
100
AcDbEntity
  8
0
  6
Continuous
 62
   255
100
AcDbLine
 10
1214.358711471005
 20
79.87851305856565
 30
0.0
 11
1214.358711471005
 21
77.37891550026933
 31
0.0
1001
AcDbBlockRepETag
1070
     1
1071
       22
1005
0
  0
LINE
  5
1807
330
74
100
AcDbEntity
  8
0
  6
Continuous
 62
   255
100
AcDbLine
 10
1259.452284590108
 20
79.87851305856565
 30
0.0
 11
1259.452284590108
 21
77.37891550026933
 31
0.0
1001
AcDbBlockRepETag
1070
     1
1071
       22
1005
0
  0
LINE
  5
1808
330
74
100
AcDbEntity
  8
0
  6
Continuous
 62
   255
100
AcDbLine
 10
1191.811924911454
 20
79.8785130585656
 30
0.0
 11
1191.811924911454
 21
66.37891604671733
 31
0.0
1001
AcDbBlockRepETag
1070
     1
1071
       26
1005
0
  0
LINE
  5
1811
330
74
100
AcDbEntity
  8
0
  6
CENTER
 62
     2
 48
0.2
370
     9
100
AcDbLine
 10
1278.781366039066
 20
76.40086154044183
 30
0.0
 11
1282.331365069121
 21
76.40086154044183
 31
0.0
1001
AcDbBlockRepETag
1070
     1
1071
       37
1005
0
  0
LINE
  5
1812
330
74
100
AcDbEntity
  8
0
  6
Continuous
 62
   255
100
AcDbLine
 10
1283.311899911461
 20
68.37891550026938
 30
0.0
 11
1191.811924911454
 21
68.37891550026938
 31
0.0
1001
AcDbBlockRepETag
1070
     1
1071
       38
1005
0
  0
LINE
  5
1813
330
74
100
AcDbEntity
  8
0
  6
Continuous
 62
   255
100
AcDbLine
 10
1272.347714000407
 20
77.37891550026933
 30
0.0
 11
1259.452284590108
 21
77.37891550026927
 31
0.0
1001
AcDbBlockRepETag
1070
     1
1071
       38
1005
0
  0
LINE
  5
1814
330
74
100
AcDbEntity
  8
0
  6
Continuous
 62
   255
100
AcDbLine
 10
1259.452284590108
 20
77.37891550026922
 30
0.0
 11
1191.811924911454
 21
77.37891550026938
 31
0.0
1001
AcDbBlockRepETag
1070
     1
1071
       38
1005
0
  0
LINE
  5
1815
330
74
100
AcDbEntity
  8
0
  6
Continuous
 62
   255
100
AcDbLine
 10
1283.311899911461
 20
72.87891550026938
 30
0.0
 11
1251.811910020748
 21
72.87891550026921
 31
0.0
1001
AcDbBlockRepETag
1070
     1
1071
       38
1005
0
  0
CIRCLE
  5
1816
330
74
100
AcDbEntity
  8
0
  6
Continuous
 62
   255
100
AcDbCircle
 10
1280.581365547263
 20
76.40086154044183
 30
0.0
 40
1.549999576502847
1001
AcDbBlockRepETag
1070
     1
1071
       39
1005
0
  0
CIRCLE
  5
1817
330
74
100
AcDbEntity
  8
0
  6
Continuous
 62
   255
100
AcDbCircle
 10
1280.581365547263
 20
76.40086154044183
 30
0.0
 40
0.7499997950820232
1001
AcDbBlockRepETag
1070
     1
1071
       40
1005
0
  0
MTEXT
  5
1818
330
74
100
AcDbEntity
  8
0
 62
   255
100
AcDbMText
 10
1256.824875606319
 20
75.83083438795512
 30
0.0
 40
1.5
 41
0.0
 46
0.0
 71
     1
 72
     5
  1
Scale: 2:1
 73
     1
 44
1.0
1001
AcDbBlockRepETag
1070
     1
1071
       46
1005
0
  0
MTEXT
  5
1819
330
74
100
AcDbEntity
  8
0
 62
   255
100
AcDbMText
 10
1278.568634099439
 20
71.79010566501324
 30
0.0
 40
2.25
 41
0.0
 46
0.0
 71
     1
 72
     5
  1
{\fISOCPEUR|b0|i0|c0|p34;\W1;A3}
  7
SLDTEXTSTYLE0
 73
     1
 44
1.0
1001
AcDbBlockRepETag
1070
     1
1071
       50
1005
0
  0
TEXT
  5
181A
330
74
100
AcDbEntity
  8
0
  6
Continuous
 62
   255
100
AcDbText
 10
1193.580311105402
 20
67.07860257025084
 30
0.0
 40
0.8619565217391304
  1
This drawing remains our property. Without written approval it may not be copied, reproduced, communicated or made available to third parties.
100
AcDbText
1001
AcDbBlockRepETag
1070
     1
1071
       51
1005
0
  0
MTEXT
  5
1820
330
74
100
AcDbEntity
  8
0
 62
   255
100
AcDbMText
 10
1254.976661078663
 20
71.76278115908235
 30
0.0
 40
2.25
 41
0.0
 46
0.0
 71
     1
 72
     5
  1
{\fISOCPEUR|b0|i0|c0|p34;\W1;\C256;1.011.17S78.S25}
  7
SLDTEXTSTYLE0
 73
     1
 44
1.0
1001
AcDbBlockRepETag
1070
     1
1071
       58
1005
0
  0
MTEXT
  5
1821
102
{ACAD_XDICTIONARY
360
188D
102
}
330
74
100
AcDbEntity
  8
0
 62
   255
100
AcDbMText
 10
1230.802869840655
 20
76.04490008135184
 30
0.0
 40
2.25
 41
0.0
 46
0.0
 71
     1
 72
     5
  1
\pi-7.425;{\fISOCPEUR|b0|i0|c0|p34;\W1;17S  78  .1\P\pi-10.575;Outline drawing}
  7
SLDTEXTSTYLE0
 73
     1
 44
1.0
1001
AcDbBlockRepETag
1070
     1
1071
       59
1005
0
  0
MTEXT
  5
1822
330
74
100
AcDbEntity
  8
0
 62
     1
100
AcDbMText
 10
1193.015375967003
 20
75.22907338876314
 30
0.0
 40
2.5
 41
0.0
 46
0.0
 71
     1
 72
     5
  1
{\fISOCPEUR|b0|i0|c0|p34;\W1;Portescap}
  7
SLDTEXTSTYLE0
 73
     1
 44
1.0
1001
AcDbBlockRepETag
1070
     1
1071
       65
1005
0
  0
LINE
  5
1825
330
74
100
AcDbEntity
  8
0
  6
Continuous
 62
   255
100
AcDbLine
 10
1272.347714000407
 20
79.8785130585656
 30
0.0
 11
1272.347714000406
 21
72.87891550026927
 31
0.0
1001
AcDbBlockRepETag
1070
     1
1071
        5
1005
0
  0
TEXT
  5
1826
330
74
100
AcDbEntity
  8
0
  6
Continuous
 62
   255
100
AcDbText
 10
1275.389620134826
 20
67.07860257025084
 30
0.0
 40
0.8619565217391304
  1
Sheet 1 of 1
100
AcDbText
1001
AcDbBlockRepETag
1070
     1
1071
       51
1005
0
  0
LINE
  5
1828
330
74
100
AcDbEntity
  8
0
  6
Continuous
 62
   255
100
AcDbLine
 10
1209.311920130034
 20
70.37891495382138
 30
0.0
 11
1191.811924911454
 21
70.37891495382138
 31
0.0
1001
AcDbBlockRepETag
1070
     1
1071
       38
1005
0
  0
TEXT
  5
1829
330
74
100
AcDbEntity
  8
0
  6
Continuous
 62
   255
100
AcDbText
 10
1193.580311105402
 20
68.98347225683943
 30
0.0
 40
0.8619565217391304
  1
PI/R&D/F/18 Rev 00
100
AcDbText
1001
AcDbBlockRepETag
1070
     1
1071
       51
1005
0
  0
MTEXT
  5
182A
330
74
100
AcDbEntity
  8
0
  6
Continuous
 62
   255
100
AcDbMText
 10
1192.741646021507
 20
80.67899400618944
 30
0.0
 40
1.05
 41
61.26009703170726
 46
0.0
 71
     7
 72
     1
  1
Unless & otherwise specified, all dimensions and tolerances are in mm.
  7
style1
 73
     1
 44
1.0
1001
AcDbBlockRepETag
1070
     1
1071
       64
1005
0
  0
LINE
  5
182B
330
74
100
AcDbEntity
  8
0
  6
Continuous
 62
   255
100
AcDbLine
 10
1191.811924911454
 20
79.8785130585656
 30
0.0
 11
1283.311899911461
 21
79.8785130585656
 31
0.0
1001
AcDbBlockRepETag
1070
     1
1071
        3
1005
0
  0
MTEXT
  5
182E
330
74
100
AcDbEntity
  8
0
 62
   255
100
AcDbMText
 10
1192.689751613198
 20
79.29563496808822
 30
0.0
 40
1.25
 41
0.0
 46
0.0
 71
     1
 72
     5
  1
Drawn: 04.10.13 NB
 73
     1
 44
1.0
1001
AcDbBlockRepETag
1070
     1
1071
       46
1005
0
  0
MTEXT
  5
182F
330
74
100
AcDbEntity
  8
0
 62
   255
100
AcDbMText
 10
1215.49954580511
 20
79.29563496809038
 30
0.0
 40
1.25
 41
0.0
 46
0.0
 71
     1
 72
     5
  1
Checked:
 73
     1
 44
1.0
1001
AcDbBlockRepETag
1070
     1
1071
       46
1005
0
  0
MTEXT
  5
1830
330
74
100
AcDbEntity
  8
0
 62
   255
100
AcDbMText
 10
1238.374539555111
 20
79.29563496809038
 30
0.0
 40
1.25
 41
0.0
 46
0.0
 71
     1
 72
     5
  1
Approved:
 73
     1
 44
1.0
1001
AcDbBlockRepETag
1070
     1
1071
       46
1005
0
  0
MTEXT
  5
1831
330
74
100
AcDbEntity
  8
0
 62
   255
100
AcDbMText
 10
1260.264911733762
 20
79.29563496809248
 30
0.0
 40
1.25
 41
0.0
 46
0.0
 71
     1
 72
     5
  1
Revision No: 00
 73
     1
 44
1.0
1001
AcDbBlockRepETag
1070
     1
1071
       46
1005
0
  0
LINE
  5
1832
330
74
100
AcDbEntity
  8
0
  6
Continuous
 62
   255
100
AcDbLine
 10
1236.905498030556
 20
79.87851305856771
 30
0.0
 11
1236.905498030556
 21
77.37891550027137
 31
0.0
1001
AcDbBlockRepETag
1070
     1
1071
       22
1005
0
  0
ENDSEC
  0
SECTION
  2
OBJECTS
  0
DICTIONARY
  5
C
330
0
100
AcDbDictionary
281
     1
  3
ACAD_COLOR
350
6A
  3
ACAD_GROUP
350
D
  3
ACAD_LAYOUT
350
69
  3
ACAD_MATERIAL
350
10
  3
ACAD_MLEADERSTYLE
350
6D
  3
ACAD_MLINESTYLE
350
66
  3
ACAD_PLOTSETTINGS
350
68
  3
ACAD_PLOTSTYLENAME
350
E
  3
ACAD_SCALELIST
350
3A
  3
ACAD_TABLESTYLE
350
6B
  3
ACAD_VISUALSTYLE
350
29
  3
ACDB_RECOMPOSE_DATA
350
1367
  3
AcDbVariableDictionary
350
40F
  0
DICTIONARY
  5
17A6
330
2
100
AcDbDictionary
280
     1
281
     1
  3
ACAD_LAYERSTATES
360
17A7
  0
DICTIONARY
  5
40B
330
5C
100
AcDbDictionary
280
     1
281
     1
  3
ADSK_XREC_LAYER_RECONCILED
360
40C
  0
DICTIONARY
  5
40D
330
84
100
AcDbDictionary
280
     1
281
     1
  3
ADSK_XREC_LAYER_RECONCILED
360
40E
  0
DICTIONARY
  5
13A4
330
13A3
100
AcDbDictionary
280
     1
281
     1
  0
DICTIONARY
  5
124B
330
74
100
AcDbDictionary
280
     1
281
     1
  3
ACAD_SORTENTS
360
124C
  0
DICTIONARY
  5
15E1
330
15E0
100
AcDbDictionary
280
     1
281
     1
  3
ACAD_SORTENTS
360
15E2
  0
DICTIONARY
  5
161C
330
161B
100
AcDbDictionary
280
     1
281
     1
  3
ACAD_SORTENTS
360
161D
  0
DICTIONARY
  5
1664
330
1663
100
AcDbDictionary
280
     1
281
     1
  3
ACAD_SORTENTS
360
1665
  0
DICTIONARY
  5
166B
330
166A
100
AcDbDictionary
280
     1
281
     1
  3
ACAD_SORTENTS
360
166C
  0
DICTIONARY
  5
1681
330
1680
100
AcDbDictionary
280
     1
281
     1
  3
ACAD_SORTENTS
360
1682
  0
DICTIONARY
  5
1767
330
1766
100
AcDbDictionary
280
     1
281
     1
  3
ACAD_SORTENTS
360
1768
  0
DICTIONARY
  5
17EA
330
17A8
100
AcDbDictionary
280
     1
281
     1
  3
ACAD_SORTENTS
360
17EB
  0
DICTIONARY
  5
188B
330
17D1
100
AcDbDictionary
280
     1
281
     1
  3
ACAD_MTEXT_2008_RT
360
188C
  0
DICTIONARY
  5
188D
330
1821
100
AcDbDictionary
280
     1
281
     1
  3
ACAD_MTEXT_2008_RT
360
188E
  0
DICTIONARY
  5
6A
102
{ACAD_REACTORS
330
C
102
}
330
C
100
AcDbDictionary
281
     1
  0
DICTIONARY
  5
D
102
{ACAD_REACTORS
330
C
102
}
330
C
100
AcDbDictionary
281
     1
  0
DICTIONARY
  5
69
102
{ACAD_REACTORS
330
C
102
}
330
C
100
AcDbDictionary
281
     1
  3
Layout1
350
73
  3
Model
350
77
  0
DICTIONARY
  5
10
102
{ACAD_REACTORS
330
C
102
}
330
C
100
AcDbDictionary
281
     1
  3
ByBlock
350
19
  3
ByLayer
350
11
  3
Global
350
21
  0
DICTIONARY
  5
6D
102
{ACAD_REACTORS
330
C
102
}
330
C
100
AcDbDictionary
281
     1
  3
Standard
350
6E
  0
DICTIONARY
  5
66
102
{ACAD_REACTORS
330
C
102
}
330
C
100
AcDbDictionary
281
     1
  3
Standard
350
67
  0
DICTIONARY
  5
68
102
{ACAD_REACTORS
330
C
102
}
330
C
100
AcDbDictionary
281
     1
  0
ACDBDICTIONARYWDFLT
  5
E
102
{ACAD_REACTORS
330
C
102
}
330
C
100
AcDbDictionary
281
     1
  3
Normal
350
F
100
AcDbDictionaryWithDefault
340
F
  0
DICTIONARY
  5
3A
102
{ACAD_REACTORS
330
C
102
}
330
C
100
AcDbDictionary
281
     1
  3
A0
350
3B
  3
A1
350
3C
  3
A2
350
3D
  3
A3
350
3E
  3
A4
350
3F
  3
A5
350
40
  3
A6
350
41
  3
A7
350
42
  3
A8
350
43
  3
A9
350
44
  3
B0
350
45
  3
B1
350
46
  3
B2
350
47
  3
B3
350
48
  3
B4
350
49
  3
B5
350
4A
  3
B6
350
4B
  3
B7
350
4C
  3
B8
350
4D
  3
B9
350
4E
  3
C0
350
4F
  3
C1
350
50
  3
C2
350
51
  3
C3
350
52
  3
C4
350
53
  3
C5
350
54
  3
C6
350
55
  3
C7
350
56
  3
C8
350
57
  3
C9
350
58
  3
D0
350
59
  3
D1
350
5A
  3
D2
350
5B
  0
DICTIONARY
  5
6B
102
{ACAD_REACTORS
330
C
102
}
330
C
100
AcDbDictionary
281
     1
  3
Standard
350
6C
  0
DICTIONARY
  5
29
102
{ACAD_REACTORS
330
C
102
}
330
C
100
AcDbDictionary
281
     1
  3
2dWireframe
350
2F
  3
3D Hidden
350
31
  3
3dWireframe
350
30
  3
Basic
350
2E
  3
Brighten
350
35
  3
ColorChange
350
39
  3
Conceptual
350
32
  3
Dim
350
34
  3
EdgeColorOff
350
179D
  3
Facepattern
350
38
  3
Flat
350
2A
  3
FlatWithEdges
350
2B
  3
Gouraud
350
2C
  3
GouraudWithEdges
350
2D
  3
JitterOff
350
17A0
  3
Linepattern
350
37
  3
OverhangOff
350
17A3
  3
Realistic
350
33
  3
Thicken
350
36
  0
XRECORD
  5
1367
102
{ACAD_REACTORS
330
C
102
}
330
C
100
AcDbXrecord
280
     1
 90
        1
330
6C
330
17D1
330
1821
  0
DICTIONARY
  5
40F
102
{ACAD_REACTORS
330
C
102
}
330
C
100
AcDbDictionary
281
     1
  3
CANNOSCALE
350
412
  3
CMLEADERSTYLE
350
411
  3
CTABLESTYLE
350
410
  3
DIMASSOC
350
415
  3
INDEXCTL
350
414
  3
LIGHTINGUNITS
350
1882
  3
MSLTSCALE
350
1881
  3
SORTENTS
350
413
  0
DICTIONARY
  5
17A7
102
{ACAD_REACTORS
330
17A6
102
}
330
17A6
100
AcDbDictionary
281
     1
  0
XRECORD
  5
40C
102
{ACAD_REACTORS
330
40B
102
}
330
40B
100
AcDbXrecord
280
     1
290
     1
  0
XRECORD
  5
40E
102
{ACAD_REACTORS
330
40D
102
}
330
40D
100
AcDbXrecord
280
     1
290
     1
  0
SORTENTSTABLE
  5
124C
102
{ACAD_REACTORS
330
124B
102
}
330
124B
100
AcDbSortentsTable
330
74
331
14A2
  5
14A2
331
14E1
  5
14E1
331
1518
  5
1518
331
13F7
  5
13F7
331
14AA
  5
14AA
331
14E9
  5
14E9
331
142E
  5
142E
331
146D
  5
146D
331
13FF
  5
13FF
331
14B2
  5
14B2
331
14F1
  5
14F1
331
1436
  5
1436
331
1475
  5
1475
331
14BA
  5
14BA
331
1407
  5
1407
331
143E
  5
143E
331
147D
  5
147D
331
1446
  5
1446
331
1800
  5
1800
331
1808
  5
1808
331
1483
  5
1483
331
14C2
  5
14C2
331
14F9
  5
14F9
331
140F
  5
140F
331
148B
  5
148B
331
14CA
  5
14CA
331
1501
  5
1501
331
144E
  5
144E
331
1417
  5
1417
331
1493
  5
1493
331
14D2
  5
14D2
331
1509
  5
1509
331
1456
  5
1456
331
141F
  5
141F
331
149B
  5
149B
331
14DA
  5
14DA
331
1511
  5
1511
331
145E
  5
145E
331
1427
  5
1427
331
1466
  5
1466
331
1818
  5
1818
331
1820
  5
1820
331
1828
  5
1828
331
1830
  5
1830
331
13F0
  5
13F0
331
14A3
  5
14A3
331
14E2
  5
14E2
331
1519
  5
1519
331
13F8
  5
13F8
331
14EA
  5
14EA
331
142F
  5
142F
331
146E
  5
146E
331
14AB
  5
14AB
331
1400
  5
1400
331
14F2
  5
14F2
331
1437
  5
1437
331
1476
  5
1476
331
14B3
  5
14B3
331
143F
  5
143F
331
147E
  5
147E
331
14BB
  5
14BB
331
1447
  5
1447
331
1801
  5
1801
331
1811
  5
1811
331
1408
  5
1408
331
14C3
  5
14C3
331
14FA
  5
14FA
331
1484
  5
1484
331
1410
  5
1410
331
14CB
  5
14CB
331
1502
  5
1502
331
144F
  5
144F
331
148C
  5
148C
331
1418
  5
1418
331
14D3
  5
14D3
331
150A
  5
150A
331
1457
  5
1457
331
1494
  5
1494
331
1420
  5
1420
331
14DB
  5
14DB
331
1512
  5
1512
331
145F
  5
145F
331
149C
  5
149C
331
1467
  5
1467
331
1819
  5
1819
331
1821
  5
1821
331
1829
  5
1829
331
1831
  5
1831
331
17F2
  5
17F2
331
13F1
  5
13F1
331
151A
  5
151A
331
1428
  5
1428
331
14A4
  5
14A4
331
13F9
  5
13F9
331
14EB
  5
14EB
331
1430
  5
1430
331
146F
  5
146F
331
14AC
  5
14AC
331
1401
  5
1401
331
14F3
  5
14F3
331
1438
  5
1438
331
1477
  5
1477
331
14B4
  5
14B4
331
1440
  5
1440
331
147F
  5
147F
331
14BC
  5
14BC
331
1802
  5
1802
331
1812
  5
1812
331
1409
  5
1409
331
14C4
  5
14C4
331
14FB
  5
14FB
331
1448
  5
1448
331
1485
  5
1485
331
1411
  5
1411
331
14CC
  5
14CC
331
1503
  5
1503
331
1450
  5
1450
331
148D
  5
148D
331
1419
  5
1419
331
14D4
  5
14D4
331
150B
  5
150B
331
1458
  5
1458
331
1495
  5
1495
331
1421
  5
1421
331
14DC
  5
14DC
331
1513
  5
1513
331
1460
  5
1460
331
149D
  5
149D
331
181A
  5
181A
331
1822
  5
1822
331
182A
  5
182A
331
1832
  5
1832
331
17F3
  5
17F3
331
13F2
  5
13F2
331
151B
  5
151B
331
1429
  5
1429
331
1468
  5
1468
331
14A5
  5
14A5
331
13FA
  5
13FA
331
14EC
  5
14EC
331
1431
  5
1431
331
1470
  5
1470
331
14AD
  5
14AD
331
1402
  5
1402
331
14F4
  5
14F4
331
1439
  5
1439
331
1478
  5
1478
331
14B5
  5
14B5
331
1441
  5
1441
331
14BD
  5
14BD
331
1803
  5
1803
331
1813
  5
1813
331
140A
  5
140A
331
14C5
  5
14C5
331
14FC
  5
14FC
331
1449
  5
1449
331
1486
  5
1486
331
1412
  5
1412
331
14CD
  5
14CD
331
1504
  5
1504
331
1451
  5
1451
331
148E
  5
148E
331
141A
  5
141A
331
14D5
  5
14D5
331
150C
  5
150C
331
1459
  5
1459
331
1496
  5
1496
331
1422
  5
1422
331
14DD
  5
14DD
331
1514
  5
1514
331
1461
  5
1461
331
149E
  5
149E
331
182B
  5
182B
331
17F4
  5
17F4
331
13F3
  5
13F3
331
14E5
  5
14E5
331
142A
  5
142A
331
1469
  5
1469
331
14A6
  5
14A6
331
13FB
  5
13FB
331
14ED
  5
14ED
331
1432
  5
1432
331
14AE
  5
14AE
331
1403
  5
1403
331
14F5
  5
14F5
331
143A
  5
143A
331
1479
  5
1479
331
14B6
  5
14B6
331
1442
  5
1442
331
14BE
  5
14BE
331
1804
  5
1804
331
1814
  5
1814
331
140B
  5
140B
331
14C6
  5
14C6
331
14FD
  5
14FD
331
144A
  5
144A
331
1487
  5
1487
331
1452
  5
1452
331
14CE
  5
14CE
331
1505
  5
1505
331
148F
  5
148F
331
1413
  5
1413
331
145A
  5
145A
331
14D6
  5
14D6
331
150D
  5
150D
331
1497
  5
1497
331
141B
  5
141B
331
1462
  5
1462
331
1515
  5
1515
331
1423
  5
1423
331
149F
  5
149F
331
14DE
  5
14DE
331
17F5
  5
17F5
331
142B
  5
142B
331
146A
  5
146A
331
13F4
  5
13F4
331
14A7
  5
14A7
331
14E6
  5
14E6
331
1433
  5
1433
331
13FC
  5
13FC
331
14AF
  5
14AF
331
14EE
  5
14EE
331
143B
  5
143B
331
147A
  5
147A
331
1404
  5
1404
331
14B7
  5
14B7
331
14F6
  5
14F6
331
1443
  5
1443
331
14BF
  5
14BF
331
1805
  5
1805
331
1815
  5
1815
331
1480
  5
1480
331
144B
  5
144B
331
140C
  5
140C
331
1488
  5
1488
331
14C7
  5
14C7
331
14FE
  5
14FE
331
1453
  5
1453
331
1414
  5
1414
331
1490
  5
1490
331
14CF
  5
14CF
331
1506
  5
1506
331
145B
  5
145B
331
141C
  5
141C
331
1498
  5
1498
331
14D7
  5
14D7
331
150E
  5
150E
331
1463
  5
1463
331
1424
  5
1424
331
14DF
  5
14DF
331
1516
  5
1516
331
1825
  5
1825
331
17F6
  5
17F6
331
14A0
  5
14A0
331
142C
  5
142C
331
146B
  5
146B
331
13F5
  5
13F5
331
14A8
  5
14A8
331
14E7
  5
14E7
331
1434
  5
1434
331
13FD
  5
13FD
331
14B0
  5
14B0
331
14EF
  5
14EF
331
143C
  5
143C
331
147B
  5
147B
331
1405
  5
1405
331
14B8
  5
14B8
331
14F7
  5
14F7
331
1444
  5
1444
331
17FE
  5
17FE
331
1806
  5
1806
331
1816
  5
1816
331
1481
  5
1481
331
14C0
  5
14C0
331
144C
  5
144C
331
140D
  5
140D
331
1489
  5
1489
331
14C8
  5
14C8
331
14FF
  5
14FF
331
1454
  5
1454
331
1415
  5
1415
331
1491
  5
1491
331
14D0
  5
14D0
331
1507
  5
1507
331
145C
  5
145C
331
141D
  5
141D
331
1499
  5
1499
331
14D8
  5
14D8
331
150F
  5
150F
331
1464
  5
1464
331
1425
  5
1425
331
1517
  5
1517
331
1826
  5
1826
331
182E
  5
182E
331
17F7
  5
17F7
331
14A1
  5
14A1
331
14E0
  5
14E0
331
142D
  5
142D
331
146C
  5
146C
331
13F6
  5
13F6
331
14A9
  5
14A9
331
14E8
  5
14E8
331
1435
  5
1435
331
1474
  5
1474
331
13FE
  5
13FE
331
14B1
  5
14B1
331
14F0
  5
14F0
331
143D
  5
143D
331
147C
  5
147C
331
14B9
  5
14B9
331
1406
  5
1406
331
1445
  5
1445
331
17FF
  5
17FF
331
1807
  5
1807
331
1817
  5
1817
331
1482
  5
1482
331
14C1
  5
14C1
331
14F8
  5
14F8
331
144D
  5
144D
331
140E
  5
140E
331
148A
  5
148A
331
14C9
  5
14C9
331
1500
  5
1500
331
1455
  5
1455
331
1416
  5
1416
331
1492
  5
1492
331
14D1
  5
14D1
331
1508
  5
1508
331
145D
  5
145D
331
141E
  5
141E
331
149A
  5
149A
331
14D9
  5
14D9
331
1510
  5
1510
331
1465
  5
1465
331
13EF
  5
13EF
331
1426
  5
1426
331
182F
  5
182F
  0
SORTENTSTABLE
  5
15E2
102
{ACAD_REACTORS
330
15E1
102
}
330
15E1
100
AcDbSortentsTable
330
15E0
  0
SORTENTSTABLE
  5
161D
102
{ACAD_REACTORS
330
161C
102
}
330
161C
100
AcDbSortentsTable
330
161B
  0
SORTENTSTABLE
  5
1665
102
{ACAD_REACTORS
330
1664
102
}
330
1664
100
AcDbSortentsTable
330
1663
  0
SORTENTSTABLE
  5
166C
102
{ACAD_REACTORS
330
166B
102
}
330
166B
100
AcDbSortentsTable
330
166A
  0
SORTENTSTABLE
  5
1682
102
{ACAD_REACTORS
330
1681
102
}
330
1681
100
AcDbSortentsTable
330
1680
  0
SORTENTSTABLE
  5
1768
102
{ACAD_REACTORS
330
1767
102
}
330
1767
100
AcDbSortentsTable
330
1766
  0
SORTENTSTABLE
  5
17EB
102
{ACAD_REACTORS
330
17EA
102
}
330
17EA
100
AcDbSortentsTable
330
17A8
331
17DB
  5
17E2
331
17C5
  5
17C9
331
17AF
  5
17B1
331
17CD
  5
17D4
331
17E3
  5
17AA
331
17B7
  5
17B9
331
17D5
  5
17DC
331
17BF
  5
17C3
331
17C6
  5
17CD
331
17DC
  5
17CA
331
17B0
  5
17B2
331
17CE
  5
17D5
331
17E4
  5
17E5
331
17B8
  5
17BA
331
17D6
  5
17DD
331
17C7
  5
17CE
331
17DD
  5
17CC
331
17B1
  5
17B3
331
17CF
  5
17D6
331
17E5
  5
17E6
331
17B9
  5
17BB
331
17D7
  5
17DE
331
17C0
  5
17C4
331
17AA
  5
17AC
331
17C8
  5
17CF
331
17DE
  5
17E3
331
17B2
  5
17B4
331
17D0
  5
17D7
331
17E6
  5
17E7
331
17BA
  5
17BC
331
17C1
  5
17C5
331
17C9
  5
17D0
331
17AB
  5
17AD
331
17DF
  5
17AB
331
17B3
  5
17B5
331
17D1
  5
17D8
331
17E7
  5
17E8
331
17BB
  5
17BF
331
17C2
  5
17C6
331
17D8
  5
17DF
331
17AC
  5
17AE
331
17CA
  5
17D1
331
17E0
  5
17E4
331
17B4
  5
17B6
331
17D2
  5
17D9
331
17E8
  5
17CB
331
17BC
  5
17C0
331
17C3
  5
17C7
331
17D9
  5
17E0
331
17AD
  5
17AF
331
17CB
  5
17D2
331
17E1
  5
17BD
331
17B5
  5
17B7
331
17D3
  5
17DA
331
17BD
  5
17C1
331
17DA
  5
17E1
331
17C4
  5
17C8
331
17AE
  5
17B0
331
17CC
  5
17D3
331
17E2
  5
17BE
331
17B6
  5
17B8
331
17D4
  5
17DB
331
17BE
  5
17C2
  0
XRECORD
  5
188C
102
{ACAD_REACTORS
330
188B
102
}
330
188B
100
AcDbXrecord
280
     1
 40
283676.0
  1
\pxsm1,qc;{\fISOCPEUR|b0|i0|c0|p34;\W1;Description\POutline drawing}
  0
XRECORD
  5
188E
102
{ACAD_REACTORS
330
188D
102
}
330
188D
100
AcDbXrecord
280
     1
 40
253289.0
  1
\pxsm1,qc;{\fISOCPEUR|b0|i0|c0|p34;\W1;17S  78  .1\POutline drawing}
  0
LAYOUT
  5
73
102
{ACAD_REACTORS
330
69
102
}
330
69
100
AcDbPlotSettings
  1

  2
HP CLJ 5550DN PCL 6
  4

  6

 40
0.0
 41
0.0
 42
0.0
 43
0.0
 44
0.0
 45
0.0
 46
0.0
 47
0.0
 48
0.0
 49
0.0
140
0.0
141
0.0
142
1.0
143
1.0
 70
   688
 72
     0
 73
     0
 74
     5
  7

 75
    16
147
1.0
 76
     0
 77
     2
 78
   300
148
0.0
149
0.0
100
AcDbLayout
  1
Layout1
 70
     1
 71
     1
 10
0.0
 20
0.0
 11
12.0
 21
9.0
 12
0.0
 22
0.0
 32
0.0
 14
1.000000000000000E+20
 24
1.000000000000000E+20
 34
1.000000000000000E+20
 15
-1.000000000000000E+20
 25
-1.000000000000000E+20
 35
-1.000000000000000E+20
146
0.0
 13
0.0
 23
0.0
 33
0.0
 16
1.0
 26
0.0
 36
0.0
 17
0.0
 27
1.0
 37
0.0
 76
     0
330
70
  0
LAYOUT
  5
77
102
{ACAD_REACTORS
330
69
102
}
330
69
100
AcDbPlotSettings
  1

  2
none_device
  4
Letter_(8.50_x_11.00_Inches)
  6

 40
6.349999904632568
 41
6.349999904632568
 42
6.350006103515625
 43
6.350006103515625
 44
215.8999938964844
 45
279.3999938964844
 46
0.0
 47
0.0
 48
0.0
 49
0.0
140
0.0
141
0.0
142
1.0
143
32.84091586000868
 70
 11952
 72
     0
 73
     1
 74
     0
  7

 75
     0
147
0.0304498207133659
 76
     0
 77
     2
 78
   300
148
-26548.79136369816
149
-365.4161678996918
100
AcDbLayout
  1
Model
 70
     1
 71
     0
 10
0.0
 20
0.0
 11
12.0
 21
9.0
 12
0.0
 22
0.0
 32
0.0
 14
0.0
 24
0.0
 34
0.0
 15
0.0
 25
0.0
 35
0.0
146
0.0
 13
0.0
 23
0.0
 33
0.0
 16
1.0
 26
0.0
 36
0.0
 17
0.0
 27
1.0
 37
0.0
 76
     0
330
74
331
8C
1001
ACAD_PSEXT
1000
None
1000
None
1000
Not applicable
1000
The layout will not be plotted unless a new plotter configuration name is selected.
1070
     0
  0
MATERIAL
  5
19
102
{ACAD_XDICTIONARY
360
1A
102
}
102
{ACAD_REACTORS
330
10
102
}
330
10
100
AcDbMaterial
  1
ByBlock
 72
     0
 43
0.0208333333333333
 43
0.0
 43
0.0
 43
0.0
 43
0.0
 43
0.0208333333333333
 43
0.0
 43
0.0
 43
0.0
 43
0.0
 43
1.0
 43
0.0
 43
0.0
 43
0.0
 43
0.0
 43
1.0
 77
     0
 47
0.0208333333333333
 47
0.0
 47
0.0
 47
0.0
 47
0.0
 47
0.0208333333333333
 47
0.0
 47
0.0
 47
0.0
 47
0.0
 47
1.0
 47
0.0
 47
0.0
 47
0.0
 47
0.0
 47
1.0
171
     0
 49
0.0208333333333333
 49
0.0
 49
0.0
 49
0.0
 49
0.0
 49
0.0208333333333333
 49
0.0
 49
0.0
 49
0.0
 49
0.0
 49
1.0
 49
0.0
 49
0.0
 49
0.0
 49
0.0
 49
1.0
175
     0
142
0.0208333333333333
142
0.0
142
0.0
142
0.0
142
0.0
142
0.0208333333333333
142
0.0
142
0.0
142
0.0
142
0.0
142
1.0
142
0.0
142
0.0
142
0.0
142
0.0
142
1.0
179
     0
144
0.0208333333333333
144
0.0
144
0.0
144
0.0
144
0.0
144
0.0208333333333333
144
0.0
144
0.0
144
0.0
144
0.0
144
1.0
144
0.0
144
0.0
144
0.0
144
0.0
144
1.0
147
0.0208333333333333
147
0.0
147
0.0
147
0.0
147
0.0
147
0.0208333333333333
147
0.0
147
0.0
147
0.0
147
0.0
147
1.0
147
0.0
147
0.0
147
0.0
147
0.0
147
1.0
  0
MATERIAL
  5
11
102
{ACAD_XDICTIONARY
360
12
102
}
102
{ACAD_REACTORS
330
10
102
}
330
10
100
AcDbMaterial
  1
ByLayer
 72
     0
 43
0.0208333333333333
 43
0.0
 43
0.0
 43
0.0
 43
0.0
 43
0.0208333333333333
 43
0.0
 43
0.0
 43
0.0
 43
0.0
 43
1.0
 43
0.0
 43
0.0
 43
0.0
 43
0.0
 43
1.0
 77
     0
 47
0.0208333333333333
 47
0.0
 47
0.0
 47
0.0
 47
0.0
 47
0.0208333333333333
 47
0.0
 47
0.0
 47
0.0
 47
0.0
 47
1.0
 47
0.0
 47
0.0
 47
0.0
 47
0.0
 47
1.0
171
     0
 49
0.0208333333333333
 49
0.0
 49
0.0
 49
0.0
 49
0.0
 49
0.0208333333333333
 49
0.0
 49
0.0
 49
0.0
 49
0.0
 49
1.0
 49
0.0
 49
0.0
 49
0.0
 49
0.0
 49
1.0
175
     0
142
0.0208333333333333
142
0.0
142
0.0
142
0.0
142
0.0
142
0.0208333333333333
142
0.0
142
0.0
142
0.0
142
0.0
142
1.0
142
0.0
142
0.0
142
0.0
142
0.0
142
1.0
179
     0
144
0.0208333333333333
144
0.0
144
0.0
144
0.0
144
0.0
144
0.0208333333333333
144
0.0
144
0.0
144
0.0
144
0.0
144
1.0
144
0.0
144
0.0
144
0.0
144
0.0
144
1.0
147
0.0208333333333333
147
0.0
147
0.0
147
0.0
147
0.0
147
0.0208333333333333
147
0.0
147
0.0
147
0.0
147
0.0
147
1.0
147
0.0
147
0.0
147
0.0
147
0.0
147
1.0
  0
MATERIAL
  5
21
102
{ACAD_XDICTIONARY
360
22
102
}
102
{ACAD_REACTORS
330
10
102
}
330
10
100
AcDbMaterial
  1
Global
 72
     0
 43
0.0208333333333333
 43
0.0
 43
0.0
 43
0.0
 43
0.0
 43
0.0208333333333333
 43
0.0
 43
0.0
 43
0.0
 43
0.0
 43
1.0
 43
0.0
 43
0.0
 43
0.0
 43
0.0
 43
1.0
 77
     0
 47
0.0208333333333333
 47
0.0
 47
0.0
 47
0.0
 47
0.0
 47
0.0208333333333333
 47
0.0
 47
0.0
 47
0.0
 47
0.0
 47
1.0
 47
0.0
 47
0.0
 47
0.0
 47
0.0
 47
1.0
171
     0
 49
0.0208333333333333
 49
0.0
 49
0.0
 49
0.0
 49
0.0
 49
0.0208333333333333
 49
0.0
 49
0.0
 49
0.0
 49
0.0
 49
1.0
 49
0.0
 49
0.0
 49
0.0
 49
0.0
 49
1.0
175
     0
142
0.0208333333333333
142
0.0
142
0.0
142
0.0
142
0.0
142
0.0208333333333333
142
0.0
142
0.0
142
0.0
142
0.0
142
1.0
142
0.0
142
0.0
142
0.0
142
0.0
142
1.0
179
     0
144
0.0208333333333333
144
0.0
144
0.0
144
0.0
144
0.0
144
0.0208333333333333
144
0.0
144
0.0
144
0.0
144
0.0
144
1.0
144
0.0
144
0.0
144
0.0
144
0.0
144
1.0
147
0.0208333333333333
147
0.0
147
0.0
147
0.0
147
0.0
147
0.0208333333333333
147
0.0
147
0.0
147
0.0
147
0.0
147
1.0
147
0.0
147
0.0
147
0.0
147
0.0
147
1.0
  0
MLEADERSTYLE
  5
6E
102
{ACAD_REACTORS
330
6D
102
}
330
6D
100
AcDbMLeaderStyle
170
     2
171
     1
172
     0
 90
        2
 40
0.0
 41
0.0
173
     1
 91
-1056964608
340
62
 92
       -2
290
     1
 42
0.09
291
     1
 43
0.36
  3
Standard
 44
0.18
300

342
5D
174
     1
178
     6
175
     1
176
     0
 93
-1056964608
 45
0.18
292
     0
297
     0
 46
0.18
 94
-1056964608
 47
1.0
 49
1.0
140
1.0
293
     1
141
0.0
294
     1
177
     0
142
1.0
295
     0
296
     0
143
0.125
1001
ACAD_MLEADERVER
1070
     2
  0
MLINESTYLE
  5
67
102
{ACAD_REACTORS
330
66
102
}
330
66
100
AcDbMlineStyle
  2
STANDARD
 70
     0
  3

 62
   256
 51
90.0
 52
90.0
 71
     2
 49
0.5
 62
   256
  6
BYLAYER
 49
-0.5
 62
   256
  6
BYLAYER
  0
ACDBPLACEHOLDER
  5
F
102
{ACAD_REACTORS
330
E
102
}
330
E
  0
SCALE
  5
3B
102
{ACAD_REACTORS
330
3A
102
}
330
3A
100
AcDbScale
 70
     0
300
1:1
140
1.0
141
1.0
290
     1
  0
SCALE
  5
3C
102
{ACAD_REACTORS
330
3A
102
}
330
3A
100
AcDbScale
 70
     0
300
1:2
140
1.0
141
2.0
290
     0
  0
SCALE
  5
3D
102
{ACAD_REACTORS
330
3A
102
}
330
3A
100
AcDbScale
 70
     0
300
1:4
140
1.0
141
4.0
290
     0
  0
SCALE
  5
3E
102
{ACAD_REACTORS
330
3A
102
}
330
3A
100
AcDbScale
 70
     0
300
1:5
140
1.0
141
5.0
290
     0
  0
SCALE
  5
3F
102
{ACAD_REACTORS
330
3A
102
}
330
3A
100
AcDbScale
 70
     0
300
1:8
140
1.0
141
8.0
290
     0
  0
SCALE
  5
40
102
{ACAD_REACTORS
330
3A
102
}
330
3A
100
AcDbScale
 70
     0
300
1:10
140
1.0
141
10.0
290
     0
  0
SCALE
  5
41
102
{ACAD_REACTORS
330
3A
102
}
330
3A
100
AcDbScale
 70
     0
300
1:16
140
1.0
141
16.0
290
     0
  0
SCALE
  5
42
102
{ACAD_REACTORS
330
3A
102
}
330
3A
100
AcDbScale
 70
     0
300
1:20
140
1.0
141
20.0
290
     0
  0
SCALE
  5
43
102
{ACAD_REACTORS
330
3A
102
}
330
3A
100
AcDbScale
 70
     0
300
1:30
140
1.0
141
30.0
290
     0
  0
SCALE
  5
44
102
{ACAD_REACTORS
330
3A
102
}
330
3A
100
AcDbScale
 70
     0
300
1:40
140
1.0
141
40.0
290
     0
  0
SCALE
  5
45
102
{ACAD_REACTORS
330
3A
102
}
330
3A
100
AcDbScale
 70
     0
300
1:50
140
1.0
141
50.0
290
     0
  0
SCALE
  5
46
102
{ACAD_REACTORS
330
3A
102
}
330
3A
100
AcDbScale
 70
     0
300
1:100
140
1.0
141
100.0
290
     0
  0
SCALE
  5
47
102
{ACAD_REACTORS
330
3A
102
}
330
3A
100
AcDbScale
 70
     0
300
2:1
140
2.0
141
1.0
290
     0
  0
SCALE
  5
48
102
{ACAD_REACTORS
330
3A
102
}
330
3A
100
AcDbScale
 70
     0
300
4:1
140
4.0
141
1.0
290
     0
  0
SCALE
  5
49
102
{ACAD_REACTORS
330
3A
102
}
330
3A
100
AcDbScale
 70
     0
300
8:1
140
8.0
141
1.0
290
     0
  0
SCALE
  5
4A
102
{ACAD_REACTORS
330
3A
102
}
330
3A
100
AcDbScale
 70
     0
300
10:1
140
10.0
141
1.0
290
     0
  0
SCALE
  5
4B
102
{ACAD_REACTORS
330
3A
102
}
330
3A
100
AcDbScale
 70
     0
300
100:1
140
100.0
141
1.0
290
     0
  0
SCALE
  5
4C
102
{ACAD_REACTORS
330
3A
102
}
330
3A
100
AcDbScale
 70
     0
300
1/128" = 1'-0"
140
0.0078125
141
12.0
290
     0
  0
SCALE
  5
4D
102
{ACAD_REACTORS
330
3A
102
}
330
3A
100
AcDbScale
 70
     0
300
1/64" = 1'-0"
140
0.015625
141
12.0
290
     0
  0
SCALE
  5
4E
102
{ACAD_REACTORS
330
3A
102
}
330
3A
100
AcDbScale
 70
     0
300
1/32" = 1'-0"
140
0.03125
141
12.0
290
     0
  0
SCALE
  5
4F
102
{ACAD_REACTORS
330
3A
102
}
330
3A
100
AcDbScale
 70
     0
300
1/16" = 1'-0"
140
0.0625
141
12.0
290
     0
  0
SCALE
  5
50
102
{ACAD_REACTORS
330
3A
102
}
330
3A
100
AcDbScale
 70
     0
300
3/32" = 1'-0"
140
0.09375
141
12.0
290
     0
  0
SCALE
  5
51
102
{ACAD_REACTORS
330
3A
102
}
330
3A
100
AcDbScale
 70
     0
300
1/8" = 1'-0"
140
0.125
141
12.0
290
     0
  0
SCALE
  5
52
102
{ACAD_REACTORS
330
3A
102
}
330
3A
100
AcDbScale
 70
     0
300
3/16" = 1'-0"
140
0.1875
141
12.0
290
     0
  0
SCALE
  5
53
102
{ACAD_REACTORS
330
3A
102
}
330
3A
100
AcDbScale
 70
     0
300
1/4" = 1'-0"
140
0.25
141
12.0
290
     0
  0
SCALE
  5
54
102
{ACAD_REACTORS
330
3A
102
}
330
3A
100
AcDbScale
 70
     0
300
3/8" = 1'-0"
140
0.375
141
12.0
290
     0
  0
SCALE
  5
55
102
{ACAD_REACTORS
330
3A
102
}
330
3A
100
AcDbScale
 70
     0
300
1/2" = 1'-0"
140
0.5
141
12.0
290
     0
  0
SCALE
  5
56
102
{ACAD_REACTORS
330
3A
102
}
330
3A
100
AcDbScale
 70
     0
300
3/4" = 1'-0"
140
0.75
141
12.0
290
     0
  0
SCALE
  5
57
102
{ACAD_REACTORS
330
3A
102
}
330
3A
100
AcDbScale
 70
     0
300
1" = 1'-0"
140
1.0
141
12.0
290
     0
  0
SCALE
  5
58
102
{ACAD_REACTORS
330
3A
102
}
330
3A
100
AcDbScale
 70
     0
300
1-1/2" = 1'-0"
140
1.5
141
12.0
290
     0
  0
SCALE
  5
59
102
{ACAD_REACTORS
330
3A
102
}
330
3A
100
AcDbScale
 70
     0
300
3" = 1'-0"
140
3.0
141
12.0
290
     0
  0
SCALE
  5
5A
102
{ACAD_REACTORS
330
3A
102
}
330
3A
100
AcDbScale
 70
     0
300
6" = 1'-0"
140
6.0
141
12.0
290
     0
  0
SCALE
  5
5B
102
{ACAD_REACTORS
330
3A
102
}
330
3A
100
AcDbScale
 70
     0
300
1'-0" = 1'-0"
140
12.0
141
12.0
290
     0
  0
TABLESTYLE
  5
6C
102
{ACAD_XDICTIONARY
360
1365
102
}
102
{ACAD_REACTORS
330
6B
102
}
330
6B
100
AcDbTableStyle
  3
Standard
 70
     0
 71
     0
 40
0.06
 41
0.06
280
     0
281
     0
  7
STANDARD
140
0.18
170
     2
 62
     0
 63
     7
283
     0
 90
      512
 91
        0
  1

274
    -2
284
     1
 64
     0
275
    -2
285
     1
 65
     0
276
    -2
286
     1
 66
     0
277
    -2
287
     1
 67
     0
278
    -2
288
     1
 68
     0
279
    -2
289
     1
 69
     0
  7
STANDARD
140
0.25
170
     5
 62
     0
 63
     7
283
     0
 90
      512
 91
        0
  1

274
    -2
284
     1
 64
     0
275
    -2
285
     1
 65
     0
276
    -2
286
     1
 66
     0
277
    -2
287
     1
 67
     0
278
    -2
288
     1
 68
     0
279
    -2
289
     1
 69
     0
  7
STANDARD
140
0.18
170
     5
 62
     0
 63
     7
283
     0
 90
      512
 91
        0
  1

274
    -2
284
     1
 64
     0
275
    -2
285
     1
 65
     0
276
    -2
286
     1
 66
     0
277
    -2
287
     1
 67
     0
278
    -2
288
     1
 68
     0
279
    -2
289
     1
 69
     0
  0
VISUALSTYLE
  5
2F
102
{ACAD_REACTORS
330
29
102
}
330
29
100
AcDbVisualStyle
  2
2dWireframe
 70
     4
 71
     0
 72
     2
 73
     0
 90
        0
 40
-0.6
 41
-30.0
 62
     5
 63
     7
 74
     1
 91
        4
 64
     7
 65
   257
 75
     1
175
     1
 42
1.0
 92
        0
 66
   257
 43
1.0
 76
     1
 77
     6
 78
     2
 67
     7
 79
     5
170
     0
171
     0
290
     0
174
     0
 93
        1
 44
0.0
173
     0
291
     0
 45
0.0
1001
ACAD
1000
AcDbSavedByObjectVersion
1070
     0
1000
AcDbSavedByObjectVersion
1070
     0
  0
VISUALSTYLE
  5
31
102
{ACAD_REACTORS
330
29
102
}
330
29
100
AcDbVisualStyle
  2
3D Hidden
 70
     6
 71
     1
 72
     2
 73
     2
 90
        0
 40
-0.6
 41
-30.0
 62
     5
 63
     7
 74
     2
 91
        2
 64
     7
 65
   257
 75
     2
175
     1
 42
40.0
 92
        0
 66
   257
 43
1.0
 76
     1
 77
     6
 78
     2
 67
     7
 79
     3
170
     0
171
     0
290
     0
174
     0
 93
        1
 44
0.0
173
     0
291
     0
 45
0.0
1001
ACAD
1000
AcDbSavedByObjectVersion
1070
     0
1000
AcDbSavedByObjectVersion
1070
     0
  0
VISUALSTYLE
  5
30
102
{ACAD_REACTORS
330
29
102
}
330
29
100
AcDbVisualStyle
  2
3dWireframe
 70
     5
 71
     0
 72
     2
 73
     0
 90
        0
 40
-0.6
 41
-30.0
 62
     5
 63
     7
 74
     1
 91
        4
 64
     7
 65
   257
 75
     1
175
     1
 42
1.0
 92
        0
 66
   257
 43
1.0
 76
     1
 77
     6
 78
     2
 67
     7
 79
     5
170
     0
171
     0
290
     0
174
     0
 93
        1
 44
0.0
173
     0
291
     0
 45
0.0
1001
ACAD
1000
AcDbSavedByObjectVersion
1070
     0
1000
AcDbSavedByObjectVersion
1070
     0
  0
VISUALSTYLE
  5
2E
102
{ACAD_REACTORS
330
29
102
}
330
29
100
AcDbVisualStyle
  2
Basic
 70
     7
 71
     1
 72
     0
 73
     1
 90
        0
 40
-0.6
 41
-30.0
 62
     5
 63
     7
 74
     0
 91
        4
 64
     7
 65
   257
 75
     1
175
     1
 42
1.0
 92
        8
 66
     7
 43
1.0
 76
     1
 77
     6
 78
     2
 67
     7
 79
     5
170
     0
171
     0
290
     0
174
     0
 93
        1
 44
0.0
173
     0
291
     1
 45
0.0
1001
ACAD
1000
AcDbSavedByObjectVersion
1070
     0
1000
AcDbSavedByObjectVersion
1070
     0
  0
VISUALSTYLE
  5
35
102
{ACAD_REACTORS
330
29
102
}
330
29
100
AcDbVisualStyle
  2
Brighten
 70
    12
 71
     2
 72
     2
 73
     0
 90
        0
 40
-0.6
 41
-30.0
 62
     5
 63
     7
 74
     1
 91
        4
 64
     7
 65
   257
 75
     1
175
     1
 42
1.0
 92
        8
 66
     7
 43
1.0
 76
     1
 77
     6
 78
     2
 67
     7
 79
     5
170
     0
171
     0
290
     0
174
     0
 93
        1
 44
50.0
173
     0
291
     1
 45
0.0
1001
ACAD
1000
AcDbSavedByObjectVersion
1070
     0
1000
AcDbSavedByObjectVersion
1070
     0
  0
VISUALSTYLE
  5
39
102
{ACAD_REACTORS
330
29
102
}
330
29
100
AcDbVisualStyle
  2
ColorChange
 70
    16
 71
     2
 72
     2
 73
     3
 90
        0
 40
-0.6
 41
-30.0
 62
     5
 63
     8
 74
     1
 91
        4
 64
     7
 65
   257
 75
     1
175
     1
 42
1.0
 92
        8
 66
     8
 43
1.0
 76
     1
 77
     6
 78
     2
 67
     7
 79
     5
170
     0
171
     0
290
     0
174
     0
 93
        1
 44
0.0
173
     0
291
     1
 45
0.0
1001
ACAD
1000
AcDbSavedByObjectVersion
1070
     0
1000
AcDbSavedByObjectVersion
1070
     0
  0
VISUALSTYLE
  5
32
102
{ACAD_REACTORS
330
29
102
}
330
29
100
AcDbVisualStyle
  2
Conceptual
 70
     9
 71
     3
 72
     2
 73
     0
 90
        0
 40
-0.6
 41
-30.0
 62
     5
 63
     7
 74
     2
 91
        2
 64
     7
 65
   257
 75
     1
175
     1
 42
40.0
 92
        8
 66
     7
 43
1.0
 76
     1
 77
     6
 78
     2
 67
     7
 79
     3
170
     0
171
     0
290
     0
174
     0
 93
        1
 44
0.0
173
     0
291
     0
 45
0.0
1001
ACAD
1000
AcDbSavedByObjectVersion
1070
     0
1000
AcDbSavedByObjectVersion
1070
     0
  0
VISUALSTYLE
  5
34
102
{ACAD_REACTORS
330
29
102
}
330
29
100
AcDbVisualStyle
  2
Dim
 70
    11
 71
     2
 72
     2
 73
     0
 90
        0
 40
-0.6
 41
-30.0
 62
     5
 63
     7
 74
     1
 91
        4
 64
     7
 65
   257
 75
     1
175
     1
 42
1.0
 92
        8
 66
     7
 43
1.0
 76
     1
 77
     6
 78
     2
 67
     7
 79
     5
170
     0
171
     0
290
     0
174
     0
 93
        1
 44
-50.0
173
     0
291
     1
 45
0.0
1001
ACAD
1000
AcDbSavedByObjectVersion
1070
     0
1000
AcDbSavedByObjectVersion
1070
     0
  0
VISUALSTYLE
  5
179D
102
{ACAD_XDICTIONARY
360
179E
102
}
102
{ACAD_REACTORS
330
29
102
}
330
29
100
AcDbVisualStyle
  2
EdgeColorOff
 70
    22
 71
     2
 72
     2
 73
     0
 90
        0
 40
-0.6
 41
-30.0
 62
     5
 63
     7
 74
     1
 91
        4
 64
     7
 65
   257
 75
     1
175
     1
 42
1.0
 92
        8
 66
     7
 43
1.0
 76
     1
 77
     6
 78
     2
 67
     7
 79
     5
170
     0
171
     0
290
     0
174
     0
 93
        1
 44
0.0
173
     0
291
     1
 45
0.0
  0
VISUALSTYLE
  5
38
102
{ACAD_REACTORS
330
29
102
}
330
29
100
AcDbVisualStyle
  2
Facepattern
 70
    15
 71
     2
 72
     2
 73
     0
 90
        0
 40
-0.6
 41
-30.0
 62
     5
 63
     7
 74
     1
 91
        4
 64
     7
 65
   257
 75
     1
175
     1
 42
1.0
 92
        8
 66
     7
 43
1.0
 76
     1
 77
     6
 78
     2
 67
     7
 79
     5
170
     0
171
     0
290
     0
174
     0
 93
        1
 44
0.0
173
     0
291
     1
 45
0.0
1001
ACAD
1000
AcDbSavedByObjectVersion
1070
     0
1000
AcDbSavedByObjectVersion
1070
     0
  0
VISUALSTYLE
  5
2A
102
{ACAD_REACTORS
330
29
102
}
330
29
100
AcDbVisualStyle
  2
Flat
 70
     0
 71
     2
 72
     1
 73
     1
 90
        2
 40
-0.6
 41
30.0
 62
     5
 63
     7
 74
     0
 91
        4
 64
     7
 65
   257
 75
     1
175
     1
 42
1.0
 92
        8
 66
     7
 43
1.0
 76
     1
 77
     6
 78
     2
 67
     7
 79
     5
170
     0
171
     0
290
     0
174
     0
 93
       13
 44
0.0
173
     0
291
     1
 45
0.0
1001
ACAD
1000
AcDbSavedByObjectVersion
1070
     0
1000
AcDbSavedByObjectVersion
1070
     0
  0
VISUALSTYLE
  5
2B
102
{ACAD_REACTORS
330
29
102
}
330
29
100
AcDbVisualStyle
  2
FlatWithEdges
 70
     1
 71
     2
 72
     1
 73
     1
 90
        2
 40
-0.6
 41
30.0
 62
     5
 63
     7
 74
     1
 91
        4
 64
     7
 65
   257
 75
     1
175
     1
 42
1.0
 92
        0
 66
   257
 43
1.0
 76
     1
 77
     6
 78
     2
 67
     7
 79
     5
170
     0
171
     0
290
     0
174
     0
 93
       13
 44
0.0
173
     0
291
     1
 45
0.0
1001
ACAD
1000
AcDbSavedByObjectVersion
1070
     0
1000
AcDbSavedByObjectVersion
1070
     0
  0
VISUALSTYLE
  5
2C
102
{ACAD_REACTORS
330
29
102
}
330
29
100
AcDbVisualStyle
  2
Gouraud
 70
     2
 71
     2
 72
     2
 73
     1
 90
        2
 40
-0.6
 41
30.0
 62
     5
 63
     7
 74
     0
 91
        4
 64
     7
 65
   257
 75
     1
175
     1
 42
1.0
 92
        0
 66
     7
 43
1.0
 76
     1
 77
     6
 78
     2
 67
     7
 79
     5
170
     0
171
     0
290
     0
174
     0
 93
       13
 44
0.0
173
     0
291
     1
 45
0.0
1001
ACAD
1000
AcDbSavedByObjectVersion
1070
     0
1000
AcDbSavedByObjectVersion
1070
     0
  0
VISUALSTYLE
  5
2D
102
{ACAD_REACTORS
330
29
102
}
330
29
100
AcDbVisualStyle
  2
GouraudWithEdges
 70
     3
 71
     2
 72
     2
 73
     1
 90
        2
 40
-0.6
 41
30.0
 62
     5
 63
     7
 74
     1
 91
        4
 64
     7
 65
   257
 75
     1
175
     1
 42
1.0
 92
        0
 66
   257
 43
1.0
 76
     1
 77
     6
 78
     2
 67
     7
 79
     5
170
     0
171
     0
290
     0
174
     0
 93
       13
 44
0.0
173
     0
291
     1
 45
0.0
1001
ACAD
1000
AcDbSavedByObjectVersion
1070
     0
1000
AcDbSavedByObjectVersion
1070
     0
  0
VISUALSTYLE
  5
17A0
102
{ACAD_XDICTIONARY
360
17A1
102
}
102
{ACAD_REACTORS
330
29
102
}
330
29
100
AcDbVisualStyle
  2
JitterOff
 70
    20
 71
     2
 72
     2
 73
     0
 90
        0
 40
-0.6
 41
-30.0
 62
     5
 63
     7
 74
     1
 91
        4
 64
     7
 65
   257
 75
     1
175
     1
 42
1.0
 92
       10
 66
     7
 43
1.0
 76
     1
 77
     6
 78
     2
 67
     7
 79
     5
170
     0
171
     0
290
     0
174
     0
 93
        1
 44
0.0
173
     0
291
     1
 45
0.0
  0
VISUALSTYLE
  5
37
102
{ACAD_REACTORS
330
29
102
}
330
29
100
AcDbVisualStyle
  2
Linepattern
 70
    14
 71
     2
 72
     2
 73
     0
 90
        0
 40
-0.6
 41
-30.0
 62
     5
 63
     7
 74
     1
 91
        4
 64
     7
 65
   257
 75
     7
175
     7
 42
1.0
 92
        8
 66
     7
 43
1.0
 76
     1
 77
     6
 78
     2
 67
     7
 79
     5
170
     0
171
     0
290
     0
174
     0
 93
        1
 44
0.0
173
     0
291
     1
 45
0.0
1001
ACAD
1000
AcDbSavedByObjectVersion
1070
     0
1000
AcDbSavedByObjectVersion
1070
     0
  0
VISUALSTYLE
  5
17A3
102
{ACAD_XDICTIONARY
360
17A4
102
}
102
{ACAD_REACTORS
330
29
102
}
330
29
100
AcDbVisualStyle
  2
OverhangOff
 70
    21
 71
     2
 72
     2
 73
     0
 90
        0
 40
-0.6
 41
-30.0
 62
     5
 63
     7
 74
     1
 91
        4
 64
     7
 65
   257
 75
     1
175
     1
 42
1.0
 92
        9
 66
     7
 43
1.0
 76
     1
 77
     6
 78
     2
 67
     7
 79
     5
170
     0
171
     0
290
     0
174
     0
 93
        1
 44
0.0
173
     0
291
     1
 45
0.0
  0
VISUALSTYLE
  5
33
102
{ACAD_REACTORS
330
29
102
}
330
29
100
AcDbVisualStyle
  2
Realistic
 70
     8
 71
     2
 72
     2
 73
     0
 90
        0
 40
-0.6
 41
-30.0
 62
     5
 63
     7
 74
     1
 91
        0
 64
     7
 65
   257
 75
     1
175
     1
 42
1.0
 92
        8
 66
     8
 43
1.0
 76
     1
 77
     6
 78
     2
 67
     7
 79
     5
170
     0
171
     0
290
     0
174
     0
 93
       13
 44
0.0
173
     0
291
     0
 45
0.0
1001
ACAD
1000
AcDbSavedByObjectVersion
1070
     0
1000
AcDbSavedByObjectVersion
1070
     0
  0
VISUALSTYLE
  5
36
102
{ACAD_REACTORS
330
29
102
}
330
29
100
AcDbVisualStyle
  2
Thicken
 70
    13
 71
     2
 72
     2
 73
     0
 90
        0
 40
-0.6
 41
-30.0
 62
     5
 63
     7
 74
     1
 91
        4
 64
     7
 65
   257
 75
     1
175
     1
 42
1.0
 92
       12
 66
     7
 43
1.0
 76
     1
 77
     6
 78
     2
 67
     7
 79
     5
170
     0
171
     0
290
     0
174
     0
 93
        1
 44
0.0
173
     0
291
     1
 45
0.0
1001
ACAD
1000
AcDbSavedByObjectVersion
1070
     0
1000
AcDbSavedByObjectVersion
1070
     0
  0
DICTIONARYVAR
  5
412
102
{ACAD_REACTORS
330
40F
102
}
330
40F
100
DictionaryVariables
280
     0
  1
1:1
  0
DICTIONARYVAR
  5
411
102
{ACAD_REACTORS
330
40F
102
}
330
40F
100
DictionaryVariables
280
     0
  1
STANDARD
  0
DICTIONARYVAR
  5
410
102
{ACAD_REACTORS
330
40F
102
}
330
40F
100
DictionaryVariables
280
     0
  1
STANDARD
  0
DICTIONARYVAR
  5
415
102
{ACAD_REACTORS
330
40F
102
}
330
40F
100
DictionaryVariables
280
     0
  1
1
  0
DICTIONARYVAR
  5
414
102
{ACAD_REACTORS
330
40F
102
}
330
40F
100
DictionaryVariables
280
     0
  1
0
  0
DICTIONARYVAR
  5
1882
102
{ACAD_REACTORS
330
40F
102
}
330
40F
100
DictionaryVariables
280
     0
  1
0
  0
DICTIONARYVAR
  5
1881
102
{ACAD_REACTORS
330
40F
102
}
330
40F
100
DictionaryVariables
280
     0
  1
0
  0
DICTIONARYVAR
  5
413
102
{ACAD_REACTORS
330
40F
102
}
330
40F
100
DictionaryVariables
280
     0
  1
127
  0
DICTIONARY
  5
1A
330
19
100
AcDbDictionary
280
     1
281
     1
  3
ACAD_XREC_ROUNDTRIP
360
136A
  3
BUMPTILE
360
1C
  3
DIFFUSETILE
360
1B
  3
OPACITYTILE
360
1F
  3
REFLECTIONTILE
360
1E
  3
REFRACTIONTILE
360
20
  3
SPECULARTILE
360
1D
  0
DICTIONARY
  5
12
330
11
100
AcDbDictionary
280
     1
281
     1
  3
ACAD_XREC_ROUNDTRIP
360
1369
  3
BUMPTILE
360
14
  3
DIFFUSETILE
360
13
  3
OPACITYTILE
360
17
  3
REFLECTIONTILE
360
16
  3
REFRACTIONTILE
360
18
  3
SPECULARTILE
360
15
  0
DICTIONARY
  5
22
330
21
100
AcDbDictionary
280
     1
281
     1
  3
ACAD_XREC_ROUNDTRIP
360
136B
  3
BUMPTILE
360
24
  3
DIFFUSETILE
360
23
  3
OPACITYTILE
360
27
  3
REFLECTIONTILE
360
26
  3
REFRACTIONTILE
360
28
  3
SPECULARTILE
360
25
  0
DICTIONARY
  5
1365
330
6C
100
AcDbDictionary
280
     1
281
     1
  3
ACAD_ROUNDTRIP_2008_TABLESTYLE_CELLSTYLEMAP
360
188A
  0
DICTIONARY
  5
179E
330
179D
100
AcDbDictionary
280
     1
281
     1
  3
ACAD_XREC_ROUNDTRIP
360
179F
  0
DICTIONARY
  5
17A1
330
17A0
100
AcDbDictionary
280
     1
281
     1
  3
ACAD_XREC_ROUNDTRIP
360
17A2
  0
DICTIONARY
  5
17A4
330
17A3
100
AcDbDictionary
280
     1
281
     1
  3
ACAD_XREC_ROUNDTRIP
360
17A5
  0
XRECORD
  5
136A
102
{ACAD_REACTORS
330
1A
102
}
330
1A
100
AcDbXrecord
280
     1
102
MATERIAL
148
0.0
149
0.0
149
0.0
 93
        0
 94
      127
282
     0
 72
     0
 77
     0
171
     0
175
     0
179
     0
273
     0
  0
XRECORD
  5
1C
102
{ACAD_REACTORS
330
1A
102
}
330
1A
100
AcDbXrecord
280
     1
270
     1
271
     1
  0
XRECORD
  5
1B
102
{ACAD_REACTORS
330
1A
102
}
330
1A
100
AcDbXrecord
280
     1
270
     1
271
     1
  0
XRECORD
  5
1F
102
{ACAD_REACTORS
330
1A
102
}
330
1A
100
AcDbXrecord
280
     1
270
     1
271
     1
  0
XRECORD
  5
1E
102
{ACAD_REACTORS
330
1A
102
}
330
1A
100
AcDbXrecord
280
     1
270
     1
271
     1
  0
XRECORD
  5
20
102
{ACAD_REACTORS
330
1A
102
}
330
1A
100
AcDbXrecord
280
     1
270
     1
271
     1
  0
XRECORD
  5
1D
102
{ACAD_REACTORS
330
1A
102
}
330
1A
100
AcDbXrecord
280
     1
270
     1
271
     1
  0
XRECORD
  5
1369
102
{ACAD_REACTORS
330
12
102
}
330
12
100
AcDbXrecord
280
     1
102
MATERIAL
148
0.0
149
0.0
149
0.0
 93
        0
 94
      127
282
     0
 72
     0
 77
     0
171
     0
175
     0
179
     0
273
     0
  0
XRECORD
  5
14
102
{ACAD_REACTORS
330
12
102
}
330
12
100
AcDbXrecord
280
     1
270
     1
271
     1
  0
XRECORD
  5
13
102
{ACAD_REACTORS
330
12
102
}
330
12
100
AcDbXrecord
280
     1
270
     1
271
     1
  0
XRECORD
  5
17
102
{ACAD_REACTORS
330
12
102
}
330
12
100
AcDbXrecord
280
     1
270
     1
271
     1
  0
XRECORD
  5
16
102
{ACAD_REACTORS
330
12
102
}
330
12
100
AcDbXrecord
280
     1
270
     1
271
     1
  0
XRECORD
  5
18
102
{ACAD_REACTORS
330
12
102
}
330
12
100
AcDbXrecord
280
     1
270
     1
271
     1
  0
XRECORD
  5
15
102
{ACAD_REACTORS
330
12
102
}
330
12
100
AcDbXrecord
280
     1
270
     1
271
     1
  0
XRECORD
  5
136B
102
{ACAD_REACTORS
330
22
102
}
330
22
100
AcDbXrecord
280
     1
102
MATERIAL
148
0.0
149
0.0
149
0.0
 93
        0
 94
      127
282
     0
 72
     0
 77
     0
171
     0
175
     0
179
     0
273
     0
  0
XRECORD
  5
24
102
{ACAD_REACTORS
330
22
102
}
330
22
100
AcDbXrecord
280
     1
270
     1
271
     1
  0
XRECORD
  5
23
102
{ACAD_REACTORS
330
22
102
}
330
22
100
AcDbXrecord
280
     1
270
     1
271
     1
  0
XRECORD
  5
27
102
{ACAD_REACTORS
330
22
102
}
330
22
100
AcDbXrecord
280
     1
270
     1
271
     1
  0
XRECORD
  5
26
102
{ACAD_REACTORS
330
22
102
}
330
22
100
AcDbXrecord
280
     1
270
     1
271
     1
  0
XRECORD
  5
28
102
{ACAD_REACTORS
330
22
102
}
330
22
100
AcDbXrecord
280
     1
270
     1
271
     1
  0
XRECORD
  5
25
102
{ACAD_REACTORS
330
22
102
}
330
22
100
AcDbXrecord
280
     1
270
     1
271
     1
  0
CELLSTYLEMAP
  5
188A
102
{ACAD_REACTORS
330
1365
102
}
330
1365
100
AcDbCellStyleMap
 90
        3
300
CELLSTYLE
  1
TABLEFORMAT_BEGIN
 90
        5
170
     1
 91
        0
 92
    32768
 62
   257
 93
        1
300
CONTENTFORMAT
  1
CONTENTFORMAT_BEGIN
 90
        0
 91
        0
 92
      512
 93
        0
300

 40
0.0
140
1.0
 94
        5
 62
     0
340
5D
144
0.25
309
CONTENTFORMAT_END
171
     1
301
MARGIN
  1
CELLMARGIN_BEGIN
 40
0.06
 40
0.06
 40
0.06
 40
0.06
 40
0.18
 40
0.18
309
CELLMARGIN_END
 94
        6
 95
        1
302
GRIDFORMAT
  1
GRIDFORMAT_BEGIN
 90
        0
 91
        1
 62
     0
 92
       -2
340
0
 93
        0
 40
0.045
309
GRIDFORMAT_END
 95
        2
302
GRIDFORMAT
  1
GRIDFORMAT_BEGIN
 90
        0
 91
        1
 62
     0
 92
       -2
340
0
 93
        0
 40
0.045
309
GRIDFORMAT_END
 95
        4
302
GRIDFORMAT
  1
GRIDFORMAT_BEGIN
 90
        0
 91
        1
 62
     0
 92
       -2
340
0
 93
        0
 40
0.045
309
GRIDFORMAT_END
 95
        8
302
GRIDFORMAT
  1
GRIDFORMAT_BEGIN
 90
        0
 91
        1
 62
     0
 92
       -2
340
0
 93
        0
 40
0.045
309
GRIDFORMAT_END
 95
       16
302
GRIDFORMAT
  1
GRIDFORMAT_BEGIN
 90
        0
 91
        1
 62
     0
 92
       -2
340
0
 93
        0
 40
0.045
309
GRIDFORMAT_END
 95
       32
302
GRIDFORMAT
  1
GRIDFORMAT_BEGIN
 90
        0
 91
        1
 62
     0
 92
       -2
340
0
 93
        0
 40
0.045
309
GRIDFORMAT_END
309
TABLEFORMAT_END
  1
CELLSTYLE_BEGIN
 90
        1
 91
        1
300
_TITLE
309
CELLSTYLE_END
300
CELLSTYLE
  1
TABLEFORMAT_BEGIN
 90
        5
170
     1
 91
        0
 92
        0
 62
   257
 93
        1
300
CONTENTFORMAT
  1
CONTENTFORMAT_BEGIN
 90
        0
 91
        0
 92
      512
 93
        0
300

 40
0.0
140
1.0
 94
        5
 62
     0
340
5D
144
0.18
309
CONTENTFORMAT_END
171
     1
301
MARGIN
  1
CELLMARGIN_BEGIN
 40
0.06
 40
0.06
 40
0.06
 40
0.06
 40
0.18
 40
0.18
309
CELLMARGIN_END
 94
        6
 95
        1
302
GRIDFORMAT
  1
GRIDFORMAT_BEGIN
 90
        0
 91
        1
 62
     0
 92
       -2
340
0
 93
        0
 40
0.045
309
GRIDFORMAT_END
 95
        2
302
GRIDFORMAT
  1
GRIDFORMAT_BEGIN
 90
        0
 91
        1
 62
     0
 92
       -2
340
0
 93
        0
 40
0.045
309
GRIDFORMAT_END
 95
        4
302
GRIDFORMAT
  1
GRIDFORMAT_BEGIN
 90
        0
 91
        1
 62
     0
 92
       -2
340
0
 93
        0
 40
0.045
309
GRIDFORMAT_END
 95
        8
302
GRIDFORMAT
  1
GRIDFORMAT_BEGIN
 90
        0
 91
        1
 62
     0
 92
       -2
340
0
 93
        0
 40
0.045
309
GRIDFORMAT_END
 95
       16
302
GRIDFORMAT
  1
GRIDFORMAT_BEGIN
 90
        0
 91
        1
 62
     0
 92
       -2
340
0
 93
        0
 40
0.045
309
GRIDFORMAT_END
 95
       32
302
GRIDFORMAT
  1
GRIDFORMAT_BEGIN
 90
        0
 91
        1
 62
     0
 92
       -2
340
0
 93
        0
 40
0.045
309
GRIDFORMAT_END
309
TABLEFORMAT_END
  1
CELLSTYLE_BEGIN
 90
        2
 91
        1
300
_HEADER
309
CELLSTYLE_END
300
CELLSTYLE
  1
TABLEFORMAT_BEGIN
 90
        5
170
     1
 91
        0
 92
        0
 62
   257
 93
        1
300
CONTENTFORMAT
  1
CONTENTFORMAT_BEGIN
 90
        0
 91
        0
 92
      512
 93
        0
300

 40
0.0
140
1.0
 94
        2
 62
     0
340
5D
144
0.18
309
CONTENTFORMAT_END
171
     1
301
MARGIN
  1
CELLMARGIN_BEGIN
 40
0.06
 40
0.06
 40
0.06
 40
0.06
 40
0.18
 40
0.18
309
CELLMARGIN_END
 94
        6
 95
        1
302
GRIDFORMAT
  1
GRIDFORMAT_BEGIN
 90
        0
 91
        1
 62
     0
 92
       -2
340
0
 93
        0
 40
0.045
309
GRIDFORMAT_END
 95
        2
302
GRIDFORMAT
  1
GRIDFORMAT_BEGIN
 90
        0
 91
        1
 62
     0
 92
       -2
340
0
 93
        0
 40
0.045
309
GRIDFORMAT_END
 95
        4
302
GRIDFORMAT
  1
GRIDFORMAT_BEGIN
 90
        0
 91
        1
 62
     0
 92
       -2
340
0
 93
        0
 40
0.045
309
GRIDFORMAT_END
 95
        8
302
GRIDFORMAT
  1
GRIDFORMAT_BEGIN
 90
        0
 91
        1
 62
     0
 92
       -2
340
0
 93
        0
 40
0.045
309
GRIDFORMAT_END
 95
       16
302
GRIDFORMAT
  1
GRIDFORMAT_BEGIN
 90
        0
 91
        1
 62
     0
 92
       -2
340
0
 93
        0
 40
0.045
309
GRIDFORMAT_END
 95
       32
302
GRIDFORMAT
  1
GRIDFORMAT_BEGIN
 90
        0
 91
        1
 62
     0
 92
       -2
340
0
 93
        0
 40
0.045
309
GRIDFORMAT_END
309
TABLEFORMAT_END
  1
CELLSTYLE_BEGIN
 90
        3
 91
        2
300
_DATA
309
CELLSTYLE_END
  0
XRECORD
  5
179F
102
{ACAD_REACTORS
330
179E
102
}
330
179E
100
AcDbXrecord
280
     1
102
RTVSPropertyOp0
 70
     0
102
RTVSPropertyOp1
 70
     0
102
RTVSPropertyOp2
 70
     0
102
RTVSPropertyOp3
 70
     0
102
RTVSPropertyOp4
 70
     0
102
RTVSPropertyOp5
 70
     0
102
RTVSPropertyOp6
 70
     0
102
RTVSPropertyOp7
 70
     0
102
RTVSPropertyOp8
 70
     0
102
RTVSPropertyOp9
 70
     0
102
RTVSPropertyOp10
 70
     0
102
RTVSPropertyOp11
 70
     0
102
RTVSPropertyOp12
 70
     0
102
RTVSPropertyOp13
 70
     0
102
RTVSPropertyOp14
 70
     2
102
RTVSPropertyOp15
 70
     0
102
RTVSPropertyOp16
 70
     0
102
RTVSPropertyOp17
 70
     0
102
RTVSPropertyOp18
 70
     0
102
RTVSPropertyOp19
 70
     0
102
RTVSPropertyOp20
 70
     0
102
RTVSPropertyOp21
 70
     0
102
RTVSPropertyOp22
 70
     0
102
RTVSPropertyOp23
 70
     0
102
RTVSPropertyOp24
 70
     0
102
RTVSPropertyOp25
 70
     0
102
RTVSPropertyOp26
 70
     0
102
RTVSPropertyOp27
 70
     0
  0
XRECORD
  5
17A2
102
{ACAD_REACTORS
330
17A1
102
}
330
17A1
100
AcDbXrecord
280
     1
102
RTVSPropertyOp0
 70
     0
102
RTVSPropertyOp1
 70
     0
102
RTVSPropertyOp2
 70
     0
102
RTVSPropertyOp3
 70
     0
102
RTVSPropertyOp4
 70
     0
102
RTVSPropertyOp5
 70
     0
102
RTVSPropertyOp6
 70
     0
102
RTVSPropertyOp7
 70
     0
102
RTVSPropertyOp8
 70
     0
102
RTVSPropertyOp9
 70
     0
102
RTVSPropertyOp10
 70
     0
102
RTVSPropertyOp11
 70
     0
102
RTVSPropertyOp12
 70
     0
102
RTVSPropertyOp13
 70
     0
102
RTVSPropertyOp14
 70
     2
102
RTVSPropertyOp15
 70
     0
102
RTVSPropertyOp16
 70
     0
102
RTVSPropertyOp17
 70
     0
102
RTVSPropertyOp18
 70
     0
102
RTVSPropertyOp19
 70
     0
102
RTVSPropertyOp20
 70
     0
102
RTVSPropertyOp21
 70
     0
102
RTVSPropertyOp22
 70
     0
102
RTVSPropertyOp23
 70
     0
102
RTVSPropertyOp24
 70
     0
102
RTVSPropertyOp25
 70
     0
102
RTVSPropertyOp26
 70
     0
102
RTVSPropertyOp27
 70
     0
  0
XRECORD
  5
17A5
102
{ACAD_REACTORS
330
17A4
102
}
330
17A4
100
AcDbXrecord
280
     1
102
RTVSPropertyOp0
 70
     0
102
RTVSPropertyOp1
 70
     0
102
RTVSPropertyOp2
 70
     0
102
RTVSPropertyOp3
 70
     0
102
RTVSPropertyOp4
 70
     0
102
RTVSPropertyOp5
 70
     0
102
RTVSPropertyOp6
 70
     0
102
RTVSPropertyOp7
 70
     0
102
RTVSPropertyOp8
 70
     0
102
RTVSPropertyOp9
 70
     0
102
RTVSPropertyOp10
 70
     0
102
RTVSPropertyOp11
 70
     0
102
RTVSPropertyOp12
 70
     0
102
RTVSPropertyOp13
 70
     0
102
RTVSPropertyOp14
 70
     2
102
RTVSPropertyOp15
 70
     0
102
RTVSPropertyOp16
 70
     0
102
RTVSPropertyOp17
 70
     0
102
RTVSPropertyOp18
 70
     0
102
RTVSPropertyOp19
 70
     0
102
RTVSPropertyOp20
 70
     0
102
RTVSPropertyOp21
 70
     0
102
RTVSPropertyOp22
 70
     0
102
RTVSPropertyOp23
 70
     0
102
RTVSPropertyOp24
 70
     0
102
RTVSPropertyOp25
 70
     0
102
RTVSPropertyOp26
 70
     0
102
RTVSPropertyOp27
 70
     0
  0
ENDSEC
  0
EOF
