  0
SECTION
  2
HEADER
  9
$ACADVER
  1
AC1021
  9
$ACADMAINTVER
 70
    25
  9
$DWGCODEPAGE
  3
ANSI_1252
  9
$LASTSAVEDBY
  1
nishant.babu
  9
$INSBASE
 10
0.0
 20
0.0
 30
0.0
  9
$EXTMIN
 10
305.1351848843085
 20
62.8371441349991
 30
0.0
  9
$EXTMAX
 10
501.6351680891085
 20
201.3371441349991
 30
0.0
  9
$LIMMIN
 10
-32.65884526678414
 20
-73.48926859197715
  9
$LIMMAX
 10
162.3411547332158
 20
64.76073140802291
  9
$ORTHOMODE
 70
     0
  9
$REGENMODE
 70
     1
  9
$FILLMODE
 70
     1
  9
$QTEXTMODE
 70
     0
  9
$MIRRTEXT
 70
     0
  9
$LTSCALE
 40
1.0
  9
$ATTMODE
 70
     1
  9
$TEXTSIZE
 40
3.5
  9
$TRACEWID
 40
0.5
  9
$TEXTSTYLE
  7
STANDARD
  9
$CLAYER
  8
0
  9
$CELTYPE
  6
ByLayer
  9
$CECOLOR
 62
   256
  9
$CELTSCALE
 40
1.0
  9
$DISPSILH
 70
     0
  9
$DIMSCALE
 40
1.0
  9
$DIMASZ
 40
1.75
  9
$DIMEXO
 40
0.0
  9
$DIMDLI
 40
7.0
  9
$DIMRND
 40
0.0
  9
$DIMDLE
 40
0.0
  9
$DIMEXE
 40
0.5
  9
$DIMTP
 40
0.0
  9
$DIMTM
 40
0.0
  9
$DIMTXT
 40
1.75
  9
$DIMCEN
 40
0.0
  9
$DIMTSZ
 40
0.0
  9
$DIMTOL
 70
     0
  9
$DIMLIM
 70
     0
  9
$DIMTIH
 70
     0
  9
$DIMTOH
 70
     0
  9
$DIMSE1
 70
     0
  9
$DIMSE2
 70
     0
  9
$DIMTAD
 70
     1
  9
$DIMZIN
 70
     9
  9
$DIMBLK
  1

  9
$DIMASO
 70
     1
  9
$DIMSHO
 70
     1
  9
$DIMPOST
  1

  9
$DIMAPOST
  1

  9
$DIMALT
 70
     0
  9
$DIMALTD
 70
     2
  9
$DIMALTF
 40
25.4
  9
$DIMLFAC
 40
1.0
  9
$DIMTOFL
 70
     0
  9
$DIMTVP
 40
0.0
  9
$DIMTIX
 70
     0
  9
$DIMSOXD
 70
     0
  9
$DIMSAH
 70
     0
  9
$DIMBLK1
  1

  9
$DIMBLK2
  1

  9
$DIMSTYLE
  2
DMST_1
  9
$DIMCLRD
 70
     2
  9
$DIMCLRE
 70
     2
  9
$DIMCLRT
 70
     3
  9
$DIMTFAC
 40
1.0
  9
$DIMGAP
 40
0.75
  9
$DIMJUST
 70
     0
  9
$DIMSD1
 70
     0
  9
$DIMSD2
 70
     0
  9
$DIMTOLJ
 70
     1
  9
$DIMTZIN
 70
     0
  9
$DIMALTZ
 70
     0
  9
$DIMALTTZ
 70
     0
  9
$DIMUPT
 70
     0
  9
$DIMDEC
 70
     4
  9
$DIMTDEC
 70
     4
  9
$DIMALTU
 70
     2
  9
$DIMALTTD
 70
     2
  9
$DIMTXSTY
  7
STANDARD
  9
$DIMAUNIT
 70
     0
  9
$DIMADEC
 70
     0
  9
$DIMALTRND
 40
0.0
  9
$DIMAZIN
 70
     0
  9
$DIMDSEP
 70
    46
  9
$DIMATFIT
 70
     3
  9
$DIMFRAC
 70
     0
  9
$DIMLDRBLK
  1

  9
$DIMLUNIT
 70
     2
  9
$DIMLWD
 70
    -2
  9
$DIMLWE
 70
    -2
  9
$DIMTMOVE
 70
     2
  9
$DIMFXL
 40
1.0
  9
$DIMFXLON
 70
     0
  9
$DIMJOGANG
 40
0.7853981633974483
  9
$DIMTFILL
 70
     0
  9
$DIMTFILLCLR
 70
     0
  9
$DIMARCSYM
 70
     0
  9
$DIMLTYPE
  6

  9
$DIMLTEX1
  6

  9
$DIMLTEX2
  6

  9
$LUNITS
 70
     2
  9
$LUPREC
 70
     4
  9
$SKETCHINC
 40
0.1
  9
$FILLETRAD
 40
2.0
  9
$AUNITS
 70
     0
  9
$AUPREC
 70
     0
  9
$MENU
  1
ACAD
  9
$ELEVATION
 40
0.0
  9
$PELEVATION
 40
0.0
  9
$THICKNESS
 40
0.0
  9
$LIMCHECK
 70
     0
  9
$CHAMFERA
 40
0.0
  9
$CHAMFERB
 40
0.0
  9
$CHAMFERC
 40
0.0
  9
$CHAMFERD
 40
0.0
  9
$SKPOLY
 70
     0
  9
$TDCREATE
 40
2456512.416135533
  9
$TDUCREATE
 40
2456512.186968866
  9
$TDUPDATE
 40
2456512.471379433
  9
$TDUUPDATE
 40
2456512.242212766
  9
$TDINDWG
 40
0.0470876968
  9
$TDUSRTIMER
 40
0.0470876968
  9
$USRTIMER
 70
     1
  9
$ANGBASE
 50
0.0
  9
$ANGDIR
 70
     0
  9
$PDMODE
 70
     0
  9
$PDSIZE
 40
0.0
  9
$PLINEWID
 40
0.0
  9
$SPLFRAME
 70
     0
  9
$SPLINETYPE
 70
     6
  9
$SPLINESEGS
 70
     8
  9
$HANDSEED
  5
1259
  9
$SURFTAB1
 70
     6
  9
$SURFTAB2
 70
     6
  9
$SURFTYPE
 70
     6
  9
$SURFU
 70
     6
  9
$SURFV
 70
     6
  9
$UCSBASE
  2

  9
$UCSNAME
  2

  9
$UCSORG
 10
0.0
 20
0.0
 30
0.0
  9
$UCSXDIR
 10
1.0
 20
0.0
 30
0.0
  9
$UCSYDIR
 10
0.0
 20
1.0
 30
0.0
  9
$UCSORTHOREF
  2

  9
$UCSORTHOVIEW
 70
     0
  9
$UCSORGTOP
 10
0.0
 20
0.0
 30
0.0
  9
$UCSORGBOTTOM
 10
0.0
 20
0.0
 30
0.0
  9
$UCSORGLEFT
 10
0.0
 20
0.0
 30
0.0
  9
$UCSORGRIGHT
 10
0.0
 20
0.0
 30
0.0
  9
$UCSORGFRONT
 10
0.0
 20
0.0
 30
0.0
  9
$UCSORGBACK
 10
0.0
 20
0.0
 30
0.0
  9
$PUCSBASE
  2

  9
$PUCSNAME
  2

  9
$PUCSORG
 10
0.0
 20
0.0
 30
0.0
  9
$PUCSXDIR
 10
1.0
 20
0.0
 30
0.0
  9
$PUCSYDIR
 10
0.0
 20
1.0
 30
0.0
  9
$PUCSORTHOREF
  2

  9
$PUCSORTHOVIEW
 70
     0
  9
$PUCSORGTOP
 10
0.0
 20
0.0
 30
0.0
  9
$PUCSORGBOTTOM
 10
0.0
 20
0.0
 30
0.0
  9
$PUCSORGLEFT
 10
0.0
 20
0.0
 30
0.0
  9
$PUCSORGRIGHT
 10
0.0
 20
0.0
 30
0.0
  9
$PUCSORGFRONT
 10
0.0
 20
0.0
 30
0.0
  9
$PUCSORGBACK
 10
0.0
 20
0.0
 30
0.0
  9
$USERI1
 70
     0
  9
$USERI2
 70
     0
  9
$USERI3
 70
     0
  9
$USERI4
 70
     0
  9
$USERI5
 70
     0
  9
$USERR1
 40
0.0
  9
$USERR2
 40
0.0
  9
$USERR3
 40
0.0
  9
$USERR4
 40
0.0
  9
$USERR5
 40
0.0
  9
$WORLDVIEW
 70
     1
  9
$SHADEDGE
 70
     3
  9
$SHADEDIF
 70
    70
  9
$TILEMODE
 70
     1
  9
$MAXACTVP
 70
    64
  9
$PINSBASE
 10
0.0
 20
0.0
 30
0.0
  9
$PLIMCHECK
 70
     0
  9
$PEXTMIN
 10
1.000000000000000E+20
 20
1.000000000000000E+20
 30
1.000000000000000E+20
  9
$PEXTMAX
 10
-1.000000000000000E+20
 20
-1.000000000000000E+20
 30
-1.000000000000000E+20
  9
$PLIMMIN
 10
0.0
 20
0.0
  9
$PLIMMAX
 10
12.0
 20
9.0
  9
$UNITMODE
 70
     0
  9
$VISRETAIN
 70
     1
  9
$PLINEGEN
 70
     0
  9
$PSLTSCALE
 70
     1
  9
$TREEDEPTH
 70
  3020
  9
$CMLSTYLE
  2
Standard
  9
$CMLJUST
 70
     0
  9
$CMLSCALE
 40
1.0
  9
$PROXYGRAPHICS
 70
     1
  9
$MEASUREMENT
 70
     0
  9
$CELWEIGHT
370
    -1
  9
$ENDCAPS
280
     0
  9
$JOINSTYLE
280
     0
  9
$LWDISPLAY
290
     0
  9
$INSUNITS
 70
     4
  9
$HYPERLINKBASE
  1

  9
$STYLESHEET
  1
SSG1.ctb
  9
$XEDIT
290
     1
  9
$CEPSNTYPE
380
     0
  9
$PSTYLEMODE
290
     1
  9
$FINGERPRINTGUID
  2
{6399C09A-A1E3-4F18-BEF7-D97ACED65D9C}
  9
$VERSIONGUID
  2
{AB294BB0-6084-42F2-B887-DDA5F17FD1B3}
  9
$EXTNAMES
290
     1
  9
$PSVPSCALE
 40
0.0
  9
$OLESTARTUP
290
     0
  9
$SORTENTS
280
   127
  9
$INDEXCTL
280
     0
  9
$HIDETEXT
280
     0
  9
$XCLIPFRAME
290
     0
  9
$HALOGAP
280
     0
  9
$OBSCOLOR
 70
   257
  9
$OBSLTYPE
280
     0
  9
$INTERSECTIONDISPLAY
280
     0
  9
$INTERSECTIONCOLOR
 70
   257
  9
$DIMASSOC
280
     1
  9
$PROJECTNAME
  1

  9
$CAMERADISPLAY
290
     0
  9
$LENSLENGTH
 40
50.0
  9
$CAMERAHEIGHT
 40
0.0
  9
$STEPSPERSEC
 40
2.0
  9
$STEPSIZE
 40
6.0
  9
$3DDWFPREC
 40
2.0
  9
$PSOLWIDTH
 40
0.25
  9
$PSOLHEIGHT
 40
4.0
  9
$LOFTANG1
 40
1.570796326794896
  9
$LOFTANG2
 40
1.570796326794896
  9
$LOFTMAG1
 40
0.0
  9
$LOFTMAG2
 40
0.0
  9
$LOFTPARAM
 70
     7
  9
$LOFTNORMALS
280
     1
  9
$LATITUDE
 40
37.795
  9
$LONGITUDE
 40
-122.394
  9
$NORTHDIRECTION
 40
0.0
  9
$TIMEZONE
 70
 -8000
  9
$LIGHTGLYPHDISPLAY
280
     1
  9
$TILEMODELIGHTSYNCH
280
     1
  9
$CMATERIAL
347
11
  9
$SOLIDHIST
280
     1
  9
$SHOWHIST
280
     1
  9
$DWFFRAME
280
     2
  9
$DGNFRAME
280
     0
  9
$REALWORLDSCALE
290
     1
  9
$INTERFERECOLOR
 62
     1
  9
$INTERFEREOBJVS
345
33
  9
$INTERFEREVPVS
346
30
  9
$CSHADOW
280
     0
  9
$SHADOWPLANELOCATION
 40
0.0
  0
ENDSEC
  0
SECTION
  2
CLASSES
  0
CLASS
  1
ACDBDICTIONARYWDFLT
  2
AcDbDictionaryWithDefault
  3
ObjectDBX Classes
 90
        0
 91
        1
280
     0
281
     0
  0
CLASS
  1
MATERIAL
  2
AcDbMaterial
  3
ObjectDBX Classes
 90
     1153
 91
        3
280
     0
281
     0
  0
CLASS
  1
VISUALSTYLE
  2
AcDbVisualStyle
  3
ObjectDBX Classes
 90
     4095
 91
       19
280
     0
281
     0
  0
CLASS
  1
SCALE
  2
AcDbScale
  3
ObjectDBX Classes
 90
     1153
 91
       33
280
     0
281
     0
  0
CLASS
  1
TABLESTYLE
  2
AcDbTableStyle
  3
ObjectDBX Classes
 90
     4095
 91
        1
280
     0
281
     0
  0
CLASS
  1
MLEADERSTYLE
  2
AcDbMLeaderStyle
  3
ACDB_MLEADERSTYLE_CLASS
 90
     4095
 91
        1
280
     0
281
     0
  0
CLASS
  1
CELLSTYLEMAP
  2
AcDbCellStyleMap
  3
ObjectDBX Classes
 90
     1152
 91
        3
280
     0
281
     0
  0
CLASS
  1
DICTIONARYVAR
  2
AcDbDictionaryVar
  3
ObjectDBX Classes
 90
        0
 91
        5
280
     0
281
     0
  0
CLASS
  1
ACAD_EVALUATION_GRAPH
  2
AcDbEvalGraph
  3
ObjectDBX Classes
 90
     1153
 91
        0
280
     0
281
     0
  0
CLASS
  1
ACAECUSTOBJ
  2
AcAeEditorObj
  3
AcAeEditorObj
 90
     1024
 91
        0
280
     0
281
     0
  0
CLASS
  1
ACDB_DYNAMICBLOCKPURGEPREVENTER_VERSION
  2
AcDbDynamicBlockPurgePreventer
  3
ObjectDBX Classes
 90
     1153
 91
        0
280
     0
281
     0
  0
CLASS
  1
SORTENTSTABLE
  2
AcDbSortentsTable
  3
ObjectDBX Classes
 90
        0
 91
        8
280
     0
281
     0
  0
ENDSEC
  0
SECTION
  2
TABLES
  0
TABLE
  2
VPORT
  5
8
330
0
100
AcDbSymbolTable
 70
     1
  0
VPORT
  5
8C
330
8
100
AcDbSymbolTableRecord
100
AcDbViewportTableRecord
  2
*Active
 70
     0
 10
0.0
 20
0.0
 11
1.0
 21
1.0
 12
424.5429228195871
 22
104.6610963637317
 13
0.0
 23
0.0
 14
1.0
 24
1.0
 15
0.0
 25
0.0
 16
0.0
 26
0.0
 36
1.0
 17
0.0
 27
0.0
 37
0.0
 40
213.3071393885723
 41
2.017241379310344
 42
50.0
 43
0.0
 44
0.0
 50
0.0
 51
0.0
 71
     0
 72
   100
 73
     1
 74
     1
 75
     0
 76
     0
 77
     0
 78
     0
281
     0
 65
     1
110
0.0
120
0.0
130
0.0
111
1.0
121
0.0
131
0.0
112
0.0
122
1.0
132
0.0
 79
     0
146
0.0
348
2F
 60
     3
 61
     5
292
     1
282
     1
141
0.0
142
0.0
 63
   250
421
  3355443
  0
ENDTAB
  0
TABLE
  2
LTYPE
  5
5
330
0
100
AcDbSymbolTable
 70
     9
  0
LTYPE
  5
62
330
5
100
AcDbSymbolTableRecord
100
AcDbLinetypeTableRecord
  2
ByBlock
 70
     0
  3

 72
    65
 73
     0
 40
0.0
  0
LTYPE
  5
63
330
5
100
AcDbSymbolTableRecord
100
AcDbLinetypeTableRecord
  2
ByLayer
 70
     0
  3

 72
    65
 73
     0
 40
0.0
  0
LTYPE
  5
64
330
5
100
AcDbSymbolTableRecord
100
AcDbLinetypeTableRecord
  2
CONTINUOUS
 70
     0
  3
Solid line
 72
    65
 73
     0
 40
0.0
  0
LTYPE
  5
7C
330
5
100
AcDbSymbolTableRecord
100
AcDbLinetypeTableRecord
  2
BORDER
 70
     0
  3
__ __ . __ __ .
 72
    65
 73
     6
 40
8.980263157894734
 49
2.565789473684209
 74
     0
 49
-1.282894736842104
 74
     0
 49
2.565789473684209
 74
     0
 49
-1.282894736842104
 74
     0
 49
0.0
 74
     0
 49
-1.282894736842104
 74
     0
  0
LTYPE
  5
7D
330
5
100
AcDbSymbolTableRecord
100
AcDbLinetypeTableRecord
  2
CENTER
 70
     0
  3
____ _ ____ _
 72
    65
 73
     4
 40
10.26315789473684
 49
6.414473684210522
 74
     0
 49
-1.282894736842104
 74
     0
 49
1.282894736842104
 74
     0
 49
-1.282894736842104
 74
     0
  0
LTYPE
  5
7E
330
5
100
AcDbSymbolTableRecord
100
AcDbLinetypeTableRecord
  2
DASHDOT
 70
     0
  3
__ . __ . __ .
 72
    65
 73
     4
 40
5.131578947368419
 49
2.565789473684209
 74
     0
 49
-1.282894736842104
 74
     0
 49
0.0
 74
     0
 49
-1.282894736842104
 74
     0
  0
LTYPE
  5
7F
330
5
100
AcDbSymbolTableRecord
100
AcDbLinetypeTableRecord
  2
DASHED
 70
     0
  3
__ __ __ __ __
 72
    65
 73
     2
 40
3.848684210526315
 49
2.565789473684209
 74
     0
 49
-1.282894736842104
 74
     0
  0
LTYPE
  5
80
330
5
100
AcDbSymbolTableRecord
100
AcDbLinetypeTableRecord
  2
DIVIDE
 70
     0
  3
__ . . __ . . 
 72
    65
 73
     6
 40
6.414473684210522
 49
2.565789473684209
 74
     0
 49
-1.282894736842104
 74
     0
 49
0.0
 74
     0
 49
-1.282894736842104
 74
     0
 49
0.0
 74
     0
 49
-1.282894736842104
 74
     0
  0
LTYPE
  5
81
330
5
100
AcDbSymbolTableRecord
100
AcDbLinetypeTableRecord
  2
DOT
 70
     0
  3
..............
 72
    65
 73
     4
 40
2.565789473684209
 49
0.0
 74
     0
 49
-1.282894736842104
 74
     0
 49
0.0
 74
     0
 49
-1.282894736842104
 74
     0
  0
LTYPE
  5
82
330
5
100
AcDbSymbolTableRecord
100
AcDbLinetypeTableRecord
  2
HIDDEN
 70
     0
  3
_ _ _ _ _ _ _
 72
    65
 73
     2
 40
1.924342105263156
 49
1.282894736842104
 74
     0
 49
-0.6414473684210524
 74
     0
  0
LTYPE
  5
83
330
5
100
AcDbSymbolTableRecord
100
AcDbLinetypeTableRecord
  2
PHANTOM
 70
     0
  3
_____ _ _ _____ _ _ 
 72
    65
 73
     6
 40
12.82894736842105
 49
6.414473684210522
 74
     0
 49
-1.282894736842104
 74
     0
 49
1.282894736842104
 74
     0
 49
-1.282894736842104
 74
     0
 49
1.282894736842104
 74
     0
 49
-1.282894736842104
 74
     0
  0
ENDTAB
  0
TABLE
  2
LAYER
  5
2
102
{ACAD_XDICTIONARY
360
FE5
102
}
330
0
100
AcDbSymbolTable
 70
     6
  0
LAYER
  5
5C
102
{ACAD_XDICTIONARY
360
288
102
}
330
2
100
AcDbSymbolTableRecord
100
AcDbLayerTableRecord
  2
0
 70
     0
 62
     7
  6
CONTINUOUS
370
    -3
390
F
347
21
  0
LAYER
  5
84
102
{ACAD_XDICTIONARY
360
28A
102
}
330
2
100
AcDbSymbolTableRecord
100
AcDbLayerTableRecord
  2
1
 70
     0
 62
     7
  6
CONTINUOUS
370
    -3
390
F
347
21
  0
LAYER
  5
3AF
330
2
100
AcDbSymbolTableRecord
100
AcDbLayerTableRecord
  2
Defpoints
 70
     0
 62
     7
  6
CONTINUOUS
290
     0
370
    -3
390
F
347
21
  0
LAYER
  5
FC8
330
2
100
AcDbSymbolTableRecord
100
AcDbLayerTableRecord
  2
Dark hatch1
 70
     0
 62
     3
  6
CONTINUOUS
370
    25
390
F
347
21
1001
AcAecLayerStandard
1000

1000

  0
LAYER
  5
FC9
330
2
100
AcDbSymbolTableRecord
100
AcDbLayerTableRecord
  2
DEFAULT_1
 70
     0
 62
     7
  6
CENTER
370
    -3
390
F
347
21
  0
LAYER
  5
FCA
330
2
100
AcDbSymbolTableRecord
100
AcDbLayerTableRecord
  2
02___PRT_ALL_AXES
 70
     0
 62
     7
  6
CONTINUOUS
370
    -3
390
F
347
21
  0
ENDTAB
  0
TABLE
  2
STYLE
  5
3
330
0
100
AcDbSymbolTable
 70
     8
  0
STYLE
  5
5D
330
3
100
AcDbSymbolTableRecord
100
AcDbTextStyleTableRecord
  2
STANDARD
 70
     0
 40
0.0
 41
1.0
 50
0.0
 71
     0
 42
3.5
  3
isocpeur.ttf
  4

1001
ACAD
1000
ISOCPEUR
1071
       34
  0
STYLE
  5
61
330
3
100
AcDbSymbolTableRecord
100
AcDbTextStyleTableRecord
  2
Annotative
 70
     0
 40
0.0
 41
1.0
 50
0.0
 71
     0
 42
0.2
  3

  4

1001
AcadAnnotative
1000
AnnotativeData
1002
{
1070
     1
1070
     1
1002
}
  0
STYLE
  5
85
330
3
100
AcDbSymbolTableRecord
100
AcDbTextStyleTableRecord
  2
SIMPLEX
 70
     0
 40
0.0
 41
1.0
 50
0.0
 71
     0
 42
3.5
  3
simplex
  4

  0
STYLE
  5
86
330
3
100
AcDbSymbolTableRecord
100
AcDbTextStyleTableRecord
  2
COMPLEX
 70
     0
 40
0.0
 41
1.0
 50
0.0
 71
     0
 42
3.5
  3
complex
  4

  0
STYLE
  5
87
330
3
100
AcDbSymbolTableRecord
100
AcDbTextStyleTableRecord
  2
ITALIC
 70
     0
 40
0.0
 41
1.0
 50
0.0
 71
     0
 42
3.5
  3
italic
  4

  0
STYLE
  5
FCB
330
3
100
AcDbSymbolTableRecord
100
AcDbTextStyleTableRecord
  2
SLDTEXTSTYLE0
 70
     0
 40
0.0
 41
0.605
 50
0.0
 71
     0
 42
0.0
  3
TXT
  4

  0
STYLE
  5
FCC
330
3
100
AcDbSymbolTableRecord
100
AcDbTextStyleTableRecord
  2
style1
 70
     0
 40
0.0
 41
1.0
 50
0.0
 71
     0
 42
0.2
  3
isocpeur.ttf
  4

1001
ACAD
1000
ISOCPEUR
1071
       34
  0
STYLE
  5
FCD
330
3
100
AcDbSymbolTableRecord
100
AcDbTextStyleTableRecord
  2
NEW
 70
     0
 40
0.0
 41
1.0
 50
0.0
 71
     0
 42
0.2
  3
arial.ttf
  4

1001
ACAD
1000
Arial
1071
       34
  0
ENDTAB
  0
TABLE
  2
VIEW
  5
6
330
0
100
AcDbSymbolTable
 70
     0
  0
ENDTAB
  0
TABLE
  2
UCS
  5
7
330
0
100
AcDbSymbolTable
 70
     0
  0
ENDTAB
  0
TABLE
  2
APPID
  5
9
330
0
100
AcDbSymbolTable
 70
    14
  0
APPID
  5
5E
330
9
100
AcDbSymbolTableRecord
100
AcDbRegAppTableRecord
  2
ACAD
 70
     0
  0
APPID
  5
65
330
9
100
AcDbSymbolTableRecord
100
AcDbRegAppTableRecord
  2
AcadAnnotative
 70
     0
  0
APPID
  5
6F
330
9
100
AcDbSymbolTableRecord
100
AcDbRegAppTableRecord
  2
ACAD_MLEADERVER
 70
     0
  0
APPID
  5
42D
330
9
100
AcDbSymbolTableRecord
100
AcDbRegAppTableRecord
  2
ACAUTHENVIRON
 70
     0
  0
APPID
  5
4EF
330
9
100
AcDbSymbolTableRecord
100
AcDbRegAppTableRecord
  2
AcDbDynamicBlockTrueName
 70
     0
  0
APPID
  5
4F0
330
9
100
AcDbSymbolTableRecord
100
AcDbRegAppTableRecord
  2
AcDbDynamicBlockGUID
 70
     0
  0
APPID
  5
4F2
330
9
100
AcDbSymbolTableRecord
100
AcDbRegAppTableRecord
  2
AcDbBlockRepETag
 70
     0
  0
APPID
  5
94B
330
9
100
AcDbSymbolTableRecord
100
AcDbRegAppTableRecord
  2
AcadAnnoPO
 70
     0
  0
APPID
  5
96E
330
9
100
AcDbSymbolTableRecord
100
AcDbRegAppTableRecord
  2
ACAD_DSTYLE_DIMJAG
 70
     0
  0
APPID
  5
96F
330
9
100
AcDbSymbolTableRecord
100
AcDbRegAppTableRecord
  2
ACAD_DSTYLE_DIMTALN
 70
     0
  0
APPID
  5
FD8
330
9
100
AcDbSymbolTableRecord
100
AcDbRegAppTableRecord
  2
ACAD_PSEXT
 70
     0
  0
APPID
  5
FD9
330
9
100
AcDbSymbolTableRecord
100
AcDbRegAppTableRecord
  2
DCO15
 70
     0
  0
APPID
  5
FDA
330
9
100
AcDbSymbolTableRecord
100
AcDbRegAppTableRecord
  2
ACAD_EXEMPT_FROM_CAD_STANDARDS
 70
     0
  0
APPID
  5
FDB
330
9
100
AcDbSymbolTableRecord
100
AcDbRegAppTableRecord
  2
AcAecLayerStandard
 70
     0
  0
ENDTAB
  0
TABLE
  2
DIMSTYLE
  5
A
330
0
100
AcDbSymbolTable
 70
    16
100
AcDbDimStyleTable
 71
     2
340
78
340
5F
  0
DIMSTYLE
105
5F
330
A
100
AcDbSymbolTableRecord
100
AcDbDimStyleTableRecord
  2
Standard
 70
     0
340
5D
  0
DIMSTYLE
105
60
330
A
100
AcDbSymbolTableRecord
100
AcDbDimStyleTableRecord
  2
Annotative
 70
     0
340
5D
1001
AcadAnnotative
1000
AnnotativeData
1002
{
1070
     1
1070
     1
1002
}
  0
DIMSTYLE
105
78
102
{ACAD_REACTORS
330
CB7
330
CB8
330
CB9
330
CBA
330
CBD
330
CBE
330
CBF
330
CC0
330
CDC
330
CDD
330
CBB
330
CBC
102
}
330
A
100
AcDbSymbolTableRecord
100
AcDbDimStyleTableRecord
  2
DMST_1
 70
     0
 41
1.75
 42
0.0
 43
7.0
 44
0.5
 73
     0
 74
     0
 77
     1
 78
     9
140
1.75
141
0.0
147
0.75
176
     2
177
     2
178
     3
279
     2
340
5D
1001
ACAD_DSTYLE_DIMJAG
1070
   388
1040
1.5
1001
ACAD_DSTYLE_DIMTALN
1070
   392
1070
     0
  0
DIMSTYLE
105
79
330
A
100
AcDbSymbolTableRecord
100
AcDbDimStyleTableRecord
  2
DMST_2
 70
     0
 41
1.75
 42
0.0
 43
7.0
 44
0.5
 73
     0
 74
     0
 77
     1
 78
     9
140
1.75
141
0.0
176
     2
177
     2
178
     3
279
     2
340
5D
  0
DIMSTYLE
105
7A
330
A
100
AcDbSymbolTableRecord
100
AcDbDimStyleTableRecord
  2
DMST_3
 70
     0
 41
1.75
 42
0.0
 43
7.0
 44
0.5
 73
     0
 74
     0
 77
     1
 78
     9
140
1.75
141
0.0
176
     2
177
     2
178
     3
279
     2
340
5D
  0
DIMSTYLE
105
7B
330
A
100
AcDbSymbolTableRecord
100
AcDbDimStyleTableRecord
  2
DMST_4
 70
     0
 41
1.75
 42
0.0
 43
7.0
 44
0.5
 71
     1
 73
     0
 74
     0
 77
     1
 78
     9
140
1.75
141
0.0
146
0.7
176
     2
177
     2
178
     3
279
     2
340
5D
  0
DIMSTYLE
105
FCE
330
A
100
AcDbSymbolTableRecord
100
AcDbDimStyleTableRecord
  2
DIMSTYLE_1
 70
     0
 41
4.0
 48
0.1
 71
     1
 73
     0
 74
     0
 77
     1
 78
     8
140
2.799999999999999
144
0.6666666667
146
0.75
178
     5
271
     2
272
     2
284
     8
340
5D
341
EAB
342
EAB
343
EAB
344
EAB
  0
DIMSTYLE
105
FCF
330
A
100
AcDbSymbolTableRecord
100
AcDbDimStyleTableRecord
  2
DIMSTYLE_2
 70
     0
 41
4.0
 47
0.01
 48
0.01
 73
     0
 74
     0
 77
     1
 78
     8
140
2.799999999999999
144
0.6666666667
178
     5
271
     2
272
     2
284
     8
340
5D
341
EAB
342
EAB
343
EAB
344
EAB
  0
DIMSTYLE
105
FD0
330
A
100
AcDbSymbolTableRecord
100
AcDbDimStyleTableRecord
  2
DIMSTYLE_3
 70
     0
 41
4.0
 47
0.2
 48
0.2
 71
     1
 73
     0
 74
     0
 77
     1
 78
     8
140
2.799999999999999
144
0.6666666667
178
     5
271
     2
272
     2
284
     8
340
5D
341
EAB
342
EAB
343
EAB
344
EAB
  0
DIMSTYLE
105
FD1
330
A
100
AcDbSymbolTableRecord
100
AcDbDimStyleTableRecord
  2
DIMSTYLE_4
 70
     0
 41
4.0
 47
0.1
 48
0.1
 71
     1
 73
     0
 74
     0
 77
     1
 78
     8
140
2.799999999999999
144
0.6666666667
271
     1
272
     1
284
     8
340
5D
341
EAB
342
EAB
343
EAB
344
EAB
  0
DIMSTYLE
105
FD2
330
A
100
AcDbSymbolTableRecord
100
AcDbDimStyleTableRecord
  2
DIMSTYLE_7
 70
     0
 41
4.0
 73
     0
 74
     0
 77
     1
 78
     8
140
2.799999999999999
144
0.6666666667
178
     5
271
     0
272
     0
284
     8
340
5D
341
EAB
342
EAB
343
EAB
344
EAB
  0
DIMSTYLE
105
FD3
330
A
100
AcDbSymbolTableRecord
100
AcDbDimStyleTableRecord
  2
DIMSTYLE_8
 70
     0
 41
4.0
 47
0.3
 48
0.3
 71
     1
 73
     0
 74
     0
 77
     1
 78
     8
140
2.799999999999999
144
0.6666666667
178
     5
271
     2
272
     2
284
     8
340
5D
341
EAB
342
EAB
343
EAB
344
EAB
  0
DIMSTYLE
105
FD4
330
A
100
AcDbSymbolTableRecord
100
AcDbDimStyleTableRecord
  2
DIMSTYLE_9
 70
     0
 41
4.0
 48
0.1
 71
     1
 77
     1
 78
     8
140
2.799999999999999
144
0.6666666667
146
0.75
178
     5
271
     2
272
     2
284
     8
340
5D
341
EAB
342
EAB
343
EAB
344
EAB
  0
DIMSTYLE
105
FD5
330
A
100
AcDbSymbolTableRecord
100
AcDbDimStyleTableRecord
  2
DIMSTYLE_10
 70
     0
 41
4.0
 47
0.9
 48
0.9
 71
     1
 73
     0
 74
     0
 77
     1
 78
     8
140
2.799999999999999
144
0.6666666667
271
     2
272
     2
284
     8
340
5D
341
EAB
342
EAB
343
EAB
344
EAB
  0
DIMSTYLE
105
FD6
330
A
100
AcDbSymbolTableRecord
100
AcDbDimStyleTableRecord
  2
DIMSTYLE_11
 70
     0
 41
4.0
 47
0.1
 48
0.1
 71
     1
 73
     0
 74
     0
 77
     1
 78
     8
140
2.799999999999999
144
0.6666666667
271
     2
272
     2
284
     8
340
5D
341
EAB
342
EAB
343
EAB
344
EAB
  0
DIMSTYLE
105
FD7
330
A
100
AcDbSymbolTableRecord
100
AcDbDimStyleTableRecord
  2
DIMSTYLE_12
 70
     0
 41
4.0
 47
3.0
 48
3.0
 71
     1
 73
     0
 74
     0
 77
     1
 78
     8
140
2.799999999999999
144
0.6666666667
178
     5
271
     2
272
     2
284
     8
340
5D
341
EAB
342
EAB
343
EAB
344
EAB
  0
ENDTAB
  0
TABLE
  2
BLOCK_RECORD
  5
1
330
0
100
AcDbSymbolTable
 70
    94
  0
BLOCK_RECORD
  5
74
102
{ACAD_XDICTIONARY
360
954
102
}
330
1
100
AcDbSymbolTableRecord
100
AcDbBlockTableRecord
  2
*Model_Space
340
77
 70
     0
280
     1
281
     0
  0
BLOCK_RECORD
  5
70
330
1
100
AcDbSymbolTableRecord
100
AcDbBlockTableRecord
  2
*Paper_Space
340
73
 70
     0
280
     1
281
     0
  0
BLOCK_RECORD
  5
8D
330
1
100
AcDbSymbolTableRecord
100
AcDbBlockTableRecord
  2
A3SN_
340
0
 70
     0
280
     1
281
     0
  0
BLOCK_RECORD
  5
16D
102
{ACAD_XDICTIONARY
360
42E
102
}
330
1
100
AcDbSymbolTableRecord
100
AcDbBlockTableRecord
  2
TOP_TOP_
340
0
102
{BLKREFS
331
287
102
}
 70
     0
280
     1
281
     0
1001
AcDbDynamicBlockGUID
1000
{CFFB7D00-7BD2-48B4-89C1-A14DBAAA11FF}
1001
AcDbBlockRepETag
1070
     1
1071
        0
  0
BLOCK_RECORD
  5
A36
330
1
100
AcDbSymbolTableRecord
100
AcDbBlockTableRecord
  2
_Oblique
340
0
102
{BLKREFS
331
B30
331
B3A
331
DE2
331
DEC
102
}
 70
     0
280
     1
281
     0
  0
BLOCK_RECORD
  5
CDF
330
1
100
AcDbSymbolTableRecord
100
AcDbBlockTableRecord
  2
*D71
340
0
 70
     0
280
     1
281
     0
  0
BLOCK_RECORD
  5
CED
330
1
100
AcDbSymbolTableRecord
100
AcDbBlockTableRecord
  2
*D72
340
0
 70
     0
280
     1
281
     0
  0
BLOCK_RECORD
  5
CF9
330
1
100
AcDbSymbolTableRecord
100
AcDbBlockTableRecord
  2
*D73
340
0
 70
     0
280
     1
281
     0
  0
BLOCK_RECORD
  5
D05
330
1
100
AcDbSymbolTableRecord
100
AcDbBlockTableRecord
  2
*D74
340
0
 70
     0
280
     1
281
     0
  0
BLOCK_RECORD
  5
D13
330
1
100
AcDbSymbolTableRecord
100
AcDbBlockTableRecord
  2
*D75
340
0
 70
     0
280
     1
281
     0
  0
BLOCK_RECORD
  5
D20
330
1
100
AcDbSymbolTableRecord
100
AcDbBlockTableRecord
  2
*D76
340
0
 70
     0
280
     1
281
     0
  0
BLOCK_RECORD
  5
D2C
330
1
100
AcDbSymbolTableRecord
100
AcDbBlockTableRecord
  2
*D77
340
0
 70
     0
280
     1
281
     0
  0
BLOCK_RECORD
  5
D38
330
1
100
AcDbSymbolTableRecord
100
AcDbBlockTableRecord
  2
*D78
340
0
 70
     0
280
     1
281
     0
  0
BLOCK_RECORD
  5
D44
330
1
100
AcDbSymbolTableRecord
100
AcDbBlockTableRecord
  2
*D79
340
0
 70
     0
280
     1
281
     0
  0
BLOCK_RECORD
  5
D50
330
1
100
AcDbSymbolTableRecord
100
AcDbBlockTableRecord
  2
*D80
340
0
 70
     0
280
     1
281
     0
  0
BLOCK_RECORD
  5
D5E
330
1
100
AcDbSymbolTableRecord
100
AcDbBlockTableRecord
  2
*D81
340
0
 70
     0
280
     1
281
     0
  0
BLOCK_RECORD
  5
D6C
330
1
100
AcDbSymbolTableRecord
100
AcDbBlockTableRecord
  2
*D82
340
0
 70
     0
280
     1
281
     0
  0
BLOCK_RECORD
  5
E1B
102
{ACAD_XDICTIONARY
360
E1C
102
}
330
1
100
AcDbSymbolTableRecord
100
AcDbBlockTableRecord
  2
A$C08716F59
340
0
102
{BLKREFS
331
E91
331
1073
102
}
 70
     4
280
     1
281
     0
  0
BLOCK_RECORD
  5
E56
102
{ACAD_XDICTIONARY
360
E57
102
}
330
1
100
AcDbSymbolTableRecord
100
AcDbBlockTableRecord
  2
A$C058C21FF
340
0
 70
     4
280
     1
281
     0
  0
BLOCK_RECORD
  5
E99
330
1
100
AcDbSymbolTableRecord
100
AcDbBlockTableRecord
  2
_Dot
340
0
 70
     0
280
     1
281
     0
  0
BLOCK_RECORD
  5
E9E
102
{ACAD_XDICTIONARY
360
E9F
102
}
330
1
100
AcDbSymbolTableRecord
100
AcDbBlockTableRecord
  2
A$C53560A2D
340
0
102
{BLKREFS
331
EA9
102
}
 70
     1
280
     1
281
     0
  0
BLOCK_RECORD
  5
EA5
102
{ACAD_XDICTIONARY
360
EA6
102
}
330
1
100
AcDbSymbolTableRecord
100
AcDbBlockTableRecord
  2
A$C25042B23
340
0
 70
     1
280
     1
281
     0
  0
BLOCK_RECORD
  5
EAB
330
1
100
AcDbSymbolTableRecord
100
AcDbBlockTableRecord
  2
_FILLED
340
0
102
{BLKREFS
331
EB4
331
EB5
331
103E
331
103F
102
}
 70
     0
280
     1
281
     0
  0
BLOCK_RECORD
  5
EAF
330
1
100
AcDbSymbolTableRecord
100
AcDbBlockTableRecord
  2
*D89
340
0
 70
     0
280
     1
281
     0
  0
BLOCK_RECORD
  5
EBB
102
{ACAD_XDICTIONARY
360
EBC
102
}
330
1
100
AcDbSymbolTableRecord
100
AcDbBlockTableRecord
  2
A$C274A2516
340
0
 70
     4
280
     1
281
     0
  0
BLOCK_RECORD
  5
FA1
102
{ACAD_XDICTIONARY
360
FA2
102
}
330
1
100
AcDbSymbolTableRecord
100
AcDbBlockTableRecord
  2
A$C217E344C
340
0
 70
     4
280
     1
281
     0
  0
BLOCK_RECORD
  5
FE7
102
{ACAD_XDICTIONARY
360
1029
102
}
330
1
100
AcDbSymbolTableRecord
100
AcDbBlockTableRecord
  2
new A3-S11
340
0
 70
     4
280
     1
281
     0
  0
ENDTAB
  0
ENDSEC
  0
SECTION
  2
BLOCKS
  0
BLOCK
  5
75
330
74
100
AcDbEntity
  8
0
100
AcDbBlockBegin
  2
*Model_Space
 70
     0
 10
0.0
 20
0.0
 30
0.0
  3
*Model_Space
  1

  0
ENDBLK
  5
76
330
74
100
AcDbEntity
  8
0
100
AcDbBlockEnd
  0
BLOCK
  5
71
330
70
100
AcDbEntity
 67
     1
  8
0
100
AcDbBlockBegin
  2
*Paper_Space
 70
     0
 10
0.0
 20
0.0
 30
0.0
  3
*Paper_Space
  1

  0
ENDBLK
  5
72
330
70
100
AcDbEntity
 67
     1
  8
0
100
AcDbBlockEnd
  0
BLOCK
  5
8E
330
8D
100
AcDbEntity
  8
0
100
AcDbBlockBegin
  2
A3SN_
 70
     0
 10
64.84115473321593
 20
2.385731408022892
 30
0.0
  3
A3SN_
  1

  0
LINE
  5
8F
330
8D
100
AcDbEntity
  8
1
 62
     4
100
AcDbLine
 10
259.8411547332158
 20
-145.3642685919772
 30
0.0
 11
79.84115473321603
 21
-145.3642685919772
 31
0.0
  0
LINE
  5
90
330
8D
100
AcDbEntity
  8
1
 62
     4
100
AcDbLine
 10
79.84115473321603
 20
-118.3642685919771
 30
0.0
 11
79.84115473321586
 21
-149.3642685919772
 31
0.0
  0
LINE
  5
91
330
8D
100
AcDbEntity
  8
1
 62
     4
100
AcDbLine
 10
259.8411547332158
 20
127.1357314080229
 30
0.0
 11
-130.1588452667842
 21
127.1357314080229
 31
0.0
  0
LINE
  5
92
330
8D
100
AcDbEntity
  8
1
 62
     4
100
AcDbLine
 10
259.8411547332158
 20
-149.3642685919772
 30
0.0
 11
-120.1588452667842
 21
-149.3642685919772
 31
0.0
  0
LINE
  5
93
330
8D
100
AcDbEntity
  8
1
 62
     4
100
AcDbLine
 10
134.841154733216
 20
-125.3642685919771
 30
0.0
 11
134.841154733216
 21
-145.3642685919772
 31
0.0
  0
LINE
  5
94
330
8D
100
AcDbEntity
  8
1
 62
     4
100
AcDbLine
 10
259.8411547332158
 20
-125.3642685919771
 30
0.0
 11
79.84115473321586
 21
-125.3642685919771
 31
0.0
  0
LINE
  5
95
330
8D
100
AcDbEntity
  8
1
 62
     4
100
AcDbLine
 10
204.8411547332159
 20
-135.3642685919772
 30
0.0
 11
259.8411547332158
 21
-135.3642685919772
 31
0.0
  0
LINE
  5
96
330
8D
100
AcDbEntity
  8
1
 62
     4
100
AcDbLine
 10
204.8411547332159
 20
-145.3642685919772
 30
0.0
 11
204.8411547332159
 21
-125.3642685919771
 31
0.0
  0
LINE
  5
97
330
8D
100
AcDbEntity
  8
1
 62
     4
100
AcDbLine
 10
259.8411547332158
 20
-149.3642685919772
 30
0.0
 11
259.8411547332158
 21
127.1357314080229
 31
0.0
  0
LINE
  5
98
330
8D
100
AcDbEntity
  8
1
 62
     2
100
AcDbLine
 10
232.3411547332159
 20
-118.3642685919771
 30
0.0
 11
232.3411547332159
 21
-135.3642685919772
 31
0.0
  0
LINE
  5
99
330
8D
100
AcDbEntity
  8
1
 62
     4
100
AcDbLine
 10
79.84115473321603
 20
-118.3642685919771
 30
0.0
 11
259.8411547332158
 21
-118.3642685919771
 31
0.0
  0
LINE
  5
9A
330
8D
100
AcDbEntity
  8
1
 62
     7
100
AcDbLine
 10
113.841154733216
 20
-118.3642685919771
 30
0.0
 11
113.841154733216
 21
-125.3642685919771
 31
0.0
  0
LINE
  5
9B
330
8D
100
AcDbEntity
  8
1
 62
     7
100
AcDbLine
 10
147.8411547332161
 20
-118.3642685919771
 30
0.0
 11
147.8411547332161
 21
-125.3642685919771
 31
0.0
  0
LINE
  5
9C
330
8D
100
AcDbEntity
  8
1
 62
     7
100
AcDbLine
 10
181.8411547332159
 20
-118.3642685919771
 30
0.0
 11
181.8411547332159
 21
-125.3642685919771
 31
0.0
  0
LINE
  5
9D
330
8D
100
AcDbEntity
  8
1
 62
     4
100
AcDbLine
 10
-130.1588452667842
 20
127.1357314080229
 30
0.0
 11
-130.1588452667842
 21
-94.36426859197712
 31
0.0
  0
LINE
  5
9E
330
8D
100
AcDbEntity
  8
1
 62
     4
100
AcDbLine
 10
-120.1588452667842
 20
-94.36426859197712
 30
0.0
 11
-120.1588452667842
 21
-149.3642685919772
 31
0.0
  0
LINE
  5
9F
330
8D
100
AcDbEntity
  8
1
 62
     4
100
AcDbLine
 10
-130.1588452667842
 20
-94.36426859197712
 30
0.0
 11
-120.1588452667842
 21
-94.36426859197712
 31
0.0
  0
LINE
  5
A0
330
8D
100
AcDbEntity
  8
1
  6
DASHDOT
 62
     2
100
AcDbLine
 10
247.1884986531871
 20
-130.3642685919772
 30
0.0
 11
235.2212385448129
 21
-130.3642685919772
 31
0.0
  0
LINE
  5
A1
330
8D
100
AcDbEntity
  8
1
 62
     7
100
AcDbLine
 10
236.0840978317269
 20
-128.7907188199431
 30
0.0
 11
236.0840978317269
 21
-131.9378183640111
 31
0.0
  0
LINE
  5
A2
330
8D
100
AcDbEntity
  8
1
 62
     7
100
AcDbLine
 10
246.0840978317269
 20
-126.9760936155633
 30
0.0
 11
236.0840978317269
 21
-128.7907188199431
 31
0.0
  0
LINE
  5
A3
330
8D
100
AcDbEntity
  8
1
 62
     7
100
AcDbLine
 10
236.0840978317269
 20
-131.9378183640111
 30
0.0
 11
246.0840978317269
 21
-133.7524435683912
 31
0.0
  0
LINE
  5
A4
330
8D
100
AcDbEntity
  8
1
 62
     7
100
AcDbLine
 10
246.0840978317269
 20
-133.7524435683912
 30
0.0
 11
246.0840978317269
 21
-126.9760936155633
 31
0.0
  0
LINE
  5
A5
330
8D
100
AcDbEntity
  8
1
  6
DASHDOT
 62
     2
100
AcDbLine
 10
256.9610709216189
 20
-130.3642685919772
 30
0.0
 11
248.5550024025869
 21
-130.3642685919772
 31
0.0
  0
LINE
  5
A6
330
8D
100
AcDbEntity
  8
1
  6
DASHDOT
 62
     2
100
AcDbLine
 10
252.6959228553131
 20
-126.0160108325391
 30
0.0
 11
252.6959228553131
 21
-134.4634885560979
 31
0.0
  0
CIRCLE
  5
A7
330
8D
100
AcDbEntity
  8
1
 62
     7
100
AcDbCircle
 10
252.6959228553131
 20
-130.3642685919772
 30
0.0
 40
3.388174976413807
  0
CIRCLE
  5
A8
330
8D
100
AcDbEntity
  8
1
 62
     7
100
AcDbCircle
 10
252.6959228553131
 20
-130.3642685919772
 30
0.0
 40
1.573549772033771
  0
TEXT
  5
A9
330
8D
100
AcDbEntity
  8
1
 62
     2
100
AcDbText
 10
78.74115473321587
 20
-147.3642685919772
 30
0.0
 40
1.8
  1
F.05.003.17.01 - 25.02.93
 50
90.0
 41
0.5400000000000001
 11
77.84115473321586
 21
-147.3642685919772
 31
0.0
100
AcDbText
 73
     2
  0
TEXT
  5
AA
330
8D
100
AcDbEntity
  8
1
 62
     2
100
AcDbText
 10
103.4657047332159
 20
-148.2642685919772
 30
0.0
 40
1.8
  1
Ce plan reste notre propriÅtÅ. Il ne peut, sans notre autorisation Åcrite Átre copiÅ, reproduit, communiquÅ È des tiers ou mis È leur disposition.
 41
0.8100000000000001
 72
     1
 11
169.8411547332159
 21
-147.3642685919772
 31
0.0
100
AcDbText
 73
     2
  0
TEXT
  5
AB
330
8D
100
AcDbEntity
  8
1
 62
     4
100
AcDbText
 10
94.165154733216
 20
-134.3642685919772
 30
0.0
 40
6.0
  1
Portescap
 41
0.72
 72
     1
 11
107.341154733216
 21
-134.3642685919772
 31
0.0
100
AcDbText
  0
TEXT
  5
AC
330
8D
100
AcDbEntity
  8
1
 62
     3
100
AcDbText
 10
94.59715473321599
 20
-141.3642685919772
 30
0.0
 40
3.0
  1
La Chaux-de-Fonds
 41
0.72
 72
     1
 11
107.341154733216
 21
-141.3642685919772
 31
0.0
100
AcDbText
  0
TEXT
  5
AD
330
8D
100
AcDbEntity
  8
1
 62
     4
100
AcDbText
 10
148.2411547332159
 20
-134.1142685919772
 30
0.0
 40
5.0
  1
 22S  28  .1
 41
0.7200000000000001
100
AcDbText
  0
TEXT
  5
AE
330
8D
100
AcDbEntity
  8
1
 62
     4
100
AcDbText
 10
148.2411547332159
 20
-141.6142685919772
 30
0.0
 40
5.0
  1
Encombrement
 41
0.7200000000000001
100
AcDbText
  0
TEXT
  5
AF
330
8D
100
AcDbEntity
  8
1
 62
     4
100
AcDbText
 10
215.6011547332159
 20
-142.8642685919772
 30
0.0
 40
5.0
  1
1.011.22.0140.S11
 41
0.7200000000000001
 72
     1
 11
232.3411547332159
 21
-140.3642685919772
 31
0.0
100
AcDbText
 73
     2
  0
TEXT
  5
B0
330
8D
100
AcDbEntity
  8
1
 62
     2
100
AcDbText
 10
149.8411547332161
 20
-122.8642685919773
 30
0.0
 40
2.0
  1
ContrÂlÅ :
 41
0.5850000000000001
 11
149.8411547332161
 21
-121.8642685919773
 31
0.0
100
AcDbText
 73
     2
  0
TEXT
  5
B1
330
8D
100
AcDbEntity
  8
1
 62
     2
100
AcDbText
 10
115.841154733216
 20
-122.8642685919773
 30
0.0
 40
2.0
  1
Conforme :
 41
0.5850000000000001
 11
115.841154733216
 21
-121.8642685919773
 31
0.0
100
AcDbText
 73
     2
  0
TEXT
  5
B2
330
8D
100
AcDbEntity
  8
1
 62
     2
100
AcDbText
 10
81.84115473321602
 20
-122.8642685919771
 30
0.0
 40
2.0
  1
DessinÅ :
 41
0.5850000000000001
 11
81.84115473321602
 21
-121.8642685919771
 31
0.0
100
AcDbText
 73
     2
  0
TEXT
  5
B3
330
8D
100
AcDbEntity
  8
1
 62
     2
100
AcDbText
 10
92.41091402597943
 20
-123.1142685919771
 30
0.0
 40
2.5
  1
05.05.04 APe
 41
0.7200000000000001
 11
92.41091402597943
 21
-121.8642685919771
 31
0.0
100
AcDbText
 73
     2
  0
TEXT
  5
B4
330
8D
100
AcDbEntity
  8
1
 62
     4
100
AcDbText
 10
-127.6588452667842
 20
-105.124268591977
 30
0.0
 40
5.0
  1
1.011.22.0140.S11
 50
270.0
 41
0.7200000000000001
 72
     1
 11
-125.1588452667842
 21
-121.8642685919771
 31
0.0
100
AcDbText
 73
     2
  0
TEXT
  5
B5
330
8D
100
AcDbEntity
  8
1
 62
     3
100
AcDbText
 10
189.9799047332159
 20
-123.3642685919771
 30
0.0
 40
3.0
  1
Cotes et tolÅrances en mm
 41
0.675
 72
     1
 11
207.0911547332159
 21
-121.8642685919771
 31
0.0
100
AcDbText
 73
     2
  0
TEXT
  5
B6
330
8D
100
AcDbEntity
  8
1
 62
     3
100
AcDbText
 10
213.0471547332159
 20
-132.1142685919772
 30
0.0
 40
3.5
  1
Ech. 2:1
 41
0.72
 72
     1
 11
218.5911547332159
 21
-130.3642685919772
 31
0.0
100
AcDbText
 73
     2
  0
TEXT
  5
B7
330
8D
100
AcDbEntity
  8
1
 62
     2
100
AcDbText
 10
234.3411547332159
 20
-122.8642685919771
 30
0.0
 40
2.0
  1
Edition:
 41
0.5850000000000001
 11
234.3411547332159
 21
-121.8642685919771
 31
0.0
100
AcDbText
 73
     2
  0
TEXT
  5
B8
330
8D
100
AcDbEntity
  8
1
 62
     3
100
AcDbText
 10
244.9109140259795
 20
-123.1142685919771
 30
0.0
 40
2.5
  1
01
 41
0.7200000000000001
 11
244.9109140259795
 21
-121.8642685919771
 31
0.0
100
AcDbText
 73
     2
  0
ENDBLK
  5
B9
330
8D
100
AcDbEntity
  8
0
100
AcDbBlockEnd
  0
BLOCK
  5
16E
330
16D
100
AcDbEntity
  8
0
100
AcDbBlockBegin
  2
TOP_TOP_
 70
     0
 10
-42.65884526678413
 20
-78.48926859197712
 30
0.0
  3
TOP_TOP_
  1

  0
ENDBLK
  5
286
330
16D
100
AcDbEntity
  8
0
100
AcDbBlockEnd
  0
BLOCK
  5
A38
330
A36
100
AcDbEntity
  8
0
100
AcDbBlockBegin
  2
_Oblique
 70
     0
 10
0.0
 20
0.0
 30
0.0
  3
_Oblique
  1

  0
LINE
  5
A37
330
A36
100
AcDbEntity
  8
0
  6
ByBlock
 62
     0
370
    -2
100
AcDbLine
 10
-0.5
 20
-0.5
 30
0.0
 11
0.5
 21
0.5
 31
0.0
  0
ENDBLK
  5
A39
330
A36
100
AcDbEntity
  8
0
100
AcDbBlockEnd
  0
BLOCK
  5
CE0
330
CDF
100
AcDbEntity
  8
0
100
AcDbBlockBegin
  2
*D71
 70
     1
 10
0.0
 20
0.0
 30
0.0
  3
*D71
  1

  0
LINE
  5
D7A
330
CDF
100
AcDbEntity
  8
1
  6
Continuous
 62
     2
370
    -2
100
AcDbLine
 10
421.44363546238
 20
152.5248512659777
 30
0.0
 11
421.44363546238
 21
134.3231691981226
 31
0.0
  0
LINE
  5
D7B
330
CDF
100
AcDbEntity
  8
1
  6
Continuous
 62
     2
370
    -2
100
AcDbLine
 10
420.4436354623799
 20
145.3248512659776
 30
0.0
 11
420.4436354623799
 21
134.3231691981226
 31
0.0
  0
LINE
  5
D7C
330
CDF
100
AcDbEntity
  8
1
  6
Continuous
 62
     2
370
    -2
100
AcDbLine
 10
423.19363546238
 20
134.8231691981226
 30
0.0
 11
424.94363546238
 21
134.8231691981226
 31
0.0
  0
LINE
  5
D7D
330
CDF
100
AcDbEntity
  8
1
  6
Continuous
 62
     2
370
    -2
100
AcDbLine
 10
418.69363546238
 20
134.8231691981226
 30
0.0
 11
416.94363546238
 21
134.8231691981226
 31
0.0
  0
MTEXT
  5
D7E
330
CDF
100
AcDbEntity
  8
1
  6
Continuous
 62
     3
100
AcDbMText
 10
417.4805681664473
 20
136.3113598260305
 30
0.0
 40
1.75
 41
0.0
 46
0.0
 71
     5
 72
     1
  1
\A1;1
 73
     1
 44
1.0
  0
LINE
  5
D7F
330
CDF
100
AcDbEntity
  8
1
  6
Continuous
 62
     2
370
    -2
100
AcDbLine
 10
421.44363546238
 20
134.8231691981226
 30
0.0
 11
420.4436354623799
 21
134.8231691981226
 31
0.0
  0
SOLID
  5
D80
330
CDF
100
AcDbEntity
  8
1
  6
Continuous
 62
     2
100
AcDbTrace
 10
423.19363546238
 20
135.1148358647893
 30
0.0
 11
423.19363546238
 21
134.531502531456
 31
0.0
 12
421.44363546238
 22
134.8231691981226
 32
0.0
 13
421.44363546238
 23
134.8231691981226
 33
0.0
  0
SOLID
  5
D81
330
CDF
100
AcDbEntity
  8
1
  6
Continuous
 62
     2
100
AcDbTrace
 10
418.69363546238
 20
135.1148358647893
 30
0.0
 11
418.69363546238
 21
134.531502531456
 31
0.0
 12
420.4436354623799
 22
134.8231691981226
 32
0.0
 13
420.4436354623799
 23
134.8231691981226
 33
0.0
  0
POINT
  5
D82
330
CDF
100
AcDbEntity
  8
Defpoints
  6
Continuous
 62
     0
100
AcDbPoint
 10
421.44363546238
 20
152.5248512659777
 30
0.0
  0
POINT
  5
D83
330
CDF
100
AcDbEntity
  8
Defpoints
  6
Continuous
 62
     0
100
AcDbPoint
 10
420.4436354623799
 20
145.3248512659776
 30
0.0
  0
POINT
  5
D84
330
CDF
100
AcDbEntity
  8
Defpoints
  6
Continuous
 62
     0
100
AcDbPoint
 10
420.4436354623799
 20
134.8231691981226
 30
0.0
  0
ENDBLK
  5
CE1
330
CDF
100
AcDbEntity
  8
0
100
AcDbBlockEnd
  0
BLOCK
  5
CEE
330
CED
100
AcDbEntity
  8
0
100
AcDbBlockBegin
  2
*D72
 70
     1
 10
0.0
 20
0.0
 30
0.0
  3
*D72
  1

  0
LINE
  5
D85
330
CED
100
AcDbEntity
  8
1
  6
Continuous
 62
     2
370
    -2
100
AcDbLine
 10
427.9436354623801
 20
155.1658438245441
 30
0.0
 11
427.9436354623801
 21
134.3231691981226
 31
0.0
  0
LINE
  5
D86
330
CED
100
AcDbEntity
  8
1
  6
Continuous
 62
     2
370
    -2
100
AcDbLine
 10
421.44363546238
 20
152.5248512659777
 30
0.0
 11
421.44363546238
 21
134.3231691981226
 31
0.0
  0
LINE
  5
D87
330
CED
100
AcDbEntity
  8
1
  6
Continuous
 62
     2
370
    -2
100
AcDbLine
 10
426.1936354623801
 20
134.8231691981226
 30
0.0
 11
423.19363546238
 21
134.8231691981226
 31
0.0
  0
SOLID
  5
D88
330
CED
100
AcDbEntity
  8
1
  6
Continuous
 62
     2
100
AcDbTrace
 10
426.1936354623801
 20
135.1148358647893
 30
0.0
 11
426.1936354623801
 21
134.531502531456
 31
0.0
 12
427.9436354623801
 22
134.8231691981226
 32
0.0
 13
427.9436354623801
 23
134.8231691981226
 33
0.0
  0
SOLID
  5
D89
330
CED
100
AcDbEntity
  8
1
  6
Continuous
 62
     2
100
AcDbTrace
 10
423.19363546238
 20
135.1148358647893
 30
0.0
 11
423.19363546238
 21
134.531502531456
 31
0.0
 12
421.44363546238
 22
134.8231691981226
 32
0.0
 13
421.44363546238
 23
134.8231691981226
 33
0.0
  0
MTEXT
  5
D8A
330
CED
100
AcDbEntity
  8
1
  6
Continuous
 62
     3
100
AcDbMText
 10
424.6936354623801
 20
136.6231691981226
 30
0.0
 40
1.75
 41
0.0
 46
0.0
 71
     5
 72
     1
  1
\A1;(6.5)
 73
     1
 44
1.0
  0
POINT
  5
D8B
330
CED
100
AcDbEntity
  8
Defpoints
  6
Continuous
 62
     0
100
AcDbPoint
 10
427.9436354623801
 20
155.1658438245441
 30
0.0
  0
POINT
  5
D8C
330
CED
100
AcDbEntity
  8
Defpoints
  6
Continuous
 62
     0
100
AcDbPoint
 10
421.44363546238
 20
152.5248512659777
 30
0.0
  0
POINT
  5
D8D
330
CED
100
AcDbEntity
  8
Defpoints
  6
Continuous
 62
     0
100
AcDbPoint
 10
421.44363546238
 20
134.8231691981226
 30
0.0
  0
ENDBLK
  5
CEF
330
CED
100
AcDbEntity
  8
0
100
AcDbBlockEnd
  0
BLOCK
  5
CFA
330
CF9
100
AcDbEntity
  8
0
100
AcDbBlockBegin
  2
*D73
 70
     1
 10
0.0
 20
0.0
 30
0.0
  3
*D73
  1

  0
LINE
  5
D8E
330
CF9
100
AcDbEntity
  8
1
  6
Continuous
 62
     2
370
    -2
100
AcDbLine
 10
470.1561609483285
 20
150.8248512659776
 30
0.0
 11
455.1936354623801
 21
150.8248512659776
 31
0.0
  0
LINE
  5
D8F
330
CF9
100
AcDbEntity
  8
1
  6
Continuous
 62
     2
370
    -2
100
AcDbLine
 10
470.0582495330194
 20
160.8248512659776
 30
0.0
 11
455.1936354623801
 21
160.8248512659776
 31
0.0
  0
LINE
  5
D90
330
CF9
100
AcDbEntity
  8
1
  6
Continuous
 62
     2
370
    -2
100
AcDbLine
 10
455.6936354623801
 20
152.5748512659776
 30
0.0
 11
455.6936354623801
 21
159.0748512659776
 31
0.0
  0
SOLID
  5
D91
330
CF9
100
AcDbEntity
  8
1
  6
Continuous
 62
     2
100
AcDbTrace
 10
455.4019687957135
 20
152.5748512659776
 30
0.0
 11
455.9853021290469
 21
152.5748512659776
 31
0.0
 12
455.6936354623801
 22
150.8248512659776
 32
0.0
 13
455.6936354623801
 23
150.8248512659776
 33
0.0
  0
SOLID
  5
D92
330
CF9
100
AcDbEntity
  8
1
  6
Continuous
 62
     2
100
AcDbTrace
 10
455.4019687957135
 20
159.0748512659776
 30
0.0
 11
455.9853021290469
 21
159.0748512659776
 31
0.0
 12
455.6936354623801
 22
160.8248512659776
 32
0.0
 13
455.6936354623801
 23
160.8248512659776
 33
0.0
  0
MTEXT
  5
D93
330
CF9
100
AcDbEntity
  8
1
  6
Continuous
 62
     3
100
AcDbMText
 10
454.0686354623801
 20
155.8248512659777
 30
0.0
 40
1.75
 41
0.0
 46
0.0
 71
     5
 72
     1
  1
\A1;10
 11
0.0000000000000001
 21
1.0
 31
0.0
 73
     1
 44
1.0
  0
POINT
  5
D94
330
CF9
100
AcDbEntity
  8
Defpoints
  6
Continuous
 62
     0
100
AcDbPoint
 10
470.1561609483285
 20
150.8248512659776
 30
0.0
  0
POINT
  5
D95
330
CF9
100
AcDbEntity
  8
Defpoints
  6
Continuous
 62
     0
100
AcDbPoint
 10
470.0582495330194
 20
160.8248512659776
 30
0.0
  0
POINT
  5
D96
330
CF9
100
AcDbEntity
  8
Defpoints
  6
Continuous
 62
     0
100
AcDbPoint
 10
455.6936354623801
 20
160.8248512659776
 30
0.0
  0
ENDBLK
  5
CFB
330
CF9
100
AcDbEntity
  8
0
100
AcDbBlockEnd
  0
BLOCK
  5
D06
330
D05
100
AcDbEntity
  8
0
100
AcDbBlockBegin
  2
*D74
 70
     1
 10
0.0
 20
0.0
 30
0.0
  3
*D74
  1

  0
LINE
  5
D97
330
D05
100
AcDbEntity
  8
1
  6
Continuous
 62
     2
370
    -2
100
AcDbLine
 10
472.6912337227154
 20
160.9748512659776
 30
0.0
 11
472.6912337227154
 21
172.331083609158
 31
0.0
  0
LINE
  5
D98
330
D05
100
AcDbEntity
  8
1
  6
Continuous
 62
     2
370
    -2
100
AcDbLine
 10
470.6912337227154
 20
160.9748512659776
 30
0.0
 11
470.6912337227154
 21
172.331083609158
 31
0.0
  0
LINE
  5
D99
330
D05
100
AcDbEntity
  8
1
  6
Continuous
 62
     2
370
    -2
100
AcDbLine
 10
474.4412337227154
 20
171.831083609158
 30
0.0
 11
476.1912337227154
 21
171.831083609158
 31
0.0
  0
LINE
  5
D9A
330
D05
100
AcDbEntity
  8
1
  6
Continuous
 62
     2
370
    -2
100
AcDbLine
 10
468.9412337227154
 20
171.831083609158
 30
0.0
 11
467.1912337227154
 21
171.831083609158
 31
0.0
  0
MTEXT
  5
D9B
330
D05
100
AcDbEntity
  8
1
  6
Continuous
 62
     3
100
AcDbMText
 10
471.6912337227154
 20
174.331083609158
 30
0.0
 40
1.75
 41
0.0
 46
0.0
 71
     5
 72
     1
  1
\A1;2
 73
     1
 44
1.0
  0
LINE
  5
D9C
330
D05
100
AcDbEntity
  8
1
  6
Continuous
 62
     2
370
    -2
100
AcDbLine
 10
472.6912337227154
 20
171.831083609158
 30
0.0
 11
470.6912337227154
 21
171.831083609158
 31
0.0
  0
SOLID
  5
D9D
330
D05
100
AcDbEntity
  8
1
  6
Continuous
 62
     2
100
AcDbTrace
 10
474.4412337227154
 20
172.1227502758246
 30
0.0
 11
474.4412337227154
 21
171.5394169424913
 31
0.0
 12
472.6912337227154
 22
171.831083609158
 32
0.0
 13
472.6912337227154
 23
171.831083609158
 33
0.0
  0
SOLID
  5
D9E
330
D05
100
AcDbEntity
  8
1
  6
Continuous
 62
     2
100
AcDbTrace
 10
468.9412337227154
 20
172.1227502758246
 30
0.0
 11
468.9412337227154
 21
171.5394169424913
 31
0.0
 12
470.6912337227154
 22
171.831083609158
 32
0.0
 13
470.6912337227154
 23
171.831083609158
 33
0.0
  0
POINT
  5
D9F
330
D05
100
AcDbEntity
  8
Defpoints
  6
Continuous
 62
     0
100
AcDbPoint
 10
472.6912337227154
 20
160.9748512659776
 30
0.0
  0
POINT
  5
DA0
330
D05
100
AcDbEntity
  8
Defpoints
  6
Continuous
 62
     0
100
AcDbPoint
 10
470.6912337227154
 20
160.9748512659776
 30
0.0
  0
POINT
  5
DA1
330
D05
100
AcDbEntity
  8
Defpoints
  6
Continuous
 62
     0
100
AcDbPoint
 10
470.6912337227154
 20
171.831083609158
 30
0.0
  0
ENDBLK
  5
D07
330
D05
100
AcDbEntity
  8
0
100
AcDbBlockEnd
  0
BLOCK
  5
D14
330
D13
100
AcDbEntity
  8
0
100
AcDbBlockBegin
  2
*D75
 70
     1
 10
0.0
 20
0.0
 30
0.0
  3
*D75
  1

  0
LINE
  5
117C
330
D13
100
AcDbEntity
  8
1
  6
Continuous
 62
     2
370
    -2
100
AcDbLine
 10
353.9806318568345
 20
161.0210036886842
 30
0.0
 11
353.9806318568345
 21
172.6317211060174
 31
0.0
  0
LINE
  5
117D
330
D13
100
AcDbEntity
  8
1
  6
Continuous
 62
     2
370
    -2
100
AcDbLine
 10
355.9806318568344
 20
161.0210036886842
 30
0.0
 11
355.9806318568344
 21
172.6317211060174
 31
0.0
  0
LINE
  5
117E
330
D13
100
AcDbEntity
  8
1
  6
Continuous
 62
     2
370
    -2
100
AcDbLine
 10
352.2306318568344
 20
172.1317211060174
 30
0.0
 11
350.4806318568345
 21
172.1317211060174
 31
0.0
  0
LINE
  5
117F
330
D13
100
AcDbEntity
  8
1
  6
Continuous
 62
     2
370
    -2
100
AcDbLine
 10
357.7306318568344
 20
172.1317211060174
 30
0.0
 11
371.8306318568344
 21
172.1317211060174
 31
0.0
  0
LINE
  5
1180
330
D13
100
AcDbEntity
  8
1
  6
Continuous
 62
     2
370
    -2
100
AcDbLine
 10
353.9806318568345
 20
172.1317211060174
 30
0.0
 11
355.9806318568344
 21
172.1317211060174
 31
0.0
  0
SOLID
  5
1181
330
D13
100
AcDbEntity
  8
1
  6
Continuous
 62
     2
100
AcDbTrace
 10
352.2306318568344
 20
172.4233877726841
 30
0.0
 11
352.2306318568344
 21
171.8400544393507
 31
0.0
 12
353.9806318568345
 22
172.1317211060174
 32
0.0
 13
353.9806318568345
 23
172.1317211060174
 33
0.0
  0
SOLID
  5
1182
330
D13
100
AcDbEntity
  8
1
  6
Continuous
 62
     2
100
AcDbTrace
 10
357.7306318568344
 20
172.4233877726841
 30
0.0
 11
357.7306318568344
 21
171.8400544393507
 31
0.0
 12
355.9806318568344
 22
172.1317211060174
 32
0.0
 13
355.9806318568344
 23
172.1317211060174
 33
0.0
  0
MTEXT
  5
1183
330
D13
100
AcDbEntity
  8
1
  6
Continuous
 62
     3
100
AcDbMText
 10
365.6556318568344
 20
173.7573839848053
 30
0.0
 40
1.75
 41
0.0
 46
0.0
 71
     5
 72
     1
  1
\A1;M2x2 max.
 73
     1
 44
1.0
  0
POINT
  5
1184
330
D13
100
AcDbEntity
  8
Defpoints
  6
Continuous
 62
     0
100
AcDbPoint
 10
353.9806318568345
 20
161.0210036886842
 30
0.0
  0
POINT
  5
1185
330
D13
100
AcDbEntity
  8
Defpoints
  6
Continuous
 62
     0
100
AcDbPoint
 10
355.9806318568344
 20
161.0210036886842
 30
0.0
  0
POINT
  5
1186
330
D13
100
AcDbEntity
  8
Defpoints
  6
Continuous
 62
     0
100
AcDbPoint
 10
355.9806318568344
 20
172.1317211060174
 30
0.0
  0
ENDBLK
  5
D15
330
D13
100
AcDbEntity
  8
0
100
AcDbBlockEnd
  0
BLOCK
  5
D21
330
D20
100
AcDbEntity
  8
0
100
AcDbBlockBegin
  2
*D76
 70
     1
 10
0.0
 20
0.0
 30
0.0
  3
*D76
  1

  0
LINE
  5
120E
330
D20
100
AcDbEntity
  8
1
  6
Continuous
 62
     2
370
    -2
100
AcDbLine
 10
427.9436354623801
 20
155.1658438245441
 30
0.0
 11
427.9436354623801
 21
139.3287680325204
 31
0.0
  0
LINE
  5
120F
330
D20
100
AcDbEntity
  8
1
  6
Continuous
 62
     2
370
    -2
100
AcDbLine
 10
421.94363546238
 20
153.5748512659776
 30
0.0
 11
421.94363546238
 21
139.3287680325204
 31
0.0
  0
LINE
  5
1210
330
D20
100
AcDbEntity
  8
1
  6
Continuous
 62
     2
370
    -2
100
AcDbLine
 10
426.1936354623801
 20
139.8287680325204
 30
0.0
 11
423.69363546238
 21
139.8287680325204
 31
0.0
  0
SOLID
  5
1211
330
D20
100
AcDbEntity
  8
1
  6
Continuous
 62
     2
100
AcDbTrace
 10
426.1936354623801
 20
140.1204346991871
 30
0.0
 11
426.1936354623801
 21
139.5371013658538
 31
0.0
 12
427.9436354623801
 22
139.8287680325204
 32
0.0
 13
427.9436354623801
 23
139.8287680325204
 33
0.0
  0
SOLID
  5
1212
330
D20
100
AcDbEntity
  8
1
  6
Continuous
 62
     2
100
AcDbTrace
 10
423.69363546238
 20
140.1204346991871
 30
0.0
 11
423.69363546238
 21
139.5371013658538
 31
0.0
 12
421.94363546238
 22
139.8287680325204
 32
0.0
 13
421.94363546238
 23
139.8287680325204
 33
0.0
  0
MTEXT
  5
1213
330
D20
100
AcDbEntity
  8
1
  6
Continuous
 62
     3
100
AcDbMText
 10
424.94363546238
 20
141.4537680325204
 30
0.0
 40
1.75
 41
0.0
 46
0.0
 71
     5
 72
     1
  1
\A1;6{\H1.312500;±0.5}
 73
     1
 44
1.0
  0
POINT
  5
1214
330
D20
100
AcDbEntity
  8
Defpoints
  6
Continuous
 62
     0
100
AcDbPoint
 10
427.9436354623801
 20
155.1658438245441
 30
0.0
  0
POINT
  5
1215
330
D20
100
AcDbEntity
  8
Defpoints
  6
Continuous
 62
     0
100
AcDbPoint
 10
421.94363546238
 20
153.5748512659776
 30
0.0
  0
POINT
  5
1216
330
D20
100
AcDbEntity
  8
Defpoints
  6
Continuous
 62
     0
100
AcDbPoint
 10
421.94363546238
 20
139.8287680325204
 30
0.0
  0
ENDBLK
  5
D22
330
D20
100
AcDbEntity
  8
0
100
AcDbBlockEnd
  0
BLOCK
  5
D2D
330
D2C
100
AcDbEntity
  8
0
100
AcDbBlockBegin
  2
*D77
 70
     1
 10
0.0
 20
0.0
 30
0.0
  3
*D77
  1

  0
LINE
  5
11DB
330
D2C
100
AcDbEntity
  8
1
  6
Continuous
 62
     2
370
    -2
100
AcDbLine
 10
427.9436354623801
 20
155.1658438245441
 30
0.0
 11
427.9436354623801
 21
129.3453310749941
 31
0.0
  0
LINE
  5
11DC
330
D2C
100
AcDbEntity
  8
1
  6
Continuous
 62
     2
370
    -2
100
AcDbLine
 10
420.4436354623799
 20
145.3248512659776
 30
0.0
 11
420.4436354623799
 21
129.3453310749941
 31
0.0
  0
LINE
  5
11DD
330
D2C
100
AcDbEntity
  8
1
  6
Continuous
 62
     2
370
    -2
100
AcDbLine
 10
426.1936354623801
 20
129.845331074994
 30
0.0
 11
422.19363546238
 21
129.845331074994
 31
0.0
  0
SOLID
  5
11DE
330
D2C
100
AcDbEntity
  8
1
  6
Continuous
 62
     2
100
AcDbTrace
 10
426.1936354623801
 20
130.1369977416607
 30
0.0
 11
426.1936354623801
 21
129.5536644083274
 31
0.0
 12
427.9436354623801
 22
129.845331074994
 32
0.0
 13
427.9436354623801
 23
129.845331074994
 33
0.0
  0
SOLID
  5
11DF
330
D2C
100
AcDbEntity
  8
1
  6
Continuous
 62
     2
100
AcDbTrace
 10
422.19363546238
 20
130.1369977416607
 30
0.0
 11
422.19363546238
 21
129.5536644083274
 31
0.0
 12
420.4436354623799
 22
129.845331074994
 32
0.0
 13
420.4436354623799
 23
129.845331074994
 33
0.0
  0
MTEXT
  5
11E0
330
D2C
100
AcDbEntity
  8
1
  6
Continuous
 62
     3
100
AcDbMText
 10
424.1936354623801
 20
131.4703310749941
 30
0.0
 40
1.75
 41
0.0
 46
0.0
 71
     5
 72
     1
  1
\A1;7.5{\H1.312500;±0.5}
 73
     1
 44
1.0
  0
POINT
  5
11E1
330
D2C
100
AcDbEntity
  8
Defpoints
  6
Continuous
 62
     0
100
AcDbPoint
 10
427.9436354623801
 20
155.1658438245441
 30
0.0
  0
POINT
  5
11E2
330
D2C
100
AcDbEntity
  8
Defpoints
  6
Continuous
 62
     0
100
AcDbPoint
 10
420.4436354623799
 20
145.3248512659776
 30
0.0
  0
POINT
  5
11E3
330
D2C
100
AcDbEntity
  8
Defpoints
  6
Continuous
 62
     0
100
AcDbPoint
 10
420.4436354623799
 20
129.845331074994
 30
0.0
  0
ENDBLK
  5
D2E
330
D2C
100
AcDbEntity
  8
0
100
AcDbBlockEnd
  0
BLOCK
  5
D39
330
D38
100
AcDbEntity
  8
0
100
AcDbBlockBegin
  2
*D78
 70
     1
 10
0.0
 20
0.0
 30
0.0
  3
*D78
  1

  0
LINE
  5
DBE
330
D38
100
AcDbEntity
  8
1
  6
Continuous
 62
     2
370
    -2
100
AcDbLine
 10
388.9436354623801
 20
150.7248512659776
 30
0.0
 11
388.9436354623801
 21
129.3390762863792
 31
0.0
  0
LINE
  5
DBF
330
D38
100
AcDbEntity
  8
1
  6
Continuous
 62
     2
370
    -2
100
AcDbLine
 10
394.4436354623801
 20
148.1248512659775
 30
0.0
 11
394.4436354623801
 21
129.3390762863792
 31
0.0
  0
LINE
  5
DC0
330
D38
100
AcDbEntity
  8
1
  6
Continuous
 62
     2
370
    -2
100
AcDbLine
 10
390.6936354623801
 20
129.8390762863792
 30
0.0
 11
392.69363546238
 21
129.8390762863792
 31
0.0
  0
SOLID
  5
DC1
330
D38
100
AcDbEntity
  8
1
  6
Continuous
 62
     2
100
AcDbTrace
 10
390.6936354623801
 20
130.1307429530458
 30
0.0
 11
390.6936354623801
 21
129.5474096197125
 31
0.0
 12
388.9436354623801
 22
129.8390762863792
 32
0.0
 13
388.9436354623801
 23
129.8390762863792
 33
0.0
  0
SOLID
  5
DC2
330
D38
100
AcDbEntity
  8
1
  6
Continuous
 62
     2
100
AcDbTrace
 10
392.69363546238
 20
130.1307429530458
 30
0.0
 11
392.69363546238
 21
129.5474096197125
 31
0.0
 12
394.4436354623801
 22
129.8390762863792
 32
0.0
 13
394.4436354623801
 23
129.8390762863792
 33
0.0
  0
MTEXT
  5
DC3
330
D38
100
AcDbEntity
  8
1
  6
Continuous
 62
     3
100
AcDbMText
 10
391.69363546238
 20
131.4640762863792
 30
0.0
 40
1.75
 41
0.0
 46
0.0
 71
     5
 72
     1
  1
\A1;5.5
 73
     1
 44
1.0
  0
POINT
  5
DC4
330
D38
100
AcDbEntity
  8
Defpoints
  6
Continuous
 62
     0
100
AcDbPoint
 10
388.9436354623801
 20
150.7248512659776
 30
0.0
  0
POINT
  5
DC5
330
D38
100
AcDbEntity
  8
Defpoints
  6
Continuous
 62
     0
100
AcDbPoint
 10
394.4436354623801
 20
148.1248512659775
 30
0.0
  0
POINT
  5
DC6
330
D38
100
AcDbEntity
  8
Defpoints
  6
Continuous
 62
     0
100
AcDbPoint
 10
394.4436354623801
 20
129.8390762863792
 30
0.0
  0
ENDBLK
  5
D3A
330
D38
100
AcDbEntity
  8
0
100
AcDbBlockEnd
  0
BLOCK
  5
D45
330
D44
100
AcDbEntity
  8
0
100
AcDbBlockBegin
  2
*D79
 70
     1
 10
0.0
 20
0.0
 30
0.0
  3
*D79
  1

  0
LINE
  5
DC7
330
D44
100
AcDbEntity
  8
1
  6
Continuous
 62
     2
370
    -2
100
AcDbLine
 10
420.4436354623799
 20
145.3248512659776
 30
0.0
 11
420.4436354623799
 21
129.3390762863792
 31
0.0
  0
LINE
  5
DC8
330
D44
100
AcDbEntity
  8
1
  6
Continuous
 62
     2
370
    -2
100
AcDbLine
 10
394.4436354623801
 20
148.1248512659775
 30
0.0
 11
394.4436354623801
 21
129.3390762863792
 31
0.0
  0
LINE
  5
DC9
330
D44
100
AcDbEntity
  8
1
  6
Continuous
 62
     2
370
    -2
100
AcDbLine
 10
418.69363546238
 20
129.8390762863792
 30
0.0
 11
396.19363546238
 21
129.8390762863792
 31
0.0
  0
SOLID
  5
DCA
330
D44
100
AcDbEntity
  8
1
  6
Continuous
 62
     2
100
AcDbTrace
 10
418.69363546238
 20
130.1307429530458
 30
0.0
 11
418.69363546238
 21
129.5474096197125
 31
0.0
 12
420.4436354623799
 22
129.8390762863792
 32
0.0
 13
420.4436354623799
 23
129.8390762863792
 33
0.0
  0
SOLID
  5
DCB
330
D44
100
AcDbEntity
  8
1
  6
Continuous
 62
     2
100
AcDbTrace
 10
396.19363546238
 20
130.1307429530458
 30
0.0
 11
396.19363546238
 21
129.5474096197125
 31
0.0
 12
394.4436354623801
 22
129.8390762863792
 32
0.0
 13
394.4436354623801
 23
129.8390762863792
 33
0.0
  0
MTEXT
  5
DCC
330
D44
100
AcDbEntity
  8
1
  6
Continuous
 62
     3
100
AcDbMText
 10
407.44363546238
 20
131.4640762863792
 30
0.0
 40
1.75
 41
0.0
 46
0.0
 71
     5
 72
     1
  1
\A1;26
 73
     1
 44
1.0
  0
POINT
  5
DCD
330
D44
100
AcDbEntity
  8
Defpoints
  6
Continuous
 62
     0
100
AcDbPoint
 10
420.4436354623799
 20
145.3248512659776
 30
0.0
  0
POINT
  5
DCE
330
D44
100
AcDbEntity
  8
Defpoints
  6
Continuous
 62
     0
100
AcDbPoint
 10
394.4436354623801
 20
148.1248512659775
 30
0.0
  0
POINT
  5
DCF
330
D44
100
AcDbEntity
  8
Defpoints
  6
Continuous
 62
     0
100
AcDbPoint
 10
394.4436354623801
 20
129.8390762863792
 30
0.0
  0
ENDBLK
  5
D46
330
D44
100
AcDbEntity
  8
0
100
AcDbBlockEnd
  0
BLOCK
  5
D51
330
D50
100
AcDbEntity
  8
0
100
AcDbBlockBegin
  2
*D80
 70
     1
 10
0.0
 20
0.0
 30
0.0
  3
*D80
  1

  0
LINE
  5
DD0
330
D50
100
AcDbEntity
  8
1
  6
Continuous
 62
     2
370
    -2
100
AcDbLine
 10
338.4806318568343
 20
155.8248512659776
 30
0.0
 11
335.4305158311384
 21
155.8248512659776
 31
0.0
  0
LINE
  5
DD1
330
D50
100
AcDbEntity
  8
1
  6
Continuous
 62
     2
370
    -2
100
AcDbLine
 10
357.967842149831
 20
145.4546988429081
 30
0.0
 11
360.2556898696824
 21
141.4920303521448
 31
0.0
  0
ARC
  5
DD2
330
D50
100
AcDbEntity
  8
1
  6
Continuous
 62
     2
370
    -2
100
AcDbCircle
 10
351.9806318568344
 20
155.8248512659776
 30
0.0
 40
16.05011602569605
100
AcDbArc
 50
186.2502568626403
 51
293.7497431373596
  0
SOLID
  5
DD3
330
D50
100
AcDbEntity
  8
1
  6
Continuous
 62
     2
100
AcDbTrace
 10
335.7346872093336
 20
154.0615530508913
 30
0.0
 11
336.3171530424321
 21
154.0933544824728
 31
0.0
 12
335.9305158311383
 22
155.8248512659775
 32
0.0
 13
335.9305158311383
 23
155.8248512659775
 33
0.0
  0
SOLID
  5
DD4
330
D50
100
AcDbEntity
  8
1
  6
Continuous
 62
     2
100
AcDbTrace
 10
358.3128510629493
 20
141.3941323093135
 30
0.0
 11
358.5765431318722
 21
140.873801385223
 31
0.0
 12
360.0056898696824
 22
141.9250430540371
 32
0.0
 13
360.0056898696824
 23
141.9250430540371
 33
0.0
  0
MTEXT
  5
DD5
330
D50
100
AcDbEntity
  8
1
  6
Continuous
 62
     3
100
AcDbMText
 10
344.7680738439863
 20
143.3323343351867
 30
0.0
 40
1.75
 41
0.0
 46
0.0
 71
     5
 72
     1
  1
\A1;3x120\U+00B0
 11
0.8660254037844389
 21
-0.4999999999999995
 31
0.0
 73
     1
 44
1.0
  0
POINT
  5
DD6
330
D50
100
AcDbEntity
  8
Defpoints
  6
Continuous
 62
     0
100
AcDbPoint
 10
339.6855296639351
 20
145.5080355506288
 30
0.0
  0
POINT
  5
DD7
330
D50
100
AcDbEntity
  8
Defpoints
  6
Continuous
 62
     0
100
AcDbPoint
 10
338.4806318568343
 20
155.8248512659776
 30
0.0
  0
POINT
  5
DD8
330
D50
100
AcDbEntity
  8
Defpoints
  6
Continuous
 62
     0
100
AcDbPoint
 10
357.967842149831
 20
145.4546988429081
 30
0.0
  0
POINT
  5
DD9
330
D50
100
AcDbEntity
  8
Defpoints
  6
Continuous
 62
     0
100
AcDbPoint
 10
351.9806318568344
 20
155.8248512659776
 30
0.0
  0
POINT
  5
DDA
330
D50
100
AcDbEntity
  8
Defpoints
  6
Continuous
 62
     0
100
AcDbPoint
 10
365.4806318568344
 20
155.8248512659776
 30
0.0
  0
ENDBLK
  5
D52
330
D50
100
AcDbEntity
  8
0
100
AcDbBlockEnd
  0
BLOCK
  5
D5F
330
D5E
100
AcDbEntity
  8
0
100
AcDbBlockBegin
  2
*D81
 70
     1
 10
0.0
 20
0.0
 30
0.0
  3
*D81
  1

  0
LINE
  5
DDB
330
D5E
100
AcDbEntity
  8
0
 62
     2
370
    -2
100
AcDbLine
 10
394.4436354623801
 20
148.1248512659775
 30
0.0
 11
394.4436354623801
 21
138.8151972642179
 31
0.0
  0
LINE
  5
DDC
330
D5E
100
AcDbEntity
  8
0
 62
     2
370
    -2
100
AcDbLine
 10
395.44363546238
 20
145.3248512659776
 30
0.0
 11
395.44363546238
 21
138.8151972642179
 31
0.0
  0
LINE
  5
DDD
330
D5E
100
AcDbEntity
  8
0
 62
     2
370
    -2
100
AcDbLine
 10
392.69363546238
 20
139.3151972642179
 30
0.0
 11
390.94363546238
 21
139.3151972642179
 31
0.0
  0
LINE
  5
DDE
330
D5E
100
AcDbEntity
  8
0
 62
     2
370
    -2
100
AcDbLine
 10
395.44363546238
 20
139.3151972642179
 30
0.0
 11
397.19363546238
 21
139.3151972642179
 31
0.0
  0
MTEXT
  5
DDF
330
D5E
100
AcDbEntity
  8
0
 62
     3
100
AcDbMText
 10
391.875682263313
 20
141.0804378870329
 30
0.0
 40
1.75
 41
0.0
 46
0.0
 71
     5
 72
     1
  1
\A1;1
 73
     1
 44
1.0
  0
LINE
  5
DE0
330
D5E
100
AcDbEntity
  8
0
 62
     2
370
    -2
100
AcDbLine
 10
394.4436354623801
 20
139.3151972642179
 30
0.0
 11
395.44363546238
 21
139.3151972642179
 31
0.0
  0
SOLID
  5
DE1
330
D5E
100
AcDbEntity
  8
0
 62
     2
100
AcDbTrace
 10
392.69363546238
 20
139.6068639308846
 30
0.0
 11
392.69363546238
 21
139.0235305975513
 31
0.0
 12
394.4436354623801
 22
139.3151972642179
 32
0.0
 13
394.4436354623801
 23
139.3151972642179
 33
0.0
  0
INSERT
  5
DE2
330
D5E
100
AcDbEntity
  8
0
 62
     2
370
    -2
100
AcDbBlockReference
  2
_Oblique
 10
395.44363546238
 20
139.3151972642179
 30
0.0
 41
1.75
 42
1.75
 43
1.75
 50
180.0
  0
POINT
  5
DE3
330
D5E
100
AcDbEntity
  8
Defpoints
 62
     0
100
AcDbPoint
 10
394.4436354623801
 20
148.1248512659775
 30
0.0
  0
POINT
  5
DE4
330
D5E
100
AcDbEntity
  8
Defpoints
 62
     0
100
AcDbPoint
 10
395.44363546238
 20
145.3248512659776
 30
0.0
  0
POINT
  5
DE5
330
D5E
100
AcDbEntity
  8
Defpoints
 62
     0
100
AcDbPoint
 10
395.44363546238
 20
139.3151972642179
 30
0.0
  0
ENDBLK
  5
D60
330
D5E
100
AcDbEntity
  8
0
100
AcDbBlockEnd
  0
BLOCK
  5
D6D
330
D6C
100
AcDbEntity
  8
0
100
AcDbBlockBegin
  2
*D82
 70
     1
 10
0.0
 20
0.0
 30
0.0
  3
*D82
  1

  0
LINE
  5
DE6
330
D6C
100
AcDbEntity
  8
0
 62
     2
370
    -2
100
AcDbLine
 10
395.44363546238
 20
145.3248512659776
 30
0.0
 11
395.44363546238
 21
138.8151972642179
 31
0.0
  0
LINE
  5
DE7
330
D6C
100
AcDbEntity
  8
0
 62
     2
370
    -2
100
AcDbLine
 10
397.1436354623801
 20
144.9248512659776
 30
0.0
 11
397.1436354623801
 21
138.8151972642179
 31
0.0
  0
LINE
  5
DE8
330
D6C
100
AcDbEntity
  8
0
 62
     2
370
    -2
100
AcDbLine
 10
395.44363546238
 20
139.3151972642179
 30
0.0
 11
393.69363546238
 21
139.3151972642179
 31
0.0
  0
LINE
  5
DE9
330
D6C
100
AcDbEntity
  8
0
 62
     2
370
    -2
100
AcDbLine
 10
398.8936354623801
 20
139.3151972642179
 30
0.0
 11
400.64363546238
 21
139.3151972642179
 31
0.0
  0
MTEXT
  5
DEA
330
D6C
100
AcDbEntity
  8
0
 62
     3
100
AcDbMText
 10
398.961063877479
 20
141.1685895909365
 30
0.0
 40
1.75
 41
0.0
 46
0.0
 71
     5
 72
     1
  1
\A1;1.7
 73
     1
 44
1.0
  0
LINE
  5
DEB
330
D6C
100
AcDbEntity
  8
0
 62
     2
370
    -2
100
AcDbLine
 10
395.44363546238
 20
139.3151972642179
 30
0.0
 11
397.1436354623801
 21
139.3151972642179
 31
0.0
  0
INSERT
  5
DEC
330
D6C
100
AcDbEntity
  8
0
 62
     2
370
    -2
100
AcDbBlockReference
  2
_Oblique
 10
395.44363546238
 20
139.3151972642179
 30
0.0
 41
1.75
 42
1.75
 43
1.75
  0
SOLID
  5
DED
330
D6C
100
AcDbEntity
  8
0
 62
     2
100
AcDbTrace
 10
398.8936354623801
 20
139.6068639308846
 30
0.0
 11
398.8936354623801
 21
139.0235305975513
 31
0.0
 12
397.1436354623801
 22
139.3151972642179
 32
0.0
 13
397.1436354623801
 23
139.3151972642179
 33
0.0
  0
POINT
  5
DEE
330
D6C
100
AcDbEntity
  8
Defpoints
 62
     0
100
AcDbPoint
 10
395.44363546238
 20
145.3248512659776
 30
0.0
  0
POINT
  5
DEF
330
D6C
100
AcDbEntity
  8
Defpoints
 62
     0
100
AcDbPoint
 10
397.1436354623801
 20
144.9248512659776
 30
0.0
  0
POINT
  5
DF0
330
D6C
100
AcDbEntity
  8
Defpoints
 62
     0
100
AcDbPoint
 10
397.1436354623801
 20
139.3151972642179
 30
0.0
  0
ENDBLK
  5
D6E
330
D6C
100
AcDbEntity
  8
0
100
AcDbBlockEnd
  0
BLOCK
  5
E1E
330
E1B
100
AcDbEntity
  8
0
 62
   255
100
AcDbBlockBegin
  2
A$C08716F59
 70
     0
 10
0.0
 20
0.0
 30
0.0
  3
A$C08716F59
  1

  0
LINE
  5
E1F
330
E1B
100
AcDbEntity
  8
0
  6
Continuous
 62
   255
100
AcDbLine
 10
0.0
 20
12.17339149400141
 30
0.0
 11
182.9999999999895
 21
12.17339149400141
 31
0.0
  0
LINE
  5
E20
330
E1B
100
AcDbEntity
  8
0
  6
Continuous
 62
   255
100
AcDbLine
 10
139.4722028839473
 20
8.115594329334285
 30
0.0
 11
182.9999999999895
 21
8.115594329334271
 31
0.0
  0
LINE
  5
E21
330
E1B
100
AcDbEntity
  8
0
  6
Continuous
 62
   255
100
AcDbLine
 10
139.4722028839473
 20
4.057797164667164
 30
0.0
 11
182.9999999999895
 21
4.05779716466715
 31
0.0
  0
MTEXT
  5
E22
330
E1B
100
AcDbEntity
  8
0
100
AcDbMText
 10
1.226077007665935
 20
16.62833710178165
 30
0.0
 40
2.494547437295386
 41
0.0
 46
0.0
 71
     1
 72
     5
  1
General tolerances ISO 2768-1 (fine)
 73
     1
 44
1.0
  0
MTEXT
  5
E23
330
E1B
100
AcDbEntity
  8
0
100
AcDbMText
 10
1.221253973245666
 20
22.7493147206207
 30
0.0
 40
2.494547437295386
 41
0.0
 46
0.0
 71
     1
 72
     5
  1
{\fISOCPEUR|b0|i0|c0|p34;\W1;Nominal dimension in mm}
  7
SLDTEXTSTYLE0
 73
     1
 44
1.0
1001
AcDbBlockRepETag
1070
     1
1071
        3
1005
0
  0
LINE
  5
E24
330
E1B
100
AcDbEntity
  8
0
  6
Continuous
 62
   255
100
AcDbLine
 10
58.34685140027523
 20
24.34678298800282
 30
0.0
 11
58.34685140027523
 21
0.0000000000000142
 31
0.0
1001
AcDbBlockRepETag
1070
     1
1071
        9
1005
0
  0
LINE
  5
E25
330
E1B
100
AcDbEntity
  8
0
  6
Continuous
 62
   255
100
AcDbLine
 10
0.0
 20
24.34678298800282
 30
0.0
 11
58.34685140027528
 21
24.34678298800282
 31
0.0
1001
AcDbBlockRepETag
1070
     1
1071
       10
1005
0
  0
LINE
  5
E26
330
E1B
100
AcDbEntity
  8
0
  6
Continuous
 62
   255
100
AcDbLine
 10
58.34685140027523
 20
24.34678298800282
 30
0.0
 11
182.9999999999895
 21
24.34678298800282
 31
0.0
1001
AcDbBlockRepETag
1070
     1
1071
       10
1005
0
  0
LINE
  5
E27
330
E1B
100
AcDbEntity
  8
0
  6
Continuous
 62
   255
100
AcDbLine
 10
79.12237616689424
 20
12.17339149400141
 30
0.0
 11
79.12237616689424
 21
24.34678298800282
 31
0.0
1001
AcDbBlockRepETag
1070
     1
1071
       14
1005
0
  0
LINE
  5
E28
330
E1B
100
AcDbEntity
  8
0
  6
Continuous
 62
   255
100
AcDbLine
 10
99.89790093351338
 20
12.17339149400141
 30
0.0
 11
99.89790093351338
 21
24.34678298800282
 31
0.0
1001
AcDbBlockRepETag
1070
     1
1071
       14
1005
0
  0
MTEXT
  5
E29
330
E1B
100
AcDbEntity
  8
0
100
AcDbMText
 10
168.9677353328222
 20
16.88893582326733
 30
0.0
 40
2.494547437295386
 41
0.0
 46
0.0
 71
     1
 72
     5
  1
%%p 0.3
 73
     1
 44
1.0
1001
AcDbBlockRepETag
1070
     1
1071
       24
1005
0
  0
MTEXT
  5
E2A
330
E1B
100
AcDbEntity
  8
0
100
AcDbMText
 10
147.9410418409381
 20
16.95985493722907
 30
0.0
 40
2.494547437295386
 41
0.0
 46
0.0
 71
     1
 72
     5
  1
%%p 0.2
 73
     1
 44
1.0
1001
AcDbBlockRepETag
1070
     1
1071
       25
1005
0
  0
MTEXT
  5
E2B
330
E1B
100
AcDbEntity
  8
0
100
AcDbMText
 10
126.4009074272721
 20
16.87519524493729
 30
0.0
 40
2.494547437295386
 41
0.0
 46
0.0
 71
     1
 72
     5
  1
%%p 0.15
 73
     1
 44
1.0
1001
AcDbBlockRepETag
1070
     1
1071
       26
1005
0
  0
MTEXT
  5
E2C
330
E1B
100
AcDbEntity
  8
0
100
AcDbMText
 10
105.9463212275484
 20
16.90112504597954
 30
0.0
 40
2.494547437295386
 41
0.0
 46
0.0
 71
     1
 72
     5
  1
%%p 0.1
 73
     1
 44
1.0
1001
AcDbBlockRepETag
1070
     1
1071
       27
1005
0
  0
MTEXT
  5
E2D
330
E1B
100
AcDbEntity
  8
0
100
AcDbMText
 10
84.98914242355727
 20
17.01437400608699
 30
0.0
 40
2.494547437295386
 41
0.0
 46
0.0
 71
     1
 72
     5
  1
%%p 0.05
 73
     1
 44
1.0
1001
AcDbBlockRepETag
1070
     1
1071
       28
1005
0
  0
TEXT
  5
E2E
330
E1B
100
AcDbEntity
  8
0
  6
Continuous
100
AcDbText
 10
164.1615107706293
 20
20.37929673764472
 30
0.0
 40
2.494547437295386
  1
400 - 1000
100
AcDbText
1001
AcDbBlockRepETag
1070
     1
1071
       37
1005
0
  0
MTEXT
  5
E2F
330
E1B
100
AcDbEntity
  8
0
100
AcDbMText
 10
144.158621869803
 20
22.96803362317041
 30
0.0
 40
2.494547437295386
 41
0.0
 46
0.0
 71
     1
 72
     5
  1
120 - 400
 73
     1
 44
1.0
1001
AcDbBlockRepETag
1070
     1
1071
       29
1005
0
  0
MTEXT
  5
E30
330
E1B
100
AcDbEntity
  8
0
100
AcDbMText
 10
124.3756636317091
 20
22.72513565785164
 30
0.0
 40
2.494547437295386
 41
0.0
 46
0.0
 71
     1
 72
     5
  1
30 - 120
 73
     1
 44
1.0
1001
AcDbBlockRepETag
1070
     1
1071
       30
1005
0
  0
MTEXT
  5
E31
330
E1B
100
AcDbEntity
  8
0
100
AcDbMText
 10
104.9462539288026
 20
22.75232551006025
 30
0.0
 40
2.494547437295386
 41
0.0
 46
0.0
 71
     1
 72
     5
  1
6 - 30
 73
     1
 44
1.0
1001
AcDbBlockRepETag
1070
     1
1071
       31
1005
0
  0
MTEXT
  5
E32
330
E1B
100
AcDbEntity
  8
0
100
AcDbMText
 10
85.07950812762828
 20
22.70556959691623
 30
0.0
 40
2.494547437295386
 41
0.0
 46
0.0
 71
     1
 72
     5
  1
3 - 6
 73
     1
 44
1.0
1001
AcDbBlockRepETag
1070
     1
1071
       32
1005
0
  0
MTEXT
  5
E33
330
E1B
100
AcDbEntity
  8
0
100
AcDbMText
 10
63.01858838858902
 20
22.78653418981571
 30
0.0
 40
2.494547437295386
 41
0.0
 46
0.0
 71
     1
 72
     5
  1
0.5 - 3
 73
     1
 44
1.0
1001
AcDbBlockRepETag
1070
     1
1071
       33
1005
0
  0
MTEXT
  5
E34
330
E1B
100
AcDbEntity
  8
0
100
AcDbMText
 10
63.43852565896918
 20
16.8478471152647
 30
0.0
 40
2.494547437295386
 41
0.0
 46
0.0
 71
     1
 72
     5
  1
%%p 0.05
 73
     1
 44
1.0
1001
AcDbBlockRepETag
1070
     1
1071
       34
1005
0
  0
LINE
  5
E35
330
E1B
100
AcDbEntity
  8
0
  6
Continuous
 62
   255
100
AcDbLine
 10
0.0
 20
18.2600872410037
 30
0.0
 11
182.9999999999897
 21
18.260087241002
 31
0.0
  0
LINE
  5
E36
330
E1B
100
AcDbEntity
  8
0
  6
Continuous
 62
   255
100
AcDbLine
 10
0.0
 20
0.0
 30
0.0
 11
182.9999999999895
 21
0.0
 31
0.0
  0
LINE
  5
E37
330
E1B
100
AcDbEntity
  8
0
  6
Continuous
 62
   255
100
AcDbLine
 10
0.0
 20
6.086695747002281
 30
0.0
 11
139.4722028839473
 21
6.086695747001002
 31
0.0
  0
MTEXT
  5
E38
330
E1B
100
AcDbEntity
  8
0
100
AcDbMText
 10
1.201782440435636
 20
10.72252304166511
 30
0.0
 40
2.494547437295386
 41
0.0
 46
0.0
 71
     1
 72
     5
  1
{\fISOCPEUR|b0|i0|c0|p34;\W1;Shorter arm length of angle in mm}
  7
SLDTEXTSTYLE0
 73
     1
 44
1.0
1001
AcDbBlockRepETag
1070
     1
1071
        0
1005
0
  0
MTEXT
  5
E39
330
E1B
100
AcDbEntity
  8
0
100
AcDbMText
 10
61.86525580137936
 20
10.6131426958143
 30
0.0
 40
2.494547437295386
 41
0.0
 46
0.0
 71
     1
 72
     5
  1
0 - 10
 73
     1
 44
1.0
1001
AcDbBlockRepETag
1070
     1
1071
       33
1005
0
  0
MTEXT
  5
E3A
330
E1B
100
AcDbEntity
  8
0
100
AcDbMText
 10
64.26181913627715
 20
4.674455621263291
 30
0.0
 40
2.494547437295386
 41
0.0
 46
0.0
 71
     1
 72
     5
  1
%%P 1%%D
 73
     1
 44
1.0
1001
AcDbBlockRepETag
1070
     1
1071
       34
1005
0
  0
MTEXT
  5
E3B
330
E1B
100
AcDbEntity
  8
0
100
AcDbMText
 10
77.03151478382711
 20
10.6131426958143
 30
0.0
 40
2.494547437295386
 41
0.0
 46
0.0
 71
     1
 72
     5
  1
10 - 50
 73
     1
 44
1.0
1001
AcDbBlockRepETag
1070
     1
1071
       33
1005
0
  0
MTEXT
  5
E3C
330
E1B
100
AcDbEntity
  8
0
100
AcDbMText
 10
78.88210132936956
 20
4.674455621263291
 30
0.0
 40
2.494547437295386
 41
0.0
 46
0.0
 71
     1
 72
     5
  1
%%P 0.5%%D
 73
     1
 44
1.0
1001
AcDbBlockRepETag
1070
     1
1071
       34
1005
0
  0
MTEXT
  5
E3D
330
E1B
100
AcDbEntity
  8
0
100
AcDbMText
 10
92.59088918373743
 20
10.6131426958143
 30
0.0
 40
2.494547437295386
 41
0.0
 46
0.0
 71
     1
 72
     5
  1
50 - 120
 73
     1
 44
1.0
1001
AcDbBlockRepETag
1070
     1
1071
       33
1005
0
  0
MTEXT
  5
E3E
330
E1B
100
AcDbEntity
  8
0
100
AcDbMText
 10
93.18809940139329
 20
4.674455621263291
 30
0.0
 40
2.494547437295386
 41
0.0
 46
0.0
 71
     1
 72
     5
  1
%%P 0.333%%D
 73
     1
 44
1.0
1001
AcDbBlockRepETag
1070
     1
1071
       34
1005
0
  0
MTEXT
  5
E3F
330
E1B
100
AcDbEntity
  8
0
100
AcDbMText
 10
107.5423679565415
 20
10.6131426958143
 30
0.0
 40
2.494547437295386
 41
0.0
 46
0.0
 71
     1
 72
     5
  1
120 - 400
 73
     1
 44
1.0
1001
AcDbBlockRepETag
1070
     1
1071
       33
1005
0
  0
MTEXT
  5
E40
330
E1B
100
AcDbEntity
  8
0
100
AcDbMText
 10
109.7564886466487
 20
4.674455621263291
 30
0.0
 40
2.494547437295386
 41
0.0
 46
0.0
 71
     1
 72
     5
  1
%%P 0.166%%D
 73
     1
 44
1.0
1001
AcDbBlockRepETag
1070
     1
1071
       34
1005
0
  0
MTEXT
  5
E41
330
E1B
100
AcDbEntity
  8
0
100
AcDbMText
 10
123.9025409958209
 20
10.6131426958143
 30
0.0
 40
2.494547437295386
 41
0.0
 46
0.0
 71
     1
 72
     5
  1
{\W0.9;400 - 1000}
 73
     1
 44
1.0
1001
AcDbBlockRepETag
1070
     1
1071
       33
1005
0
  0
MTEXT
  5
E42
330
E1B
100
AcDbEntity
  8
0
100
AcDbMText
 10
125.3174912143491
 20
4.674455621263291
 30
0.0
 40
2.494547437295386
 41
0.0
 46
0.0
 71
     1
 72
     5
  1
%%P 0.083%%D
 73
     1
 44
1.0
1001
AcDbBlockRepETag
1070
     1
1071
       34
1005
0
  0
MTEXT
  5
E43
330
E1B
100
AcDbEntity
  8
0
100
AcDbMText
 10
1.226077007665821
 20
4.82201452720912
 30
0.0
 40
2.494547437295386
 41
0.0
 46
0.0
 71
     1
 72
     5
  1
General tolerances ISO 2768-1 (fine)
 73
     1
 44
1.0
  0
LINE
  5
E44
330
E1B
100
AcDbEntity
  8
0
  6
Continuous
 62
   255
100
AcDbLine
 10
74.57192169700966
 20
12.17339149400141
 30
0.0
 11
74.57192169700966
 21
0.0000000000000142
 31
0.0
1001
AcDbBlockRepETag
1070
     1
1071
        9
1005
0
  0
LINE
  5
E45
330
E1B
100
AcDbEntity
  8
0
  6
Continuous
 62
   255
100
AcDbLine
 10
90.79699199374408
 20
12.17339149400141
 30
0.0
 11
90.79699199374408
 21
0.0000000000000142
 31
0.0
1001
AcDbBlockRepETag
1070
     1
1071
        9
1005
0
  0
LINE
  5
E46
330
E1B
100
AcDbEntity
  8
0
  6
Continuous
 62
   255
100
AcDbLine
 10
107.0220622904785
 20
12.17339149400141
 30
0.0
 11
107.0220622904785
 21
0.0000000000000142
 31
0.0
1001
AcDbBlockRepETag
1070
     1
1071
        9
1005
0
  0
LINE
  5
E47
330
E1B
100
AcDbEntity
  8
0
  6
Continuous
 62
   255
100
AcDbLine
 10
123.2471325872129
 20
12.17339149400141
 30
0.0
 11
123.2471325872129
 21
0.0000000000000142
 31
0.0
1001
AcDbBlockRepETag
1070
     1
1071
        9
1005
0
  0
LINE
  5
E48
330
E1B
100
AcDbEntity
  8
0
  6
Continuous
 62
   255
100
AcDbLine
 10
139.4722028839473
 20
12.17339149400141
 30
0.0
 11
139.4722028839473
 21
0.0000000000000142
 31
0.0
1001
AcDbBlockRepETag
1070
     1
1071
        9
1005
0
  0
TOLERANCE
  5
E49
330
E1B
100
AcDbEntity
  8
0
100
AcDbFcf
  3
Standard
 10
140.3018912761555
 20
10.16670485428646
 30
0.0
  1
%%v%%v%%vH1%%v%%v
1001
ACAD
1000
DSTYLE
1002
{
1070
    40
1040
0.5
1070
   140
1040
3.24
1070
   147
1040
1.62
1002
}
  0
MTEXT
  5
E4A
330
E1B
100
AcDbEntity
  8
0
100
AcDbMText
 10
144.6501712219154
 20
11.25538089487233
 30
0.0
 40
1.995637949836309
 41
0.0
 46
0.0
 71
     1
 72
     5
  1
.....
 73
     1
 44
1.0
1001
AcDbBlockRepETag
1070
     1
1071
       34
1005
0
  0
MTEXT
  5
E4B
330
E1B
100
AcDbEntity
  8
0
100
AcDbMText
 10
148.0466459170135
 20
11.25538089487233
 30
0.0
 40
1.995637949836309
 41
0.0
 46
0.0
 71
     1
 72
     5
  1
Horizontal CTQ Dimensions
 73
     1
 44
1.0
1001
AcDbBlockRepETag
1070
     1
1071
       34
1005
0
  0
TOLERANCE
  5
E4C
330
E1B
100
AcDbEntity
  8
0
100
AcDbFcf
  3
Standard
 10
140.3018912761555
 20
6.108907689619343
 30
0.0
  1
%%v%%v%%vV1%%v%%v
1001
ACAD
1000
DSTYLE
1002
{
1070
    40
1040
0.5
1070
   140
1040
3.24
1070
   147
1040
1.62
1002
}
  0
MTEXT
  5
E4D
330
E1B
100
AcDbEntity
  8
0
100
AcDbMText
 10
144.6501712219154
 20
7.197583730205209
 30
0.0
 40
1.995637949836309
 41
0.0
 46
0.0
 71
     1
 72
     5
  1
.....
 73
     1
 44
1.0
1001
AcDbBlockRepETag
1070
     1
1071
       34
1005
0
  0
MTEXT
  5
E4E
330
E1B
100
AcDbEntity
  8
0
100
AcDbMText
 10
148.0466459170135
 20
7.197583730205209
 30
0.0
 40
1.995637949836309
 41
0.0
 46
0.0
 71
     1
 72
     5
  1
Vertical CTQ Dimensions
 73
     1
 44
1.0
1001
AcDbBlockRepETag
1070
     1
1071
       34
1005
0
  0
TOLERANCE
  5
E4F
330
E1B
100
AcDbEntity
  8
0
100
AcDbFcf
  3
Standard
 10
140.3018912761555
 20
2.051110524952221
 30
0.0
  1
%%v%%v%%vS1%%v%%v
1001
ACAD
1000
DSTYLE
1002
{
1070
    40
1040
0.5
1070
   140
1040
3.24
1070
   147
1040
1.62
1002
}
  0
MTEXT
  5
E50
330
E1B
100
AcDbEntity
  8
0
100
AcDbMText
 10
144.6501712219154
 20
3.139786565538088
 30
0.0
 40
1.995637949836309
 41
0.0
 46
0.0
 71
     1
 72
     5
  1
.....
 73
     1
 44
1.0
1001
AcDbBlockRepETag
1070
     1
1071
       34
1005
0
  0
MTEXT
  5
E51
330
E1B
100
AcDbEntity
  8
0
100
AcDbMText
 10
148.0466459170135
 20
3.139786565538088
 30
0.0
 40
1.995637949836309
 41
0.0
 46
0.0
 71
     1
 72
     5
  1
GD&T & Other Features
 73
     1
 44
1.0
1001
AcDbBlockRepETag
1070
     1
1071
       34
1005
0
  0
LINE
  5
E52
330
E1B
100
AcDbEntity
  8
0
  6
Continuous
 62
   255
100
AcDbLine
 10
120.6734257001324
 20
12.17339149400141
 30
0.0
 11
120.6734257001324
 21
24.34678298800282
 31
0.0
1001
AcDbBlockRepETag
1070
     1
1071
       14
1005
0
  0
LINE
  5
E53
330
E1B
100
AcDbEntity
  8
0
  6
Continuous
 62
   255
100
AcDbLine
 10
141.4489504667515
 20
12.17339149400141
 30
0.0
 11
141.4489504667515
 21
24.34678298800282
 31
0.0
1001
AcDbBlockRepETag
1070
     1
1071
       14
1005
0
  0
LINE
  5
E54
330
E1B
100
AcDbEntity
  8
0
  6
Continuous
 62
   255
100
AcDbLine
 10
162.2244752333704
 20
12.17339149400141
 30
0.0
 11
162.2244752333704
 21
24.34678298800282
 31
0.0
1001
AcDbBlockRepETag
1070
     1
1071
       14
1005
0
  0
ENDBLK
  5
E55
330
E1B
100
AcDbEntity
  8
0
 62
   255
100
AcDbBlockEnd
  0
BLOCK
  5
E59
330
E56
100
AcDbEntity
  8
0
100
AcDbBlockBegin
  2
A$C058C21FF
 70
     0
 10
0.0
 20
0.0
 30
0.0
  3
A$C058C21FF
  1

  0
LINE
  5
E5A
330
E56
100
AcDbEntity
  8
0
  6
Continuous
 62
   255
100
AcDbLine
 10
392.9999664095999
 20
-277.0
 30
0.0
 11
392.9999664095999
 21
0.0
 31
0.0
  0
LINE
  5
E5B
330
E56
100
AcDbEntity
  8
0
  6
Continuous
 62
   255
100
AcDbLine
 10
10.0
 20
-277.0
 30
0.0
 11
392.9999664095999
 21
-277.0
 31
0.0
  0
LINE
  5
E5C
330
E56
100
AcDbEntity
  8
0
  6
Continuous
 62
   255
100
AcDbLine
 10
0.0
 20
0.0
 30
0.0
 11
0.0
 21
-222.0000000000001
 31
0.0
  0
LINE
  5
E5D
330
E56
100
AcDbEntity
  8
0
  6
Continuous
 62
   255
100
AcDbLine
 10
0.0
 20
0.0
 30
0.0
 11
392.9999664095999
 21
0.0
 31
0.0
  0
LINE
  5
E5E
330
E56
100
AcDbEntity
  8
1
 62
     2
100
AcDbLine
 10
212.9999664095992
 20
-240.7736213082135
 30
0.0
 11
212.9999664095992
 21
-233.1532223398645
 31
0.0
1001
AcDbBlockRepETag
1070
     1
1071
     2034
1005
0
  0
LINE
  5
E5F
330
E56
100
AcDbEntity
  8
1
 62
     2
100
AcDbLine
 10
377.9999664095851
 20
-240.7736213082135
 30
0.0
 11
212.9999664095992
 21
-240.7736213082135
 31
0.0
1001
AcDbBlockRepETag
1070
     1
1071
     2035
1005
0
  0
LINE
  5
E60
330
E56
100
AcDbEntity
  8
1
 62
     2
100
AcDbLine
 10
377.9999664095851
 20
-233.1532223398645
 30
0.0
 11
377.9999664095851
 21
-240.7736213082135
 31
0.0
1001
AcDbBlockRepETag
1070
     1
1071
     2036
1005
0
  0
LINE
  5
E61
330
E56
100
AcDbEntity
  8
1
 62
     2
100
AcDbLine
 10
212.9999664095992
 20
-233.1532223398645
 30
0.0
 11
377.9999664095851
 21
-233.1532223398645
 31
0.0
1001
AcDbBlockRepETag
1070
     1
1071
     2037
1005
0
  0
TEXT
  5
E62
330
E56
100
AcDbEntity
  8
1
 62
     3
100
AcDbText
 10
214.4930914539439
 20
-238.5485951401706
 30
0.0
 40
3.299999999999733
  1
Technology: Description - no. x.xxx.xx.xxxx
100
AcDbText
1001
AcDbBlockRepETag
1070
     1
1071
     2042
1005
0
  0
LINE
  5
E63
330
E56
100
AcDbEntity
  8
0
  6
Continuous
 62
   255
100
AcDbLine
 10
10.0
 20
-222.0
 30
0.0
 11
10.0
 21
-277.0
 31
0.0
1001
AcDbBlockRepETag
1070
     1
1071
     1946
1005
0
  0
LINE
  5
E64
330
E56
100
AcDbEntity
  8
0
  6
Continuous
 62
   255
100
AcDbLine
 10
10.0
 20
-222.0
 30
0.0
 11
0.0
 21
-222.0
 31
0.0
  0
TEXT
  5
E65
330
E56
100
AcDbEntity
  8
1
 62
     4
100
AcDbText
 10
2.500000000000001
 20
-237.5000000000001
 30
0.0
 40
5.0
  1
Drg. No.
 50
270.0
 72
     1
 11
5.0
 21
-249.5000000000001
 31
0.0
100
AcDbText
 73
     2
  0
LINE
  5
E66
330
E56
100
AcDbEntity
  8
0
  6
CENTER
 62
     2
 48
0.2
370
     9
100
AcDbLine
 10
386.4999681855563
 20
-259.423144560453
 30
0.0
 11
386.4999681855563
 21
-252.4231464730208
 31
0.0
1001
AcDbBlockRepETag
1070
     1
1071
        1
1005
0
  0
LINE
  5
E67
330
E56
100
AcDbEntity
  8
0
  6
Continuous
 62
   255
100
AcDbLine
 10
383.8712940050734
 20
-262.0000040983596
 30
0.0
 11
383.8712940050734
 21
-273.0000010928959
 31
0.0
1001
AcDbBlockRepETag
1070
     1
1071
        5
1005
0
  0
LINE
  5
E68
330
E56
100
AcDbEntity
  8
0
  6
CENTER
 62
     2
 48
0.2
370
     9
100
AcDbLine
 10
371.4999722839166
 20
-255.9231455167369
 30
0.0
 11
380.4999698249001
 21
-255.9231455167369
 31
0.0
1001
AcDbBlockRepETag
1070
     1
1071
        9
1005
0
  0
LINE
  5
E69
330
E56
100
AcDbEntity
  8
0
  6
Continuous
 62
   255
100
AcDbLine
 10
379.9999699615125
 20
-252.8231463637312
 30
0.0
 11
371.9999721473041
 21
-254.4231459265728
 31
0.0
1001
AcDbBlockRepETag
1070
     1
1071
       10
1005
0
  0
LINE
  5
E6A
330
E56
100
AcDbEntity
  8
0
  6
Continuous
 62
   255
100
AcDbLine
 10
379.9999699615125
 20
-259.0231446697427
 30
0.0
 11
379.9999699615125
 21
-252.8231463637312
 31
0.0
1001
AcDbBlockRepETag
1070
     1
1071
       11
1005
0
  0
LINE
  5
E6B
330
E56
100
AcDbEntity
  8
0
  6
Continuous
 62
   255
100
AcDbLine
 10
371.9999721473041
 20
-257.423145106901
 30
0.0
 11
379.9999699615125
 21
-259.0231446697427
 31
0.0
1001
AcDbBlockRepETag
1070
     1
1071
       12
1005
0
  0
LINE
  5
E6C
330
E56
100
AcDbEntity
  8
0
  6
Continuous
 62
   255
100
AcDbLine
 10
371.9999721473041
 20
-254.4231459265728
 30
0.0
 11
371.9999721473041
 21
-257.423145106901
 31
0.0
1001
AcDbBlockRepETag
1070
     1
1071
       13
1005
0
  0
LINE
  5
E6D
330
E56
100
AcDbEntity
  8
0
  6
Continuous
 62
   255
100
AcDbLine
 10
352.9999773385603
 20
-262.0000040983596
 30
0.0
 11
352.9999773385601
 21
-250.0008059763035
 31
0.0
1001
AcDbBlockRepETag
1070
     1
1071
       19
1005
0
  0
LINE
  5
E6E
330
E56
100
AcDbEntity
  8
0
  6
Continuous
 62
   255
100
AcDbLine
 10
318.9999866281746
 20
-262.0000040983596
 30
0.0
 11
318.9999866281746
 21
-273.0000010928959
 31
0.0
1001
AcDbBlockRepETag
1070
     1
1071
       20
1005
0
  0
LINE
  5
E6F
330
E56
100
AcDbEntity
  8
0
  6
Continuous
 62
   255
100
AcDbLine
 10
352.9999773385601
 20
-262.0000040983594
 30
0.0
 11
392.9999664096001
 21
-262.0000040983596
 31
0.0
1001
AcDbBlockRepETag
1070
     1
1071
       21
1005
0
  0
LINE
  5
E70
330
E56
100
AcDbEntity
  8
0
  6
Continuous
 62
   255
100
AcDbLine
 10
245.0000068467473
 20
-262.0000040983596
 30
0.0
 11
245.0000068467473
 21
-273.0000010928959
 31
0.0
1001
AcDbBlockRepETag
1070
     1
1071
       22
1005
0
  0
LINE
  5
E71
330
E56
100
AcDbEntity
  8
0
  6
Continuous
 62
   255
100
AcDbLine
 10
257.6666700525782
 20
-256.0008059763035
 30
0.0
 11
257.6666700525779
 21
-273.0000010928959
 31
0.0
1001
AcDbBlockRepETag
1070
     1
1071
       22
1005
0
  0
LINE
  5
E72
330
E56
100
AcDbEntity
  8
0
  6
Continuous
 62
   255
100
AcDbLine
 10
210.000016409587
 20
-233.1532223398645
 30
0.0
 11
210.000016409587
 21
-277.0
 31
0.0
1001
AcDbBlockRepETag
1070
     1
1071
       26
1005
0
  0
LINE
  5
E73
330
E56
100
AcDbEntity
  8
0
  6
Continuous
 62
   255
100
AcDbLine
 10
367.9999732402
 20
-250.0008059763035
 30
0.0
 11
367.9999732402
 21
-262.0000040983596
 31
0.0
1001
AcDbBlockRepETag
1070
     1
1071
       27
1005
0
  0
LINE
  5
E74
330
E56
100
AcDbEntity
  8
0
  6
Continuous
 62
   255
100
AcDbLine
 10
185.0000232401867
 20
-257.5000053278675
 30
0.0
 11
185.0000232401869
 21
-277.0
 31
0.0
1001
AcDbBlockRepETag
1070
     1
1071
       29
1005
0
  0
LINE
  5
E75
330
E56
100
AcDbEntity
  8
0
  6
Continuous
 62
     2
370
     9
100
AcDbLine
 10
27.00001640958703
 20
-266.5000028688518
 30
0.0
 11
210.000016409587
 21
-266.5000028688518
 31
0.0
1001
AcDbBlockRepETag
1070
     1
1071
       30
1005
0
  0
LINE
  5
E76
330
E56
100
AcDbEntity
  8
0
  6
Continuous
 62
   255
100
AcDbLine
 10
27.00001640958703
 20
-271.0000016393439
 30
0.0
 11
210.000016409587
 21
-271.0000016393439
 31
0.0
1001
AcDbBlockRepETag
1070
     1
1071
       31
1005
0
  0
LINE
  5
E77
330
E56
100
AcDbEntity
  8
0
  6
Continuous
 62
   255
100
AcDbLine
 10
27.00001640958703
 20
-277.0
 30
0.0
 11
27.00001640958681
 21
-233.1532223398645
 31
0.0
1001
AcDbBlockRepETag
1070
     1
1071
       32
1005
0
  0
LINE
  5
E78
330
E56
100
AcDbEntity
  8
0
  6
Continuous
 62
     2
370
     9
100
AcDbLine
 10
210.000016409587
 20
-262.0000040983596
 30
0.0
 11
27.00001640958703
 21
-262.0000040983596
 31
0.0
1001
AcDbBlockRepETag
1070
     1
1071
       33
1005
0
  0
LINE
  5
E79
330
E56
100
AcDbEntity
  8
0
  6
Continuous
 62
   255
100
AcDbLine
 10
160.0000300707861
 20
-257.5000053278675
 30
0.0
 11
160.0000300707863
 21
-277.0
 31
0.0
1001
AcDbBlockRepETag
1070
     1
1071
       34
1005
0
  0
LINE
  5
E7A
330
E56
100
AcDbEntity
  8
0
  6
Continuous
 62
   255
100
AcDbLine
 10
135.0000369013846
 20
-257.5000053278675
 30
0.0
 11
135.0000369013846
 21
-277.0
 31
0.0
1001
AcDbBlockRepETag
1070
     1
1071
       35
1005
0
  0
LINE
  5
E7B
330
E56
100
AcDbEntity
  8
0
  6
Continuous
 62
   255
100
AcDbLine
 10
33.90006452432795
 20
-257.5000053278675
 30
0.0
 11
33.90006452432795
 21
-277.0
 31
0.0
1001
AcDbBlockRepETag
1070
     1
1071
       36
1005
0
  0
LINE
  5
E7C
330
E56
100
AcDbEntity
  8
0
  6
CENTER
 62
     2
 48
0.2
370
     9
100
AcDbLine
 10
382.8999691691633
 20
-255.9231455167369
 30
0.0
 11
389.9999672292731
 21
-255.9231455167369
 31
0.0
1001
AcDbBlockRepETag
1070
     1
1071
       37
1005
0
  0
LINE
  5
E7D
330
E56
100
AcDbEntity
  8
0
  6
Continuous
 62
   255
100
AcDbLine
 10
392.9999664096001
 20
-273.0000010928959
 30
0.0
 11
210.000016409587
 21
-273.0000010928959
 31
0.0
1001
AcDbBlockRepETag
1070
     1
1071
       38
1005
0
  0
CIRCLE
  5
E7E
330
E56
100
AcDbEntity
  8
0
  6
Continuous
 62
   255
100
AcDbCircle
 10
386.4999681855563
 20
-255.9231455167369
 30
0.0
 40
3.099999153005696
1001
AcDbBlockRepETag
1070
     1
1071
       39
1005
0
  0
CIRCLE
  5
E7F
330
E56
100
AcDbEntity
  8
0
  6
Continuous
 62
   255
100
AcDbCircle
 10
386.4999681855563
 20
-255.9231455167369
 30
0.0
 40
1.499999590164046
1001
AcDbBlockRepETag
1070
     1
1071
       40
1005
0
  0
MTEXT
  5
E80
330
E56
100
AcDbEntity
  8
0
 62
   255
100
AcDbMText
 10
356.8782500675213
 20
-252.7695148487513
 30
0.0
 40
1.999999453552061
 41
0.0
 46
0.0
 71
     1
 72
     5
  1
Scale
 73
     1
 44
1.0
1001
AcDbBlockRepETag
1070
     1
1071
       46
1005
0
  0
MTEXT
  5
E81
330
E56
100
AcDbEntity
  8
0
 62
   255
100
AcDbMText
 10
384.7939704696303
 20
-264.9195248175762
 30
0.0
 40
4.508695652173912
 41
0.0
 46
0.0
 71
     1
 72
     5
  1
{\fISOCPEUR|b0|i0|c0|p34;\W1;A3}
  7
SLDTEXTSTYLE0
 73
     1
 44
1.0
1001
AcDbBlockRepETag
1070
     1
1071
       50
1005
0
  0
TEXT
  5
E82
330
E56
100
AcDbEntity
  8
0
  6
Continuous
 62
   255
100
AcDbText
 10
213.5367887974839
 20
-275.600626952933
 30
0.0
 40
1.72391304347826
  1
This drawing remains our property. Without written approval it may not be copied, reproduced or communicated or made available to third parties.
100
AcDbText
1001
AcDbBlockRepETag
1070
     1
1071
       51
1005
0
  0
MTEXT
  5
E83
330
E56
100
AcDbEntity
  8
0
 62
   255
100
AcDbMText
 10
28.38043281742353
 20
-272.4012695934838
 30
0.0
 40
1.999999453552061
 41
0.0
 46
0.0
 71
     1
 72
     5
  1
No.
 73
     1
 44
1.0
1001
AcDbBlockRepETag
1070
     1
1071
       52
1005
0
  0
MTEXT
  5
E84
330
E56
100
AcDbEntity
  8
0
 62
   255
100
AcDbMText
 10
62.8916152131303
 20
-272.5568974675624
 30
0.0
 40
1.999999453552061
 41
0.0
 46
0.0
 71
     1
 72
     5
  1
Modifications
 73
     1
 44
1.0
1001
AcDbBlockRepETag
1070
     1
1071
       53
1005
0
  0
MTEXT
  5
E85
330
E56
100
AcDbEntity
  8
0
 62
   255
100
AcDbMText
 10
113.8766488820463
 20
-272.4090513971577
 30
0.0
 40
1.999999453552061
 41
0.0
 46
0.0
 71
     1
 72
     5
  1
Communication
 73
     1
 44
1.0
1001
AcDbBlockRepETag
1070
     1
1071
       54
1005
0
  0
MTEXT
  5
E86
330
E56
100
AcDbEntity
  8
0
 62
   255
100
AcDbMText
 10
143.9645104743263
 20
-272.4579818509886
 30
0.0
 40
1.999999453552061
 41
0.0
 46
0.0
 71
     1
 72
     5
  1
Drawn
 73
     1
 44
1.0
1001
AcDbBlockRepETag
1070
     1
1071
       55
1005
0
  0
MTEXT
  5
E87
330
E56
100
AcDbEntity
  8
0
 62
   255
100
AcDbMText
 10
191.619644925147
 20
-272.537497781863
 30
0.0
 40
1.999999453552061
 41
0.0
 46
0.0
 71
     1
 72
     5
  1
Approved
 73
     1
 44
1.0
1001
AcDbBlockRepETag
1070
     1
1071
       56
1005
0
  0
MTEXT
  5
E88
330
E56
100
AcDbEntity
  8
0
 62
   255
100
AcDbMText
 10
336.1114445882952
 20
-264.9508328035223
 30
0.0
 40
4.508695652173912
 41
0.0
 46
0.0
 71
     1
 72
     5
  1
{\fISOCPEUR|b0|i0|c0|p34;\W1;Drg. No.}
  7
SLDTEXTSTYLE0
 73
     1
 44
1.0
1001
AcDbBlockRepETag
1070
     1
1071
       58
1005
0
  0
MTEXT
  5
E89
330
E56
100
AcDbEntity
  8
0
 62
   255
100
AcDbMText
 10
266.8224219787517
 20
-264.9557813549702
 30
0.0
 40
4.508695652173912
 41
0.0
 46
0.0
 71
     1
 72
     5
  1
{\fISOCPEUR|b0|i0|c0|p34;\W1;Description}
  7
SLDTEXTSTYLE0
 73
     1
 44
1.0
1001
AcDbBlockRepETag
1070
     1
1071
       59
1005
0
  0
MTEXT
  5
E8A
330
E56
100
AcDbEntity
  8
0
 62
   255
100
AcDbMText
 10
358.084726654057
 20
-256.6405790150835
 30
0.0
 40
2.499999316940077
 41
0.0
 46
0.0
 71
     1
 72
     5
  1
X:1
 73
     1
 44
1.0
1001
AcDbBlockRepETag
1070
     1
1071
       60
1005
0
  0
MTEXT
  5
E8B
330
E56
100
AcDbEntity
  8
0
 62
     1
100
AcDbMText
 10
214.8544231156891
 20
-262.8294794084584
 30
0.0
 40
3.999998907104123
 41
0.0
 46
0.0
 71
     1
 72
     5
  1
{\fISOCPEUR|b0|i0|c0|p34;\W1;Portescap}
  7
SLDTEXTSTYLE0
 73
     1
 44
1.0
1001
AcDbBlockRepETag
1070
     1
1071
       65
1005
0
  0
LINE
  5
E8C
330
E56
100
AcDbEntity
  8
0
  6
Continuous
 62
   255
100
AcDbLine
 10
110.0000437319843
 20
-257.5000053278675
 30
0.0
 11
110.0000437319845
 21
-277.0
 31
0.0
1001
AcDbBlockRepETag
1070
     1
1071
       66
1005
0
  0
MTEXT
  5
E8D
330
E56
100
AcDbEntity
  8
0
 62
   255
100
AcDbMText
 10
167.3053807416859
 20
-272.4579818509886
 30
0.0
 40
1.999999453552061
 41
0.0
 46
0.0
 71
     1
 72
     5
  1
Checked
 73
     1
 44
1.0
1001
AcDbBlockRepETag
1070
     1
1071
       67
1005
0
  0
LINE
  5
E8E
330
E56
100
AcDbEntity
  8
0
  6
Continuous
 62
   255
100
AcDbLine
 10
374.7426216005465
 20
-262.0000040983596
 30
0.0
 11
374.7426216005463
 21
-277.0
 31
0.0
1001
AcDbBlockRepETag
1070
     1
1071
        5
1005
0
  0
MTEXT
  5
E8F
330
E56
100
AcDbEntity
  8
0
 62
   255
100
AcDbMText
 10
376.1389629657326
 20
-264.9195248175762
 30
0.0
 40
4.508695652173912
 41
0.0
 46
0.0
 71
     1
 72
     5
  1
{\fISOCPEUR|b0|i0|c0|p34;\W1;00}
  7
SLDTEXTSTYLE0
 73
     1
 44
1.0
1001
AcDbBlockRepETag
1070
     1
1071
       50
1005
0
  0
TEXT
  5
E90
330
E56
100
AcDbEntity
  8
0
  6
Continuous
 62
   255
100
AcDbText
 10
377.1554068563314
 20
-275.600626952933
 30
0.0
 40
1.72391304347826
  1
Sheet 1 of 1
100
AcDbText
1001
AcDbBlockRepETag
1070
     1
1071
       51
1005
0
  0
INSERT
  5
E91
330
E56
100
AcDbEntity
  8
0
 62
   255
100
AcDbBlockReference
  2
A$C08716F59
 10
27.00001640958681
 20
-257.5000053278673
 30
0.0
  0
LINE
  5
E92
330
E56
100
AcDbEntity
  8
0
  6
Continuous
 62
   255
100
AcDbLine
 10
245.0000068467473
 20
-269.0000021857919
 30
0.0
 11
210.000016409587
 21
-269.0000021857919
 31
0.0
1001
AcDbBlockRepETag
1070
     1
1071
       38
1005
0
  0
TEXT
  5
E93
330
E56
100
AcDbEntity
  8
0
  6
Continuous
 62
   255
100
AcDbText
 10
213.5367887974839
 20
-271.7908875797558
 30
0.0
 40
1.72391304347826
  1
PI/R&D/F/18 Rev 00
100
AcDbText
1001
AcDbBlockRepETag
1070
     1
1071
       51
1005
0
  0
MTEXT
  5
E94
330
E56
100
AcDbEntity
  8
0
  6
Continuous
 62
   255
100
AcDbMText
 10
211.8594586296933
 20
-254.9213169641921
 30
0.0
 40
2.499999316940077
 41
122.5201940634145
 46
0.0
 71
     7
 72
     1
  1
All dimensions and tolerances are in mm unless & otherwise specified.
  7
style1
 73
     1
 44
1.0
1001
AcDbBlockRepETag
1070
     1
1071
       64
1005
0
  0
LINE
  5
E95
330
E56
100
AcDbEntity
  8
0
  6
Continuous
 62
   255
100
AcDbLine
 10
210.000016409587
 20
-262.0008059763035
 30
0.0
 11
257.6666700525782
 21
-262.0008059763035
 31
0.0
1001
AcDbBlockRepETag
1070
     1
1071
        3
1005
0
  0
LINE
  5
E96
330
E56
100
AcDbEntity
  8
0
  6
Continuous
 62
   255
100
AcDbLine
 10
210.000016409587
 20
-250.0008059763035
 30
0.0
 11
392.9999664096001
 21
-250.0008059763035
 31
0.0
1001
AcDbBlockRepETag
1070
     1
1071
        3
1005
0
  0
LINE
  5
E97
330
E56
100
AcDbEntity
  8
0
  6
Continuous
 62
   255
100
AcDbLine
 10
210.000016409587
 20
-256.0008059763035
 30
0.0
 11
352.9999773385601
 21
-256.0008059763033
 31
0.0
1001
AcDbBlockRepETag
1070
     1
1071
        3
1005
0
  0
ENDBLK
  5
E98
330
E56
100
AcDbEntity
  8
0
100
AcDbBlockEnd
  0
BLOCK
  5
E9A
330
E99
100
AcDbEntity
  8
0
 62
   255
100
AcDbBlockBegin
  2
_Dot
 70
     0
 10
0.0
 20
0.0
 30
0.0
  3
_Dot
  1

  0
LWPOLYLINE
  5
E9B
330
E99
100
AcDbEntity
  8
0
  6
ByBlock
 62
     0
100
AcDbPolyline
 90
        2
 70
     1
 43
0.5
 10
-0.25
 20
0.0
 42
1.0
 10
0.25
 20
0.0
 42
1.0
  0
LINE
  5
E9C
330
E99
100
AcDbEntity
  8
0
  6
ByBlock
 62
     0
370
    -2
100
AcDbLine
 10
-0.5
 20
0.0
 30
0.0
 11
-1.0
 21
0.0
 31
0.0
  0
ENDBLK
  5
E9D
330
E99
100
AcDbEntity
  8
0
 62
   255
100
AcDbBlockEnd
  0
BLOCK
  5
EA1
330
E9E
100
AcDbEntity
  8
0
 62
     1
100
AcDbBlockBegin
  2
A$C53560A2D
 70
     0
 10
0.0
 20
0.0
 30
0.0
  3
A$C53560A2D
  1

  0
HATCH
  5
EA2
330
E9E
100
AcDbEntity
  8
0
 62
     1
100
AcDbHatch
 10
0.0
 20
0.0
 30
0.0
210
0.0
220
0.0
230
1.0
  2
SOLID
 70
     1
 71
     0
 91
        1
 92
        7
 72
     0
 73
     1
 93
        8
 10
10.40639350736074
 20
-3.429580398453509
 10
9.8090548631219
 20
-3.429580398453495
 10
10.52161847102905
 20
-4.26222404987655
 10
9.562357823425486
 20
-5.017847907603865
 10
-0.1711005509629331
 20
-5.017847907603837
 10
-0.2076899027981653
 20
-5.086662246294196
 10
10.08230402145517
 20
-5.08666224629421
 10
11.12297052199432
 20
-4.266913789282654
 97
        0
 75
     0
 76
     1
 47
0.0237982239116982
 98
        1
 10
10.7687455105808
 20
-4.08916775948434
450
        0
451
        0
460
0.0
461
0.0
452
        0
462
0.0
453
        0
470

1001
ACAD
1010
0.0
1020
0.0
1030
0.0
  0
HATCH
  5
EA3
330
E9E
100
AcDbEntity
  8
0
 62
     3
100
AcDbHatch
 10
0.0
 20
0.0
 30
0.0
210
0.0
220
0.0
230
1.0
  2
SOLID
 70
     1
 71
     0
 91
       11
 92
        7
 72
     0
 73
     1
 93
        7
 10
1.491379020905242
 20
-2.772946682047759
 10
0.995217842298814
 20
-2.772946682047745
 10
-0.0788238170088675
 20
-4.792918690406423
 10
0.3668365951625674
 20
-4.792918690406409
 10
1.182574505556942
 20
-3.200386665146865
 10
1.390757209580954
 20
-4.792918690406395
 10
1.800184269306669
 20
-4.792918690406423
 97
        0
 92
        7
 72
     1
 73
     1
 93
       17
 10
3.143752721671432
 20
-3.44625859844703
 42
0.0
 10
2.816525880617575
 20
-3.446258598447073
 42
0.0
 10
2.903841276975811
 20
-3.02813051420415
 42
0.0
 10
2.485710676876635
 20
-3.16864853873723
 42
0.0
 10
2.427738889498414
 20
-3.44625859844703
 42
0.0
 10
2.156102845410657
 20
-3.44625859844703
 42
0.0
 10
2.108120116639497
 20
-3.699877260551375
 42
0.0
 10
2.37477709420176
 20
-3.699877260551375
 42
0.0
 10
2.197341484950982
 20
-4.54956488114216
 42
0.2314303255157967
 10
2.229132535142696
 20
-4.7375738797856
 42
0.2425677700453667
 10
2.562303738103139
 20
-4.840349188736823
 42
0.0
 10
2.853955581357979
 20
-4.793092213000164
 42
0.0
 10
2.904529503834567
 20
-4.550908380596794
 42
0.0
 10
2.695000291198482
 20
-4.550908380596808
 42
-0.4760549668863254
 10
2.615472085050157
 20
-4.409046856609066
 42
0.0
 10
2.763564085320922
 20
-3.699877260551403
 42
0.0
 10
3.095769992900443
 20
-3.699877260551403
 42
0.0
 97
        0
 92
        7
 72
     1
 73
     1
 93
       15
 10
3.902783104379238
 20
-3.703880319999356
 42
-0.2432435292258966
 10
4.1605810466001
 20
-3.728705991916442
 42
-0.2718544080322752
 10
4.214411423471688
 20
-3.906094591215776
 42
0.0
 10
4.02511501860107
 20
-4.8125801186696
 42
0.0
 10
4.425338595686184
 20
-4.812580118669615
 42
0.0
 10
4.618640162861424
 20
-3.843814600173104
 42
0.1442413094369809
 10
4.566882367577647
 20
-3.577394862249789
 42
0.1968270941560047
 10
4.312159611171807
 20
-3.438006898026017
 42
0.1671955009294615
 10
3.972511122600565
 20
-3.482973954396257
 42
0.0984224330473735
 10
3.770569059989043
 20
-3.640211074021848
 42
0.0
 10
3.934493518721126
 20
-2.855224430784346
 42
0.0
 10
3.53819104308144
 20
-2.85522443078436
 42
0.0
 10
3.129447181708883
 20
-4.812580118669629
 42
0.0
 10
3.525749657348569
 20
-4.812580118669629
 42
0.0
 10
3.717837455778578
 20
-3.892727417841854
 42
-0.1681505465182262
 97
        0
 92
        7
 72
     0
 73
     1
 93
        4
 10
5.6096725110404
 20
-2.855224430784303
 10
5.213370035400828
 20
-2.855224430784332
 10
4.804626174028157
 20
-4.8125801186696
 10
5.200928649667844
 20
-4.812580118669572
 97
        0
 92
        7
 72
     1
 73
     1
 93
       11
 10
6.952147240856731
 20
-3.566721980052093
 42
0.2003410362329726
 10
6.566896274917382
 20
-3.394380580118323
 42
0.1459636918781203
 10
6.221479418630622
 20
-3.437237506523857
 42
0.1329827864341785
 10
5.809957292924593
 20
-3.742009934847047
 42
0.1181218657170001
 10
5.613713825998559
 20
-4.246632228047602
 42
0.1453361361738481
 10
5.692211359379541
 20
-4.650330645507111
 42
0.1097723388638702
 10
5.927703226469532
 20
-4.840965604516455
 42
0.0801939741507773
 10
6.283139453583146
 20
-4.8800657463362
 42
0.1155273130323037
 10
6.714757499090808
 20
-4.716668932821008
 42
0.1356436716811775
 10
6.998631608933408
 20
-4.369984603229582
 42
0.1011385320105559
 10
7.113012828394801
 20
-3.973673703014938
 42
0.236317674944661
 97
        0
 92
       22
 72
     1
 73
     1
 93
       10
 10
6.677527194323886
 20
-4.138839615245061
 42
-0.0759023682782946
 10
6.566982042139159
 20
-4.423877995135413
 42
-0.2200816587143609
 10
6.300965840747892
 20
-4.599996581122823
 42
-0.1552209024106451
 10
6.095458780820706
 20
-4.534235363900407
 42
-0.2297088204471921
 10
6.019242210293441
 20
-4.338318807139089
 42
-0.0336344069359854
 10
6.05840294270996
 20
-4.066696381694796
 42
-0.0476503727704049
 10
6.143663624704515
 20
-3.862071844709262
 42
-0.1164757194866423
 10
6.339107330614126
 20
-3.691551275783936
 42
-0.2102767852864467
 10
6.596864975328571
 20
-3.697069810236698
 42
-0.1775077200810246
 10
6.697202341601666
 20
-3.873877008374407
 42
-0.1210907755229007
 97
        0
 92
        7
 72
     1
 73
     1
 93
       15
 10
7.838830780765817
 20
-3.892727417841783
 42
-0.1681505465179636
 10
8.02377642936608
 20
-3.703880319999441
 42
-0.2432435292261799
 10
8.281574371587225
 20
-3.72870599191637
 42
-0.2718544080325296
 10
8.335404748458813
 20
-3.906094591215861
 42
0.0
 10
8.146108343588196
 20
-4.812580118669558
 42
0.0
 10
8.546331920673253
 20
-4.812580118669586
 42
0.0
 10
8.739633487848607
 20
-3.843814600173075
 42
0.1869559109727573
 10
8.708571975710412
 20
-3.55414738959827
 42
0.2282764169136722
 10
8.434241485182553
 20
-3.416409065064058
 42
0.1548211452724478
 10
8.093504447587747
 20
-3.482973954396229
 42
0.0984224330473456
 10
7.891562384976282
 20
-3.640211074021777
 42
0.0
 10
7.935547234632508
 20
-3.429580398453509
 42
0.0
 10
7.539244758992822
 20
-3.429580398453509
 42
0.0
 10
7.250440506696122
 20
-4.812580118669558
 42
0.0
 10
7.646742982335752
 20
-4.812580118669572
 42
0.0
 97
        0
 92
        7
 72
     0
 73
     1
 93
        4
 10
9.625982522468632
 20
-3.429580398453524
 10
9.229680046829003
 20
-3.429580398453509
 10
8.940875794532303
 20
-4.812580118669558
 10
9.337178270172046
 20
-4.8125801186696
 97
        0
 92
        7
 72
     0
 73
     1
 93
        4
 10
9.745922131544659
 20
-2.855224430784318
 10
9.34961965590503
 20
-2.855224430784332
 10
9.27698869286246
 20
-3.203033026980861
 10
9.673291168502146
 20
-3.203033026980861
 97
        0
 92
        7
 72
     0
 73
     1
 93
        4
 10
12.03240295060681
 20
-3.429580398453509
 10
11.44364835907379
 20
-3.429580398453495
 10
10.87989922911413
 20
-3.888285852559178
 10
11.10949294143216
 20
-4.156570318460708
 97
        0
 92
        7
 72
     0
 73
     1
 93
        4
 10
11.05743489431273
 20
-4.407247884316163
 10
10.70348876138359
 20
-4.686056509542012
 10
11.02721331439767
 20
-5.064334590103314
 10
11.61975957304332
 20
-5.064334590103271
 97
        0
 75
     0
 76
     1
 47
0.0237982239116982
 98
       11
 10
1.427474595215414
 20
-3.466921616530399
 10
2.540276924309466
 20
-3.529962242013326
 10
3.403077140388461
 20
-3.872105201460513
 10
5.128677572546564
 20
-4.050614633904856
 10
6.869154243317836
 20
-3.872105201460513
 10
6.869154243317836
 20
-3.872105201460513
 10
7.657574707896685
 20
-4.18449635002436
 10
9.221850949254132
 20
-4.184360945182802
 10
9.578826617252673
 20
-3.161037064634811
 10
11.41130113635171
 20
-3.803588918816572
 10
11.19711616802232
 20
-4.874509392213795
450
        0
451
        0
460
0.0
461
0.0
452
        0
462
0.0
453
        0
470

1001
ACAD
1010
0.0
1020
0.0
1030
0.0
  0
ENDBLK
  5
EA4
330
E9E
100
AcDbEntity
  8
0
 62
     1
100
AcDbBlockEnd
  0
BLOCK
  5
EA8
330
EA5
100
AcDbEntity
  8
0
 62
     1
100
AcDbBlockBegin
  2
A$C25042B23
 70
     0
 10
0.0
 20
0.0
 30
0.0
  3
A$C25042B23
  1

  0
INSERT
  5
EA9
330
EA5
100
AcDbEntity
  8
0
 62
     1
100
AcDbBlockReference
  2
A$C53560A2D
 10
0.0000000000001137
 20
0.0
 30
0.0
  0
ENDBLK
  5
EAA
330
EA5
100
AcDbEntity
  8
0
 62
     1
100
AcDbBlockEnd
  0
BLOCK
  5
EAC
330
EAB
100
AcDbEntity
  8
0
100
AcDbBlockBegin
  2
_FILLED
 70
     0
 10
0.0
 20
0.0
 30
0.0
  3
_FILLED
  1

  0
SOLID
  5
EAD
330
EAB
100
AcDbEntity
  8
0
  6
ByBlock
 62
     0
100
AcDbTrace
 10
0.0
 20
0.0
 30
0.0
 11
-1.0
 21
0.1875
 31
0.0
 12
-1.0
 22
-0.1875
 32
0.0
 13
-1.0
 23
-0.1875
 33
0.0
  0
ENDBLK
  5
EAE
330
EAB
100
AcDbEntity
  8
0
  6
ByBlock
 62
     0
100
AcDbBlockEnd
  0
BLOCK
  5
EB0
330
EAF
100
AcDbEntity
  8
0
100
AcDbBlockBegin
  2
*D89
 70
     1
 10
0.0
 20
0.0
 30
0.0
  3
*D89
  1

  0
LINE
  5
EB1
330
EAF
100
AcDbEntity
  8
0
  6
Continuous
 62
     0
370
    -2
100
AcDbLine
 10
1802.555021500383
 20
-480.9336425058048
 30
0.0
 11
1802.555021500383
 21
-488.3557146914714
 31
0.0
  0
LINE
  5
EB2
330
EAF
100
AcDbEntity
  8
0
  6
Continuous
 62
     0
370
    -2
100
AcDbLine
 10
1847.055021181983
 20
-481.2336410539381
 30
0.0
 11
1847.055021181983
 21
-488.3557146914714
 31
0.0
  0
LINE
  5
EB3
330
EAF
100
AcDbEntity
  8
0
  6
Continuous
 62
     0
370
    -2
100
AcDbLine
 10
1806.555021500383
 20
-488.1757146914714
 30
0.0
 11
1843.055021181983
 21
-488.1757146914714
 31
0.0
  0
INSERT
  5
EB4
330
EAF
100
AcDbEntity
  8
0
  6
Continuous
 62
     0
370
    -2
100
AcDbBlockReference
  2
_FILLED
 10
1802.555021500383
 20
-488.1757146914714
 30
0.0
 41
4.0
 42
4.0
 43
4.0
 50
180.0
  0
INSERT
  5
EB5
330
EAF
100
AcDbEntity
  8
0
  6
Continuous
 62
     0
370
    -2
100
AcDbBlockReference
  2
_FILLED
 10
1847.055021181983
 20
-488.1757146914714
 30
0.0
 41
4.0
 42
4.0
 43
4.0
  0
MTEXT
  5
EB6
330
EAF
100
AcDbEntity
  8
0
  6
Continuous
 62
     5
100
AcDbMText
 10
1824.805021341183
 20
-486.6857146914714
 30
0.0
 40
2.799999999999999
 41
0.0
 46
0.0
 71
     5
 72
     1
  1
\A1;29.67±0.3
 73
     1
 44
1.0
  0
POINT
  5
EB7
330
EAF
100
AcDbEntity
  8
Defpoints
  6
Continuous
 62
     0
100
AcDbPoint
 10
1802.555021500383
 20
-480.8711425058048
 30
0.0
  0
POINT
  5
EB8
330
EAF
100
AcDbEntity
  8
Defpoints
  6
Continuous
 62
     0
100
AcDbPoint
 10
1847.055021181983
 20
-481.1711410539381
 30
0.0
  0
POINT
  5
EB9
330
EAF
100
AcDbEntity
  8
Defpoints
  6
Continuous
 62
     0
100
AcDbPoint
 10
1847.055021181983
 20
-488.1757146914714
 30
0.0
  0
ENDBLK
  5
EBA
330
EAF
100
AcDbEntity
  8
0
100
AcDbBlockEnd
  0
BLOCK
  5
EBE
330
EBB
100
AcDbEntity
  8
0
100
AcDbBlockBegin
  2
A$C274A2516
 70
     0
 10
0.0
 20
0.0
 30
0.0
  3
A$C274A2516
  1

  0
DIMENSION
  5
EBF
330
EBB
100
AcDbEntity
  8
0
  6
Continuous
 62
     2
100
AcDbDimension
  2
*D89
 10
49.41318594722497
 20
1.185548929283584
 30
0.0
 11
27.1631861064252
 21
1.185548929283584
 31
0.0
 12
-1797.641835234758
 22
489.361263620755
 32
0.0
 70
   128
 71
     0
 72
     0
 41
0.0
 42
29.66666645588333
 73
     0
 74
     0
 75
     0
  3
DIMSTYLE_8
100
AcDbAlignedDimension
 13
4.913186265624972
 23
8.490121114950227
 33
0.0
 14
49.41318594722497
 24
8.19012256681691
 34
0.0
100
AcDbRotatedDimension
  0
LINE
  5
EC0
330
EBB
100
AcDbEntity
  8
0
  6
Continuous
 62
     7
100
AcDbLine
 10
4.913186265624972
 20
30.62336891321689
 30
0.0
 11
4.913186265624972
 21
9.023539983350246
 31
0.0
  0
LINE
  5
EC1
330
EBB
100
AcDbEntity
  8
0
  6
Continuous
 62
     7
100
AcDbLine
 10
5.113185485291523
 20
30.82345444728361
 30
0.0
 11
5.113185485291523
 21
8.823454449283588
 31
0.0
  0
LINE
  5
EC2
330
EBB
100
AcDbEntity
  8
0
  6
Continuous
 62
     7
100
AcDbLine
 10
4.913187226958598
 20
30.62345408315025
 30
0.0
 11
5.11318663495831
 21
30.82345346661691
 31
0.0
  0
LINE
  5
EC3
330
EBB
100
AcDbEntity
  8
0
  6
Continuous
 62
     7
100
AcDbLine
 10
4.913187226958598
 20
9.023454813416947
 30
0.0
 11
5.11318663495831
 21
8.823455429950229
 31
0.0
  0
LWPOLYLINE
  5
EC4
330
EBB
100
AcDbEntity
  8
0
  6
Continuous
 62
     7
100
AcDbPolyline
 90
        3
 70
     0
 43
0.0
 10
8.213186495558602
 20
10.47664903488356
 10
8.175811462891488
 20
10.67089466321692
 10
8.163188469091892
 20
10.85374136828358
  0
LINE
  5
EC5
330
EBB
100
AcDbEntity
  8
0
  6
Continuous
 62
     7
100
AcDbLine
 10
7.713187482491775
 20
30.82345444728361
 30
0.0
 11
7.713187482491775
 21
8.823454449283588
 31
0.0
  0
LINE
  5
EC6
330
EBB
100
AcDbEntity
  8
0
  6
Continuous
 62
     7
100
AcDbLine
 10
7.913186265624972
 20
30.62337005035028
 30
0.0
 11
7.913186265624972
 21
9.023538846216922
 31
0.0
  0
LINE
  5
EC7
330
EBB
100
AcDbEntity
  8
0
  6
Continuous
 62
     7
100
AcDbLine
 10
8.213190692692023
 20
8.823454448283598
 30
0.0
 11
8.213188470958357
 21
10.47664542421694
 31
0.0
  0
LINE
  5
EC8
330
EBB
100
AcDbEntity
  8
0
  6
Continuous
 62
     7
100
AcDbLine
 10
8.21318847575867
 20
29.17026347688358
 30
0.0
 11
8.213190692692023
 21
30.8234544482836
 31
0.0
  0
LINE
  5
EC9
330
EBB
100
AcDbEntity
  8
0
  6
Continuous
 62
     7
100
AcDbLine
 10
8.213188774424907
 20
11.17667091475027
 30
0.0
 11
8.213186622558623
 21
28.47024295441696
 31
0.0
  0
LINE
  5
ECA
330
EBB
100
AcDbEntity
  8
0
  6
Continuous
 62
     7
100
AcDbLine
 10
9.163186265624972
 20
28.92428466195026
 30
0.0
 11
9.163186265624972
 21
28.58013880015028
 31
0.0
  0
LINE
  5
ECB
330
EBB
100
AcDbEntity
  8
0
  6
Continuous
 62
     7
100
AcDbLine
 10
9.163186265624972
 20
11.06677009641692
 30
0.0
 11
9.163186265624972
 21
10.72262423461694
 31
0.0
  0
LINE
  5
ECC
330
EBB
100
AcDbEntity
  8
0
  6
Continuous
 62
     7
100
AcDbLine
 10
10.11318626562524
 20
29.46918227648359
 30
0.0
 11
10.11318626562524
 21
28.6785390486836
 31
0.0
  0
LINE
  5
ECD
330
EBB
100
AcDbEntity
  8
0
  6
Continuous
 62
     7
100
AcDbLine
 10
10.11318626562524
 20
28.58013880015028
 30
0.0
 11
10.11318626562524
 21
28.03524118561694
 31
0.0
  0
LINE
  5
ECE
330
EBB
100
AcDbEntity
  8
0
  6
Continuous
 62
     7
100
AcDbLine
 10
10.11318626562524
 20
11.61166771095025
 30
0.0
 11
10.11318626562524
 21
11.06677009641692
 31
0.0
  0
LINE
  5
ECF
330
EBB
100
AcDbEntity
  8
0
  6
Continuous
 62
     7
100
AcDbLine
 10
10.11318626562524
 20
10.1777266200836
 30
0.0
 11
10.11318626562524
 21
10.96836984788359
 31
0.0
  0
LINE
  5
ED0
330
EBB
100
AcDbEntity
  8
0
  6
Continuous
 62
     7
100
AcDbLine
 10
10.71318626562515
 20
10.1777266200836
 30
0.0
 11
10.71318626562515
 21
10.96836984788359
 31
0.0
  0
LINE
  5
ED1
330
EBB
100
AcDbEntity
  8
0
  6
Continuous
 62
     7
100
AcDbLine
 10
10.71318626562515
 20
11.06677009641692
 30
0.0
 11
10.71318626562515
 21
11.61166771095025
 31
0.0
  0
LINE
  5
ED2
330
EBB
100
AcDbEntity
  8
0
  6
Continuous
 62
     7
100
AcDbLine
 10
10.71318626562515
 20
28.03524118561694
 30
0.0
 11
10.71318626562515
 21
28.58013880015028
 31
0.0
  0
LINE
  5
ED3
330
EBB
100
AcDbEntity
  8
0
  6
Continuous
 62
     7
100
AcDbLine
 10
10.71318626562515
 20
28.6785390486836
 30
0.0
 11
10.71318626562515
 21
29.46918227648359
 31
0.0
  0
LWPOLYLINE
  5
ED4
330
EBB
100
AcDbEntity
  8
0
  6
Continuous
 62
     7
100
AcDbPolyline
 90
        3
 70
     0
 43
0.0
 10
8.163188469091892
 20
28.79316752828362
 10
8.17583730295837
 20
28.9762081701503
 10
8.213186495224817
 20
29.17025986061691
  0
LWPOLYLINE
  5
ED5
330
EBB
100
AcDbEntity
  8
0
  6
Continuous
 62
     7
100
AcDbPolyline
 90
        3
 70
     0
 43
0.0
 10
8.163188469091892
 20
10.85374136828358
 10
8.175650471758217
 20
11.02190699701691
 10
8.213186521692023
 20
11.17666580955023
  0
LWPOLYLINE
  5
ED6
330
EBB
100
AcDbEntity
  8
0
  6
Continuous
 62
     7
100
AcDbPolyline
 90
        4
 70
     0
 43
0.0
 10
8.21318847575867
 20
29.17026347688358
 10
8.377277491491895
 20
29.35729460461693
 10
8.610037768691654
 20
29.51662803501694
 10
8.764919697225195
 20
29.58531678115026
  0
LINE
  5
ED7
330
EBB
100
AcDbEntity
  8
0
  6
Continuous
 62
     7
100
AcDbLine
 10
7.913186265624972
 20
30.52345381181692
 30
0.0
 11
8.213190692692023
 21
30.82345822101689
 31
0.0
  0
LINE
  5
ED8
330
EBB
100
AcDbEntity
  8
0
  6
Continuous
 62
     7
100
AcDbLine
 10
7.913186265624972
 20
9.123458754616933
 30
0.0
 11
8.213190692692023
 21
8.823454448283598
 31
0.0
  0
LWPOLYLINE
  5
ED9
330
EBB
100
AcDbEntity
  8
0
  6
Continuous
 62
     7
100
AcDbPolyline
 90
        3
 70
     0
 43
0.0
 10
8.213186301024961
 20
28.4702436676169
 10
8.175676291091804
 20
28.62482283895025
 10
8.163188469091892
 20
28.79316752828362
  0
LINE
  5
EDA
330
EBB
100
AcDbEntity
  8
0
  6
Continuous
 62
     7
100
AcDbLine
 10
11.66318626562497
 20
10.72262423461694
 30
0.0
 11
11.66318626562497
 21
11.06677009641692
 31
0.0
  0
LINE
  5
EDB
330
EBB
100
AcDbEntity
  8
0
  6
Continuous
 62
     7
100
AcDbLine
 10
11.66318626562497
 20
28.58013880015028
 30
0.0
 11
11.66318626562497
 21
28.92428466195026
 31
0.0
  0
LWPOLYLINE
  5
EDC
330
EBB
100
AcDbEntity
  8
0
  6
Continuous
 62
     7
100
AcDbPolyline
 90
        6
 70
     0
 43
0.0
 10
12.71318626562515
 20
10.8127819610836
 10
12.67443109789155
 20
10.5988917218836
 10
12.5559666740919
 20
10.39820804301695
 10
12.36716347122501
 20
10.22491104148361
 10
12.12976482955855
 20
10.08585990861689
 10
12.05166921982481
 20
10.05490441075022
  0
LWPOLYLINE
  5
EDD
330
EBB
100
AcDbEntity
  8
0
  6
Continuous
 62
     7
100
AcDbPolyline
 90
        4
 70
     0
 43
0.0
 10
12.71318626562515
 20
28.8341269354836
 10
12.66649113462517
 20
28.58702137181694
 10
12.53107403609192
 20
28.3411981496169
 10
12.31666526162507
 20
28.10848064181693
  0
LINE
  5
EDE
330
EBB
100
AcDbEntity
  8
0
  6
Continuous
 62
     7
100
AcDbLine
 10
12.31666526162507
 20
28.10848064181693
 30
0.0
 11
12.03189305542537
 21
27.89767473495027
 31
0.0
  0
LWPOLYLINE
  5
EDF
330
EBB
100
AcDbEntity
  8
0
  6
Continuous
 62
     7
100
AcDbPolyline
 90
       21
 70
     0
 43
0.0
 10
12.01340827709191
 20
27.88626525815022
 10
12.17785728969193
 20
27.99867631768359
 10
12.31844215395858
 20
28.1212776510169
 10
12.43326170075852
 20
28.25241128548356
 10
12.52076319275829
 20
28.39030386348355
 10
12.57976332229191
 20
28.53309062461693
 10
12.60946421382505
 20
28.67884062275022
 10
12.60946421382505
 20
28.82558283928359
 10
12.57976332229191
 20
28.97133283748355
 10
12.52076319275829
 20
29.1141195985503
 10
12.43326170075852
 20
29.25201217661692
 10
12.31844215395858
 20
29.3831458110169
 10
12.17785728969193
 20
29.50574714435021
 10
12.01340827709191
 20
29.61815820388358
 10
11.82731900695853
 20
29.71885882295027
 10
11.62210601735842
 20
29.80648719828361
 10
11.40054446209205
 20
29.87985830655026
 10
11.16563058095835
 20
29.93797992935026
 10
10.92054118129181
 20
29.98006607141696
 10
10.66859067669202
 20
30.00554758995026
 10
10.41318626562497
 20
30.01407989101693
  0
LINE
  5
EE0
330
EBB
100
AcDbEntity
  8
0
  6
Continuous
 62
     7
100
AcDbLine
 10
12.03189305542537
 20
27.89767473495027
 30
0.0
 11
11.97977812602539
 21
27.86622437968361
 31
0.0
  0
LINE
  5
EE1
330
EBB
100
AcDbEntity
  8
0
  6
Continuous
 62
     7
100
AcDbLine
 10
11.98388822782499
 20
27.86866520768359
 30
0.0
 11
12.01340827709191
 21
27.88626525815022
 31
0.0
  0
LWPOLYLINE
  5
EE2
330
EBB
100
AcDbEntity
  8
0
  6
Continuous
 62
     7
100
AcDbPolyline
 90
        4
 70
     0
 43
0.0
 10
8.769914140758373
 20
10.05817810475025
 10
8.601865428958717
 20
10.13479476535025
 10
8.377584375958576
 20
10.28934797315026
 10
8.213188470958357
 20
10.47664542421694
  0
LINE
  5
EE3
330
EBB
100
AcDbEntity
  8
0
  6
Continuous
 62
     7
100
AcDbLine
 10
11.98388822782499
 20
11.7782436888836
 30
0.0
 11
11.82731900695853
 21
11.86134425741693
 31
0.0
  0
LINE
  5
EE4
330
EBB
100
AcDbEntity
  8
0
  6
Continuous
 62
     7
100
AcDbLine
 10
12.01340827709191
 20
11.76064363841692
 30
0.0
 11
11.98388822782499
 21
11.7782436888836
 31
0.0
  0
LINE
  5
EE5
330
EBB
100
AcDbEntity
  8
0
  6
Continuous
 62
     7
100
AcDbLine
 10
11.98019621955836
 20
11.78028050148356
 30
0.0
 11
12.0739060570254
 21
11.72254413188358
 31
0.0
  0
LWPOLYLINE
  5
EE6
330
EBB
100
AcDbEntity
  8
0
  6
Continuous
 62
     7
100
AcDbPolyline
 90
        5
 70
     0
 43
0.0
 10
12.0739060570254
 20
11.72254413188358
 10
12.34085617735855
 20
11.51650455168357
 10
12.53970442229183
 20
11.29378797568358
 10
12.6674515269583
 20
11.05729195595023
 10
12.71318626562515
 20
10.8127819610836
  0
LWPOLYLINE
  5
EE7
330
EBB
100
AcDbEntity
  8
0
  6
Continuous
 62
     7
100
AcDbPolyline
 90
        3
 70
     0
 43
0.0
 10
8.213188774424907
 20
11.17667091475027
 10
8.378099694958564
 20
11.40762558268358
 10
8.611091128691896
 20
11.62239074941692
  0
LINE
  5
EE8
330
EBB
100
AcDbEntity
  8
0
  6
Continuous
 62
     7
100
AcDbLine
 10
11.82731900695853
 20
27.78556463915021
 30
0.0
 11
11.98388822782499
 21
27.86866520768359
 31
0.0
  0
LWPOLYLINE
  5
EE9
330
EBB
100
AcDbEntity
  8
0
  6
Continuous
 62
     7
100
AcDbPolyline
 90
        8
 70
     0
 43
0.0
 10
11.97977812602539
 20
27.86622437968361
 10
11.68366860235846
 20
27.71753302475025
 10
11.26093544162495
 20
27.57328605748359
 10
10.77782911862505
 20
27.48484447441689
 10
10.27437961162513
 20
27.46812908748359
 10
9.778741541358158
 20
27.52504237128363
 10
9.329011910491772
 20
27.64532754215025
 10
8.951168479492025
 20
27.80833628295028
  0
LINE
  5
EEA
330
EBB
100
AcDbEntity
  8
0
  6
Continuous
 62
     7
100
AcDbLine
 10
11.62210601735842
 20
27.69793626375025
 30
0.0
 11
11.82731900695853
 21
27.78556463915021
 31
0.0
  0
LWPOLYLINE
  5
EEB
330
EBB
100
AcDbEntity
  8
0
  6
Continuous
 62
     7
100
AcDbPolyline
 90
        6
 70
     0
 43
0.0
 10
11.62210601735842
 20
11.94897263281694
 10
11.40054446209205
 20
12.0223437410836
 10
11.16563058095835
 20
12.0804653638836
 10
10.92054118129181
 20
12.12255150595024
 10
10.66859067669202
 20
12.14803302441692
 10
10.41318626562497
 20
12.1565653254836
  0
LINE
  5
EEC
330
EBB
100
AcDbEntity
  8
0
  6
Continuous
 62
     7
100
AcDbLine
 10
11.82731900695853
 20
11.86134425741693
 30
0.0
 11
11.62210601735842
 21
11.94897263281694
 31
0.0
  0
LINE
  5
EED
330
EBB
100
AcDbEntity
  8
0
  6
Continuous
 62
     7
100
AcDbLine
 10
7.913185039758445
 20
9.023454759816956
 30
0.0
 11
7.713185951958166
 21
8.8234557004169
 31
0.0
  0
LWPOLYLINE
  5
EEE
330
EBB
100
AcDbEntity
  8
0
  6
Continuous
 62
     7
100
AcDbPolyline
 90
       21
 70
     0
 43
0.0
 10
41.41318626562497
 20
9.632829005550263
 10
41.66859067669202
 20
9.641361306616943
 10
41.9205411812918
 20
9.66684282515024
 10
42.16563058095835
 20
9.708928967216934
 10
42.40054446209206
 20
9.767050590016935
 10
42.62210601735842
 20
9.840421698283591
 10
42.82731900695853
 20
9.92805007361693
 10
43.01340827709191
 20
10.02875069268361
 10
43.17785728969193
 20
10.14116175221693
 10
43.31844215395858
 20
10.26376308555024
 10
43.43326170075852
 20
10.39489671995028
 10
43.5207631927583
 20
10.53278929801695
 10
43.57976332229191
 20
10.67557605908359
 10
43.60946421382505
 20
10.82132605728361
 10
43.60946421382505
 20
10.96806827381692
 10
43.57976332229191
 20
11.11381827195026
 10
43.5207631927583
 20
11.25660503308359
 10
43.43326170075852
 20
11.39449761108358
 10
43.31844215395858
 20
11.5256312455503
 10
43.17785728969193
 20
11.64823257888361
 10
43.01340827709191
 20
11.76064363841692
  0
LWPOLYLINE
  5
EEF
330
EBB
100
AcDbEntity
  8
0
  6
Continuous
 62
     7
100
AcDbPolyline
 90
       21
 70
     0
 43
0.0
 10
10.41318626562497
 20
9.632829005550263
 10
10.66859067669202
 20
9.641361306616943
 10
10.92054118129181
 20
9.66684282515024
 10
11.16563058095835
 20
9.708928967216934
 10
11.40054446209205
 20
9.767050590016935
 10
11.62210601735842
 20
9.840421698283591
 10
11.82731900695853
 20
9.92805007361693
 10
12.01340827709191
 20
10.02875069268361
 10
12.17785728969193
 20
10.14116175221693
 10
12.31844215395858
 20
10.26376308555024
 10
12.43326170075852
 20
10.39489671995028
 10
12.52076319275829
 20
10.53278929801695
 10
12.57976332229191
 20
10.67557605908359
 10
12.60946421382505
 20
10.82132605728361
 10
12.60946421382505
 20
10.96806827381692
 10
12.57976332229191
 20
11.11381827195026
 10
12.52076319275829
 20
11.25660503308359
 10
12.43326170075852
 20
11.39449761108358
 10
12.31844215395858
 20
11.5256312455503
 10
12.17785728969193
 20
11.64823257888361
 10
12.01340827709191
 20
11.76064363841692
  0
LINE
  5
EF0
330
EBB
100
AcDbEntity
  8
02___PRT_ALL_AXES
  6
Continuous
 62
     7
100
AcDbLine
 10
49.21318626562515
 20
8.323454448283598
 30
0.0
 11
44.11318626562525
 21
8.323454448283598
 31
0.0
  0
LINE
  5
EF1
330
EBB
100
AcDbEntity
  8
02___PRT_ALL_AXES
  6
Continuous
 62
     7
100
AcDbLine
 10
43.61319140775822
 20
8.823454448283598
 30
0.0
 11
8.213190692692023
 21
8.823454448283598
 31
0.0
  0
LINE
  5
EF2
330
EBB
100
AcDbEntity
  8
02___PRT_ALL_AXES
  6
Continuous
 62
     7
100
AcDbLine
 10
5.113185653358414
 20
8.823454448283598
 30
0.0
 11
7.713187204091809
 21
8.823454448283598
 31
0.0
  0
LINE
  5
EF3
330
EBB
100
AcDbEntity
  8
0
  6
Continuous
 62
     7
100
AcDbLine
 10
10.11318626562524
 20
10.1777266200836
 30
0.0
 11
10.71318626562515
 21
10.1777266200836
 31
0.0
  0
LINE
  5
EF4
330
EBB
100
AcDbEntity
  8
0
  6
Continuous
 62
     7
100
AcDbLine
 10
41.11318626562524
 20
10.1777266200836
 30
0.0
 11
41.71318626562515
 21
10.1777266200836
 31
0.0
  0
LINE
  5
EF5
330
EBB
100
AcDbEntity
  8
0
  6
Continuous
 62
     7
100
AcDbLine
 10
10.11318626562524
 20
10.42347223335025
 30
0.0
 11
10.71318626562515
 21
10.42347223335025
 31
0.0
  0
LINE
  5
EF6
330
EBB
100
AcDbEntity
  8
0
  6
Continuous
 62
     7
100
AcDbLine
 10
41.11318626562524
 20
10.42347223335025
 30
0.0
 11
41.71318626562515
 21
10.42347223335025
 31
0.0
  0
LINE
  5
EF7
330
EBB
100
AcDbEntity
  8
0
  6
Continuous
 62
     7
100
AcDbLine
 10
9.163186265624972
 20
10.72262423461694
 30
0.0
 11
10.11318626562524
 21
10.72262423461694
 31
0.0
  0
LINE
  5
EF8
330
EBB
100
AcDbEntity
  8
0
  6
Continuous
 62
     7
100
AcDbLine
 10
10.71318626562515
 20
10.72262423461694
 30
0.0
 11
11.66318626562497
 21
10.72262423461694
 31
0.0
  0
LINE
  5
EF9
330
EBB
100
AcDbEntity
  8
0
  6
Continuous
 62
     7
100
AcDbLine
 10
40.16318626562497
 20
10.72262423461694
 30
0.0
 11
41.11318626562524
 21
10.72262423461694
 31
0.0
  0
LINE
  5
EFA
330
EBB
100
AcDbEntity
  8
0
  6
Continuous
 62
     7
100
AcDbLine
 10
41.71318626562515
 20
10.72262423461694
 30
0.0
 11
42.66318626562497
 21
10.72262423461694
 31
0.0
  0
LINE
  5
EFB
330
EBB
100
AcDbEntity
  8
0
  6
Continuous
 62
     7
100
AcDbLine
 10
9.163186265624972
 20
10.96836984788359
 30
0.0
 11
10.11318626562524
 21
10.96836984788359
 31
0.0
  0
LINE
  5
EFC
330
EBB
100
AcDbEntity
  8
0
  6
Continuous
 62
     7
100
AcDbLine
 10
10.71318626562515
 20
10.96836984788359
 30
0.0
 11
11.66318626562497
 21
10.96836984788359
 31
0.0
  0
LINE
  5
EFD
330
EBB
100
AcDbEntity
  8
0
  6
Continuous
 62
     7
100
AcDbLine
 10
40.16318626562497
 20
10.96836984788359
 30
0.0
 11
41.11318626562524
 21
10.96836984788359
 31
0.0
  0
LINE
  5
EFE
330
EBB
100
AcDbEntity
  8
0
  6
Continuous
 62
     7
100
AcDbLine
 10
41.71318626562515
 20
10.96836984788359
 30
0.0
 11
42.66318626562497
 21
10.96836984788359
 31
0.0
  0
LINE
  5
EFF
330
EBB
100
AcDbEntity
  8
0
  6
Continuous
 62
     7
100
AcDbLine
 10
42.66318626562497
 20
11.06677009641692
 30
0.0
 11
41.71318626562515
 21
11.06677009641692
 31
0.0
  0
LINE
  5
F00
330
EBB
100
AcDbEntity
  8
0
  6
Continuous
 62
     7
100
AcDbLine
 10
41.11318626562524
 20
11.06677009641692
 30
0.0
 11
40.16318626562497
 21
11.06677009641692
 31
0.0
  0
LINE
  5
F01
330
EBB
100
AcDbEntity
  8
0
  6
Continuous
 62
     7
100
AcDbLine
 10
11.66318626562497
 20
11.06677009641692
 30
0.0
 11
10.71318626562515
 21
11.06677009641692
 31
0.0
  0
LINE
  5
F02
330
EBB
100
AcDbEntity
  8
0
  6
Continuous
 62
     7
100
AcDbLine
 10
10.11318626562524
 20
11.06677009641692
 30
0.0
 11
9.163186265624972
 21
11.06677009641692
 31
0.0
  0
LINE
  5
F03
330
EBB
100
AcDbEntity
  8
0
  6
Continuous
 62
     7
100
AcDbLine
 10
41.71318626562515
 20
11.61166771095025
 30
0.0
 11
41.11318626562524
 21
11.61166771095025
 31
0.0
  0
LINE
  5
F04
330
EBB
100
AcDbEntity
  8
0
  6
Continuous
 62
     7
100
AcDbLine
 10
10.71318626562515
 20
11.61166771095025
 30
0.0
 11
10.11318626562524
 21
11.61166771095025
 31
0.0
  0
LWPOLYLINE
  5
F05
330
EBB
100
AcDbEntity
  8
0
  6
Continuous
 62
     7
100
AcDbPolyline
 90
       21
 70
     0
 43
0.0
 10
10.41318626562497
 20
9.632829005550263
 10
10.15778185455838
 20
9.641361306616943
 10
9.905831350024982
 20
9.66684282515024
 10
9.660741950292049
 20
9.708928967216934
 10
9.42582806922519
 20
9.767050590016935
 10
9.20426651389198
 20
9.840421698283591
 10
8.999053524291866
 20
9.92805007361693
 10
8.812964254158487
 20
10.02875069268361
 10
8.64851524155847
 20
10.14116175221693
 10
8.507930377291813
 20
10.26376308555024
 10
8.393110830491878
 20
10.39489671995028
 10
8.305609338558497
 20
10.53278929801695
 10
8.246609209024882
 20
10.67557605908359
 10
8.21690831742535
 20
10.82132605728361
 10
8.21690831742535
 20
10.96806827381692
 10
8.246609209024882
 20
11.11381827195026
 10
8.305609338558497
 20
11.25660503308359
 10
8.393110830491878
 20
11.39449761108358
 10
8.507930377291813
 20
11.5256312455503
 10
8.64851524155847
 20
11.64823257888361
 10
8.812964254158487
 20
11.76064363841692
  0
LWPOLYLINE
  5
F06
330
EBB
100
AcDbEntity
  8
0
  6
Continuous
 62
     7
100
AcDbPolyline
 90
       10
 70
     0
 43
0.0
 10
41.41318626562497
 20
9.632829005550263
 10
41.15778185455837
 20
9.641361306616943
 10
40.90583135002498
 20
9.66684282515024
 10
40.66074195029204
 20
9.708928967216934
 10
40.42582806922519
 20
9.767050590016935
 10
40.20426651389198
 20
9.840421698283591
 10
39.99905352429187
 20
9.92805007361693
 10
39.81296425415849
 20
10.02875069268361
 10
39.64851524155847
 20
10.14116175221693
 10
39.50793037729182
 20
10.26376308555024
  0
LINE
  5
F07
330
EBB
100
AcDbEntity
  8
0
  6
Continuous
 62
     7
100
AcDbLine
 10
7.913185039758445
 20
30.62345413675024
 30
0.0
 11
7.713185951958166
 21
30.82345319615024
 31
0.0
  0
LINE
  5
F08
330
EBB
100
AcDbEntity
  8
0
  6
Continuous
 62
     7
100
AcDbLine
 10
8.611091128691896
 20
11.62239074941692
 30
0.0
 11
8.846855555958427
 21
11.78085906961695
 31
0.0
  0
LINE
  5
F09
330
EBB
100
AcDbEntity
  8
0
  6
Continuous
 62
     7
100
AcDbLine
 10
8.812964254158487
 20
11.76064363841692
 30
0.0
 11
8.842484303424953
 21
11.7782436888836
 31
0.0
  0
LWPOLYLINE
  5
F0A
330
EBB
100
AcDbEntity
  8
0
  6
Continuous
 62
     7
100
AcDbPolyline
 90
       10
 70
     0
 43
0.0
 10
8.846855555958427
 20
11.78085906961695
 10
8.909865266558426
 20
11.81646682221691
 10
9.268224909958462
 20
11.9796173426169
 10
9.669420999091926
 20
12.09903001928359
 10
10.09046133275842
 20
12.16631348475022
 10
10.51934873755863
 20
12.17995032475028
 10
10.94555498662521
 20
12.13972932795025
 10
11.35820502309161
 20
12.04646390721694
 10
11.74243219462505
 20
11.90343902028354
 10
11.98019621955836
 20
11.78028050148356
  0
LINE
  5
F0B
330
EBB
100
AcDbEntity
  8
0
  6
Continuous
 62
     7
100
AcDbLine
 10
42.40054446209206
 20
27.6245651554836
 30
0.0
 11
42.62210601735842
 21
27.69793626375025
 31
0.0
  0
LINE
  5
F0C
330
EBB
100
AcDbEntity
  8
02___PRT_ALL_AXES
  6
Continuous
 62
     7
100
AcDbLine
 10
59.21318626562515
 20
12.8234544482836
 30
0.0
 11
49.41318626562497
 21
12.8234544482836
 31
0.0
  0
LINE
  5
F0D
330
EBB
100
AcDbEntity
  8
0
  6
Continuous
 62
     7
100
AcDbLine
 10
75.81325582075852
 20
13.55505757315023
 30
0.0
 11
76.2641004612251
 21
13.55505757315023
 31
0.0
  0
LINE
  5
F0E
330
EBB
100
AcDbEntity
  8
02___PRT_ALL_AXES
  6
Continuous
 62
     7
100
AcDbLine
 10
62.71318626562515
 20
15.3234544482836
 30
0.0
 11
59.61318626562524
 21
15.3234544482836
 31
0.0
  0
LINE
  5
F0F
330
EBB
100
AcDbEntity
  8
02___PRT_ALL_AXES
  6
Continuous
 62
     7
100
AcDbLine
 10
64.84464883915871
 20
15.3234544482836
 30
0.0
 11
72.54464883915852
 21
15.3234544482836
 31
0.0
  0
LWPOLYLINE
  5
F10
330
EBB
100
AcDbEntity
  8
02___PRT_ALL_AXES
  6
Continuous
 62
     7
100
AcDbPolyline
 90
        6
 70
     0
 43
0.0
 10
39.77301669529197
 20
10.05605731708357
 10
39.64442661809199
 20
10.11192043455025
 10
39.4255164399583
 20
10.25008211135025
 10
39.2544540539584
 20
10.41807823615028
 10
39.14794905195822
 20
10.60985040681692
 10
39.11318626562525
 20
10.8127819610836
  0
LINE
  5
F11
330
EBB
100
AcDbEntity
  8
0
  6
Continuous
 62
     7
100
AcDbLine
 10
8.999053524291866
 20
27.78556463915021
 30
0.0
 11
8.842484303424953
 21
27.86866520768359
 31
0.0
  0
LINE
  5
F12
330
EBB
100
AcDbEntity
  8
0
  6
Continuous
 62
     7
100
AcDbLine
 10
8.951168479492025
 20
27.80833628295028
 30
0.0
 11
8.846290845491694
 21
27.86628302555028
 31
0.0
  0
LINE
  5
F13
330
EBB
100
AcDbEntity
  8
0
  6
Continuous
 62
     7
100
AcDbLine
 10
8.842484303424953
 20
27.86866520768359
 30
0.0
 11
8.812964254158487
 21
27.88626525815022
 31
0.0
  0
LWPOLYLINE
  5
F14
330
EBB
100
AcDbEntity
  8
0
  6
Continuous
 62
     7
100
AcDbPolyline
 90
        4
 70
     0
 43
0.0
 10
8.846290845491694
 20
27.86628302555028
 10
8.637064237225331
 20
28.0047897214169
 10
8.387900010158318
 20
28.22842845488361
 10
8.213186622558623
 20
28.47024295441696
  0
LWPOLYLINE
  5
F15
330
EBB
100
AcDbEntity
  8
0
  6
Continuous
 62
     7
100
AcDbPolyline
 90
       21
 70
     0
 43
0.0
 10
8.812964254158487
 20
27.88626525815022
 10
8.64851524155847
 20
27.99867631768359
 10
8.507930377291813
 20
28.1212776510169
 10
8.393110830491878
 20
28.25241128548356
 10
8.305609338558497
 20
28.39030386348355
 10
8.246609209024882
 20
28.53309062461693
 10
8.21690831742535
 20
28.67884062275022
 10
8.21690831742535
 20
28.82558283928359
 10
8.246609209024882
 20
28.97133283748355
 10
8.305609338558497
 20
29.1141195985503
 10
8.393110830491878
 20
29.25201217661692
 10
8.507930377291813
 20
29.3831458110169
 10
8.64851524155847
 20
29.50574714435021
 10
8.812964254158487
 20
29.61815820388358
 10
8.999053524291866
 20
29.71885882295027
 10
9.20426651389198
 20
29.80648719828361
 10
9.42582806922519
 20
29.87985830655026
 10
9.660741950292049
 20
29.93797992935026
 10
9.905831350024982
 20
29.98006607141696
 10
10.15778185455838
 20
30.00554758995026
 10
10.41318626562497
 20
30.01407989101693
  0
LWPOLYLINE
  5
F16
330
EBB
100
AcDbEntity
  8
0
  6
Continuous
 62
     7
100
AcDbPolyline
 90
       11
 70
     0
 43
0.0
 10
39.39311083049188
 20
29.25201217661692
 10
39.50793037729182
 20
29.3831458110169
 10
39.64851524155847
 20
29.50574714435021
 10
39.81296425415849
 20
29.61815820388358
 10
39.99905352429187
 20
29.71885882295027
 10
40.20426651389198
 20
29.80648719828361
 10
40.42582806922519
 20
29.87985830655026
 10
40.66074195029204
 20
29.93797992935026
 10
40.90583135002498
 20
29.98006607141696
 10
41.15778185455837
 20
30.00554758995026
 10
41.41318626562497
 20
30.01407989101693
  0
LINE
  5
F17
330
EBB
100
AcDbEntity
  8
0
  6
Continuous
 62
     7
100
AcDbLine
 10
43.91318702595845
 20
31.12345368788357
 30
0.0
 11
44.11318703935831
 21
31.3234536744169
 31
0.0
  0
LWPOLYLINE
  5
F18
330
EBB
100
AcDbEntity
  8
0
  6
Continuous
 62
     7
100
AcDbPolyline
 90
       21
 70
     0
 43
0.0
 10
43.01340827709191
 20
27.88626525815022
 10
43.17785728969193
 20
27.99867631768359
 10
43.31844215395858
 20
28.1212776510169
 10
43.43326170075852
 20
28.25241128548356
 10
43.5207631927583
 20
28.39030386348355
 10
43.57976332229191
 20
28.53309062461693
 10
43.60946421382505
 20
28.67884062275022
 10
43.60946421382505
 20
28.82558283928359
 10
43.57976332229191
 20
28.97133283748355
 10
43.5207631927583
 20
29.1141195985503
 10
43.43326170075852
 20
29.25201217661692
 10
43.31844215395858
 20
29.3831458110169
 10
43.17785728969193
 20
29.50574714435021
 10
43.01340827709191
 20
29.61815820388358
 10
42.82731900695853
 20
29.71885882295027
 10
42.62210601735842
 20
29.80648719828361
 10
42.40054446209206
 20
29.87985830655026
 10
42.16563058095835
 20
29.93797992935026
 10
41.9205411812918
 20
29.98006607141696
 10
41.66859067669202
 20
30.00554758995026
 10
41.41318626562497
 20
30.01407989101693
  0
LINE
  5
F19
330
EBB
100
AcDbEntity
  8
02___PRT_ALL_AXES
  6
Continuous
 62
     7
100
AcDbLine
 10
43.15921761275831
 20
27.98272772895024
 30
0.0
 11
42.98023344755847
 21
27.86655554935027
 31
0.0
  0
LINE
  5
F1A
330
EBB
100
AcDbEntity
  8
0
  6
Continuous
 62
     7
100
AcDbLine
 10
42.98388822782499
 20
27.86866520768359
 30
0.0
 11
43.01340827709191
 21
27.88626525815022
 31
0.0
  0
LWPOLYLINE
  5
F1B
330
EBB
100
AcDbEntity
  8
02___PRT_ALL_AXES
  6
Continuous
 62
     7
100
AcDbPolyline
 90
        9
 70
     0
 43
0.0
 10
42.98023344755847
 20
27.86655554935027
 10
42.80901453729166
 20
27.77486596028359
 10
42.39429650742522
 20
27.61138776188358
 10
41.928421784492
 20
27.50450175335027
 10
41.43819929842493
 20
27.46540149768362
 10
40.95061893615866
 20
27.49683860835029
 10
40.48882221582516
 20
27.59439606895029
 10
40.08916822289165
 20
27.74109663588359
 10
39.8460619485586
 20
27.86641231781692
  0
LINE
  5
F1C
330
EBB
100
AcDbEntity
  8
0
  6
Continuous
 62
     7
100
AcDbLine
 10
8.842484303424953
 20
11.7782436888836
 30
0.0
 11
8.999053524291866
 21
11.86134425741693
 31
0.0
  0
LINE
  5
F1D
330
EBB
100
AcDbEntity
  8
0
  6
Continuous
 62
     7
100
AcDbLine
 10
42.82731900695853
 20
27.78556463915021
 30
0.0
 11
42.98388822782499
 21
27.86866520768359
 31
0.0
  0
LINE
  5
F1E
330
EBB
100
AcDbEntity
  8
0
  6
Continuous
 62
     7
100
AcDbLine
 10
42.62210601735842
 20
27.69793626375025
 30
0.0
 11
42.82731900695853
 21
27.78556463915021
 31
0.0
  0
LWPOLYLINE
  5
F1F
330
EBB
100
AcDbEntity
  8
0
  6
Continuous
 62
     7
100
AcDbPolyline
 90
        7
 70
     0
 43
0.0
 10
8.999053524291866
 20
11.86134425741693
 10
9.20426651389198
 20
11.94897263281694
 10
9.42582806922519
 20
12.0223437410836
 10
9.660741950292049
 20
12.0804653638836
 10
9.905831350024982
 20
12.12255150595024
 10
10.15778185455838
 20
12.14803302441692
 10
10.41318626562497
 20
12.1565653254836
  0
LINE
  5
F20
330
EBB
100
AcDbEntity
  8
02___PRT_ALL_AXES
  6
Continuous
 62
     7
100
AcDbLine
 10
63.96318626562515
 20
17.3234544482836
 30
0.0
 11
62.91318626562542
 21
17.3234544482836
 31
0.0
  0
LINE
  5
F21
330
EBB
100
AcDbEntity
  8
0
  6
Continuous
 62
     7
100
AcDbLine
 10
63.96318626562515
 20
17.34845444828357
 30
0.0
 11
64.54464883915853
 21
17.34845444828357
 31
0.0
  0
LINE
  5
F22
330
EBB
100
AcDbEntity
  8
DEFAULT_1
  6
CENTER
 62
     7
100
AcDbLine
 10
-0.0000000000004547
 20
19.8234544482836
 30
0.0
 11
76.70446733482504
 21
19.8234544482836
 31
0.0
  0
LINE
  5
F23
330
EBB
100
AcDbEntity
  8
DEFAULT_1
  6
CENTER
 62
     7
100
AcDbLine
 10
78.11318626562524
 20
19.8234544482836
 30
0.0
 11
78.32265226969184
 21
19.8234544482836
 31
0.0
  0
LWPOLYLINE
  5
F24
330
EBB
100
AcDbEntity
  8
0
  6
Continuous
 62
     7
100
AcDbPolyline
 90
        3
 70
     0
 43
0.0
 10
9.42582806922519
 20
27.6245651554836
 10
9.20426651389198
 20
27.69793626375025
 10
8.999053524291866
 20
27.78556463915021
  0
LWPOLYLINE
  5
F25
330
EBB
100
AcDbEntity
  8
0
  6
Continuous
 62
     7
100
AcDbPolyline
 90
        7
 70
     0
 43
0.0
 10
42.82731900695853
 20
11.86134425741693
 10
42.62210601735842
 20
11.94897263281694
 10
42.40054446209206
 20
12.0223437410836
 10
42.16563058095835
 20
12.0804653638836
 10
41.9205411812918
 20
12.12255150595024
 10
41.66859067669202
 20
12.14803302441692
 10
41.41318626562497
 20
12.1565653254836
  0
LINE
  5
F26
330
EBB
100
AcDbEntity
  8
0
  6
Continuous
 62
     7
100
AcDbLine
 10
42.98388822782499
 20
11.7782436888836
 30
0.0
 11
42.82731900695853
 21
11.86134425741693
 31
0.0
  0
LINE
  5
F27
330
EBB
100
AcDbEntity
  8
0
  6
Continuous
 62
     7
100
AcDbLine
 10
43.01340827709191
 20
11.76064363841692
 30
0.0
 11
42.98388822782499
 21
11.7782436888836
 31
0.0
  0
LWPOLYLINE
  5
F28
330
EBB
100
AcDbEntity
  8
02___PRT_ALL_AXES
  6
Continuous
 62
     7
100
AcDbPolyline
 90
        4
 70
     0
 43
0.0
 10
42.97853385902499
 20
11.78138856748359
 10
43.24902805335841
 20
11.59573806175029
 10
43.46120142175869
 20
11.39296609455027
 10
43.61319140775822
 20
11.17665563381689
  0
LINE
  5
F29
330
EBB
100
AcDbEntity
  8
0
  6
Continuous
 62
     7
100
AcDbLine
 10
43.91318702589205
 20
8.523455208683571
 30
0.0
 11
44.11318703935831
 21
8.323455222150244
 31
0.0
  0
LWPOLYLINE
  5
F2A
330
EBB
100
AcDbEntity
  8
0
  6
Continuous
 62
     7
100
AcDbPolyline
 90
       12
 70
     0
 43
0.0
 10
39.50793037729182
 20
10.26376308555024
 10
39.39311083049188
 20
10.39489671995028
 10
39.3056093385585
 20
10.53278929801695
 10
39.24660920902488
 20
10.67557605908359
 10
39.21690831742535
 20
10.82132605728361
 10
39.21690831742535
 20
10.96806827381692
 10
39.24660920902488
 20
11.11381827195026
 10
39.3056093385585
 20
11.25660503308359
 10
39.39311083049188
 20
11.39449761108358
 10
39.50793037729182
 20
11.5256312455503
 10
39.64851524155847
 20
11.64823257888361
 10
39.81296425415849
 20
11.76064363841692
  0
LWPOLYLINE
  5
F2B
330
EBB
100
AcDbEntity
  8
02___PRT_ALL_AXES
  6
Continuous
 62
     7
100
AcDbPolyline
 90
        6
 70
     0
 43
0.0
 10
39.11318626562525
 20
28.8341269354836
 10
39.16044855149176
 20
29.06949238961693
 10
39.29227063082499
 20
29.27403493368359
 10
39.49641674062514
 20
29.44784101315025
 10
39.76867322069166
 20
29.59390772641695
 10
39.78672640802506
 20
29.60022301515028
  0
LINE
  5
F2C
330
EBB
100
AcDbEntity
  8
02___PRT_ALL_AXES
  6
Continuous
 62
     7
100
AcDbLine
 10
43.61319140775822
 20
28.47025326275025
 30
0.0
 11
43.43241391342508
 21
28.22182367648361
 31
0.0
  0
LINE
  5
F2D
330
EBB
100
AcDbEntity
  8
02___PRT_ALL_AXES
  6
Continuous
 62
     7
100
AcDbLine
 10
43.43241391342508
 20
28.22182367648361
 30
0.0
 11
43.15921761275831
 21
27.98272772895024
 31
0.0
  0
LINE
  5
F2E
330
EBB
100
AcDbEntity
  8
0
  6
Continuous
 62
     7
100
AcDbLine
 10
63.96318626562515
 20
22.29845444828356
 30
0.0
 11
64.54464883915853
 21
22.29845444828356
 31
0.0
  0
LINE
  5
F2F
330
EBB
100
AcDbEntity
  8
02___PRT_ALL_AXES
  6
Continuous
 62
     7
100
AcDbLine
 10
63.96318626562515
 20
22.3234544482836
 30
0.0
 11
62.91318626562542
 21
22.3234544482836
 31
0.0
  0
LINE
  5
F30
330
EBB
100
AcDbEntity
  8
02___PRT_ALL_AXES
  6
Continuous
 62
     7
100
AcDbLine
 10
62.71318626562515
 20
24.3234544482836
 30
0.0
 11
59.61318626562524
 21
24.3234544482836
 31
0.0
  0
LINE
  5
F31
330
EBB
100
AcDbEntity
  8
02___PRT_ALL_AXES
  6
Continuous
 62
     7
100
AcDbLine
 10
64.84464883915871
 20
24.3234544482836
 30
0.0
 11
72.54464883915852
 21
24.3234544482836
 31
0.0
  0
LWPOLYLINE
  5
F32
330
EBB
100
AcDbEntity
  8
0
  6
Continuous
 62
     7
100
AcDbPolyline
 90
        6
 70
     0
 43
0.0
 10
12.04259319489165
 20
29.59820850961688
 10
12.07146388182491
 20
29.58788928708356
 10
12.3382100314252
 20
29.44227035141694
 10
12.53790027635841
 20
29.26977614608359
 10
12.66688022749167
 20
29.06718919615025
 10
12.71318626562515
 20
28.8341269354836
  0
LINE
  5
F33
330
EBB
100
AcDbEntity
  8
0
  6
Continuous
 62
     7
100
AcDbLine
 10
40.16318626562497
 20
28.92428466195026
 30
0.0
 11
40.16318626562497
 21
28.58013880015028
 31
0.0
  0
LINE
  5
F34
330
EBB
100
AcDbEntity
  8
0
  6
Continuous
 62
     7
100
AcDbLine
 10
40.16318626562497
 20
11.06677009641692
 30
0.0
 11
40.16318626562497
 21
10.72262423461694
 31
0.0
  0
LINE
  5
F35
330
EBB
100
AcDbEntity
  8
0
  6
Continuous
 62
     7
100
AcDbLine
 10
41.11318626562524
 20
29.46918227648359
 30
0.0
 11
41.11318626562524
 21
28.6785390486836
 31
0.0
  0
LINE
  5
F36
330
EBB
100
AcDbEntity
  8
0
  6
Continuous
 62
     7
100
AcDbLine
 10
41.11318626562524
 20
28.58013880015028
 30
0.0
 11
41.11318626562524
 21
28.03524118561694
 31
0.0
  0
LINE
  5
F37
330
EBB
100
AcDbEntity
  8
0
  6
Continuous
 62
     7
100
AcDbLine
 10
41.11318626562524
 20
11.61166771095025
 30
0.0
 11
41.11318626562524
 21
11.06677009641692
 31
0.0
  0
LINE
  5
F38
330
EBB
100
AcDbEntity
  8
0
  6
Continuous
 62
     7
100
AcDbLine
 10
41.11318626562524
 20
10.1777266200836
 30
0.0
 11
41.11318626562524
 21
10.96836984788359
 31
0.0
  0
LINE
  5
F39
330
EBB
100
AcDbEntity
  8
0
  6
Continuous
 62
     7
100
AcDbLine
 10
41.71318626562515
 20
10.1777266200836
 30
0.0
 11
41.71318626562515
 21
10.96836984788359
 31
0.0
  0
LINE
  5
F3A
330
EBB
100
AcDbEntity
  8
0
  6
Continuous
 62
     7
100
AcDbLine
 10
41.71318626562515
 20
11.06677009641692
 30
0.0
 11
41.71318626562515
 21
11.61166771095025
 31
0.0
  0
LINE
  5
F3B
330
EBB
100
AcDbEntity
  8
0
  6
Continuous
 62
     7
100
AcDbLine
 10
41.71318626562515
 20
28.03524118561694
 30
0.0
 11
41.71318626562515
 21
28.58013880015028
 31
0.0
  0
LINE
  5
F3C
330
EBB
100
AcDbEntity
  8
0
  6
Continuous
 62
     7
100
AcDbLine
 10
41.71318626562515
 20
28.6785390486836
 30
0.0
 11
41.71318626562515
 21
29.46918227648359
 31
0.0
  0
LWPOLYLINE
  5
F3D
330
EBB
100
AcDbEntity
  8
02___PRT_ALL_AXES
  6
Continuous
 62
     7
100
AcDbPolyline
 90
        4
 70
     0
 43
0.0
 10
39.11318626562525
 20
10.8127819610836
 10
39.16499459789202
 20
11.07328668095027
 10
39.30931667415871
 20
11.32446876541689
 10
39.53384360609152
 20
11.55951985668361
  0
LWPOLYLINE
  5
F3E
330
EBB
100
AcDbEntity
  8
0
  6
Continuous
 62
     7
100
AcDbPolyline
 90
        5
 70
     0
 43
0.0
 10
41.41318626562497
 20
27.49034357108354
 10
41.66859067669202
 20
27.49887587215023
 10
41.9205411812918
 20
27.5243573906169
 10
42.16563058095835
 20
27.56644353268359
 10
42.40054446209206
 20
27.6245651554836
  0
LWPOLYLINE
  5
F3F
330
EBB
100
AcDbEntity
  8
0
  6
Continuous
 62
     7
100
AcDbPolyline
 90
        6
 70
     0
 43
0.0
 10
10.41318626562497
 20
27.49034357108354
 10
10.66859067669202
 20
27.49887587215023
 10
10.92054118129181
 20
27.5243573906169
 10
11.16563058095835
 20
27.56644353268359
 10
11.40054446209205
 20
27.6245651554836
 10
11.62210601735842
 20
27.69793626375025
  0
LINE
  5
F40
330
EBB
100
AcDbEntity
  8
0
  6
Continuous
 62
     7
100
AcDbLine
 10
75.81325582075852
 20
26.09185132341691
 30
0.0
 11
76.2641004612251
 21
26.09185132341691
 31
0.0
  0
LINE
  5
F41
330
EBB
100
AcDbEntity
  8
02___PRT_ALL_AXES
  6
Continuous
 62
     7
100
AcDbLine
 10
59.21318626562515
 20
26.8234544482836
 30
0.0
 11
49.41318626562497
 21
26.8234544482836
 31
0.0
  0
LINE
  5
F42
330
EBB
100
AcDbEntity
  8
0
  6
Continuous
 62
     7
100
AcDbLine
 10
10.11318626562524
 20
28.03524118561694
 30
0.0
 11
10.71318626562515
 21
28.03524118561694
 31
0.0
  0
LINE
  5
F43
330
EBB
100
AcDbEntity
  8
0
  6
Continuous
 62
     7
100
AcDbLine
 10
41.11318626562524
 20
28.03524118561694
 30
0.0
 11
41.71318626562515
 21
28.03524118561694
 31
0.0
  0
LINE
  5
F44
330
EBB
100
AcDbEntity
  8
0
  6
Continuous
 62
     7
100
AcDbLine
 10
9.163186265624972
 20
28.58013880015028
 30
0.0
 11
10.11318626562524
 21
28.58013880015028
 31
0.0
  0
LINE
  5
F45
330
EBB
100
AcDbEntity
  8
0
  6
Continuous
 62
     7
100
AcDbLine
 10
10.71318626562515
 20
28.58013880015028
 30
0.0
 11
11.66318626562497
 21
28.58013880015028
 31
0.0
  0
LINE
  5
F46
330
EBB
100
AcDbEntity
  8
0
  6
Continuous
 62
     7
100
AcDbLine
 10
40.16318626562497
 20
28.58013880015028
 30
0.0
 11
41.11318626562524
 21
28.58013880015028
 31
0.0
  0
LINE
  5
F47
330
EBB
100
AcDbEntity
  8
0
  6
Continuous
 62
     7
100
AcDbLine
 10
41.71318626562515
 20
28.58013880015028
 30
0.0
 11
42.66318626562497
 21
28.58013880015028
 31
0.0
  0
LINE
  5
F48
330
EBB
100
AcDbEntity
  8
0
  6
Continuous
 62
     7
100
AcDbLine
 10
42.66318626562497
 20
28.6785390486836
 30
0.0
 11
41.71318626562515
 21
28.6785390486836
 31
0.0
  0
LINE
  5
F49
330
EBB
100
AcDbEntity
  8
0
  6
Continuous
 62
     7
100
AcDbLine
 10
41.11318626562524
 20
28.6785390486836
 30
0.0
 11
40.16318626562497
 21
28.6785390486836
 31
0.0
  0
LINE
  5
F4A
330
EBB
100
AcDbEntity
  8
0
  6
Continuous
 62
     7
100
AcDbLine
 10
11.66318626562497
 20
28.6785390486836
 30
0.0
 11
10.71318626562515
 21
28.6785390486836
 31
0.0
  0
LINE
  5
F4B
330
EBB
100
AcDbEntity
  8
0
  6
Continuous
 62
     7
100
AcDbLine
 10
10.11318626562524
 20
28.6785390486836
 30
0.0
 11
9.163186265624972
 21
28.6785390486836
 31
0.0
  0
LINE
  5
F4C
330
EBB
100
AcDbEntity
  8
0
  6
Continuous
 62
     7
100
AcDbLine
 10
42.66318626562497
 20
28.92428466195026
 30
0.0
 11
41.71318626562515
 21
28.92428466195026
 31
0.0
  0
LINE
  5
F4D
330
EBB
100
AcDbEntity
  8
0
  6
Continuous
 62
     7
100
AcDbLine
 10
41.11318626562524
 20
28.92428466195026
 30
0.0
 11
40.16318626562497
 21
28.92428466195026
 31
0.0
  0
LINE
  5
F4E
330
EBB
100
AcDbEntity
  8
0
  6
Continuous
 62
     7
100
AcDbLine
 10
11.66318626562497
 20
28.92428466195026
 30
0.0
 11
10.71318626562515
 21
28.92428466195026
 31
0.0
  0
LINE
  5
F4F
330
EBB
100
AcDbEntity
  8
0
  6
Continuous
 62
     7
100
AcDbLine
 10
10.11318626562524
 20
28.92428466195026
 30
0.0
 11
9.163186265624972
 21
28.92428466195026
 31
0.0
  0
LINE
  5
F50
330
EBB
100
AcDbEntity
  8
0
  6
Continuous
 62
     7
100
AcDbLine
 10
41.71318626562515
 20
29.22343666321694
 30
0.0
 11
41.11318626562524
 21
29.22343666321694
 31
0.0
  0
LINE
  5
F51
330
EBB
100
AcDbEntity
  8
0
  6
Continuous
 62
     7
100
AcDbLine
 10
10.71318626562515
 20
29.22343666321694
 30
0.0
 11
10.11318626562524
 21
29.22343666321694
 31
0.0
  0
LINE
  5
F52
330
EBB
100
AcDbEntity
  8
0
  6
Continuous
 62
     7
100
AcDbLine
 10
41.71318626562515
 20
29.46918227648359
 30
0.0
 11
41.11318626562524
 21
29.46918227648359
 31
0.0
  0
LINE
  5
F53
330
EBB
100
AcDbEntity
  8
0
  6
Continuous
 62
     7
100
AcDbLine
 10
10.71318626562515
 20
29.46918227648359
 30
0.0
 11
10.11318626562524
 21
29.46918227648359
 31
0.0
  0
LWPOLYLINE
  5
F54
330
EBB
100
AcDbEntity
  8
0
  6
Continuous
 62
     7
100
AcDbPolyline
 90
        5
 70
     0
 43
0.0
 10
10.41318626562497
 20
27.49034357108354
 10
10.15778185455838
 20
27.49887587215023
 10
9.905831350024982
 20
27.5243573906169
 10
9.660741950292049
 20
27.56644353268359
 10
9.42582806922519
 20
27.6245651554836
  0
LWPOLYLINE
  5
F55
330
EBB
100
AcDbEntity
  8
0
  6
Continuous
 62
     7
100
AcDbPolyline
 90
        5
 70
     0
 43
0.0
 10
41.41318626562497
 20
27.49034357108354
 10
41.15778185455837
 20
27.49887587215023
 10
40.90583135002498
 20
27.5243573906169
 10
40.66074195029204
 20
27.56644353268359
 10
40.42582806922519
 20
27.6245651554836
  0
LINE
  5
F56
330
EBB
100
AcDbEntity
  8
0
  6
Continuous
 62
     7
100
AcDbLine
 10
59.41318652195832
 20
15.43892494615028
 30
0.0
 11
59.61318652869204
 21
15.32345490395028
 31
0.0
  0
LWPOLYLINE
  5
F57
330
EBB
100
AcDbEntity
  8
02___PRT_ALL_AXES
  6
Continuous
 62
     7
100
AcDbPolyline
 90
        3
 70
     0
 43
0.0
 10
43.61319140775822
 20
11.17665563381689
 10
43.65074690562505
 20
11.02177461821696
 10
43.66318882502537
 20
10.85373746681693
  0
LINE
  5
F58
330
EBB
100
AcDbEntity
  8
0
  6
Continuous
 62
     7
100
AcDbLine
 10
42.66318626562497
 20
10.72262423461694
 30
0.0
 11
42.66318626562497
 21
11.06677009641692
 31
0.0
  0
LINE
  5
F59
330
EBB
100
AcDbEntity
  8
0
  6
Continuous
 62
     7
100
AcDbLine
 10
42.66318626562497
 20
28.58013880015028
 30
0.0
 11
42.66318626562497
 21
28.92428466195026
 31
0.0
  0
LINE
  5
F5A
330
EBB
100
AcDbEntity
  8
02___PRT_ALL_AXES
  6
Continuous
 62
     7
100
AcDbLine
 10
43.61319140775822
 20
28.47025326275025
 30
0.0
 11
43.61319140775822
 21
11.17665563381689
 31
0.0
  0
LINE
  5
F5B
330
EBB
100
AcDbEntity
  8
02___PRT_ALL_AXES
  6
Continuous
 62
     7
100
AcDbLine
 10
43.61319140775822
 20
30.8234544482836
 30
0.0
 11
43.61319140775822
 21
29.17025099088363
 31
0.0
  0
LINE
  5
F5C
330
EBB
100
AcDbEntity
  8
02___PRT_ALL_AXES
  6
Continuous
 62
     7
100
AcDbLine
 10
43.61319140775822
 20
10.47665790568356
 30
0.0
 11
43.61319140775822
 21
8.823454448283598
 31
0.0
  0
LINE
  5
F5D
330
EBB
100
AcDbEntity
  8
0
  6
Continuous
 62
     7
100
AcDbLine
 10
43.91318626562497
 20
31.12345444828361
 30
0.0
 11
43.91318626562497
 21
8.523454448283587
 31
0.0
  0
LINE
  5
F5E
330
EBB
100
AcDbEntity
  8
0
  6
Continuous
 62
     7
100
AcDbLine
 10
44.11318626562525
 20
31.3234544482836
 30
0.0
 11
44.11318626562525
 21
8.323454448283598
 31
0.0
  0
LWPOLYLINE
  5
F5F
330
EBB
100
AcDbEntity
  8
02___PRT_ALL_AXES
  6
Continuous
 62
     7
100
AcDbPolyline
 90
        3
 70
     0
 43
0.0
 10
43.66318882502537
 20
10.85373746681693
 10
43.6507402092252
 20
10.67220416781691
 10
43.61319140775822
 20
10.47665790568356
  0
LWPOLYLINE
  5
F60
330
EBB
100
AcDbEntity
  8
02___PRT_ALL_AXES
  6
Continuous
 62
     7
100
AcDbPolyline
 90
        3
 70
     0
 43
0.0
 10
43.66318882502537
 20
28.79317142975026
 10
43.65074688849154
 20
28.62513416755025
 10
43.61319140775822
 20
28.47025326275025
  0
LINE
  5
F61
330
EBB
100
AcDbEntity
  8
02___PRT_ALL_AXES
  6
Continuous
 62
     7
100
AcDbLine
 10
39.53384360609152
 20
11.55951985668361
 30
0.0
 11
39.8475691519584
 21
11.78118883388356
 31
0.0
  0
LINE
  5
F62
330
EBB
100
AcDbEntity
  8
0
  6
Continuous
 62
     7
100
AcDbLine
 10
39.81296425415849
 20
11.76064363841692
 30
0.0
 11
39.84248430342495
 21
11.7782436888836
 31
0.0
  0
LINE
  5
F63
330
EBB
100
AcDbEntity
  8
0
  6
Continuous
 62
     7
100
AcDbLine
 10
59.41318652195832
 20
24.20798395041692
 30
0.0
 11
59.61318652869204
 21
24.32345399261692
 31
0.0
  0
LINE
  5
F64
330
EBB
100
AcDbEntity
  8
0
  6
Continuous
 62
     7
100
AcDbLine
 10
64.54464808415832
 20
24.15025067495026
 30
0.0
 11
64.84464805395828
 21
24.32345580808357
 31
0.0
  0
LINE
  5
F65
330
EBB
100
AcDbEntity
  8
0
  6
Continuous
 62
     7
100
AcDbLine
 10
39.84248430342495
 20
11.7782436888836
 30
0.0
 11
39.99905352429187
 21
11.86134425741693
 31
0.0
  0
LWPOLYLINE
  5
F66
330
EBB
100
AcDbEntity
  8
02___PRT_ALL_AXES
  6
Continuous
 62
     7
100
AcDbPolyline
 90
        9
 70
     0
 43
0.0
 10
39.8475691519584
 20
11.78118883388356
 10
40.20635389162499
 20
11.95570138255021
 10
40.63169842215848
 20
12.09023600781694
 10
41.0822266723585
 20
12.16552035155024
 10
41.53168914069192
 20
12.17954458795026
 10
41.95729988995845
 20
12.13784087781692
 10
42.34391442109199
 20
12.05066546201692
 10
42.686284191092
 20
11.92825538915025
 10
42.97853385902499
 20
11.78138856748359
  0
LWPOLYLINE
  5
F67
330
EBB
100
AcDbEntity
  8
0
  6
Continuous
 62
     7
100
AcDbPolyline
 90
        7
 70
     0
 43
0.0
 10
39.99905352429187
 20
11.86134425741693
 10
40.20426651389198
 20
11.94897263281694
 10
40.42582806922519
 20
12.0223437410836
 10
40.66074195029204
 20
12.0804653638836
 10
40.90583135002498
 20
12.12255150595024
 10
41.15778185455837
 20
12.14803302441692
 10
41.41318626562497
 20
12.1565653254836
  0
LINE
  5
F68
330
EBB
100
AcDbEntity
  8
02___PRT_ALL_AXES
  6
Continuous
 62
     7
100
AcDbLine
 10
73.77248473789177
 20
25.30813938808359
 30
0.0
 11
72.54464883915852
 21
24.79955310641691
 31
0.0
  0
LINE
  5
F69
330
EBB
100
AcDbEntity
  8
0
  6
Continuous
 62
     7
100
AcDbLine
 10
72.54464883915852
 20
24.79955310641691
 30
0.0
 11
76.2275286377585
 21
26.32505186761688
 31
0.0
  0
LINE
  5
F6A
330
EBB
100
AcDbEntity
  8
0
  6
Continuous
 62
     7
100
AcDbLine
 10
76.70446733482504
 20
24.08722389368359
 30
0.0
 11
76.69626779875852
 21
24.08382753468362
 31
0.0
  0
LINE
  5
F6B
330
EBB
100
AcDbEntity
  8
0
  6
Continuous
 62
     7
100
AcDbLine
 10
75.81325582075852
 20
26.09185132341691
 30
0.0
 11
73.77248473789177
 21
25.25476281128357
 31
0.0
  0
LINE
  5
F6C
330
EBB
100
AcDbEntity
  8
02___PRT_ALL_AXES
  6
Continuous
 62
     7
100
AcDbLine
 10
43.61319140775822
 20
30.8234544482836
 30
0.0
 11
8.213190692692023
 21
30.8234544482836
 31
0.0
  0
LINE
  5
F6D
330
EBB
100
AcDbEntity
  8
02___PRT_ALL_AXES
  6
Continuous
 62
     7
100
AcDbLine
 10
5.113185653358414
 20
30.8234544482836
 30
0.0
 11
7.713187204091809
 21
30.8234544482836
 31
0.0
  0
LINE
  5
F6E
330
EBB
100
AcDbEntity
  8
02___PRT_ALL_AXES
  6
Continuous
 62
     7
100
AcDbLine
 10
49.21318626562515
 20
31.3234544482836
 30
0.0
 11
44.11318626562525
 21
31.3234544482836
 31
0.0
  0
LINE
  5
F6F
330
EBB
100
AcDbEntity
  8
0
  6
Continuous
 62
     7
100
AcDbLine
 10
40.42582806922519
 20
27.6245651554836
 30
0.0
 11
40.20426651389198
 21
27.69793626375025
 31
0.0
  0
LWPOLYLINE
  5
F70
330
EBB
100
AcDbEntity
  8
02___PRT_ALL_AXES
  6
Continuous
 62
     7
100
AcDbPolyline
 90
        5
 70
     0
 43
0.0
 10
43.03860304122508
 20
29.60093602615024
 10
43.05660348575838
 20
29.59438191215026
 10
43.28751771022507
 20
29.47515727575023
 10
43.4760371846919
 20
29.33306799728359
 10
43.61319140775822
 20
29.17025099088363
  0
LINE
  5
F71
330
EBB
100
AcDbEntity
  8
0
  6
Continuous
 62
     7
100
AcDbLine
 10
75.81325582075852
 20
13.55505757315023
 30
0.0
 11
73.77248473789177
 21
14.39214608528363
 31
0.0
  0
LINE
  5
F72
330
EBB
100
AcDbEntity
  8
02___PRT_ALL_AXES
  6
Continuous
 62
     7
100
AcDbLine
 10
73.77248473789177
 20
14.33876950848361
 30
0.0
 11
72.54464883915852
 21
14.84735579015023
 31
0.0
  0
LINE
  5
F73
330
EBB
100
AcDbEntity
  8
0
  6
Continuous
 62
     7
100
AcDbLine
 10
76.2275286377585
 20
13.32185702895026
 30
0.0
 11
72.54464883915852
 21
14.84735579015023
 31
0.0
  0
LINE
  5
F74
330
EBB
100
AcDbEntity
  8
0
  6
Continuous
 62
     7
100
AcDbLine
 10
76.69626779875852
 20
15.56308136188357
 30
0.0
 11
76.70446733482504
 21
15.55968500288355
 31
0.0
  0
LINE
  5
F75
330
EBB
100
AcDbEntity
  8
0
  6
Continuous
 62
     7
100
AcDbLine
 10
40.20426651389198
 20
27.69793626375025
 30
0.0
 11
39.99905352429187
 21
27.78556463915021
 31
0.0
  0
LINE
  5
F76
330
EBB
100
AcDbEntity
  8
0
  6
Continuous
 62
     7
100
AcDbLine
 10
39.99905352429187
 20
27.78556463915021
 30
0.0
 11
39.84248430342495
 21
27.86866520768359
 31
0.0
  0
LINE
  5
F77
330
EBB
100
AcDbEntity
  8
0
  6
Continuous
 62
     7
100
AcDbLine
 10
64.54464808409193
 20
15.49665822161688
 30
0.0
 11
64.84464805382504
 21
15.32345308855025
 31
0.0
  0
LINE
  5
F78
330
EBB
100
AcDbEntity
  8
0
  6
Continuous
 62
     7
100
AcDbLine
 10
39.84248430342495
 20
27.86866520768359
 30
0.0
 11
39.81296425415849
 21
27.88626525815022
 31
0.0
  0
LINE
  5
F79
330
EBB
100
AcDbEntity
  8
02___PRT_ALL_AXES
  6
Continuous
 62
     7
100
AcDbLine
 10
39.8460619485586
 20
27.86641231781692
 30
0.0
 11
39.75954476629204
 21
27.91977853595023
 31
0.0
  0
LWPOLYLINE
  5
F7A
330
EBB
100
AcDbEntity
  8
0
  6
Continuous
 62
     7
100
AcDbPolyline
 90
       11
 70
     0
 43
0.0
 10
39.81296425415849
 20
27.88626525815022
 10
39.64851524155847
 20
27.99867631768359
 10
39.50793037729182
 20
28.1212776510169
 10
39.39311083049188
 20
28.25241128548356
 10
39.3056093385585
 20
28.39030386348355
 10
39.24660920902488
 20
28.53309062461693
 10
39.21690831742535
 20
28.67884062275022
 10
39.21690831742535
 20
28.82558283928359
 10
39.24660920902488
 20
28.97133283748355
 10
39.3056093385585
 20
29.1141195985503
 10
39.39311083049188
 20
29.25201217661692
  0
LWPOLYLINE
  5
F7B
330
EBB
100
AcDbEntity
  8
02___PRT_ALL_AXES
  6
Continuous
 62
     7
100
AcDbPolyline
 90
        5
 70
     0
 43
0.0
 10
39.75954476629204
 20
27.91977853595023
 10
39.48865860949172
 20
28.12750994781692
 10
39.28553069702502
 20
28.35471486661692
 10
39.15730953762523
 20
28.59403280715026
 10
39.11318626562525
 20
28.8341269354836
  0
LWPOLYLINE
  5
F7C
330
EBB
100
AcDbEntity
  8
02___PRT_ALL_AXES
  6
Continuous
 62
     7
100
AcDbPolyline
 90
        3
 70
     0
 43
0.0
 10
43.61319140775822
 20
29.17025099088363
 10
43.65074019022495
 20
28.97470487241691
 10
43.66318882502537
 20
28.79317142975026
  0
LINE
  5
F7D
330
EBB
100
AcDbEntity
  8
0
  6
Continuous
 62
     7
100
AcDbLine
 10
49.21318626562515
 20
31.3234544482836
 30
0.0
 11
49.21318626562515
 21
8.323454448283598
 31
0.0
  0
LINE
  5
F7E
330
EBB
100
AcDbEntity
  8
0
  6
Continuous
 62
     7
100
AcDbLine
 10
49.41318626562497
 20
31.12345444828361
 30
0.0
 11
49.41318626562497
 21
8.523454448283587
 31
0.0
  0
LWPOLYLINE
  5
F7F
330
EBB
100
AcDbEntity
  8
02___PRT_ALL_AXES
  6
Continuous
 62
     7
100
AcDbPolyline
 90
        4
 70
     0
 43
0.0
 10
43.61319140775822
 20
10.47665790568356
 10
43.43828767595868
 20
10.28035732901691
 10
43.17980454762483
 20
10.11080966541692
 10
43.06335927129157
 20
10.0628952830836
  0
LINE
  5
F80
330
EBB
100
AcDbEntity
  8
0
  6
Continuous
 62
     7
100
AcDbLine
 10
43.91318877169169
 20
9.123451952416928
 30
0.0
 11
43.61319140775822
 21
8.823454448283598
 31
0.0
  0
LINE
  5
F81
330
EBB
100
AcDbEntity
  8
0
  6
Continuous
 62
     7
100
AcDbLine
 10
43.91318877169169
 20
30.52345694415027
 30
0.0
 11
43.61319140775822
 21
30.8234544482836
 31
0.0
  0
LINE
  5
F82
330
EBB
100
AcDbEntity
  8
0
  6
Continuous
 62
     7
100
AcDbLine
 10
49.41318538062524
 20
8.523455333483582
 30
0.0
 11
49.21318536495846
 21
8.323455349150265
 31
0.0
  0
LINE
  5
F83
330
EBB
100
AcDbEntity
  8
0
  6
Continuous
 62
     7
100
AcDbLine
 10
62.91318597202508
 20
15.43892501075021
 30
0.0
 11
62.71318596429182
 21
15.32345497028359
 31
0.0
  0
LINE
  5
F84
330
EBB
100
AcDbEntity
  8
0
  6
Continuous
 62
     7
100
AcDbLine
 10
62.91318597202508
 20
24.20798388581693
 30
0.0
 11
62.71318596429182
 21
24.32345392628355
 31
0.0
  0
LINE
  5
F85
330
EBB
100
AcDbEntity
  8
0
  6
Continuous
 62
     7
100
AcDbLine
 10
49.41318538055838
 20
31.12345356315024
 30
0.0
 11
49.21318536489207
 21
31.32345354748355
 31
0.0
  0
LINE
  5
F86
330
EBB
100
AcDbEntity
  8
0
  6
Continuous
 62
     7
100
AcDbLine
 10
59.21318626562515
 20
26.8234544482836
 30
0.0
 11
59.21318626562515
 21
12.8234544482836
 31
0.0
  0
LINE
  5
F87
330
EBB
100
AcDbEntity
  8
0
  6
Continuous
 62
     7
100
AcDbLine
 10
59.41318772909153
 20
13.02345298548357
 30
0.0
 11
59.21318777209171
 21
12.82345294241691
 31
0.0
  0
LINE
  5
F88
330
EBB
100
AcDbEntity
  8
0
  6
Continuous
 62
     7
100
AcDbLine
 10
59.41318772889189
 20
26.62345591121692
 30
0.0
 11
59.21318777195847
 21
26.82345595428359
 31
0.0
  0
LINE
  5
F89
330
EBB
100
AcDbEntity
  8
0
  6
Continuous
 62
     7
100
AcDbLine
 10
59.41318626562497
 20
26.62345444835023
 30
0.0
 11
59.41318626562497
 21
13.02345444821691
 31
0.0
  0
LINE
  5
F8A
330
EBB
100
AcDbEntity
  8
0
  6
Continuous
 62
     7
100
AcDbLine
 10
59.61318626562524
 20
24.3234544482836
 30
0.0
 11
59.61318626562524
 21
15.3234544482836
 31
0.0
  0
LINE
  5
F8B
330
EBB
100
AcDbEntity
  8
0
  6
Continuous
 62
     7
100
AcDbLine
 10
62.71318626562515
 20
24.3234544482836
 30
0.0
 11
62.71318626562515
 21
15.3234544482836
 31
0.0
  0
LINE
  5
F8C
330
EBB
100
AcDbEntity
  8
0
  6
Continuous
 62
     7
100
AcDbLine
 10
62.91318626562542
 20
24.20798439448362
 30
0.0
 11
62.91318626562542
 21
15.43892450208358
 31
0.0
  0
LINE
  5
F8D
330
EBB
100
AcDbEntity
  8
0
  6
Continuous
 62
     7
100
AcDbLine
 10
63.96318626562515
 20
17.3234544482836
 30
0.0
 11
63.96318626562515
 21
22.3234544482836
 31
0.0
  0
LINE
  5
F8E
330
EBB
100
AcDbEntity
  8
0
  6
Continuous
 62
     7
100
AcDbLine
 10
64.54464883915853
 20
15.49665952895026
 30
0.0
 11
64.54464883915853
 21
24.15024936755026
 31
0.0
  0
LINE
  5
F8F
330
EBB
100
AcDbEntity
  8
0
  6
Continuous
 62
     7
100
AcDbLine
 10
64.84464883915871
 20
15.3234544482836
 30
0.0
 11
64.84464883915871
 21
24.3234544482836
 31
0.0
  0
LINE
  5
F90
330
EBB
100
AcDbEntity
  8
0
  6
Continuous
100
AcDbLine
 10
77.61318626562524
 20
19.8234544482836
 30
0.0
 11
76.70446733482504
 21
18.52576521148359
 31
0.0
  0
LINE
  5
F91
330
EBB
100
AcDbEntity
  8
0
  6
Continuous
 62
     7
100
AcDbLine
 10
73.77248473789177
 20
14.33876950848361
 30
0.0
 11
73.80152175915873
 21
14.38023560835023
 31
0.0
  0
LINE
  5
F92
330
EBB
100
AcDbEntity
  8
0
  6
Continuous
100
AcDbLine
 10
77.61318626562524
 20
19.8234544482836
 30
0.0
 11
76.70446733482504
 21
21.12114368508361
 31
0.0
  0
LINE
  5
F93
330
EBB
100
AcDbEntity
  8
0
  6
Continuous
 62
     7
100
AcDbLine
 10
73.80152175915873
 20
25.26667328821691
 30
0.0
 11
73.77248473789177
 21
25.30813938808359
 31
0.0
  0
LINE
  5
F94
330
EBB
100
AcDbEntity
  8
02___PRT_ALL_AXES
  6
Continuous
 62
     7
100
AcDbLine
 10
72.54464883915852
 20
14.84735579015023
 30
0.0
 11
72.54464883915852
 21
24.79955310641691
 31
0.0
  0
LINE
  5
F95
330
EBB
100
AcDbEntity
  8
0
  6
Continuous
 62
     7
100
AcDbLine
 10
73.77248473789177
 20
14.33876950848361
 30
0.0
 11
73.77248473789177
 21
14.39214608528363
 31
0.0
  0
LINE
  5
F96
330
EBB
100
AcDbEntity
  8
0
  6
Continuous
 62
     7
100
AcDbLine
 10
73.77248473789177
 20
25.25476281128357
 30
0.0
 11
73.77248473789177
 21
25.30813938808359
 31
0.0
  0
LINE
  5
F97
330
EBB
100
AcDbEntity
  8
0
  6
Continuous
 62
     7
100
AcDbLine
 10
75.81325582075852
 20
26.09185132341691
 30
0.0
 11
75.81325582075852
 21
13.55505757315023
 31
0.0
  0
LINE
  5
F98
330
EBB
100
AcDbEntity
  8
0
  6
Continuous
 62
     7
100
AcDbLine
 10
76.2641004612251
 20
26.09185132341691
 30
0.0
 11
76.2641004612251
 21
13.55505757315023
 31
0.0
  0
LINE
  5
F99
330
EBB
100
AcDbEntity
  8
0
  6
Continuous
 62
     7
100
AcDbLine
 10
76.70446733482504
 20
24.04572918255025
 30
0.0
 11
76.70446733482504
 21
15.60117971401695
 31
0.0
  0
LINE
  5
F9A
330
EBB
100
AcDbEntity
  8
0
  6
Continuous
 62
     7
100
AcDbLine
 10
76.70446733482504
 20
15.55968500288355
 30
0.0
 11
76.2275286377585
 21
13.32185702895026
 31
0.0
  0
LINE
  5
F9B
330
EBB
100
AcDbEntity
  8
0
  6
Continuous
100
AcDbLine
 10
76.70446733482504
 20
15.55968500288355
 30
0.0
 11
77.61318626562524
 21
19.8234544482836
 31
0.0
  0
LINE
  5
F9C
330
EBB
100
AcDbEntity
  8
0
  6
Continuous
 62
     7
100
AcDbLine
 10
76.70446733482504
 20
15.60117971401695
 30
0.0
 11
76.2641004612251
 21
13.55505757315023
 31
0.0
  0
LINE
  5
F9D
330
EBB
100
AcDbEntity
  8
0
  6
Continuous
 62
     7
100
AcDbLine
 10
76.70446733482504
 20
24.04572918255025
 30
0.0
 11
76.2641004612251
 21
26.09185132341691
 31
0.0
  0
LINE
  5
F9E
330
EBB
100
AcDbEntity
  8
0
  6
Continuous
 62
     7
100
AcDbLine
 10
76.2275286377585
 20
26.32505186761688
 30
0.0
 11
76.70446733482504
 21
24.08722389368359
 31
0.0
  0
LINE
  5
F9F
330
EBB
100
AcDbEntity
  8
0
  6
Continuous
100
AcDbLine
 10
76.70446733482504
 20
24.08722389368359
 30
0.0
 11
77.61318626562524
 21
19.8234544482836
 31
0.0
  0
ENDBLK
  5
FA0
330
EBB
100
AcDbEntity
  8
0
100
AcDbBlockEnd
  0
BLOCK
  5
FA4
330
FA1
100
AcDbEntity
  8
0
100
AcDbBlockBegin
  2
A$C217E344C
 70
     0
 10
0.0
 20
0.0
 30
0.0
  3
A$C217E344C
  1

  0
LINE
  5
FA5
330
FA1
100
AcDbEntity
  8
0
  6
Continuous
 62
     7
100
AcDbLine
 10
10.61903407103273
 20
5.231602809099399
 30
0.0
 11
10.99941157729927
 21
7.938129400232696
 31
0.0
  0
LINE
  5
FA6
330
FA1
100
AcDbEntity
  8
0
  6
Continuous
 62
     7
100
AcDbLine
 10
12.00058802289914
 20
15.06186996823271
 30
0.0
 11
12.38096552916613
 21
17.76839655936601
 31
0.0
  0
LINE
  5
FA7
330
FA1
100
AcDbEntity
  8
0
  6
Continuous
 62
     7
100
AcDbLine
 10
12.38096552916613
 20
5.231602809099399
 30
0.0
 11
12.00058802289914
 21
7.938129400232696
 31
0.0
  0
LINE
  5
FA8
330
FA1
100
AcDbEntity
  8
0
  6
Continuous
 62
     7
100
AcDbLine
 10
10.99941157729927
 20
15.06186996823271
 30
0.0
 11
10.61903407103273
 21
17.76839655936601
 31
0.0
  0
CIRCLE
  5
FA9
330
FA1
100
AcDbEntity
  8
0
  6
Continuous
 62
     7
100
AcDbCircle
 10
3.056252113232403
 20
6.624999684232648
 30
0.0
 40
1.349968612533333
  0
ARC
  5
FAA
330
FA1
100
AcDbEntity
  8
0
  6
Continuous
 62
     2
100
AcDbCircle
 10
3.056252113232403
 20
6.624999684232648
 30
0.0
 40
1.25
100
AcDbArc
 50
255.0000000000056
 51
195.0000000000007
  0
CIRCLE
  5
FAB
330
FA1
100
AcDbEntity
  8
0
  6
Continuous
 62
     7
100
AcDbCircle
 10
3.056252113232403
 20
6.624999684232648
 30
0.0
 40
1.049999999999999
  0
CIRCLE
  5
FAC
330
FA1
100
AcDbEntity
  8
0
  6
Continuous
 62
     7
100
AcDbCircle
 10
11.49999980009943
 20
11.49999968423265
 30
0.0
 40
11.5
  0
CIRCLE
  5
FAD
330
FA1
100
AcDbEntity
  8
0
  6
Continuous
 62
     7
100
AcDbCircle
 10
11.49999980009943
 20
11.49999968423265
 30
0.0
 40
11.29999854813333
  0
CIRCLE
  5
FAE
330
FA1
100
AcDbEntity
  8
0
  6
Continuous
 62
     7
100
AcDbCircle
 10
11.49999980009943
 20
11.49999968423265
 30
0.0
 40
7.0
  0
CIRCLE
  5
FAF
330
FA1
100
AcDbEntity
  8
0
  6
Continuous
 62
     7
100
AcDbCircle
 10
11.49999980009943
 20
11.49999968423265
 30
0.0
 40
6.800000496733333
  0
CIRCLE
  5
FB0
330
FA1
100
AcDbEntity
  8
0
  6
Continuous
 62
     7
100
AcDbCircle
 10
11.49999980009943
 20
11.49999968423265
 30
0.0
 40
6.700000782333333
  0
CIRCLE
  5
FB1
330
FA1
100
AcDbEntity
  8
0
  6
Continuous
 62
     7
100
AcDbCircle
 10
11.49999980009943
 20
11.49999968423265
 30
0.0
 40
6.5
  0
ARC
  5
FB2
330
FA1
100
AcDbEntity
  8
0
  6
Continuous
 62
     7
100
AcDbCircle
 10
11.49999980009943
 20
11.49999968423265
 30
0.0
 40
6.329999999999999
100
AcDbArc
 50
278.0000000000137
 51
81.99999999998622
  0
ARC
  5
FB3
330
FA1
100
AcDbEntity
  8
0
  6
Continuous
 62
     7
100
AcDbCircle
 10
11.49999980009943
 20
11.49999968423265
 30
0.0
 40
6.329999999999999
100
AcDbArc
 50
98.00000000001377
 51
261.9999999999862
  0
ARC
  5
FB4
330
FA1
100
AcDbEntity
  8
0
  6
Continuous
 62
     7
100
AcDbCircle
 10
11.49999980009943
 20
11.49999968423265
 30
0.0
 40
6.299999210733333
100
AcDbArc
 50
262.0201162354896
 51
277.9798732255151
  0
ARC
  5
FB5
330
FA1
100
AcDbEntity
  8
0
  6
Continuous
 62
     7
100
AcDbCircle
 10
11.49999980009943
 20
11.49999968423265
 30
0.0
 40
6.299999210733333
100
AcDbArc
 50
82.02011623548957
 51
97.97987322551509
  0
ARC
  5
FB6
330
FA1
100
AcDbEntity
  8
0
  6
Continuous
 62
     7
100
AcDbCircle
 10
11.49999980009943
 20
11.49999968423265
 30
0.0
 40
5.484684939799999
100
AcDbArc
 50
81.99999999998622
 51
98.00000000001377
  0
ARC
  5
FB7
330
FA1
100
AcDbEntity
  8
0
  6
Continuous
 62
     7
100
AcDbCircle
 10
11.49999980009943
 20
11.49999968423265
 30
0.0
 40
5.484684939799999
100
AcDbArc
 50
261.9999999999862
 51
278.0000000000137
  0
ARC
  5
FB8
330
FA1
100
AcDbEntity
  8
0
  6
Continuous
 62
     7
100
AcDbCircle
 10
11.49999980009943
 20
11.49999968423265
 30
0.0
 40
4.263769445399999
100
AcDbArc
 50
98.00000000001377
 51
261.9999999999862
  0
ARC
  5
FB9
330
FA1
100
AcDbEntity
  8
0
  6
Continuous
 62
     7
100
AcDbCircle
 10
11.49999980009943
 20
11.49999968423265
 30
0.0
 40
4.263769445399999
100
AcDbArc
 50
278.0000000000137
 51
81.99999999998622
  0
ARC
  5
FBA
330
FA1
100
AcDbEntity
  8
0
  6
Continuous
 62
     7
100
AcDbCircle
 10
11.49999980009943
 20
11.49999968423265
 30
0.0
 40
3.596874822533333
100
AcDbArc
 50
81.99999999998622
 51
98.00000000001377
  0
ARC
  5
FBB
330
FA1
100
AcDbEntity
  8
0
  6
Continuous
 62
     7
100
AcDbCircle
 10
11.49999980009943
 20
11.49999968423265
 30
0.0
 40
3.596874822533333
100
AcDbArc
 50
261.9999999999862
 51
278.0000000000137
  0
CIRCLE
  5
FBC
330
FA1
100
AcDbEntity
  8
02___PRT_ALL_AXES
  6
Continuous
 62
     7
100
AcDbCircle
 10
11.49999980009943
 20
11.49999968423265
 30
0.0
 40
3.342773023466666
  0
CIRCLE
  5
FBD
330
FA1
100
AcDbEntity
  8
0
  6
Continuous
 62
     7
100
AcDbCircle
 10
11.49999980009943
 20
11.49999968423265
 30
0.0
 40
2.673196196599999
  0
CIRCLE
  5
FBE
330
FA1
100
AcDbEntity
  8
0
  6
Continuous
 62
     7
100
AcDbCircle
 10
11.49999980009943
 20
11.49999968423265
 30
0.0
 40
2.5
  0
CIRCLE
  5
FBF
330
FA1
100
AcDbEntity
  8
0
  6
Continuous
 62
     7
100
AcDbCircle
 10
11.49999980009943
 20
11.49999968423265
 30
0.0
 40
2.474999999999999
  0
CIRCLE
  5
FC0
330
FA1
100
AcDbEntity
  8
0
  6
Continuous
 62
     7
100
AcDbCircle
 10
11.49999980009943
 20
11.49999968423265
 30
0.0
 40
2.199972844133333
  0
CIRCLE
  5
FC1
330
FA1
100
AcDbEntity
  8
0
  6
Continuous
 62
     7
100
AcDbCircle
 10
19.9437474870324
 20
6.624999684232648
 30
0.0
 40
1.349968612533333
  0
ARC
  5
FC2
330
FA1
100
AcDbEntity
  8
0
  6
Continuous
 62
     2
100
AcDbCircle
 10
19.9437474870324
 20
6.624999684232648
 30
0.0
 40
1.25
100
AcDbArc
 50
255.0000000000056
 51
195.0000000000007
  0
CIRCLE
  5
FC3
330
FA1
100
AcDbEntity
  8
0
  6
Continuous
 62
     7
100
AcDbCircle
 10
19.9437474870324
 20
6.624999684232648
 30
0.0
 40
1.049999999999999
  0
CIRCLE
  5
FC4
330
FA1
100
AcDbEntity
  8
0
  6
Continuous
 62
     7
100
AcDbCircle
 10
11.49999980009943
 20
21.24999968423265
 30
0.0
 40
1.349968612533333
  0
ARC
  5
FC5
330
FA1
100
AcDbEntity
  8
0
  6
Continuous
 62
     2
100
AcDbCircle
 10
11.49999980009943
 20
21.24999968423265
 30
0.0
 40
1.25
100
AcDbArc
 50
255.0000000000056
 51
195.0000000000007
  0
CIRCLE
  5
FC6
330
FA1
100
AcDbEntity
  8
0
  6
Continuous
 62
     7
100
AcDbCircle
 10
11.49999980009943
 20
21.24999968423265
 30
0.0
 40
1.049999999999999
  0
ENDBLK
  5
FC7
330
FA1
100
AcDbEntity
  8
0
100
AcDbBlockEnd
  0
BLOCK
  5
102B
330
FE7
100
AcDbEntity
  8
0
100
AcDbBlockBegin
  2
new A3-S11
 70
     0
 10
0.0
 20
0.0
 30
0.0
  3
new A3-S11
  1

  0
LINE
  5
1045
330
FE7
100
AcDbEntity
  8
0
  6
Continuous
 62
   255
100
AcDbLine
 10
795.462730356111
 20
-277.0
 30
0.0
 11
795.462730356111
 21
0.0
 31
0.0
  0
LINE
  5
1046
330
FE7
100
AcDbEntity
  8
0
  6
Continuous
 62
   255
100
AcDbLine
 10
412.4627639465111
 20
-277.0
 30
0.0
 11
795.462730356111
 21
-277.0
 31
0.0
  0
LINE
  5
1047
330
FE7
100
AcDbEntity
  8
0
  6
Continuous
 62
   255
100
AcDbLine
 10
402.4627639465111
 20
0.0
 30
0.0
 11
402.4627639465111
 21
-222.0000000000001
 31
0.0
  0
LINE
  5
1048
330
FE7
100
AcDbEntity
  8
0
  6
Continuous
 62
   255
100
AcDbLine
 10
402.4627639465111
 20
0.0
 30
0.0
 11
795.462730356111
 21
0.0
 31
0.0
  0
LINE
  5
1049
330
FE7
100
AcDbEntity
  8
1
 62
     2
100
AcDbLine
 10
615.4627303561103
 20
-240.7736213082135
 30
0.0
 11
615.4627303561103
 21
-233.1532223398645
 31
0.0
1001
AcDbBlockRepETag
1070
     1
1071
     2034
1005
0
  0
LINE
  5
104A
330
FE7
100
AcDbEntity
  8
1
 62
     2
100
AcDbLine
 10
755.4627303560963
 20
-240.7736213082135
 30
0.0
 11
615.4627303561103
 21
-240.7736213082135
 31
0.0
1001
AcDbBlockRepETag
1070
     1
1071
     2035
1005
0
  0
LINE
  5
104B
330
FE7
100
AcDbEntity
  8
1
 62
     2
100
AcDbLine
 10
755.4627303560963
 20
-233.1532223398645
 30
0.0
 11
755.4627303560963
 21
-240.7736213082135
 31
0.0
1001
AcDbBlockRepETag
1070
     1
1071
     2036
1005
0
  0
LINE
  5
104C
330
FE7
100
AcDbEntity
  8
1
 62
     2
100
AcDbLine
 10
615.4627303561103
 20
-233.1532223398645
 30
0.0
 11
755.4627303560963
 21
-233.1532223398645
 31
0.0
1001
AcDbBlockRepETag
1070
     1
1071
     2037
1005
0
  0
LINE
  5
104D
330
FE7
100
AcDbEntity
  8
0
  6
Continuous
 62
   255
100
AcDbLine
 10
412.4627639465111
 20
-222.0
 30
0.0
 11
412.4627639465111
 21
-277.0
 31
0.0
1001
AcDbBlockRepETag
1070
     1
1071
     1946
1005
0
  0
LINE
  5
104E
330
FE7
100
AcDbEntity
  8
0
  6
Continuous
 62
   255
100
AcDbLine
 10
412.4627639465111
 20
-222.0
 30
0.0
 11
402.4627639465111
 21
-222.0
 31
0.0
  0
LINE
  5
104F
330
FE7
100
AcDbEntity
  8
0
  6
CENTER
 62
     2
 48
0.2
370
     9
100
AcDbLine
 10
790.0016616277157
 20
-260.4561080562671
 30
0.0
 11
790.0016616277157
 21
-253.4561099688349
 31
0.0
1001
AcDbBlockRepETag
1070
     1
1071
        1
1005
0
  0
LINE
  5
1050
330
FE7
100
AcDbEntity
  8
0
  6
CENTER
 62
     2
 48
0.2
370
     9
100
AcDbLine
 10
775.6438450240919
 20
-256.956109012551
 30
0.0
 11
784.6438425650753
 21
-256.956109012551
 31
0.0
1001
AcDbBlockRepETag
1070
     1
1071
        9
1005
0
  0
LINE
  5
1051
330
FE7
100
AcDbEntity
  8
0
  6
Continuous
 62
   255
100
AcDbLine
 10
784.1438427016878
 20
-253.8561098595453
 30
0.0
 11
776.1438448874794
 21
-255.4561094223869
 31
0.0
1001
AcDbBlockRepETag
1070
     1
1071
       10
1005
0
  0
LINE
  5
1052
330
FE7
100
AcDbEntity
  8
0
  6
Continuous
 62
   255
100
AcDbLine
 10
784.1438427016878
 20
-260.0561081655568
 30
0.0
 11
784.1438427016878
 21
-253.8561098595453
 31
0.0
1001
AcDbBlockRepETag
1070
     1
1071
       11
1005
0
  0
LINE
  5
1053
330
FE7
100
AcDbEntity
  8
0
  6
Continuous
 62
   255
100
AcDbLine
 10
776.1438448874794
 20
-258.4561086027151
 30
0.0
 11
784.1438427016878
 21
-260.0561081655568
 31
0.0
1001
AcDbBlockRepETag
1070
     1
1071
       12
1005
0
  0
LINE
  5
1054
330
FE7
100
AcDbEntity
  8
0
  6
Continuous
 62
   255
100
AcDbLine
 10
776.1438448874794
 20
-255.4561094223869
 30
0.0
 11
776.1438448874794
 21
-258.4561086027151
 31
0.0
1001
AcDbBlockRepETag
1070
     1
1071
       13
1005
0
  0
LINE
  5
1055
330
FE7
100
AcDbEntity
  8
0
  6
Continuous
 62
   255
100
AcDbLine
 10
732.4627505746857
 20
-255.0000010928959
 30
0.0
 11
732.4627505746857
 21
-273.0000010928959
 31
0.0
1001
AcDbBlockRepETag
1070
     1
1071
       20
1005
0
  0
LINE
  5
1056
330
FE7
100
AcDbEntity
  8
0
  6
Continuous
 62
   255
100
AcDbLine
 10
647.4627707932584
 20
-255.0000010928961
 30
0.0
 11
647.4627707932584
 21
-273.0000010928959
 31
0.0
1001
AcDbBlockRepETag
1070
     1
1071
       22
1005
0
  0
LINE
  5
1057
330
FE7
100
AcDbEntity
  8
0
  6
Continuous
 62
   255
100
AcDbLine
 10
612.4627803560981
 20
-233.1532223398645
 30
0.0
 11
612.4627803560981
 21
-277.0
 31
0.0
1001
AcDbBlockRepETag
1070
     1
1071
       26
1005
0
  0
LINE
  5
1058
330
FE7
100
AcDbEntity
  8
0
  6
Continuous
 62
   255
100
AcDbLine
 10
587.4627871866977
 20
-257.5000053278675
 30
0.0
 11
587.462787186698
 21
-277.0
 31
0.0
1001
AcDbBlockRepETag
1070
     1
1071
       29
1005
0
  0
LINE
  5
1059
330
FE7
100
AcDbEntity
  8
0
  6
Continuous
 62
     2
370
     9
100
AcDbLine
 10
429.4627803560981
 20
-266.5000028688518
 30
0.0
 11
612.4627803560981
 21
-266.5000028688518
 31
0.0
1001
AcDbBlockRepETag
1070
     1
1071
       30
1005
0
  0
LINE
  5
105A
330
FE7
100
AcDbEntity
  8
0
  6
Continuous
 62
   255
100
AcDbLine
 10
429.4627803560981
 20
-271.0000016393439
 30
0.0
 11
612.4627803560981
 21
-271.0000016393439
 31
0.0
1001
AcDbBlockRepETag
1070
     1
1071
       31
1005
0
  0
LINE
  5
105B
330
FE7
100
AcDbEntity
  8
0
  6
Continuous
 62
   255
100
AcDbLine
 10
429.4627803560981
 20
-277.0
 30
0.0
 11
429.4627803560979
 21
-233.1532223398645
 31
0.0
1001
AcDbBlockRepETag
1070
     1
1071
       32
1005
0
  0
LINE
  5
105C
330
FE7
100
AcDbEntity
  8
0
  6
Continuous
 62
     2
370
     9
100
AcDbLine
 10
612.4627803560981
 20
-262.0000040983596
 30
0.0
 11
429.4627803560981
 21
-262.0000040983596
 31
0.0
1001
AcDbBlockRepETag
1070
     1
1071
       33
1005
0
  0
LINE
  5
105D
330
FE7
100
AcDbEntity
  8
0
  6
Continuous
 62
   255
100
AcDbLine
 10
562.4627940172972
 20
-257.5000053278675
 30
0.0
 11
562.4627940172975
 21
-277.0
 31
0.0
1001
AcDbBlockRepETag
1070
     1
1071
       34
1005
0
  0
LINE
  5
105E
330
FE7
100
AcDbEntity
  8
0
  6
Continuous
 62
   255
100
AcDbLine
 10
537.4628008478957
 20
-257.5000053278675
 30
0.0
 11
537.4628008478957
 21
-277.0
 31
0.0
1001
AcDbBlockRepETag
1070
     1
1071
       35
1005
0
  0
LINE
  5
105F
330
FE7
100
AcDbEntity
  8
0
  6
Continuous
 62
   255
100
AcDbLine
 10
436.362828470839
 20
-257.5000053278675
 30
0.0
 11
436.362828470839
 21
-277.0
 31
0.0
1001
AcDbBlockRepETag
1070
     1
1071
       36
1005
0
  0
LINE
  5
1060
330
FE7
100
AcDbEntity
  8
0
  6
CENTER
 62
     2
 48
0.2
370
     9
100
AcDbLine
 10
786.4016626113227
 20
-256.956109012551
 30
0.0
 11
793.5016606714325
 21
-256.956109012551
 31
0.0
1001
AcDbBlockRepETag
1070
     1
1071
       37
1005
0
  0
LINE
  5
1061
330
FE7
100
AcDbEntity
  8
0
  6
Continuous
 62
   255
100
AcDbLine
 10
795.4627303561112
 20
-273.0000010928959
 30
0.0
 11
612.4627803560981
 21
-273.0000010928959
 31
0.0
1001
AcDbBlockRepETag
1070
     1
1071
       38
1005
0
  0
CIRCLE
  5
1062
330
FE7
100
AcDbEntity
  8
0
  6
Continuous
 62
   255
100
AcDbCircle
 10
790.0016616277157
 20
-256.956109012551
 30
0.0
 40
3.099999153005696
1001
AcDbBlockRepETag
1070
     1
1071
       39
1005
0
  0
CIRCLE
  5
1063
330
FE7
100
AcDbEntity
  8
0
  6
Continuous
 62
   255
100
AcDbCircle
 10
790.0016616277157
 20
-256.956109012551
 30
0.0
 40
1.499999590164046
1001
AcDbBlockRepETag
1070
     1
1071
       40
1005
0
  0
MTEXT
  5
1064
330
FE7
100
AcDbEntity
  8
0
 62
   255
100
AcDbMText
 10
742.4886817458279
 20
-258.0961633175244
 30
0.0
 40
3.0
 41
0.0
 46
0.0
 71
     1
 72
     5
  1
Scale: X:1
 73
     1
 44
1.0
1001
AcDbBlockRepETag
1070
     1
1071
       46
1005
0
  0
MTEXT
  5
1065
330
FE7
100
AcDbEntity
  8
0
 62
   255
100
AcDbMText
 10
785.9761987320682
 20
-266.1776207634082
 30
0.0
 40
4.5
 41
0.0
 46
0.0
 71
     1
 72
     5
  1
{\fISOCPEUR|b0|i0|c0|p34;\W1;A3}
  7
SLDTEXTSTYLE0
 73
     1
 44
1.0
1001
AcDbBlockRepETag
1070
     1
1071
       50
1005
0
  0
TEXT
  5
1066
330
FE7
100
AcDbEntity
  8
0
  6
Continuous
 62
   255
100
AcDbText
 10
615.999552743995
 20
-275.600626952933
 30
0.0
 40
1.72391304347826
  1
This drawing remains our property. Without written approval it may not be copied, reproduced, communicated or made available to third parties.
100
AcDbText
1001
AcDbBlockRepETag
1070
     1
1071
       51
1005
0
  0
MTEXT
  5
1067
330
FE7
100
AcDbEntity
  8
0
 62
   255
100
AcDbMText
 10
430.8431967639346
 20
-272.4012695934838
 30
0.0
 40
1.999999453552061
 41
0.0
 46
0.0
 71
     1
 72
     5
  1
No.
 73
     1
 44
1.0
1001
AcDbBlockRepETag
1070
     1
1071
       52
1005
0
  0
MTEXT
  5
1068
330
FE7
100
AcDbEntity
  8
0
 62
   255
100
AcDbMText
 10
465.3543791596414
 20
-272.5568974675624
 30
0.0
 40
1.999999453552061
 41
0.0
 46
0.0
 71
     1
 72
     5
  1
Modifications
 73
     1
 44
1.0
1001
AcDbBlockRepETag
1070
     1
1071
       53
1005
0
  0
MTEXT
  5
1069
330
FE7
100
AcDbEntity
  8
0
 62
   255
100
AcDbMText
 10
516.3394128285574
 20
-272.4090513971577
 30
0.0
 40
1.999999453552061
 41
0.0
 46
0.0
 71
     1
 72
     5
  1
Communication
 73
     1
 44
1.0
1001
AcDbBlockRepETag
1070
     1
1071
       54
1005
0
  0
MTEXT
  5
106A
330
FE7
100
AcDbEntity
  8
0
 62
   255
100
AcDbMText
 10
546.4272744208374
 20
-272.4579818509886
 30
0.0
 40
1.999999453552061
 41
0.0
 46
0.0
 71
     1
 72
     5
  1
Drawn
 73
     1
 44
1.0
1001
AcDbBlockRepETag
1070
     1
1071
       55
1005
0
  0
MTEXT
  5
106B
330
FE7
100
AcDbEntity
  8
0
 62
   255
100
AcDbMText
 10
594.082408871658
 20
-272.537497781863
 30
0.0
 40
1.999999453552061
 41
0.0
 46
0.0
 71
     1
 72
     5
  1
Approved
 73
     1
 44
1.0
1001
AcDbBlockRepETag
1070
     1
1071
       56
1005
0
  0
MTEXT
  5
106C
330
FE7
100
AcDbEntity
  8
0
 62
   255
100
AcDbMText
 10
747.2395558258272
 20
-266.23226977527
 30
0.0
 40
4.5
 41
0.0
 46
0.0
 71
     1
 72
     5
  1
{\fISOCPEUR|b0|i0|c0|p34;\W1;\C256;Drg. No.}
  7
SLDTEXTSTYLE0
 73
     1
 44
1.0
1001
AcDbBlockRepETag
1070
     1
1071
       58
1005
0
  0
MTEXT
  5
106D
102
{ACAD_XDICTIONARY
360
1255
102
}
330
FE7
100
AcDbEntity
  8
0
 62
   255
100
AcDbMText
 10
690.4446702144996
 20
-257.668031930731
 30
0.0
 40
4.5
 41
0.0
 46
0.0
 71
     1
 72
     5
  1
\pi-15.075;{\fISOCPEUR|b0|i0|c0|p34;\W1;Description\P\pi-21.15;Outline drawing}
  7
SLDTEXTSTYLE0
 73
     1
 44
1.0
1001
AcDbBlockRepETag
1070
     1
1071
       59
1005
0
  0
MTEXT
  5
106E
330
FE7
100
AcDbEntity
  8
0
 62
     1
100
AcDbMText
 10
614.8696824671969
 20
-259.2996853159084
 30
0.0
 40
5.0
 41
0.0
 46
0.0
 71
     1
 72
     5
  1
{\fISOCPEUR|b0|i0|c0|p34;\W1;Portescap}
  7
SLDTEXTSTYLE0
 73
     1
 44
1.0
1001
AcDbBlockRepETag
1070
     1
1071
       65
1005
0
  0
LINE
  5
106F
330
FE7
100
AcDbEntity
  8
0
  6
Continuous
 62
   255
100
AcDbLine
 10
512.4628076784954
 20
-257.5000053278675
 30
0.0
 11
512.4628076784956
 21
-277.0
 31
0.0
1001
AcDbBlockRepETag
1070
     1
1071
       66
1005
0
  0
MTEXT
  5
1070
330
FE7
100
AcDbEntity
  8
0
 62
   255
100
AcDbMText
 10
569.768144688197
 20
-272.4579818509886
 30
0.0
 40
1.999999453552061
 41
0.0
 46
0.0
 71
     1
 72
     5
  1
Checked
 73
     1
 44
1.0
1001
AcDbBlockRepETag
1070
     1
1071
       67
1005
0
  0
LINE
  5
1071
330
FE7
100
AcDbEntity
  8
0
  6
Continuous
 62
   255
100
AcDbLine
 10
773.534358534004
 20
-250.0008059763035
 30
0.0
 11
773.534358534003
 21
-264.0000010928961
 31
0.0
1001
AcDbBlockRepETag
1070
     1
1071
        5
1005
0
  0
TEXT
  5
1072
330
FE7
100
AcDbEntity
  8
0
  6
Continuous
 62
   255
100
AcDbText
 10
779.6181708028425
 20
-275.600626952933
 30
0.0
 40
1.72391304347826
  1
Sheet 1 of 1
100
AcDbText
1001
AcDbBlockRepETag
1070
     1
1071
       51
1005
0
  0
INSERT
  5
1073
330
FE7
100
AcDbEntity
  8
0
 62
   255
100
AcDbBlockReference
  2
A$C08716F59
 10
429.4627803560979
 20
-257.5000053278673
 30
0.0
  0
LINE
  5
1074
330
FE7
100
AcDbEntity
  8
0
  6
Continuous
 62
   255
100
AcDbLine
 10
647.4627707932584
 20
-269.0000021857919
 30
0.0
 11
612.4627803560981
 21
-269.0000021857919
 31
0.0
1001
AcDbBlockRepETag
1070
     1
1071
       38
1005
0
  0
TEXT
  5
1075
330
FE7
100
AcDbEntity
  8
0
  6
Continuous
 62
   255
100
AcDbText
 10
615.999552743995
 20
-271.7908875797558
 30
0.0
 40
1.72391304347826
  1
PI/R&D/F/18 Rev 00
100
AcDbText
1001
AcDbBlockRepETag
1070
     1
1071
       51
1005
0
  0
MTEXT
  5
1076
330
FE7
100
AcDbEntity
  8
0
  6
Continuous
 62
   255
100
AcDbMText
 10
614.3222225762045
 20
-248.3998440810558
 30
0.0
 40
2.1
 41
122.5201940634145
 46
0.0
 71
     7
 72
     1
  1
Unless & otherwise specified, all dimensions and tolerances are in mm.
  7
style1
 73
     1
 44
1.0
1001
AcDbBlockRepETag
1070
     1
1071
       64
1005
0
  0
LINE
  5
1077
330
FE7
100
AcDbEntity
  8
0
  6
Continuous
 62
   255
100
AcDbLine
 10
612.4627803560981
 20
-250.0008059763035
 30
0.0
 11
795.4627303561112
 21
-250.0008059763035
 31
0.0
1001
AcDbBlockRepETag
1070
     1
1071
        3
1005
0
  0
LINE
  5
1078
330
FE7
100
AcDbEntity
  8
0
  6
Continuous
 62
   255
100
AcDbLine
 10
773.5343585340038
 20
-255.000001092896
 30
0.0
 11
747.743499713406
 21
-255.0000010928961
 31
0.0
1001
AcDbBlockRepETag
1070
     1
1071
       38
1005
0
  0
LINE
  5
1079
330
FE7
100
AcDbEntity
  8
0
  6
Continuous
 62
   255
100
AcDbLine
 10
795.4627303561112
 20
-264.0000010928959
 30
0.0
 11
732.4627505746859
 21
-264.0000010928962
 31
0.0
1001
AcDbBlockRepETag
1070
     1
1071
       38
1005
0
  0
MTEXT
  5
107A
330
FE7
100
AcDbEntity
  8
1
 62
     4
100
AcDbMText
 10
408.137763946511
 20
-249.4153946635623
 30
0.0
 40
4.5
 41
49.18666449634293
 46
0.0
 71
     2
 72
     5
  1
{\C256;Drg. No.}
 11
-0.0000000000000002
 21
-1.0
 31
0.0
 73
     1
 44
1.0
  0
LINE
  5
107B
330
FE7
100
AcDbEntity
  8
0
  6
Continuous
 62
   255
100
AcDbLine
 10
783.462730356111
 20
-273.0000010928959
 30
0.0
 11
783.4627303561108
 21
-264.000001092896
 31
0.0
  0
MTEXT
  5
107C
330
FE7
100
AcDbEntity
  8
1
 62
     3
100
AcDbMText
 10
616.955855400455
 20
-235.2485951401709
 30
0.0
 40
3.5
 41
134.8361601943441
 46
0.0
 71
     1
 72
     5
  1
Technology: Description - no. x.xxx.xx.xxxx
 73
     1
 44
1.0
  0
LINE
  5
107D
330
FE7
100
AcDbEntity
  8
0
  6
Continuous
 62
   255
100
AcDbLine
 10
657.5563534752002
 20
-250.0008059763033
 30
0.0
 11
657.5563534752006
 21
-255.000001092896
 31
0.0
1001
AcDbBlockRepETag
1070
     1
1071
       22
1005
0
  0
LINE
  5
107E
330
FE7
100
AcDbEntity
  8
0
  6
Continuous
 62
   255
100
AcDbLine
 10
747.7434997134055
 20
-250.0008059763033
 30
0.0
 11
747.743499713406
 21
-255.000001092896
 31
0.0
1001
AcDbBlockRepETag
1070
     1
1071
       22
1005
0
  0
LINE
  5
107F
330
FE7
100
AcDbEntity
  8
0
  6
Continuous
 62
   255
100
AcDbLine
 10
777.1060302804662
 20
-277.0
 30
0.0
 11
777.106030280466
 21
-273.0000010928959
 31
0.0
  0
MTEXT
  5
1080
330
FE7
100
AcDbEntity
  8
0
 62
   255
100
AcDbMText
 10
614.2184337595852
 20
-251.1665621572582
 30
0.0
 40
2.5
 41
0.0
 46
0.0
 71
     1
 72
     5
  1
Drawn:
 73
     1
 44
1.0
1001
AcDbBlockRepETag
1070
     1
1071
       46
1005
0
  0
MTEXT
  5
1081
330
FE7
100
AcDbEntity
  8
0
 62
   255
100
AcDbMText
 10
659.8380221434101
 20
-251.1665621572539
 30
0.0
 40
2.5
 41
0.0
 46
0.0
 71
     1
 72
     5
  1
Checked:
 73
     1
 44
1.0
1001
AcDbBlockRepETag
1070
     1
1071
       46
1005
0
  0
MTEXT
  5
1082
330
FE7
100
AcDbEntity
  8
0
 62
   255
100
AcDbMText
 10
705.588009643413
 20
-251.1665621572539
 30
0.0
 40
2.5
 41
0.0
 46
0.0
 71
     1
 72
     5
  1
Approved:
 73
     1
 44
1.0
1001
AcDbBlockRepETag
1070
     1
1071
       46
1005
0
  0
MTEXT
  5
1083
330
FE7
100
AcDbEntity
  8
0
 62
   255
100
AcDbMText
 10
749.3687540007138
 20
-251.1665621572497
 30
0.0
 40
2.5
 41
0.0
 46
0.0
 71
     1
 72
     5
  1
Revision No: 00
 73
     1
 44
1.0
1001
AcDbBlockRepETag
1070
     1
1071
       46
1005
0
  0
LINE
  5
1084
330
FE7
100
AcDbEntity
  8
0
  6
Continuous
 62
   255
100
AcDbLine
 10
747.7434997134057
 20
-255.0000010928962
 30
0.0
 11
612.4627803560981
 21
-255.0000010928959
 31
0.0
1001
AcDbBlockRepETag
1070
     1
1071
       38
1005
0
  0
LINE
  5
1085
330
FE7
100
AcDbEntity
  8
0
  6
Continuous
 62
   255
100
AcDbLine
 10
702.6499265943025
 20
-250.0008059762993
 30
0.0
 11
702.649926594303
 21
-255.0000010928919
 31
0.0
1001
AcDbBlockRepETag
1070
     1
1071
       22
1005
0
  0
ENDBLK
  5
102C
330
FE7
100
AcDbEntity
  8
0
100
AcDbBlockEnd
  0
ENDSEC
  0
SECTION
  2
ENTITIES
  0
INSERT
  5
287
330
74
100
AcDbEntity
  8
0
100
AcDbBlockReference
  2
TOP_TOP_
 10
0.0
 20
0.0
 30
0.0
 41
2.0
 42
2.0
 43
2.0
  0
LINE
  5
BB4
330
74
100
AcDbEntity
  8
1
 62
     3
100
AcDbLine
 10
474.1912337227154
 20
162.0748512659776
 30
0.0
 11
474.1912337227154
 21
160.5748512659776
 31
0.0
  0
LINE
  5
BB5
330
74
100
AcDbEntity
  8
1
 62
     3
100
AcDbLine
 10
474.3012337227154
 20
161.2148512659776
 30
0.0
 11
474.1912337227154
 21
161.3248512659776
 31
0.0
  0
LINE
  5
BB6
330
74
100
AcDbEntity
  8
1
 62
     3
100
AcDbLine
 10
474.0812337227153
 20
161.4348512659776
 30
0.0
 11
474.0812337227153
 21
161.9648512659776
 31
0.0
  0
LINE
  5
BB7
330
74
100
AcDbEntity
  8
1
 62
     3
100
AcDbLine
 10
474.0812337227153
 20
160.6848512659776
 30
0.0
 11
474.0812337227153
 21
161.2148512659776
 31
0.0
  0
LINE
  5
BB8
330
74
100
AcDbEntity
  8
1
 62
     3
100
AcDbLine
 10
474.3012337227154
 20
161.4348512659776
 30
0.0
 11
474.3012337227154
 21
161.9648512659776
 31
0.0
  0
LINE
  5
BB9
330
74
100
AcDbEntity
  8
1
 62
     3
100
AcDbLine
 10
474.3012337227154
 20
160.6848512659776
 30
0.0
 11
474.3012337227154
 21
161.2148512659776
 31
0.0
  0
LINE
  5
BBA
330
74
100
AcDbEntity
  8
1
 62
     3
100
AcDbLine
 10
474.0812337227153
 20
161.4348512659776
 30
0.0
 11
473.5512337227154
 21
161.4348512659776
 31
0.0
  0
LINE
  5
BBB
330
74
100
AcDbEntity
  8
1
 62
     3
100
AcDbLine
 10
474.8312337227154
 20
161.4348512659776
 30
0.0
 11
474.3012337227154
 21
161.4348512659776
 31
0.0
  0
LINE
  5
BBC
330
74
100
AcDbEntity
  8
1
 62
     3
100
AcDbLine
 10
474.9412337227154
 20
161.3248512659776
 30
0.0
 11
473.4412337227154
 21
161.3248512659776
 31
0.0
  0
LINE
  5
BBD
330
74
100
AcDbEntity
  8
1
 62
     3
100
AcDbLine
 10
474.0812337227153
 20
161.2148512659776
 30
0.0
 11
473.5512337227154
 21
161.2148512659776
 31
0.0
  0
LINE
  5
BBE
330
74
100
AcDbEntity
  8
1
 62
     3
100
AcDbLine
 10
474.8312337227154
 20
161.2148512659776
 30
0.0
 11
474.3012337227154
 21
161.2148512659776
 31
0.0
  0
LINE
  5
BBF
330
74
100
AcDbEntity
  8
1
 62
     3
100
AcDbLine
 10
473.5512337227154
 20
161.4348512659776
 30
0.0
 11
473.4412337227154
 21
161.3248512659776
 31
0.0
  0
LINE
  5
BC0
330
74
100
AcDbEntity
  8
1
 62
     3
100
AcDbLine
 10
474.9412337227154
 20
161.3248512659776
 30
0.0
 11
474.8312337227154
 21
161.2148512659776
 31
0.0
  0
LINE
  5
BC1
330
74
100
AcDbEntity
  8
1
 62
     3
100
AcDbLine
 10
474.9412337227154
 20
161.3248512659776
 30
0.0
 11
474.8312337227154
 21
161.4348512659776
 31
0.0
  0
LINE
  5
BC2
330
74
100
AcDbEntity
  8
1
 62
     3
100
AcDbLine
 10
474.1912337227154
 20
162.0748512659776
 30
0.0
 11
474.3012337227154
 21
161.9648512659776
 31
0.0
  0
LINE
  5
BC3
330
74
100
AcDbEntity
  8
1
 62
     3
100
AcDbLine
 10
474.1912337227154
 20
162.0748512659776
 30
0.0
 11
474.0812337227153
 21
161.9648512659776
 31
0.0
  0
LINE
  5
BC4
330
74
100
AcDbEntity
  8
1
 62
     3
100
AcDbLine
 10
473.5512337227154
 20
161.2148512659776
 30
0.0
 11
473.4412337227154
 21
161.3248512659776
 31
0.0
  0
LINE
  5
BC5
330
74
100
AcDbEntity
  8
1
 62
     3
100
AcDbLine
 10
474.1912337227154
 20
160.5748512659776
 30
0.0
 11
474.0812337227153
 21
160.6848512659776
 31
0.0
  0
LINE
  5
BC6
330
74
100
AcDbEntity
  8
1
 62
     3
100
AcDbLine
 10
474.3012337227154
 20
160.6848512659776
 30
0.0
 11
474.1912337227154
 21
160.5748512659776
 31
0.0
  0
LINE
  5
BC7
330
74
100
AcDbEntity
  8
1
 62
     3
100
AcDbLine
 10
474.0812337227153
 20
161.2148512659776
 30
0.0
 11
474.1912337227154
 21
161.3248512659776
 31
0.0
  0
LINE
  5
BC8
330
74
100
AcDbEntity
  8
1
 62
     3
100
AcDbLine
 10
474.1912337227154
 20
161.3248512659776
 30
0.0
 11
474.0812337227153
 21
161.4348512659776
 31
0.0
  0
LINE
  5
BC9
330
74
100
AcDbEntity
  8
1
 62
     3
100
AcDbLine
 10
474.1912337227154
 20
161.3248512659776
 30
0.0
 11
474.3012337227154
 21
161.4348512659776
 31
0.0
  0
LINE
  5
BCA
330
74
100
AcDbEntity
  8
1
 62
   255
100
AcDbLine
 10
394.4436354623801
 20
158.8897161057289
 30
0.0
 11
394.34363546238
 21
158.8897161057289
 31
0.0
  0
LINE
  5
BCB
330
74
100
AcDbEntity
  8
1
 62
   255
100
AcDbLine
 10
394.34363546238
 20
152.7599864262263
 30
0.0
 11
394.34363546238
 21
158.8897161057289
 31
0.0
  0
LINE
  5
BCC
330
74
100
AcDbEntity
  8
1
 62
   255
100
AcDbLine
 10
394.34363546238
 20
152.7599864262263
 30
0.0
 11
394.4436354623801
 21
152.7599864262263
 31
0.0
  0
LINE
  5
BCD
330
74
100
AcDbEntity
  8
1
 62
   255
100
AcDbLine
 10
395.04363546238
 20
157.8248512659776
 30
0.0
 11
395.04363546238
 21
153.8248512659776
 31
0.0
  0
LINE
  5
BCE
330
74
100
AcDbEntity
  8
1
 62
   255
100
AcDbLine
 10
394.79363546238
 20
157.8248512659776
 30
0.0
 11
394.79363546238
 21
153.8248512659776
 31
0.0
  0
LINE
  5
BCF
330
74
100
AcDbEntity
  8
1
 62
     2
100
AcDbLine
 10
427.6936354623801
 20
156.3248512659776
 30
0.0
 11
427.6936354623801
 21
155.3248512659776
 31
0.0
  0
LINE
  5
BD0
330
74
100
AcDbEntity
  8
1
 62
   255
100
AcDbLine
 10
427.6936354623801
 20
156.5748512659776
 30
0.0
 11
427.9436354623801
 21
156.483858707411
 31
0.0
  0
LINE
  5
BD1
330
74
100
AcDbEntity
  8
1
 62
   255
100
AcDbLine
 10
427.6936354623801
 20
155.0748512659776
 30
0.0
 11
427.9436354623801
 21
155.1658438245441
 31
0.0
  0
LINE
  5
BD2
330
74
100
AcDbEntity
  8
1
 62
     2
100
AcDbLine
 10
421.24363546238
 20
159.3248512659774
 30
0.0
 11
421.24363546238
 21
152.3248512659777
 31
0.0
  0
LINE
  5
BD3
330
74
100
AcDbEntity
  8
1
 62
   255
100
AcDbLine
 10
421.24363546238
 20
152.3248512659777
 30
0.0
 11
421.44363546238
 21
152.5248512659777
 31
0.0
  0
LINE
  5
BD4
330
74
100
AcDbEntity
  8
1
 62
   255
100
AcDbLine
 10
421.24363546238
 20
159.3248512659774
 30
0.0
 11
421.44363546238
 21
159.1248512659774
 31
0.0
  0
LINE
  5
BD5
330
74
100
AcDbEntity
  8
1
 62
   255
100
AcDbLine
 10
477.9912337227155
 20
153.8248512659776
 30
0.0
 11
479.126958300724
 21
153.8248512659776
 31
0.0
  0
LINE
  5
BD6
330
74
100
AcDbEntity
  8
1
 62
   255
100
AcDbLine
 10
477.3912337227155
 20
157.2248512659776
 30
0.0
 11
477.3912337227155
 21
154.4248512659776
 31
0.0
  0
LINE
  5
BD7
330
74
100
AcDbEntity
  8
1
 62
   255
100
AcDbLine
 10
479.126958300724
 20
157.8248512659776
 30
0.0
 11
477.9912337227155
 21
157.8248512659776
 31
0.0
  0
LINE
  5
BD8
330
74
100
AcDbEntity
  8
1
 62
     2
100
AcDbLine
 10
472.6912337227154
 20
160.6748512659776
 30
0.0
 11
472.6912337227154
 21
160.9748512659776
 31
0.0
  0
LINE
  5
BD9
330
74
100
AcDbEntity
  8
1
 62
     2
100
AcDbLine
 10
472.6912337227154
 20
160.9748512659776
 30
0.0
 11
470.6912337227154
 21
160.9748512659776
 31
0.0
  0
LINE
  5
BDA
330
74
100
AcDbEntity
  8
1
 62
     2
100
AcDbLine
 10
470.6912337227154
 20
160.9748512659776
 30
0.0
 11
470.6912337227154
 21
160.6748512659776
 31
0.0
  0
LINE
  5
BDB
330
74
100
AcDbEntity
  8
1
 62
     2
100
AcDbLine
 10
470.6912337227154
 20
160.6748512659776
 30
0.0
 11
472.6912337227154
 21
160.6748512659776
 31
0.0
  0
LINE
  5
BDC
330
74
100
AcDbEntity
  8
1
 62
     2
100
AcDbLine
 10
472.6912337227154
 20
150.6748512659776
 30
0.0
 11
472.6912337227154
 21
150.9748512659776
 31
0.0
  0
LINE
  5
BDD
330
74
100
AcDbEntity
  8
1
 62
     2
100
AcDbLine
 10
472.6912337227154
 20
150.9748512659776
 30
0.0
 11
470.6912337227154
 21
150.9748512659776
 31
0.0
  0
LINE
  5
BDE
330
74
100
AcDbEntity
  8
1
 62
     2
100
AcDbLine
 10
470.6912337227154
 20
150.9748512659776
 30
0.0
 11
470.6912337227154
 21
150.6748512659776
 31
0.0
  0
LINE
  5
BDF
330
74
100
AcDbEntity
  8
1
 62
     2
100
AcDbLine
 10
470.6912337227154
 20
150.6748512659776
 30
0.0
 11
472.6912337227154
 21
150.6748512659776
 31
0.0
  0
LINE
  5
BE0
330
74
100
AcDbEntity
  8
1
  6
CENTER
 62
     2
 48
0.3
100
AcDbLine
 10
473.266734947051
 20
150.8248512659776
 30
0.0
 11
470.1561609483285
 21
150.8248512659776
 31
0.0
  0
LINE
  5
BE1
330
74
100
AcDbEntity
  8
1
  6
CENTER
 62
     2
 48
0.3
100
AcDbLine
 10
473.2455200160556
 20
160.8248512659776
 30
0.0
 11
470.0582495330194
 21
160.8248512659776
 31
0.0
  0
LINE
  5
BE2
330
74
100
AcDbEntity
  8
1
  6
CENTER
 62
     2
 48
0.5
100
AcDbLine
 10
465.0386111234792
 20
155.8248512659776
 30
0.0
 11
458.1912337227155
 21
155.8248512659776
 31
0.0
  0
LINE
  5
BE3
330
74
100
AcDbEntity
  8
1
  6
CENTER
 62
     2
100
AcDbLine
 10
471.6912337227154
 20
169.3248512659776
 30
0.0
 11
471.6912337227154
 21
157.8634246173126
 31
0.0
  0
LINE
  5
BE4
330
74
100
AcDbEntity
  8
1
  6
CENTER
 62
     2
 48
0.5
100
AcDbLine
 10
471.6912337227154
 20
153.8584159484626
 30
0.0
 11
471.6912337227154
 21
142.3248512659776
 31
0.0
  0
LINE
  5
BE5
330
74
100
AcDbEntity
  8
1
 62
     2
100
AcDbLine
 10
468.7541097454547
 20
158.8897161057289
 30
0.0
 11
468.5767807342032
 21
158.8897161057289
 31
0.0
  0
LINE
  5
BE6
330
74
100
AcDbEntity
  8
1
 62
     2
100
AcDbLine
 10
467.4985701518967
 20
156.7150577387727
 30
0.0
 11
467.4985701518938
 21
156.7150577387747
 31
0.0
  0
LINE
  5
BE7
330
74
100
AcDbEntity
  8
1
 62
     2
100
AcDbLine
 10
465.0377796536827
 20
152.7599864262262
 30
0.0
 11
465.2151086649341
 21
152.7599864262262
 31
0.0
  0
LINE
  5
BE8
330
74
100
AcDbEntity
  8
1
 62
     2
100
AcDbLine
 10
468.7977958735461
 20
156.1041954502781
 30
0.0
 11
469.457073251031
 21
155.9112579882965
 31
0.0
  0
LINE
  5
BE9
330
74
100
AcDbEntity
  8
1
 62
     2
100
AcDbLine
 10
469.3458909555637
 20
156.2871889283153
 30
0.0
 11
469.7990852260182
 21
156.2871889283153
 31
0.0
  0
LINE
  5
BEA
330
74
100
AcDbEntity
  8
1
 62
     2
100
AcDbLine
 10
468.540442370477
 20
155.7363291988235
 30
0.0
 11
469.1576236169397
 21
155.6114434423983
 31
0.0
  0
LINE
  5
BEB
330
74
100
AcDbEntity
  8
1
 62
     2
100
AcDbLine
 10
468.5316550110551
 20
155.3875213930257
 30
0.0
 11
468.1224948530911
 21
155.3875213930257
 31
0.0
  0
LINE
  5
BEC
330
74
100
AcDbEntity
  8
1
 62
     2
100
AcDbLine
 10
471.2883653246893
 20
155.3714421750685
 30
0.0
 11
471.7172404263312
 21
155.3714421750685
 31
0.0
  0
LINE
  5
BED
330
74
100
AcDbEntity
  8
1
 62
     2
100
AcDbLine
 10
471.3018466817707
 20
156.2816694477958
 30
0.0
 11
471.7160049184666
 21
156.2816694477958
 31
0.0
  0
LINE
  5
BEE
330
74
100
AcDbEntity
  8
1
 62
     2
100
AcDbLine
 10
472.0322644480686
 20
156.2185910859293
 30
0.0
 11
472.4502432860233
 21
156.2185910859293
 31
0.0
  0
LINE
  5
BEF
330
74
100
AcDbEntity
  8
1
 62
     2
100
AcDbLine
 10
472.3245296935689
 20
155.8839178610862
 30
0.0
 11
472.9739762014807
 21
156.0116260321926
 31
0.0
  0
LINE
  5
BF0
330
74
100
AcDbEntity
  8
1
 62
     2
100
AcDbLine
 10
473.1721968379471
 20
155.0670152460308
 30
0.0
 11
473.2209207311637
 21
154.8851752010038
 31
0.0
  0
LINE
  5
BF1
330
74
100
AcDbEntity
  8
1
 62
     2
100
AcDbLine
 10
473.6579401908918
 20
154.8851752010038
 30
0.0
 11
473.2209207311637
 21
154.8851752010038
 31
0.0
  0
LINE
  5
BF2
330
74
100
AcDbEntity
  8
1
 62
     2
100
AcDbLine
 10
473.6423620029
 20
154.9873228263733
 30
0.0
 11
473.6423620029
 21
156.2550362493785
 31
0.0
  0
LINE
  5
BF3
330
74
100
AcDbEntity
  8
1
 62
     2
100
AcDbLine
 10
473.1923620029003
 20
155.7595439151217
 30
0.0
 11
473.1923620029003
 21
155.5692208794818
 31
0.0
  0
LINE
  5
BF4
330
74
100
AcDbEntity
  8
1
 62
     2
100
AcDbLine
 10
472.5987626498918
 20
155.6550507019403
 30
0.0
 11
473.0778103424179
 21
155.7660794755077
 31
0.0
  0
LINE
  5
BF5
330
74
100
AcDbEntity
  8
1
 62
     2
100
AcDbLine
 10
473.9543302203762
 20
156.7340599834038
 30
0.0
 11
473.9543302203762
 21
154.2840599834038
 31
0.0
  0
LINE
  5
BF6
330
74
100
AcDbEntity
  8
1
 62
     2
100
AcDbLine
 10
473.9543302203762
 20
154.2840599834038
 30
0.0
 11
474.4043302203762
 21
154.2840599834038
 31
0.0
  0
LINE
  5
BF7
330
74
100
AcDbEntity
  8
1
 62
     2
100
AcDbLine
 10
474.4043302203762
 20
154.2840599834038
 30
0.0
 11
474.4043302203762
 21
155.1885625424451
 31
0.0
  0
LINE
  5
BF8
330
74
100
AcDbEntity
  8
1
 62
     2
100
AcDbLine
 10
474.4043302203762
 20
156.4295574243626
 30
0.0
 11
474.4043302203762
 21
156.7340599834038
 31
0.0
  0
LINE
  5
BF9
330
74
100
AcDbEntity
  8
1
 62
     2
100
AcDbLine
 10
474.4043302203762
 20
156.7340599834038
 30
0.0
 11
473.9543302203762
 21
156.7340599834038
 31
0.0
  0
LINE
  5
BFA
330
74
100
AcDbEntity
  8
1
 62
     2
100
AcDbLine
 10
467.4985701518938
 20
156.7150577387747
 30
0.0
 11
467.4985701518967
 21
156.7150577387727
 31
0.0
  0
LINE
  5
BFB
330
74
100
AcDbEntity
  8
1
 62
     2
100
AcDbLine
 10
467.3991274153025
 20
155.3881088417351
 30
0.0
 11
467.8282546465887
 21
155.3881088417351
 31
0.0
  0
LINE
  5
BFC
330
74
100
AcDbEntity
  8
1
 62
     2
100
AcDbLine
 10
468.5767807342032
 20
158.8897161057289
 30
0.0
 11
467.3647593748667
 21
156.7904335314988
 31
0.0
  0
LINE
  5
BFD
330
74
100
AcDbEntity
  8
1
 62
     2
100
AcDbLine
 10
468.7541097454547
 20
158.8897161057289
 30
0.0
 11
467.4985701518967
 21
156.7150577387727
 31
0.0
  0
LINE
  5
BFE
330
74
100
AcDbEntity
  8
1
 62
     2
100
AcDbLine
 10
465.0377796536827
 20
152.7599864262262
 30
0.0
 11
466.3006512175505
 21
154.9473441382794
 31
0.0
  0
LINE
  5
BFF
330
74
100
AcDbEntity
  8
1
 62
     2
100
AcDbLine
 10
465.2151086649341
 20
152.7599864262262
 30
0.0
 11
466.4328339573972
 21
154.8691485024341
 31
0.0
  0
LINE
  5
C00
330
74
100
AcDbEntity
  8
1
 62
     2
100
AcDbLine
 10
467.5469748001362
 20
155.9796131707395
 30
0.0
 11
467.1894310864013
 21
155.9796131707395
 31
0.0
  0
LINE
  5
C01
330
74
100
AcDbEntity
  8
1
 62
     2
100
AcDbLine
 10
466.2709864058741
 20
155.9796131707395
 30
0.0
 11
466.7811619674798
 21
155.9796131707395
 31
0.0
  0
LINE
  5
C02
330
74
100
AcDbEntity
  8
1
 62
     2
100
AcDbLine
 10
467.3647593748667
 20
156.7904335314988
 30
0.0
 11
467.4985701518967
 21
156.7150577387727
 31
0.0
  0
LINE
  5
C03
330
74
100
AcDbEntity
  8
1
 62
     2
100
AcDbLine
 10
466.3006512175505
 20
154.9473441382794
 30
0.0
 11
466.4328339573972
 21
154.8691485024341
 31
0.0
  0
LINE
  5
C04
330
74
100
AcDbEntity
  8
1
 62
     2
100
AcDbLine
 10
467.2462118576452
 20
156.7851032085602
 30
0.0
 11
467.0605926544246
 21
156.4636013177215
 31
0.0
  0
LINE
  5
C05
330
74
100
AcDbEntity
  8
1
 62
     2
100
AcDbLine
 10
466.7811619674798
 20
155.9796131707395
 30
0.0
 11
466.6024583127306
 21
155.6700893612157
 31
0.0
  0
LINE
  5
C06
330
74
100
AcDbEntity
  8
1
 62
     2
100
AcDbLine
 10
466.6024583127306
 20
155.6700893612157
 30
0.0
 11
466.2709864058741
 21
155.6700893612157
 31
0.0
  0
LINE
  5
C07
330
74
100
AcDbEntity
  8
1
 62
     2
100
AcDbLine
 10
466.4316128572361
 20
155.3741763520567
 30
0.0
 11
466.2459936540151
 21
155.052674461218
 31
0.0
  0
LINE
  5
C08
330
74
100
AcDbEntity
  8
1
 62
     2
100
AcDbLine
 10
467.5544051054031
 20
156.6117667150849
 30
0.0
 11
467.3699517343492
 21
156.2922841047961
 31
0.0
  0
LINE
  5
C09
330
74
100
AcDbEntity
  8
1
 62
     2
100
AcDbLine
 10
467.1894310864013
 20
155.9796131707395
 30
0.0
 11
467.0107274316491
 21
155.6700893612157
 31
0.0
  0
LINE
  5
C0A
330
74
100
AcDbEntity
  8
1
 62
     2
100
AcDbLine
 10
467.0107274316491
 20
155.6700893612157
 30
0.0
 11
467.9148918640887
 21
155.6700893612157
 31
0.0
  0
LINE
  5
C0B
330
74
100
AcDbEntity
  8
1
 62
     2
100
AcDbLine
 10
466.7346574556893
 20
155.1919221364155
 30
0.0
 11
466.5502040846347
 21
154.8724395261268
 31
0.0
  0
LINE
  5
C0C
330
74
100
AcDbEntity
  8
1
  6
CENTER
 62
     2
 48
0.5
100
AcDbLine
 10
477.4114378472215
 20
155.8248512659776
 30
0.0
 11
485.1912337227152
 21
155.8248512659776
 31
0.0
  0
LINE
  5
C0D
330
74
100
AcDbEntity
  8
1
 62
   255
100
AcDbLine
 10
396.0127210079856
 20
164.6868915629221
 30
0.0
 11
395.6436354623801
 21
164.6868915629221
 31
0.0
  0
LINE
  5
C0E
330
74
100
AcDbEntity
  8
1
 62
   255
100
AcDbLine
 10
395.6436354623801
 20
165.448720471711
 30
0.0
 11
396.0127210079856
 21
165.448720471711
 31
0.0
  0
LINE
  5
C0F
330
74
100
AcDbEntity
  8
1
 62
   255
100
AcDbLine
 10
395.44363546238
 20
157.8248512659776
 30
0.0
 11
394.4436354623801
 21
157.8248512659776
 31
0.0
  0
LINE
  5
C10
330
74
100
AcDbEntity
  8
1
 62
   255
100
AcDbLine
 10
394.4436354623801
 20
153.8248512659776
 30
0.0
 11
395.44363546238
 21
153.8248512659776
 31
0.0
  0
LINE
  5
C11
330
74
100
AcDbEntity
  8
1
 62
   255
100
AcDbLine
 10
395.6457620390907
 20
144.9248512659776
 30
0.0
 11
397.1436354623801
 21
144.9248512659776
 31
0.0
  0
LINE
  5
C12
330
74
100
AcDbEntity
  8
1
 62
   255
100
AcDbLine
 10
421.94363546238
 20
153.5748512659776
 30
0.0
 11
421.44363546238
 21
153.5748512659776
 31
0.0
  0
LINE
  5
C13
330
74
100
AcDbEntity
  8
1
 62
   255
100
AcDbLine
 10
427.6936354623801
 20
155.0748512659776
 30
0.0
 11
421.94363546238
 21
155.0748512659776
 31
0.0
  0
LINE
  5
C14
330
74
100
AcDbEntity
  8
1
 62
   255
100
AcDbLine
 10
397.3168405431372
 20
144.8248512659775
 30
0.0
 11
397.1436354623801
 21
144.9248512659776
 31
0.0
  0
LINE
  5
C15
330
74
100
AcDbEntity
  8
1
 62
   255
100
AcDbLine
 10
420.4436354623799
 20
145.3248512659776
 30
0.0
 11
419.94363546238
 21
144.8248512659778
 31
0.0
  0
LINE
  5
C16
330
74
100
AcDbEntity
  8
1
 62
   255
100
AcDbLine
 10
421.24363546238
 20
152.3248512659777
 30
0.0
 11
420.4436354623799
 21
152.3248512659777
 31
0.0
  0
LINE
  5
C17
330
74
100
AcDbEntity
  8
1
 62
   255
100
AcDbLine
 10
419.94363546238
 20
144.8248512659778
 30
0.0
 11
397.3168405431372
 21
144.8248512659775
 31
0.0
  0
LINE
  5
C18
330
74
100
AcDbEntity
  8
1
 62
   255
100
AcDbLine
 10
388.9436354623801
 20
150.7248512659776
 30
0.0
 11
388.9436354623801
 21
150.9248512659776
 31
0.0
  0
LINE
  5
C19
330
74
100
AcDbEntity
  8
1
 62
   255
100
AcDbLine
 10
394.4436354623801
 20
150.7248512659776
 30
0.0
 11
388.9436354623801
 21
150.7248512659776
 31
0.0
  0
LINE
  5
C1A
330
74
100
AcDbEntity
  8
1
 62
   255
100
AcDbLine
 10
388.9436354623801
 20
150.9248512659776
 30
0.0
 11
394.4436354623801
 21
150.9248512659776
 31
0.0
  0
LINE
  5
C1B
330
74
100
AcDbEntity
  8
1
 62
   255
100
AcDbLine
 10
394.4436354623801
 20
148.1248512659775
 30
0.0
 11
395.44363546238
 21
148.1248512659775
 31
0.0
  0
LINE
  5
C1C
330
74
100
AcDbEntity
  8
1
 62
   255
100
AcDbLine
 10
395.44363546238
 20
145.3248512659776
 30
0.0
 11
395.6457620390907
 21
145.3248512659776
 31
0.0
  0
LINE
  5
C1D
330
74
100
AcDbEntity
  8
1
 62
   255
100
AcDbLine
 10
397.1436354623801
 20
166.7248512659776
 30
0.0
 11
395.6457620390907
 21
166.7248512659776
 31
0.0
  0
LINE
  5
C1E
330
74
100
AcDbEntity
  8
1
 62
   255
100
AcDbLine
 10
395.44363546238
 20
145.3248512659776
 30
0.0
 11
395.44363546238
 21
166.3248512659776
 31
0.0
  0
LINE
  5
C1F
330
74
100
AcDbEntity
  8
1
 62
   255
100
AcDbLine
 10
421.44363546238
 20
158.0748512659776
 30
0.0
 11
421.94363546238
 21
158.0748512659776
 31
0.0
  0
LINE
  5
C20
330
74
100
AcDbEntity
  8
1
 62
   255
100
AcDbLine
 10
421.94363546238
 20
153.5748512659776
 30
0.0
 11
421.94363546238
 21
158.0748512659776
 31
0.0
  0
LINE
  5
C21
330
74
100
AcDbEntity
  8
1
 62
   255
100
AcDbLine
 10
427.9436354623801
 20
155.1658438245441
 30
0.0
 11
427.9436354623801
 21
156.483858707411
 31
0.0
  0
LINE
  5
C22
330
74
100
AcDbEntity
  8
1
 62
   255
100
AcDbLine
 10
421.94363546238
 20
156.5748512659776
 30
0.0
 11
427.6936354623801
 21
156.5748512659776
 31
0.0
  0
LINE
  5
C23
330
74
100
AcDbEntity
  8
1
 62
   255
100
AcDbLine
 10
397.1436354623801
 20
166.7248512659776
 30
0.0
 11
397.3168405431371
 21
166.8248512659777
 31
0.0
  0
LINE
  5
C24
330
74
100
AcDbEntity
  8
1
 62
   255
100
AcDbLine
 10
419.94363546238
 20
166.8248512659774
 30
0.0
 11
420.4436354623799
 21
166.3248512659776
 31
0.0
  0
LINE
  5
C25
330
74
100
AcDbEntity
  8
1
 62
   255
100
AcDbLine
 10
421.44363546238
 20
152.5248512659777
 30
0.0
 11
421.44363546238
 21
159.1248512659774
 31
0.0
  0
LINE
  5
C26
330
74
100
AcDbEntity
  8
1
 62
   255
100
AcDbLine
 10
420.4436354623799
 20
159.3248512659774
 30
0.0
 11
421.24363546238
 21
159.3248512659774
 31
0.0
  0
LINE
  5
C27
330
74
100
AcDbEntity
  8
1
 62
   255
100
AcDbLine
 10
397.3168405431371
 20
166.8248512659777
 30
0.0
 11
419.94363546238
 21
166.8248512659774
 31
0.0
  0
LINE
  5
C28
330
74
100
AcDbEntity
  8
1
 62
   255
100
AcDbLine
 10
420.4436354623799
 20
145.3248512659776
 30
0.0
 11
420.4436354623799
 21
166.3248512659776
 31
0.0
  0
LINE
  5
C29
330
74
100
AcDbEntity
  8
1
 62
     2
100
AcDbLine
 10
419.94363546238
 20
144.8248512659778
 30
0.0
 11
419.94363546238
 21
166.8248512659774
 31
0.0
  0
LINE
  5
C2A
330
74
100
AcDbEntity
  8
1
 62
     2
100
AcDbLine
 10
397.3168405431372
 20
144.8248512659775
 30
0.0
 11
397.3168405431371
 21
166.8248512659777
 31
0.0
  0
LINE
  5
C2B
330
74
100
AcDbEntity
  8
1
 62
   255
100
AcDbLine
 10
397.1436354623801
 20
144.9248512659776
 30
0.0
 11
397.1436354623801
 21
166.7248512659776
 31
0.0
  0
LINE
  5
C2C
330
74
100
AcDbEntity
  8
1
 62
   255
100
AcDbLine
 10
388.9436354623801
 20
160.7248512659776
 30
0.0
 11
388.9436354623801
 21
160.9248512659776
 31
0.0
  0
LINE
  5
C2D
330
74
100
AcDbEntity
  8
1
 62
   255
100
AcDbLine
 10
388.9436354623801
 20
160.9248512659776
 30
0.0
 11
394.4436354623801
 21
160.9248512659776
 31
0.0
  0
LINE
  5
C2E
330
74
100
AcDbEntity
  8
1
 62
   255
100
AcDbLine
 10
394.4436354623801
 20
160.7248512659776
 30
0.0
 11
388.9436354623801
 21
160.7248512659776
 31
0.0
  0
LINE
  5
C2F
330
74
100
AcDbEntity
  8
1
 62
   255
100
AcDbLine
 10
394.4436354623801
 20
148.1248512659775
 30
0.0
 11
394.4436354623801
 21
163.5248512659776
 31
0.0
  0
LINE
  5
C30
330
74
100
AcDbEntity
  8
1
 62
   255
100
AcDbLine
 10
395.44363546238
 20
163.5248512659776
 30
0.0
 11
394.4436354623801
 21
163.5248512659776
 31
0.0
  0
LINE
  5
C31
330
74
100
AcDbEntity
  8
1
 62
   255
100
AcDbLine
 10
395.6457620390907
 20
166.3248512659776
 30
0.0
 11
395.44363546238
 21
166.3248512659776
 31
0.0
  0
LINE
  5
C32
330
74
100
AcDbEntity
  8
1
 62
   255
100
AcDbLine
 10
395.6457620390907
 20
166.7248512659776
 30
0.0
 11
395.6457620390907
 21
144.9248512659776
 31
0.0
  0
LINE
  5
C33
330
74
100
AcDbEntity
  8
1
  6
CENTER
 62
     2
 48
0.5
100
AcDbLine
 10
430.4436354623801
 20
155.8248512659776
 30
0.0
 11
391.94363546238
 21
155.8248512659776
 31
0.0
  0
LINE
  5
C34
330
74
100
AcDbEntity
  8
1
  6
CENTER
 62
     2
 48
0.5
100
AcDbLine
 10
351.9806318568344
 20
169.3248512659776
 30
0.0
 11
351.9806318568344
 21
142.3248512659776
 31
0.0
  0
LINE
  5
C35
330
74
100
AcDbEntity
  8
1
  6
CENTER
 62
     2
 48
0.5
100
AcDbLine
 10
357.9678421498311
 20
166.1950036890471
 30
0.0
 11
351.9806318568344
 21
155.8248512659776
 31
0.0
  0
LINE
  5
C36
330
74
100
AcDbEntity
  8
1
  6
CENTER
 62
     2
 48
0.5
100
AcDbLine
 10
357.967842149831
 20
145.4546988429081
 30
0.0
 11
351.9806318568344
 21
155.8248512659776
 31
0.0
  0
LINE
  5
C37
330
74
100
AcDbEntity
  8
1
  6
CENTER
 62
     2
 48
0.5
100
AcDbLine
 10
365.4806318568344
 20
155.8248512659776
 30
0.0
 11
338.4806318568344
 21
155.8248512659776
 31
0.0
  0
ARC
  5
C38
330
74
100
AcDbEntity
  8
1
 62
     2
100
AcDbCircle
 10
354.9806318568344
 20
161.0210036886842
 30
0.0
 40
0.9999999999999857
100
AcDbArc
 50
180.0
 51
213.0785943220254
  0
ARC
  5
C39
330
74
100
AcDbEntity
  8
1
  6
CENTER
 62
     2
 48
0.5
100
AcDbCircle
 10
351.9806318568344
 20
155.8248512659776
 30
0.0
 40
5.999999999999996
100
AcDbArc
 50
0.0
 51
180.0
  0
ARC
  5
C3A
330
74
100
AcDbEntity
  8
1
  6
CENTER
 62
     2
 48
0.5
100
AcDbCircle
 10
351.9806318568344
 20
155.8248512659776
 30
0.0
 40
6.000000000000002
100
AcDbArc
 50
180.0
 51
0.0
  0
ARC
  5
C3B
330
74
100
AcDbEntity
  8
1
 62
     2
100
AcDbCircle
 10
345.9806318568344
 20
155.8248512659776
 30
0.0
 40
1.00000000000004
100
AcDbArc
 50
328.1216108504196
 51
244.9702765490506
  0
ARC
  5
C3C
330
74
100
AcDbEntity
  8
1
 62
     2
100
AcDbCircle
 10
354.9806318568344
 20
150.6286988432709
 30
0.0
 40
0.999999999999976
100
AcDbArc
 50
89.37332891540888
 51
7.58955779256185
  0
ARC
  5
C3D
330
74
100
AcDbEntity
  8
1
 62
   255
100
AcDbCircle
 10
471.6912337227154
 20
155.8248512659776
 30
0.0
 40
6.199999999999919
100
AcDbArc
 50
9.302821638411378
 51
17.45535610838179
  0
ARC
  5
C3E
330
74
100
AcDbEntity
  8
1
 62
   255
100
AcDbCircle
 10
471.6912337227154
 20
155.8248512659776
 30
0.0
 40
6.950000000000088
100
AcDbArc
 50
8.420249067043272
 51
16.72448326536176
  0
ARC
  5
C3F
330
74
100
AcDbEntity
  8
1
 62
   255
100
AcDbCircle
 10
471.6912337227154
 20
155.8248512659776
 30
0.0
 40
6.950000000000057
100
AcDbArc
 50
343.2755167346382
 51
8.420249067043272
  0
ARC
  5
C40
330
74
100
AcDbEntity
  8
1
 62
   255
100
AcDbCircle
 10
471.6912337227154
 20
155.8248512659776
 30
0.0
 40
6.199999999999942
100
AcDbArc
 50
342.5446438916182
 51
9.302821638411378
  0
ARC
  5
C41
330
74
100
AcDbEntity
  8
1
 62
   255
100
AcDbCircle
 10
465.8662337227154
 20
145.7356553118889
 30
0.0
 40
1.900000000000053
100
AcDbArc
 50
14.76051277347182
 51
105.2394872265167
  0
ARC
  5
C42
330
74
100
AcDbEntity
  8
1
 62
   255
100
AcDbCircle
 10
461.6020377686266
 20
161.6498512659776
 30
0.0
 40
1.899999999999971
100
AcDbArc
 50
284.76051277348
 51
15.2394872265222
  0
ARC
  5
C43
330
74
100
AcDbEntity
  8
1
 62
   255
100
AcDbCircle
 10
477.5162337227154
 20
165.9140472200663
 30
0.0
 40
1.900000000000004
100
AcDbArc
 50
194.7605127734773
 51
285.2394872265167
  0
ARC
  5
C44
330
74
100
AcDbEntity
  8
1
 62
   255
100
AcDbCircle
 10
481.7804296768041
 20
149.9998512659776
 30
0.0
 40
1.900000000000065
100
AcDbArc
 50
104.7605127734766
 51
195.2394872265301
  0
ARC
  5
C45
330
74
100
AcDbEntity
  8
1
 62
   255
100
AcDbCircle
 10
471.6912337227154
 20
155.8248512659776
 30
0.0
 40
7.700000000000065
100
AcDbArc
 50
15.05465063998164
 51
344.9453493600183
  0
ARC
  5
C46
330
74
100
AcDbEntity
  8
1
 62
   255
100
AcDbCircle
 10
471.6912337227154
 20
155.8248512659776
 30
0.0
 40
10.39999999999998
100
AcDbArc
 50
334.6961401543352
 51
6.071487034715195
  0
ARC
  5
C47
330
74
100
AcDbEntity
  8
1
 62
   255
100
AcDbCircle
 10
465.8912337227155
 20
145.7789565820782
 30
0.0
 40
1.499999999999954
100
AcDbArc
 50
25.41407748960507
 51
94.58592251039066
  0
ARC
  5
C48
330
74
100
AcDbEntity
  8
1
 62
   255
100
AcDbCircle
 10
465.8912337227155
 20
145.7789565820782
 30
0.0
 40
1.19999999999998
100
AcDbArc
 50
20.59058932679972
 51
99.40941067319036
  0
ARC
  5
C49
330
74
100
AcDbEntity
  8
1
 62
   255
100
AcDbCircle
 10
481.7371284066149
 20
150.0248512659776
 30
0.0
 40
1.500000000000039
100
AcDbArc
 50
115.4140774896053
 51
184.5859225103964
  0
ARC
  5
C4A
330
74
100
AcDbEntity
  8
1
 62
   255
100
AcDbCircle
 10
481.7371284066149
 20
150.0248512659776
 30
0.0
 40
1.200000000000019
100
AcDbArc
 50
110.5905893268063
 51
189.4094106731961
  0
ARC
  5
C4B
330
74
100
AcDbEntity
  8
1
 62
   255
100
AcDbCircle
 10
477.4912337227155
 20
165.870745949877
 30
0.0
 40
1.49999999999995
100
AcDbArc
 50
205.4140774896043
 51
274.5859225103907
  0
ARC
  5
C4C
330
74
100
AcDbEntity
  8
1
 62
   255
100
AcDbCircle
 10
477.4912337227155
 20
165.870745949877
 30
0.0
 40
1.199999999999989
100
AcDbArc
 50
200.5905893267989
 51
279.4094106731904
  0
ARC
  5
C4D
330
74
100
AcDbEntity
  8
1
 62
   255
100
AcDbCircle
 10
461.6453390388161
 20
161.6248512659776
 30
0.0
 40
1.500000000000049
100
AcDbArc
 50
295.4140774896054
 51
4.585922510396409
  0
ARC
  5
C4E
330
74
100
AcDbEntity
  8
1
 62
   255
100
AcDbCircle
 10
461.6453390388161
 20
161.6248512659776
 30
0.0
 40
1.200000000000024
100
AcDbArc
 50
290.5905893268064
 51
9.409410673196163
  0
ARC
  5
C4F
330
74
100
AcDbEntity
  8
1
 62
   255
100
AcDbCircle
 10
471.6912337227154
 20
155.8248512659776
 30
0.0
 40
10.39999999999999
100
AcDbArc
 50
64.69614015433494
 51
145.3038598456654
  0
ARC
  5
C50
330
74
100
AcDbEntity
  8
1
 62
   255
100
AcDbCircle
 10
471.6912337227154
 20
155.8248512659776
 30
0.0
 40
10.39999999999986
100
AcDbArc
 50
6.071487034715195
 51
55.30385984566329
  0
ARC
  5
C51
330
74
100
AcDbEntity
  8
1
 62
   255
100
AcDbCircle
 10
471.6912337227154
 20
155.8248512659776
 30
0.0
 40
10.39999999999987
100
AcDbArc
 50
244.6961401543351
 51
325.3038598456654
  0
ARC
  5
C52
330
74
100
AcDbEntity
  8
1
 62
     2
100
AcDbCircle
 10
468.8135981681966
 20
155.537526125142
 30
0.0
 40
0.7071953137621115
100
AcDbArc
 50
192.2461595468475
 51
270.3782581676728
  0
ARC
  5
C53
330
74
100
AcDbEntity
  8
1
 62
     2
100
AcDbCircle
 10
468.9594913040027
 20
156.7537080616508
 30
0.0
 40
1.928539625436216
100
AcDbArc
 50
265.8005479234788
 51
280.6788005307464
  0
ARC
  5
C54
330
74
100
AcDbEntity
  8
1
 62
     2
100
AcDbCircle
 10
469.2239849607767
 20
155.4521588789678
 30
0.0
 40
0.6008120230899849
100
AcDbArc
 50
278.8921553666591
 51
348.1487490600184
  0
ARC
  5
C55
330
74
100
AcDbEntity
  8
1
 62
     2
100
AcDbCircle
 10
469.275069768377
 20
155.397940951584
 30
0.0
 40
0.541357736865416
100
AcDbArc
 50
352.6589851694096
 51
3.544966571712672
  0
ARC
  5
C56
330
74
100
AcDbEntity
  8
1
 62
     2
100
AcDbCircle
 10
469.3266671491567
 20
155.4401713868779
 30
0.0
 40
0.4888029638233222
100
AcDbArc
 50
358.9734480355415
 51
74.52685750495868
  0
ARC
  5
C57
330
74
100
AcDbEntity
  8
1
 62
     2
100
AcDbCircle
 10
468.9228036882935
 20
156.5162180086359
 30
0.0
 40
0.4305688590037098
100
AcDbArc
 50
235.6479215627906
 51
253.1221809343618
  0
ARC
  5
C58
330
74
100
AcDbEntity
  8
1
 62
     2
100
AcDbCircle
 10
468.7792104350545
 20
156.3023558350269
 30
0.0
 40
0.1729940719046481
100
AcDbArc
 50
186.1060203309398
 51
234.9428113392366
  0
ARC
  5
C59
330
74
100
AcDbEntity
  8
1
 62
     2
100
AcDbCircle
 10
468.7709465487257
 20
156.2988232754248
 30
0.0
 40
0.164422406558537
100
AcDbArc
 50
128.8395490764919
 51
185.1882929558229
  0
ARC
  5
C5A
330
74
100
AcDbEntity
  8
1
 62
     2
100
AcDbCircle
 10
468.8996432787257
 20
156.1540561714447
 30
0.0
 40
0.3580181605269909
100
AcDbArc
 50
103.7628817153996
 51
130.3525584733798
  0
ARC
  5
C5B
330
74
100
AcDbEntity
  8
1
 62
     2
100
AcDbCircle
 10
468.9592991004873
 20
155.9416935006758
 30
0.0
 40
0.5785235767160608
100
AcDbArc
 50
86.08597970707789
 51
104.4978656958578
  0
ARC
  5
C5C
330
74
100
AcDbEntity
  8
1
 62
     2
100
AcDbCircle
 10
468.976555507244
 20
156.057126138284
 30
0.0
 40
0.4622765603611813
100
AcDbArc
 50
58.84752171309127
 51
87.24328520133932
  0
ARC
  5
C5D
330
74
100
AcDbEntity
  8
1
 62
     2
100
AcDbCircle
 10
469.0731751729908
 20
156.2066883901583
 30
0.0
 40
0.2843487905863306
100
AcDbArc
 50
16.44560305647914
 51
59.91861593151508
  0
ARC
  5
C5E
330
74
100
AcDbEntity
  8
1
 62
     2
100
AcDbCircle
 10
469.1943999329188
 20
156.1952688863527
 30
0.0
 40
0.6116319136581291
100
AcDbArc
 50
8.64353213180809
 51
35.85494828993617
  0
ARC
  5
C5F
330
74
100
AcDbEntity
  8
1
 62
     2
100
AcDbCircle
 10
469.0825634928897
 20
155.9936863669868
 30
0.0
 40
0.8261678430716246
100
AcDbArc
 50
42.65879186464432
 51
72.60868051367559
  0
ARC
  5
C60
330
74
100
AcDbEntity
  8
1
 62
     2
100
AcDbCircle
 10
468.9540968588727
 20
155.2137654742987
 30
0.0
 40
1.612625093780538
100
AcDbArc
 50
76.53853737176719
 51
96.56298068106529
  0
ARC
  5
C61
330
74
100
AcDbEntity
  8
1
 62
     2
100
AcDbCircle
 10
468.8896868026501
 20
155.8756911444718
 30
0.0
 40
0.9477471897575144
100
AcDbArc
 50
97.26832521521901
 51
122.2210075302417
  0
ARC
  5
C62
330
74
100
AcDbEntity
  8
1
 62
     2
100
AcDbCircle
 10
468.6347027391848
 20
156.3072671089257
 30
0.0
 40
0.4469127196634576
100
AcDbArc
 50
124.0667570631906
 51
187.4428258182175
  0
ARC
  5
C63
330
74
100
AcDbEntity
  8
1
 62
     2
100
AcDbCircle
 10
468.7106823248927
 20
156.2272474602361
 30
0.0
 40
0.5195982885538739
100
AcDbArc
 50
177.559219848581
 51
250.8745478795109
  0
ARC
  5
C64
330
74
100
AcDbEntity
  8
1
 62
     2
100
AcDbCircle
 10
469.0747888406228
 20
155.1746902711627
 30
0.0
 40
0.4445390115072767
100
AcDbArc
 50
64.09710862077081
 51
79.26081439310656
  0
ARC
  5
C65
330
74
100
AcDbEntity
  8
1
 62
     2
100
AcDbCircle
 10
469.1435669087211
 20
155.3894982395188
 30
0.0
 40
0.2235637416289074
100
AcDbArc
 50
293.1348433086565
 51
55.87554741729227
  0
ARC
  5
C66
330
74
100
AcDbEntity
  8
1
 62
     2
100
AcDbCircle
 10
468.9603039211941
 20
155.910465640831
 30
0.0
 40
0.7754832859423127
100
AcDbArc
 50
252.2038246608323
 51
290.4621749418947
  0
ARC
  5
C67
330
74
100
AcDbEntity
  8
1
 62
     2
100
AcDbCircle
 10
468.8214183169237
 20
155.4523283233592
 30
0.0
 40
0.2969220632542381
100
AcDbArc
 50
192.6069974816076
 51
250.7021075891207
  0
ARC
  5
C68
330
74
100
AcDbEntity
  8
1
 62
     2
100
AcDbCircle
 10
470.9789133700588
 20
155.9714935673793
 30
0.0
 40
0.4477666809907242
100
AcDbArc
 50
43.84562083048174
 51
66.04034831236524
  0
ARC
  5
C69
330
74
100
AcDbEntity
  8
1
 62
     2
100
AcDbCircle
 10
470.9421365822531
 20
156.0693864280537
 30
0.0
 40
0.3803851981791294
100
AcDbArc
 50
54.92055985323554
 51
129.8581650254166
  0
ARC
  5
C6A
330
74
100
AcDbEntity
  8
1
 62
     2
100
AcDbCircle
 10
471.062982008207
 20
155.9141056018901
 30
0.0
 40
0.5770719857530289
100
AcDbArc
 50
129.187679373039
 51
157.8840925413806
  0
ARC
  5
C6B
330
74
100
AcDbEntity
  8
1
 62
     2
100
AcDbCircle
 10
471.2653689728947
 20
155.8248512659776
 30
0.0
 40
0.7981971655607003
100
AcDbArc
 50
157.4180514147191
 51
202.5819485852839
  0
ARC
  5
C6C
330
74
100
AcDbEntity
  8
1
 62
     2
100
AcDbCircle
 10
471.062982008207
 20
155.7355969300651
 30
0.0
 40
0.5770719857528837
100
AcDbArc
 50
202.1159074586251
 51
230.8123206269153
  0
ARC
  5
C6D
330
74
100
AcDbEntity
  8
1
 62
     2
100
AcDbCircle
 10
470.9421365822531
 20
155.5803161039016
 30
0.0
 40
0.3803851981792535
100
AcDbArc
 50
230.1418349745309
 51
305.449981558804
  0
ARC
  5
C6E
330
74
100
AcDbEntity
  8
1
 62
     2
100
AcDbCircle
 10
470.926878517934
 20
155.6924135100305
 30
0.0
 40
0.4834204270874385
100
AcDbArc
 50
299.2050401229263
 51
318.3974891361503
  0
ARC
  5
C6F
330
74
100
AcDbEntity
  8
1
 62
     2
100
AcDbCircle
 10
471.116238936337
 20
155.5713327374676
 30
0.0
 40
0.6333711612566728
100
AcDbArc
 50
305.8692521755676
 51
341.6030921504782
  0
ARC
  5
C70
330
74
100
AcDbEntity
  8
1
 62
     2
100
AcDbCircle
 10
470.9219170884447
 20
155.7501849463324
 30
0.0
 40
0.8937192090405442
100
AcDbArc
 50
237.3939863756469
 51
309.2480873810675
  0
ARC
  5
C71
330
74
100
AcDbEntity
  8
1
 62
     2
100
AcDbCircle
 10
470.9939111320488
 20
155.8044111059681
 30
0.0
 40
0.9786984671376167
100
AcDbArc
 50
172.796293298282
 51
235.5538317164779
  0
ARC
  5
C72
330
74
100
AcDbEntity
  8
1
 62
     2
100
AcDbCircle
 10
470.9992960436547
 20
155.8605911412881
 30
0.0
 40
0.9786232991645544
100
AcDbArc
 50
137.9909858212634
 51
176.1008874865401
  0
ARC
  5
C73
330
74
100
AcDbEntity
  8
1
 62
     2
100
AcDbCircle
 10
470.9218949866677
 20
155.8930103796551
 30
0.0
 40
0.8998415667663531
100
AcDbArc
 50
57.53771335284758
 51
136.2262152666316
  0
ARC
  5
C74
330
74
100
AcDbEntity
  8
1
 62
     2
100
AcDbCircle
 10
470.9127012507757
 20
155.9231357594004
 30
0.0
 40
0.8796835727920671
100
AcDbArc
 50
24.05235235932182
 51
55.97911486416588
  0
ARC
  5
C75
330
74
100
AcDbEntity
  8
1
 62
     2
100
AcDbCircle
 10
472.7547441578102
 20
156.1522950932269
 30
0.0
 40
0.3116343042213472
100
AcDbArc
 50
121.8060260633969
 51
167.7172331856478
  0
ARC
  5
C76
330
74
100
AcDbEntity
  8
1
 62
     2
100
AcDbCircle
 10
472.8436484293707
 20
155.9425970740214
 30
0.0
 40
0.5378378852444241
100
AcDbArc
 50
74.7463241370053
 51
118.0784571655693
  0
ARC
  5
C77
330
74
100
AcDbEntity
  8
1
 62
     2
100
AcDbCircle
 10
472.8950812367502
 20
156.1034946711829
 30
0.0
 40
0.3691490062904089
100
AcDbArc
 50
51.59722000619938
 51
75.8778512487099
  0
ARC
  5
C78
330
74
100
AcDbEntity
  8
1
 62
     2
100
AcDbCircle
 10
473.0190853209436
 20
156.2551770770807
 30
0.0
 40
0.1732766819563016
100
AcDbArc
 50
359.9263763828477
 51
52.57420250080642
  0
ARC
  5
C79
330
74
100
AcDbEntity
  8
1
 62
     2
100
AcDbCircle
 10
472.9454612133273
 20
156.2568821038059
 30
0.0
 40
0.2469081716196718
100
AcDbArc
 50
276.6317863024708
 51
359.5526709009356
  0
ARC
  5
C7A
330
74
100
AcDbEntity
  8
1
 62
     2
100
AcDbCircle
 10
472.4457681572011
 20
155.3788015978934
 30
0.0
 40
0.5194624186654515
100
AcDbArc
 50
103.4968659180913
 51
156.9532876936617
  0
ARC
  5
C7B
330
74
100
AcDbEntity
  8
1
 62
     2
100
AcDbCircle
 10
472.3740200766887
 20
155.3886215395788
 30
0.0
 40
0.4500000000004671
100
AcDbArc
 50
154.5268028297454
 51
223.1100370045389
  0
ARC
  5
C7C
330
74
100
AcDbEntity
  8
1
 62
     2
100
AcDbCircle
 10
472.5816144143073
 20
155.5829531076465
 30
0.0
 40
0.7343592223912009
100
AcDbArc
 50
223.1100370045298
 51
284.5320844693641
  0
ARC
  5
C7D
330
74
100
AcDbEntity
  8
1
 62
     2
100
AcDbCircle
 10
472.4690035249243
 20
156.0118493534082
 30
0.0
 40
1.177791291334744
100
AcDbArc
 50
284.5996359617068
 51
306.6584872134082
  0
ARC
  5
C7E
330
74
100
AcDbEntity
  8
1
 62
     2
100
AcDbCircle
 10
473.8662256810463
 20
154.9692018158704
 30
0.0
 40
0.2245958980364354
100
AcDbArc
 50
175.3721897772823
 51
201.9701532844128
  0
ARC
  5
C7F
330
74
100
AcDbEntity
  8
1
 62
     2
100
AcDbCircle
 10
473.2035056850867
 20
156.2524955886045
 30
0.0
 40
0.4388636720462376
100
AcDbArc
 50
0.3316974311714953
 51
60.95576375926851
  0
ARC
  5
C80
330
74
100
AcDbEntity
  8
1
 62
     2
100
AcDbCircle
 10
472.9094617062021
 20
155.835502392995
 30
0.0
 40
0.9477471897575924
100
AcDbArc
 50
57.65173435168184
 51
82.76010081258226
  0
ARC
  5
C81
330
74
100
AcDbEntity
  8
1
 62
     2
100
AcDbCircle
 10
472.8484687734386
 20
155.4347997168747
 30
0.0
 40
1.352978733492167
100
AcDbArc
 50
82.33625991964208
 51
104.9294685082398
  0
ARC
  5
C82
330
74
100
AcDbEntity
  8
1
 62
     2
100
AcDbCircle
 10
472.7073106397523
 20
156.0862169951685
 30
0.0
 40
0.6879027989559129
100
AcDbArc
 50
107.5483126330999
 51
168.9052886273568
  0
ARC
  5
C83
330
74
100
AcDbEntity
  8
1
 62
     2
100
AcDbCircle
 10
472.7856521495377
 20
155.5716483719241
 30
0.0
 40
0.4067170976756664
100
AcDbArc
 50
322.5463866680339
 51
359.6580279060695
  0
ARC
  5
C84
330
74
100
AcDbEntity
  8
1
 62
     2
100
AcDbCircle
 10
472.7386472785836
 20
155.6662603406867
 30
0.0
 40
0.5037200381545017
100
AcDbArc
 50
250.5060657364281
 51
317.247088179561
  0
ARC
  5
C85
330
74
100
AcDbEntity
  8
1
 62
     2
100
AcDbCircle
 10
472.64266772131
 20
155.4209135425557
 30
0.0
 40
0.2405621477565544
100
AcDbArc
 50
130.5305763680823
 51
252.5556958816253
  0
ARC
  5
C86
330
74
100
AcDbEntity
  8
1
 62
     2
100
AcDbCircle
 10
472.7321051249622
 20
155.2139534925071
 30
0.0
 40
0.4608112019338047
100
AcDbArc
 50
106.8199227512463
 51
122.2311942502935
  0
ARC
  5
C87
330
74
100
AcDbEntity
  8
1
 62
     2
100
AcDbCircle
 10
473.0734037647433
 20
155.7918608559718
 30
0.0
 40
0.0261552577015799
100
AcDbArc
 50
279.6993211364585
 51
334.8900926197709
  0
ARC
  5
C88
330
74
100
AcDbEntity
  8
1
 62
     2
100
AcDbCircle
 10
473.1423620029
 20
155.7595439151217
 30
0.0
 40
0.0500000000001961
100
AcDbArc
 50
0.0
 51
154.8900926193964
  0
ARC
  5
C89
330
74
100
AcDbEntity
  8
1
 62
     2
100
AcDbCircle
 10
475.0160107506306
 20
155.5370932560142
 30
0.0
 40
0.7040076202664045
100
AcDbArc
 50
209.674147229302
 51
272.6552724791944
  0
ARC
  5
C8A
330
74
100
AcDbEntity
  8
1
 62
     2
100
AcDbCircle
 10
474.8755760982311
 20
155.7780306158614
 30
0.0
 40
0.95991616205101
100
AcDbArc
 50
280.385783542498
 51
323.4498711021907
  0
ARC
  5
C8B
330
74
100
AcDbEntity
  8
1
 62
     2
100
AcDbCircle
 10
474.7155076728031
 20
155.7718140046178
 30
0.0
 40
1.089431462526923
100
AcDbArc
 50
328.7333652057495
 51
1.943231747327603
  0
ARC
  5
C8C
330
74
100
AcDbEntity
  8
1
 62
     2
100
AcDbCircle
 10
474.6842937014546
 20
155.8331068336432
 30
0.0
 40
1.12028360093438
100
AcDbArc
 50
358.7544954338617
 51
31.97030092249923
  0
ARC
  5
C8D
330
74
100
AcDbEntity
  8
1
 62
     2
100
AcDbCircle
 10
474.8881984745453
 20
155.8630896260562
 30
0.0
 40
0.9350802971434642
100
AcDbArc
 50
37.03370119803488
 51
80.10810004738717
  0
ARC
  5
C8E
330
74
100
AcDbEntity
  8
1
 62
     2
100
AcDbCircle
 10
475.0160107506306
 20
156.0810267107935
 30
0.0
 40
0.7040076202664635
100
AcDbArc
 50
87.32756207076866
 51
150.325852770698
  0
ARC
  5
C8F
330
74
100
AcDbEntity
  8
1
 62
     2
100
AcDbCircle
 10
474.8903265535483
 20
155.6249853672787
 30
0.0
 40
0.4416275847084031
100
AcDbArc
 50
217.2440081313275
 51
266.8872637860355
  0
ARC
  5
C90
330
74
100
AcDbEntity
  8
1
 62
     2
100
AcDbCircle
 10
474.8521857433228
 20
155.5914973866421
 30
0.0
 40
0.4077339928333036
100
AcDbArc
 50
271.9902107344801
 51
321.4149951007972
  0
ARC
  5
C91
330
74
100
AcDbEntity
  8
1
 62
     2
100
AcDbCircle
 10
474.6230165193268
 20
155.7837326238426
 30
0.0
 40
0.7068022781091715
100
AcDbArc
 50
320.8199767100756
 51
2.053694166855263
  0
ARC
  5
C92
330
74
100
AcDbEntity
  8
1
 62
     2
100
AcDbCircle
 10
474.6230165193268
 20
155.8343906279097
 30
0.0
 40
0.7068022781089844
100
AcDbArc
 50
357.9463058331357
 51
39.18002328999204
  0
ARC
  5
C93
330
74
100
AcDbEntity
  8
1
 62
     2
100
AcDbCircle
 10
474.8521857433228
 20
156.0266258651102
 30
0.0
 40
0.4077339928332951
100
AcDbArc
 50
38.58500489931755
 51
87.64255875674793
  0
ARC
  5
C94
330
74
100
AcDbEntity
  8
1
 62
     2
100
AcDbCircle
 10
474.8503644087421
 20
156.0113959556664
 30
0.0
 40
0.4230276136189249
100
AcDbArc
 50
87.4809308484277
 51
137.1554117760317
  0
ARC
  5
C95
330
74
100
AcDbEntity
  8
1
 62
     2
100
AcDbCircle
 10
475.2360120095697
 20
155.8273196970689
 30
0.0
 40
0.8406502646430064
100
AcDbArc
 50
145.8638725184155
 51
213.961075567924
  0
ARC
  5
C96
330
74
100
AcDbEntity
  8
1
 62
     2
100
AcDbCircle
 10
466.9089806030052
 20
155.8248512659776
 30
0.0
 40
1.067746880289712
100
AcDbArc
 50
56.4832317118714
 51
56.48323171205933
  0
ARC
  5
C97
330
74
100
AcDbEntity
  8
1
 62
     2
100
AcDbCircle
 10
466.9089806030052
 20
155.8248512659776
 30
0.0
 40
1.067746880289712
100
AcDbArc
 50
56.4832317118714
 51
56.48323171205933
  0
ARC
  5
C98
330
74
100
AcDbEntity
  8
1
 62
     2
100
AcDbCircle
 10
466.9089806030052
 20
155.8248512659776
 30
0.0
 40
1.067746880289712
100
AcDbArc
 50
56.4832317118714
 51
56.48323171205933
  0
ARC
  5
C99
330
74
100
AcDbEntity
  8
1
 62
     2
100
AcDbCircle
 10
466.9089806030052
 20
155.8248512659776
 30
0.0
 40
1.017746880289817
100
AcDbArc
 50
249.3584493969322
 51
334.5878449147905
  0
ARC
  5
C9A
330
74
100
AcDbEntity
  8
1
 62
     2
100
AcDbCircle
 10
466.9089806030052
 20
155.8248512659776
 30
0.0
 40
0.6564966433564898
100
AcDbArc
 50
254.6012268351925
 51
318.2975535069274
  0
ARC
  5
C9B
330
74
100
AcDbEntity
  8
1
 62
     2
100
AcDbCircle
 10
466.9089806030052
 20
155.8248512659776
 30
0.0
 40
0.656496643356585
100
AcDbArc
 50
76.64751593784131
 51
166.3648078910121
  0
ARC
  5
C9C
330
74
100
AcDbEntity
  8
1
 62
     2
100
AcDbCircle
 10
466.9089806030052
 20
155.8248512659776
 30
0.0
 40
0.6564966433565967
100
AcDbArc
 50
193.6351921089886
 51
223.3524840621423
  0
ARC
  5
C9D
330
74
100
AcDbEntity
  8
1
 62
     2
100
AcDbCircle
 10
466.9089806030052
 20
155.8248512659776
 30
0.0
 40
1.017746880289851
100
AcDbArc
 50
70.64921523564625
 51
229.3507847643449
  0
ARC
  5
C9E
330
74
100
AcDbEntity
  8
1
 62
     2
100
AcDbCircle
 10
466.9089806030052
 20
155.8248512659776
 30
0.0
 40
1.01774688029006
100
AcDbArc
 50
351.253485738374
 51
50.64155060234524
  0
ARC
  5
C9F
330
74
100
AcDbEntity
  8
1
 62
     2
100
AcDbCircle
 10
466.9089806030052
 20
155.8248512659776
 30
0.0
 40
0.6564966433565137
100
AcDbArc
 50
13.63519210899015
 51
45.39877316408257
  0
ARC
  5
CA0
330
74
100
AcDbEntity
  8
1
 62
   255
100
AcDbCircle
 10
471.6912337227154
 20
155.8248512659776
 30
0.0
 40
10.3999999999998
100
AcDbArc
 50
154.6961401543352
 51
235.3038598456662
  0
ARC
  5
CA1
330
74
100
AcDbEntity
  8
1
 62
   255
100
AcDbCircle
 10
396.0127210079856
 20
165.0678060173165
 30
0.0
 40
0.3809144543944498
100
AcDbArc
 50
270.0
 51
90.0
  0
ARC
  5
CA2
330
74
100
AcDbEntity
  8
1
 62
   255
100
AcDbCircle
 10
395.7284438192469
 20
150.4884288521845
 30
0.0
 40
0.6651916431331912
100
AcDbArc
 50
262.6751600404337
 51
97.32483995956627
  0
ARC
  5
CA3
330
74
100
AcDbEntity
  8
1
 62
     2
100
AcDbCircle
 10
354.9806318568344
 20
161.0210036886842
 30
0.0
 40
0.9999999999999795
100
AcDbArc
 50
0.0
 51
180.0
  0
ARC
  5
CA4
330
74
100
AcDbEntity
  8
1
 62
     2
100
AcDbCircle
 10
354.9806318568344
 20
161.0210036886842
 30
0.0
 40
0.9999999999999788
100
AcDbArc
 50
297.0903135947291
 51
0.0
  0
CIRCLE
  5
CA5
330
74
100
AcDbEntity
  8
1
 62
   255
100
AcDbCircle
 10
474.1912337227154
 20
161.3248512659776
 30
0.0
 40
1.0
  0
CIRCLE
  5
CA6
330
74
100
AcDbEntity
  8
1
 62
     3
100
AcDbCircle
 10
351.9806318568344
 20
155.8248512659776
 30
0.0
 40
2.499999999999994
  0
CIRCLE
  5
CA7
330
74
100
AcDbEntity
  8
1
 62
     3
100
AcDbCircle
 10
354.9806318568344
 20
150.6286988432709
 30
0.0
 40
0.7834999999999983
  0
CIRCLE
  5
CA8
330
74
100
AcDbEntity
  8
1
 62
     3
100
AcDbCircle
 10
345.9806318568344
 20
155.8248512659776
 30
0.0
 40
0.7835000000000023
  0
CIRCLE
  5
CA9
330
74
100
AcDbEntity
  8
1
 62
     3
100
AcDbCircle
 10
354.9806318568344
 20
161.0210036886842
 30
0.0
 40
0.7835000000000001
  0
CIRCLE
  5
CAA
330
74
100
AcDbEntity
  8
1
 62
   255
100
AcDbCircle
 10
471.6912337227154
 20
155.8248512659776
 30
0.0
 40
9.410769515458712
  0
CIRCLE
  5
CAB
330
74
100
AcDbEntity
  8
1
 62
   255
100
AcDbCircle
 10
471.6912337227154
 20
155.8248512659776
 30
0.0
 40
8.810769515458641
  0
CIRCLE
  5
CAC
330
74
100
AcDbEntity
  8
1
 62
   255
100
AcDbCircle
 10
471.6912337227154
 20
155.8248512659776
 30
0.0
 40
10.99999999999993
  0
CIRCLE
  5
CAD
330
74
100
AcDbEntity
  8
1
 62
   255
100
AcDbCircle
 10
471.6912337227154
 20
155.8248512659776
 30
0.0
 40
10.69999999999983
  0
CIRCLE
  5
CAE
330
74
100
AcDbEntity
  8
1
 62
     2
100
AcDbCircle
 10
476.7938390906418
 20
156.1630637159403
 30
0.0
 40
0.5292000000000036
  0
CIRCLE
  5
CAF
330
74
100
AcDbEntity
  8
1
 62
   255
100
AcDbCircle
 10
351.9806318568344
 20
155.8248512659776
 30
0.0
 40
3.49999999999999
  0
CIRCLE
  5
CB0
330
74
100
AcDbEntity
  8
1
 62
     3
100
AcDbCircle
 10
351.9806318568344
 20
155.8248512659776
 30
0.0
 40
2.25
  0
CIRCLE
  5
CB1
330
74
100
AcDbEntity
  8
1
 62
     2
100
AcDbCircle
 10
351.9806318568344
 20
155.8248512659776
 30
0.0
 40
10.49999999999998
  0
CIRCLE
  5
CB2
330
74
100
AcDbEntity
  8
1
 62
   255
100
AcDbCircle
 10
351.9806318568344
 20
155.8248512659776
 30
0.0
 40
10.99999999999978
  0
CIRCLE
  5
CB3
330
74
100
AcDbEntity
  8
1
 62
   255
100
AcDbCircle
 10
351.9806318568344
 20
155.8248512659776
 30
0.0
 40
0.75
  0
ARC
  5
CB4
330
74
100
AcDbEntity
  8
1
 62
   255
100
AcDbCircle
 10
477.9912337227155
 20
154.4248512659776
 30
0.0
 40
0.6000000000000228
100
AcDbArc
 50
180.0
 51
270.0
  0
ARC
  5
CB5
330
74
100
AcDbEntity
  8
1
 62
   255
100
AcDbCircle
 10
477.9912337227155
 20
157.2248512659776
 30
0.0
 40
0.600000000000001
100
AcDbArc
 50
90.0
 51
180.0
  0
TEXT
  5
CB6
330
74
100
AcDbEntity
  8
1
 62
     2
100
AcDbText
 10
476.5538390906418
 20
155.8630637159403
 30
0.0
 40
0.6
  1
R
 72
     1
 11
476.7938390906418
 21
156.1630637159403
 31
0.0
100
AcDbText
 73
     2
  0
DIMENSION
  5
CB7
330
74
100
AcDbEntity
  8
1
  6
Continuous
 62
     2
100
AcDbDimension
  2
*D71
 10
420.4436354623799
 20
134.8231691981226
 30
0.0
 11
417.4805681664473
 21
136.3113598260305
 31
0.0
 70
   160
 71
     5
 73
     0
 74
     0
 75
     0
  3
DMST_1
100
AcDbAlignedDimension
 13
421.44363546238
 23
152.5248512659777
 33
0.0
 14
420.4436354623799
 24
145.3248512659776
 34
0.0
100
AcDbRotatedDimension
1001
ACAD
1000
DSTYLE
1002
{
1070
   172
1070
     1
1002
}
  0
DIMENSION
  5
CB8
330
74
100
AcDbEntity
  8
1
  6
Continuous
 62
     2
100
AcDbDimension
  2
*D72
 10
421.44363546238
 20
134.8231691981226
 30
0.0
 11
424.6936354623801
 21
136.6231691981226
 31
0.0
 70
    32
  1
(<>)
 71
     5
 42
6.500000000000113
 73
     0
 74
     0
 75
     0
  3
DMST_1
100
AcDbAlignedDimension
 13
427.9436354623801
 23
155.1658438245441
 33
0.0
 14
421.44363546238
 24
152.5248512659777
 34
0.0
100
AcDbRotatedDimension
  0
DIMENSION
  5
CB9
330
74
100
AcDbEntity
  8
1
  6
Continuous
 62
     2
100
AcDbDimension
  2
*D73
 10
455.6936354623801
 20
160.8248512659776
 30
0.0
 11
454.0686354623801
 21
155.8248512659777
 31
0.0
 70
    32
 71
     5
 42
10.0
 73
     0
 74
     0
 75
     0
  3
DMST_1
100
AcDbAlignedDimension
 13
470.1561609483285
 23
150.8248512659776
 33
0.0
 14
470.0582495330194
 24
160.8248512659776
 34
0.0
 50
90.0
100
AcDbRotatedDimension
  0
DIMENSION
  5
CBA
330
74
100
AcDbEntity
  8
1
  6
Continuous
 62
     2
100
AcDbDimension
  2
*D74
 10
470.6912337227154
 20
171.831083609158
 30
0.0
 11
471.6912337227154
 21
174.331083609158
 31
0.0
 70
    32
 71
     5
 42
2.0
 73
     0
 74
     0
 75
     0
  3
DMST_1
100
AcDbAlignedDimension
 13
472.6912337227154
 23
160.9748512659776
 33
0.0
 14
470.6912337227154
 24
160.9748512659776
 34
0.0
100
AcDbRotatedDimension
1001
ACAD
1000
DSTYLE
1002
{
1070
   172
1070
     1
1002
}
  0
DIMENSION
  5
CBB
330
74
100
AcDbEntity
  8
1
  6
Continuous
 62
     2
100
AcDbDimension
  2
*D75
 10
355.9806318568344
 20
172.1317211060174
 30
0.0
 11
365.6556318568344
 21
172.1317211060174
 31
0.0
 70
   160
  1
M<>x2 max.
 71
     5
 42
1.999999999999943
 73
     0
 74
     0
 75
     0
  3
DMST_1
100
AcDbAlignedDimension
 13
353.9806318568345
 23
161.0210036886842
 33
0.0
 14
355.9806318568344
 24
161.0210036886842
 34
0.0
100
AcDbRotatedDimension
1001
ACAD
1000
DSTYLE
1002
{
1070
   172
1070
     1
1070
   279
1070
     0
1002
}
  0
DIMENSION
  5
CBC
330
74
100
AcDbEntity
  8
1
  6
Continuous
 62
     2
100
AcDbDimension
  2
*D76
 10
421.94363546238
 20
139.8287680325204
 30
0.0
 11
424.94363546238
 21
141.4537680325204
 31
0.0
 70
    32
 71
     5
 42
6.000000000000113
 73
     0
 74
     0
 75
     0
  3
DMST_1
100
AcDbAlignedDimension
 13
427.9436354623801
 23
155.1658438245441
 33
0.0
 14
421.94363546238
 24
153.5748512659776
 34
0.0
100
AcDbRotatedDimension
1001
ACAD
1000
DSTYLE
1002
{
1070
    47
1040
0.5
1070
    48
1040
0.5
1070
    71
1070
     1
1070
   146
1040
0.75
1070
   272
1070
     1
1070
   279
1070
     0
1002
}
  0
DIMENSION
  5
CBD
330
74
100
AcDbEntity
  8
1
  6
Continuous
 62
     2
100
AcDbDimension
  2
*D77
 10
420.4436354623799
 20
129.845331074994
 30
0.0
 11
424.1936354623801
 21
129.845331074994
 31
0.0
 70
   160
 71
     5
 42
7.500000000000113
 73
     0
 74
     0
 75
     0
  3
DMST_1
100
AcDbAlignedDimension
 13
427.9436354623801
 23
155.1658438245441
 33
0.0
 14
420.4436354623799
 24
145.3248512659776
 34
0.0
100
AcDbRotatedDimension
1001
ACAD
1000
DSTYLE
1002
{
1070
    47
1040
0.5
1070
    48
1040
0.5
1070
    71
1070
     1
1070
   146
1040
0.75
1070
   272
1070
     1
1070
   279
1070
     0
1002
}
  0
DIMENSION
  5
CBE
330
74
100
AcDbEntity
  8
1
  6
Continuous
 62
     2
100
AcDbDimension
  2
*D78
 10
394.4436354623801
 20
129.8390762863792
 30
0.0
 11
391.69363546238
 21
131.4640762863792
 31
0.0
 70
    32
 71
     5
 42
5.499999999999943
 73
     0
 74
     0
 75
     0
  3
DMST_1
100
AcDbAlignedDimension
 13
388.9436354623801
 23
150.7248512659776
 33
0.0
 14
394.4436354623801
 24
148.1248512659775
 34
0.0
100
AcDbRotatedDimension
1001
ACAD
1000
DSTYLE
1002
{
1070
   172
1070
     1
1002
}
  0
DIMENSION
  5
CBF
330
74
100
AcDbEntity
  8
1
  6
Continuous
 62
     2
100
AcDbDimension
  2
*D79
 10
394.4436354623801
 20
129.8390762863792
 30
0.0
 11
407.44363546238
 21
131.4640762863792
 31
0.0
 70
    32
 71
     5
 42
26.0
 73
     0
 74
     0
 75
     0
  3
DMST_1
100
AcDbAlignedDimension
 13
420.4436354623799
 23
145.3248512659776
 33
0.0
 14
394.4436354623801
 24
148.1248512659775
 34
0.0
100
AcDbRotatedDimension
  0
DIMENSION
  5
CC0
330
74
100
AcDbEntity
  8
1
  6
Continuous
 62
     2
100
AcDbDimension
  2
*D80
 10
365.4806318568344
 20
155.8248512659776
 30
0.0
 11
344.7680738439863
 21
143.3323343351867
 31
0.0
 70
    34
  1
3x<>
 71
     5
 42
2.094395102393195
 73
     0
 74
     0
 75
     0
  3
DMST_1
100
AcDb2LineAngularDimension
 13
357.967842149831
 23
145.4546988429081
 33
0.0
 14
351.9806318568344
 24
155.8248512659776
 34
0.0
 15
338.4806318568344
 25
155.8248512659776
 35
0.0
 16
339.6855296639351
 26
145.5080355506288
 36
0.0
  0
LINE
  5
CC3
330
74
100
AcDbEntity
  8
1
 62
     2
100
AcDbLine
 10
390.7110350454533
 20
163.5248512659776
 30
0.0
 11
390.7110350454533
 21
170.7462396836674
 31
0.0
  0
LINE
  5
CC4
330
74
100
AcDbEntity
  8
1
 62
     2
100
AcDbLine
 10
394.4436354623801
 20
163.5248512659776
 30
0.0
 11
390.2110350454533
 21
163.5248512659776
 31
0.0
  0
SOLID
  5
CC5
330
74
100
AcDbEntity
  8
1
 62
     2
100
AcDbTrace
 10
390.7110350454533
 20
163.5248512659776
 30
0.0
 11
390.4835350454533
 21
165.2748512659776
 31
0.0
 12
390.9385350454533
 22
165.2748512659776
 32
0.0
 13
390.9385350454533
 23
165.2748512659776
 33
0.0
  0
TEXT
  5
CC6
330
74
100
AcDbEntity
  8
1
 62
     3
100
AcDbText
 10
390.2174792132936
 20
165.2044872373012
 30
0.0
 40
1.75
  1
%%C15.4
 50
90.0
100
AcDbText
  0
LINE
  5
CC7
330
74
100
AcDbEntity
  8
1
 62
     2
100
AcDbLine
 10
432.9358620068529
 20
156.5748512659776
 30
0.0
 11
432.9358620068529
 21
167.6311267969773
 31
0.0
  0
LINE
  5
CC8
330
74
100
AcDbEntity
  8
1
 62
     2
100
AcDbLine
 10
427.6936354623801
 20
156.5748512659776
 30
0.0
 11
433.4358620068528
 21
156.5748512659776
 31
0.0
  0
SOLID
  5
CC9
330
74
100
AcDbEntity
  8
1
 62
     2
100
AcDbTrace
 10
432.9358620068529
 20
156.5748512659776
 30
0.0
 11
432.7083620068528
 21
158.3248512659776
 31
0.0
 12
433.1633620068529
 22
158.3248512659776
 32
0.0
 13
433.1633620068529
 23
158.3248512659776
 33
0.0
  0
TEXT
  5
CCA
330
74
100
AcDbEntity
  8
1
 62
     3
100
AcDbText
 10
431.0389870068529
 20
158.5633600861355
 30
0.0
 40
1.75
  1
%%C1.5
 50
90.0
100
AcDbText
  0
TEXT
  5
CCB
330
74
100
AcDbEntity
  8
1
 62
     3
100
AcDbText
 10
429.7921120068528
 20
163.2701267969773
 30
0.0
 40
1.225
  1
-0.006
 50
90.0
100
AcDbText
  0
TEXT
  5
CCC
330
74
100
AcDbEntity
  8
1
 62
     3
100
AcDbText
 10
431.8133620068529
 20
163.2701267969773
 30
0.0
 40
1.225
  1
-0.009
 50
90.0
100
AcDbText
  0
LINE
  5
CCD
330
74
100
AcDbEntity
  8
1
 62
     2
100
AcDbLine
 10
426.7084294539176
 20
159.3248512659774
 30
0.0
 11
426.7084294539176
 21
168.9368333010708
 31
0.0
  0
LINE
  5
CCE
330
74
100
AcDbEntity
  8
1
 62
     2
100
AcDbLine
 10
421.24363546238
 20
159.3248512659774
 30
0.0
 11
427.2084294539176
 21
159.3248512659774
 31
0.0
  0
SOLID
  5
CCF
330
74
100
AcDbEntity
  8
1
 62
     2
100
AcDbTrace
 10
426.7084294539176
 20
159.3248512659774
 30
0.0
 11
426.4809294539175
 21
161.0748512659774
 31
0.0
 12
426.9359294539176
 22
161.0748512659774
 32
0.0
 13
426.9359294539176
 23
161.0748512659774
 33
0.0
  0
TEXT
  5
CD0
330
74
100
AcDbEntity
  8
1
 62
     3
100
AcDbText
 10
425.3684889645247
 20
160.551137500016
 30
0.0
 40
1.75
  1
%%C7
 50
90.0
100
AcDbText
  0
TEXT
  5
CD1
330
74
100
AcDbEntity
  8
1
 62
     3
100
AcDbText
 10
424.1566139645246
 20
163.5251835613381
 30
0.0
 40
1.225
  1
 0
 50
90.0
100
AcDbText
  0
TEXT
  5
CD2
330
74
100
AcDbEntity
  8
1
 62
     3
100
AcDbText
 10
426.0553639645246
 20
163.5251835613381
 30
0.0
 40
1.225
  1
-0.022
 50
90.0
100
AcDbText
  0
LINE
  5
CD3
330
74
100
AcDbEntity
  8
1
 62
     2
100
AcDbLine
 10
412.4536428811963
 20
166.8248512659777
 30
0.0
 11
412.4536428811963
 21
174.9512450800159
 31
0.0
  0
SOLID
  5
CD4
330
74
100
AcDbEntity
  8
1
 62
     2
100
AcDbTrace
 10
412.4536428811963
 20
166.8248512659777
 30
0.0
 11
412.2261428811964
 21
168.5748512659777
 31
0.0
 12
412.6811428811964
 22
168.5748512659777
 32
0.0
 13
412.6811428811964
 23
168.5748512659777
 33
0.0
  0
TEXT
  5
CD5
330
74
100
AcDbEntity
  8
1
 62
     3
100
AcDbText
 10
411.6016628376293
 20
167.757848916336
 30
0.0
 40
1.75
  1
%%C22
 50
90.0
100
AcDbText
  0
TEXT
  5
CD6
330
74
100
AcDbEntity
  8
1
 62
     3
100
AcDbText
 10
410.0419838739129
 20
172.0254827410081
 30
0.0
 40
1.225
  1
 0
 50
90.0
100
AcDbText
  0
TEXT
  5
CD7
330
74
100
AcDbEntity
  8
1
 62
     3
100
AcDbText
 10
411.9407338739129
 20
172.0254827410081
 30
0.0
 40
1.225
  1
-0.1
 50
90.0
100
AcDbText
  0
LINE
  5
CD8
330
74
100
AcDbEntity
  8
1
 62
     2
100
AcDbLine
 10
396.122135113454
 20
166.7248512659776
 30
0.0
 11
396.122135113454
 21
174.1171090426651
 31
0.0
  0
LINE
  5
CD9
330
74
100
AcDbEntity
  8
1
 62
     2
100
AcDbLine
 10
395.6457620390907
 20
166.7248512659776
 30
0.0
 11
396.622135113454
 21
166.7248512659776
 31
0.0
  0
SOLID
  5
CDA
330
74
100
AcDbEntity
  8
1
 62
     2
100
AcDbTrace
 10
396.122135113454
 20
166.7248512659776
 30
0.0
 11
395.894635113454
 21
168.4748512659776
 31
0.0
 12
396.3496351134541
 22
168.4748512659776
 32
0.0
 13
396.3496351134541
 23
168.4748512659776
 33
0.0
  0
TEXT
  5
CDB
330
74
100
AcDbEntity
  8
1
 62
     3
100
AcDbText
 10
395.7558018282588
 20
168.5664501096179
 30
0.0
 40
1.75
  1
%%C21.8
 50
90.0
100
AcDbText
  0
DIMENSION
  5
CDC
330
74
100
AcDbEntity
  8
0
100
AcDbDimension
  2
*D81
 10
395.44363546238
 20
139.3151972642179
 30
0.0
 11
391.875682263313
 21
141.0804378870329
 31
0.0
 70
   160
 71
     5
 73
     0
 74
     0
 75
     0
  3
DMST_1
100
AcDbAlignedDimension
 13
394.4436354623801
 23
148.1248512659775
 33
0.0
 14
395.44363546238
 24
145.3248512659776
 34
0.0
100
AcDbRotatedDimension
1001
ACAD
1000
DSTYLE
1002
{
1070
   172
1070
     1
1070
   173
1070
     1
1070
   344
1005
A36
1002
}
  0
DIMENSION
  5
CDD
330
74
100
AcDbEntity
  8
0
100
AcDbDimension
  2
*D82
 10
397.1436354623801
 20
139.3151972642179
 30
0.0
 11
398.961063877479
 21
141.1685895909365
 31
0.0
 70
   160
 71
     5
 42
1.700000000000045
 73
     0
 74
     0
 75
     0
  3
DMST_1
100
AcDbAlignedDimension
 13
395.44363546238
 23
145.3248512659776
 33
0.0
 14
397.1436354623801
 24
144.9248512659776
 34
0.0
100
AcDbRotatedDimension
1001
ACAD
1000
DSTYLE
1002
{
1070
   172
1070
     1
1070
   173
1070
     1
1070
   343
1005
A36
1002
}
  0
CIRCLE
  5
CDE
330
74
100
AcDbEntity
  8
0
 62
     2
100
AcDbCircle
 10
351.9806318568344
 20
155.8248512659776
 30
0.0
 40
3.299999999999783
  0
LINE
  5
1088
330
74
100
AcDbEntity
  8
0
  6
Continuous
 62
   255
100
AcDbLine
 10
501.6351680891084
 20
62.83714413499911
 30
0.0
 11
501.6351680891084
 21
201.3371441349991
 31
0.0
  0
LINE
  5
1089
330
74
100
AcDbEntity
  8
0
  6
Continuous
 62
   255
100
AcDbLine
 10
492.456818051286
 20
62.83714413499911
 30
0.0
 11
492.4568180512859
 21
64.83714358855116
 31
0.0
  0
LINE
  5
108A
330
74
100
AcDbEntity
  8
0
  6
Continuous
 62
   255
100
AcDbLine
 10
495.6351680891084
 20
64.83714358855116
 30
0.0
 11
495.6351680891083
 21
69.3371435885511
 31
0.0
  0
LINE
  5
108B
330
74
100
AcDbEntity
  8
0
  6
Continuous
 62
   255
100
AcDbLine
 10
305.1351848843085
 20
62.83714413499911
 30
0.0
 11
501.6351680891084
 21
62.83714413499911
 31
0.0
  0
LINE
  5
108C
330
74
100
AcDbEntity
  8
0
  6
Continuous
 62
   255
100
AcDbLine
 10
305.1351848843085
 20
201.3371441349991
 30
0.0
 11
305.1351848843085
 21
62.8371441349991
 31
0.0
  0
LINE
  5
108D
330
74
100
AcDbEntity
  8
0
  6
Continuous
 62
   255
100
AcDbLine
 10
305.1351848843085
 20
201.3371441349991
 30
0.0
 11
501.6351680891084
 21
201.3371441349991
 31
0.0
  0
LINE
  5
1094
330
74
100
AcDbEntity
  8
0
  6
CENTER
 62
     2
 48
0.2
370
     9
100
AcDbLine
 10
498.9046337249107
 20
71.10909010686555
 30
0.0
 11
498.9046337249107
 21
74.60908915058166
 31
0.0
1001
AcDbBlockRepETag
1070
     1
1071
        1
1005
0
  0
LINE
  5
1095
330
74
100
AcDbEntity
  8
0
  6
CENTER
 62
     2
 48
0.2
370
     9
100
AcDbLine
 10
491.7257254230988
 20
72.85908962872361
 30
0.0
 11
496.2257241935906
 21
72.85908962872361
 31
0.0
1001
AcDbBlockRepETag
1070
     1
1071
        9
1005
0
  0
LINE
  5
1096
330
74
100
AcDbEntity
  8
0
  6
Continuous
 62
   255
100
AcDbLine
 10
495.9757242618969
 20
74.40908920522645
 30
0.0
 11
491.9757253547926
 21
73.60908942380564
 31
0.0
1001
AcDbBlockRepETag
1070
     1
1071
       10
1005
0
  0
LINE
  5
1097
330
74
100
AcDbEntity
  8
0
  6
Continuous
 62
   255
100
AcDbLine
 10
495.9757242618969
 20
71.30909005222071
 30
0.0
 11
495.9757242618969
 21
74.40908920522645
 31
0.0
1001
AcDbBlockRepETag
1070
     1
1071
       11
1005
0
  0
LINE
  5
1098
330
74
100
AcDbEntity
  8
0
  6
Continuous
 62
   255
100
AcDbLine
 10
491.9757253547926
 20
72.10908983364157
 30
0.0
 11
495.9757242618969
 21
71.30909005222071
 31
0.0
1001
AcDbBlockRepETag
1070
     1
1071
       12
1005
0
  0
LINE
  5
1099
330
74
100
AcDbEntity
  8
0
  6
Continuous
 62
   255
100
AcDbLine
 10
491.9757253547926
 20
73.60908942380564
 30
0.0
 11
491.9757253547926
 21
72.10908983364157
 31
0.0
1001
AcDbBlockRepETag
1070
     1
1071
       13
1005
0
  0
LINE
  5
109A
330
74
100
AcDbEntity
  8
0
  6
Continuous
 62
   255
100
AcDbLine
 10
470.1351781983958
 20
73.83714358855115
 30
0.0
 11
470.1351781983958
 21
64.83714358855116
 31
0.0
1001
AcDbBlockRepETag
1070
     1
1071
       20
1005
0
  0
LINE
  5
109B
330
74
100
AcDbEntity
  8
0
  6
Continuous
 62
   255
100
AcDbLine
 10
427.6351883076821
 20
73.83714358855105
 30
0.0
 11
427.6351883076821
 21
64.83714358855116
 31
0.0
1001
AcDbBlockRepETag
1070
     1
1071
       22
1005
0
  0
LINE
  5
109C
330
74
100
AcDbEntity
  8
0
  6
Continuous
 62
   255
100
AcDbLine
 10
432.681979648653
 20
76.33674114684743
 30
0.0
 11
432.6819796486533
 21
73.8371435885511
 31
0.0
1001
AcDbBlockRepETag
1070
     1
1071
       22
1005
0
  0
LINE
  5
109D
330
74
100
AcDbEntity
  8
0
  6
Continuous
 62
   255
100
AcDbLine
 10
477.7755527677556
 20
76.33674114684743
 30
0.0
 11
477.7755527677559
 21
73.8371435885511
 31
0.0
1001
AcDbBlockRepETag
1070
     1
1071
       22
1005
0
  0
LINE
  5
109E
330
74
100
AcDbEntity
  8
0
  6
Continuous
 62
   255
100
AcDbLine
 10
410.1351930891019
 20
76.33674114684737
 30
0.0
 11
410.135193089102
 21
62.83714413499911
 31
0.0
1001
AcDbBlockRepETag
1070
     1
1071
       26
1005
0
  0
LINE
  5
10A7
330
74
100
AcDbEntity
  8
0
  6
CENTER
 62
     2
 48
0.2
370
     9
100
AcDbLine
 10
497.1046342167142
 20
72.85908962872361
 30
0.0
 11
500.6546332467691
 21
72.85908962872361
 31
0.0
1001
AcDbBlockRepETag
1070
     1
1071
       37
1005
0
  0
LINE
  5
10A8
330
74
100
AcDbEntity
  8
0
  6
Continuous
 62
   255
100
AcDbLine
 10
501.6351680891085
 20
64.83714358855116
 30
0.0
 11
410.135193089102
 21
64.83714358855116
 31
0.0
1001
AcDbBlockRepETag
1070
     1
1071
       38
1005
0
  0
LINE
  5
10A9
330
74
100
AcDbEntity
  8
0
  6
Continuous
 62
   255
100
AcDbLine
 10
490.6709821780548
 20
73.8371435885511
 30
0.0
 11
477.7755527677559
 21
73.83714358855105
 31
0.0
1001
AcDbBlockRepETag
1070
     1
1071
       38
1005
0
  0
LINE
  5
10AA
330
74
100
AcDbEntity
  8
0
  6
Continuous
 62
   255
100
AcDbLine
 10
477.7755527677558
 20
73.83714358855098
 30
0.0
 11
410.135193089102
 21
73.83714358855115
 31
0.0
1001
AcDbBlockRepETag
1070
     1
1071
       38
1005
0
  0
LINE
  5
10AB
330
74
100
AcDbEntity
  8
0
  6
Continuous
 62
   255
100
AcDbLine
 10
501.6351680891085
 20
69.33714358855116
 30
0.0
 11
470.1351781983959
 21
69.33714358855098
 31
0.0
1001
AcDbBlockRepETag
1070
     1
1071
       38
1005
0
  0
CIRCLE
  5
10AC
330
74
100
AcDbEntity
  8
0
  6
Continuous
 62
   255
100
AcDbCircle
 10
498.9046337249107
 20
72.85908962872361
 30
0.0
 40
1.549999576502847
1001
AcDbBlockRepETag
1070
     1
1071
       39
1005
0
  0
CIRCLE
  5
10AD
330
74
100
AcDbEntity
  8
0
  6
Continuous
 62
   255
100
AcDbCircle
 10
498.9046337249107
 20
72.85908962872361
 30
0.0
 40
0.7499997950820232
1001
AcDbBlockRepETag
1070
     1
1071
       40
1005
0
  0
MTEXT
  5
10AE
330
74
100
AcDbEntity
  8
0
 62
   255
100
AcDbMText
 10
475.1481437839669
 20
72.28906247623689
 30
0.0
 40
1.5
 41
0.0
 46
0.0
 71
     1
 72
     5
  1
Scale: 2:1
 73
     1
 44
1.0
1001
AcDbBlockRepETag
1070
     1
1071
       46
1005
0
  0
MTEXT
  5
10AF
330
74
100
AcDbEntity
  8
0
 62
   255
100
AcDbMText
 10
496.8919022770871
 20
68.24833375329501
 30
0.0
 40
2.25
 41
0.0
 46
0.0
 71
     1
 72
     5
  1
{\fISOCPEUR|b0|i0|c0|p34;\W1;A3}
  7
SLDTEXTSTYLE0
 73
     1
 44
1.0
1001
AcDbBlockRepETag
1070
     1
1071
       50
1005
0
  0
TEXT
  5
10B0
330
74
100
AcDbEntity
  8
0
  6
Continuous
 62
   255
100
AcDbText
 10
411.9035792830504
 20
63.5368306585326
 30
0.0
 40
0.8619565217391304
  1
This drawing remains our property. Without written approval it may not be copied, reproduced, communicated or made available to third parties.
100
AcDbText
1001
AcDbBlockRepETag
1070
     1
1071
       51
1005
0
  0
MTEXT
  5
10B6
330
74
100
AcDbEntity
  8
0
 62
   255
100
AcDbMText
 10
474.4923307388017
 20
68.22100924736412
 30
0.0
 40
2.25
 41
0.0
 46
0.0
 71
     1
 72
     5
  1
{\fISOCPEUR|b0|i0|c0|p34;\W1;\C256;1.011.22S.S25}
  7
SLDTEXTSTYLE0
 73
     1
 44
1.0
1001
AcDbBlockRepETag
1070
     1
1071
       58
1005
0
  0
MTEXT
  5
10B7
102
{ACAD_XDICTIONARY
360
1257
102
}
330
74
100
AcDbEntity
  8
0
 62
   255
100
AcDbMText
 10
449.1261380183027
 20
72.50312816963361
 30
0.0
 40
2.25
 41
0.0
 46
0.0
 71
     1
 72
     5
  1
\pi-6.3;{\fISOCPEUR|b0|i0|c0|p34;\W1;22S 28 .1\P\pi-10.575;Outline drawing}
  7
SLDTEXTSTYLE0
 73
     1
 44
1.0
1001
AcDbBlockRepETag
1070
     1
1071
       59
1005
0
  0
MTEXT
  5
10B8
330
74
100
AcDbEntity
  8
0
 62
     1
100
AcDbMText
 10
411.3386441446514
 20
71.68730147704491
 30
0.0
 40
2.5
 41
0.0
 46
0.0
 71
     1
 72
     5
  1
{\fISOCPEUR|b0|i0|c0|p34;\W1;Portescap}
  7
SLDTEXTSTYLE0
 73
     1
 44
1.0
1001
AcDbBlockRepETag
1070
     1
1071
       65
1005
0
  0
LINE
  5
10BB
330
74
100
AcDbEntity
  8
0
  6
Continuous
 62
   255
100
AcDbLine
 10
490.6709821780549
 20
76.33674114684737
 30
0.0
 11
490.6709821780545
 21
69.33714358855104
 31
0.0
1001
AcDbBlockRepETag
1070
     1
1071
        5
1005
0
  0
TEXT
  5
10BC
330
74
100
AcDbEntity
  8
0
  6
Continuous
 62
   255
100
AcDbText
 10
493.7128883124741
 20
63.5368306585326
 30
0.0
 40
0.8619565217391304
  1
Sheet 1 of 1
100
AcDbText
1001
AcDbBlockRepETag
1070
     1
1071
       51
1005
0
  0
LINE
  5
10BE
330
74
100
AcDbEntity
  8
0
  6
Continuous
 62
   255
100
AcDbLine
 10
427.6351883076821
 20
66.83714304210315
 30
0.0
 11
410.135193089102
 21
66.83714304210315
 31
0.0
1001
AcDbBlockRepETag
1070
     1
1071
       38
1005
0
  0
TEXT
  5
10BF
330
74
100
AcDbEntity
  8
0
  6
Continuous
 62
   255
100
AcDbText
 10
411.9035792830504
 20
65.4417003451212
 30
0.0
 40
0.8619565217391304
  1
PI/R&D/F/18 Rev 00
100
AcDbText
1001
AcDbBlockRepETag
1070
     1
1071
       51
1005
0
  0
MTEXT
  5
10C0
330
74
100
AcDbEntity
  8
0
  6
Continuous
 62
   255
100
AcDbMText
 10
411.0649141991551
 20
77.13722209447121
 30
0.0
 40
1.05
 41
61.26009703170726
 46
0.0
 71
     7
 72
     1
  1
Unless & otherwise specified, all dimensions and tolerances are in mm.
  7
style1
 73
     1
 44
1.0
1001
AcDbBlockRepETag
1070
     1
1071
       64
1005
0
  0
LINE
  5
10C1
330
74
100
AcDbEntity
  8
0
  6
Continuous
 62
   255
100
AcDbLine
 10
410.135193089102
 20
76.33674114684737
 30
0.0
 11
501.6351680891085
 21
76.33674114684737
 31
0.0
1001
AcDbBlockRepETag
1070
     1
1071
        3
1005
0
  0
MTEXT
  5
10C4
330
74
100
AcDbEntity
  8
0
 62
   255
100
AcDbMText
 10
411.0130197908455
 20
75.75386305637
 30
0.0
 40
1.25
 41
0.0
 46
0.0
 71
     1
 72
     5
  1
Drawn: 05.08.13 NB
 73
     1
 44
1.0
1001
AcDbBlockRepETag
1070
     1
1071
       46
1005
0
  0
MTEXT
  5
10C5
330
74
100
AcDbEntity
  8
0
 62
   255
100
AcDbMText
 10
433.822813982758
 20
75.75386305637215
 30
0.0
 40
1.25
 41
0.0
 46
0.0
 71
     1
 72
     5
  1
Checked:
 73
     1
 44
1.0
1001
AcDbBlockRepETag
1070
     1
1071
       46
1005
0
  0
MTEXT
  5
10C6
330
74
100
AcDbEntity
  8
0
 62
   255
100
AcDbMText
 10
456.6978077327594
 20
75.75386305637215
 30
0.0
 40
1.25
 41
0.0
 46
0.0
 71
     1
 72
     5
  1
Approved:
 73
     1
 44
1.0
1001
AcDbBlockRepETag
1070
     1
1071
       46
1005
0
  0
MTEXT
  5
10C7
330
74
100
AcDbEntity
  8
0
 62
   255
100
AcDbMText
 10
478.5881799114098
 20
75.75386305637426
 30
0.0
 40
1.25
 41
0.0
 46
0.0
 71
     1
 72
     5
  1
Revision No: 00
 73
     1
 44
1.0
1001
AcDbBlockRepETag
1070
     1
1071
       46
1005
0
  0
LINE
  5
10C8
330
74
100
AcDbEntity
  8
0
  6
Continuous
 62
   255
100
AcDbLine
 10
455.2287662082042
 20
76.33674114684947
 30
0.0
 11
455.2287662082044
 21
73.83714358855314
 31
0.0
1001
AcDbBlockRepETag
1070
     1
1071
       22
1005
0
  0
LINE
  5
114C
330
74
100
AcDbEntity
  8
1
 62
     2
100
AcDbLine
 10
345.9806318568344
 20
176.8270539931001
 30
0.0
 11
353.6781318568344
 21
176.8270539931001
 31
0.0
  0
LINE
  5
114D
330
74
100
AcDbEntity
  8
1
 62
     2
100
AcDbLine
 10
345.9806318568344
 20
155.8248512659776
 30
0.0
 11
345.9806318568344
 21
177.3270539931001
 31
0.0
  0
SOLID
  5
114E
330
74
100
AcDbEntity
  8
1
 62
     2
100
AcDbTrace
 10
345.9806318568344
 20
176.8270539931001
 30
0.0
 11
347.7306318568345
 21
177.0545539931001
 31
0.0
 12
347.7306318568345
 22
176.5995539931001
 32
0.0
 13
347.7306318568345
 23
176.5995539931001
 33
0.0
  0
TEXT
  5
114F
330
74
100
AcDbEntity
  8
1
 62
     3
100
AcDbText
 10
350.1853691444509
 20
177.4533433206138
 30
0.0
 40
1.75
  1
%%C12
100
AcDbText
  0
ENDSEC
  0
SECTION
  2
OBJECTS
  0
DICTIONARY
  5
C
330
0
100
AcDbDictionary
281
     1
  3
ACAD_COLOR
350
6A
  3
ACAD_GROUP
350
D
  3
ACAD_LAYOUT
350
69
  3
ACAD_MATERIAL
350
10
  3
ACAD_MLEADERSTYLE
350
6D
  3
ACAD_MLINESTYLE
350
66
  3
ACAD_PLOTSETTINGS
350
68
  3
ACAD_PLOTSTYLENAME
350
E
  3
ACAD_SCALELIST
350
3A
  3
ACAD_TABLESTYLE
350
6B
  3
ACAD_VISUALSTYLE
350
29
  3
ACDB_RECOMPOSE_DATA
350
123F
  3
AcDbVariableDictionary
350
1240
  0
DICTIONARY
  5
FE5
330
2
100
AcDbDictionary
280
     1
281
     1
  3
ACAD_LAYERSTATES
360
FE6
  0
DICTIONARY
  5
288
330
5C
100
AcDbDictionary
280
     1
281
     1
  3
ADSK_XREC_LAYER_RECONCILED
360
289
  0
DICTIONARY
  5
28A
330
84
100
AcDbDictionary
280
     1
281
     1
  3
ADSK_XREC_LAYER_RECONCILED
360
28B
  0
DICTIONARY
  5
954
330
74
100
AcDbDictionary
280
     1
281
     1
  3
ACAD_SORTENTS
360
955
  0
DICTIONARY
  5
42E
330
16D
100
AcDbDictionary
280
     1
281
     1
  0
DICTIONARY
  5
E1C
330
E1B
100
AcDbDictionary
280
     1
281
     1
  3
ACAD_SORTENTS
360
E1D
  0
DICTIONARY
  5
E57
330
E56
100
AcDbDictionary
280
     1
281
     1
  3
ACAD_SORTENTS
360
E58
  0
DICTIONARY
  5
E9F
330
E9E
100
AcDbDictionary
280
     1
281
     1
  3
ACAD_SORTENTS
360
EA0
  0
DICTIONARY
  5
EA6
330
EA5
100
AcDbDictionary
280
     1
281
     1
  3
ACAD_SORTENTS
360
EA7
  0
DICTIONARY
  5
EBC
330
EBB
100
AcDbDictionary
280
     1
281
     1
  3
ACAD_SORTENTS
360
EBD
  0
DICTIONARY
  5
FA2
330
FA1
100
AcDbDictionary
280
     1
281
     1
  3
ACAD_SORTENTS
360
FA3
  0
DICTIONARY
  5
1029
330
FE7
100
AcDbDictionary
280
     1
281
     1
  3
ACAD_SORTENTS
360
1086
  0
DICTIONARY
  5
1255
330
106D
100
AcDbDictionary
280
     1
281
     1
  3
ACAD_MTEXT_2008_RT
360
1256
  0
DICTIONARY
  5
1257
330
10B7
100
AcDbDictionary
280
     1
281
     1
  3
ACAD_MTEXT_2008_RT
360
1258
  0
DICTIONARY
  5
6A
102
{ACAD_REACTORS
330
C
102
}
330
C
100
AcDbDictionary
281
     1
  0
DICTIONARY
  5
D
102
{ACAD_REACTORS
330
C
102
}
330
C
100
AcDbDictionary
281
     1
  0
DICTIONARY
  5
69
102
{ACAD_REACTORS
330
C
102
}
330
C
100
AcDbDictionary
281
     1
  3
Layout1
350
73
  3
Model
350
77
  0
DICTIONARY
  5
10
102
{ACAD_REACTORS
330
C
102
}
330
C
100
AcDbDictionary
281
     1
  3
ByBlock
350
19
  3
ByLayer
350
11
  3
Global
350
21
  0
DICTIONARY
  5
6D
102
{ACAD_REACTORS
330
C
102
}
330
C
100
AcDbDictionary
281
     1
  3
Standard
350
6E
  0
DICTIONARY
  5
66
102
{ACAD_REACTORS
330
C
102
}
330
C
100
AcDbDictionary
281
     1
  3
Standard
350
67
  0
DICTIONARY
  5
68
102
{ACAD_REACTORS
330
C
102
}
330
C
100
AcDbDictionary
281
     1
  0
ACDBDICTIONARYWDFLT
  5
E
102
{ACAD_REACTORS
330
C
102
}
330
C
100
AcDbDictionary
281
     1
  3
Normal
350
F
100
AcDbDictionaryWithDefault
340
F
  0
DICTIONARY
  5
3A
102
{ACAD_REACTORS
330
C
102
}
330
C
100
AcDbDictionary
281
     1
  3
A0
350
3B
  3
A1
350
3C
  3
A2
350
3D
  3
A3
350
3E
  3
A4
350
3F
  3
A5
350
40
  3
A6
350
41
  3
A7
350
42
  3
A8
350
43
  3
A9
350
44
  3
B0
350
45
  3
B1
350
46
  3
B2
350
47
  3
B3
350
48
  3
B4
350
49
  3
B5
350
4A
  3
B6
350
4B
  3
B7
350
4C
  3
B8
350
4D
  3
B9
350
4E
  3
C0
350
4F
  3
C1
350
50
  3
C2
350
51
  3
C3
350
52
  3
C4
350
53
  3
C5
350
54
  3
C6
350
55
  3
C7
350
56
  3
C8
350
57
  3
C9
350
58
  3
D0
350
59
  3
D1
350
5A
  3
D2
350
5B
  0
DICTIONARY
  5
6B
102
{ACAD_REACTORS
330
C
102
}
330
C
100
AcDbDictionary
281
     1
  3
Standard
350
6C
  0
DICTIONARY
  5
29
102
{ACAD_REACTORS
330
C
102
}
330
C
100
AcDbDictionary
281
     1
  3
2dWireframe
350
2F
  3
3D Hidden
350
31
  3
3dWireframe
350
30
  3
Basic
350
2E
  3
Brighten
350
35
  3
ColorChange
350
39
  3
Conceptual
350
32
  3
Dim
350
34
  3
EdgeColorOff
350
FDC
  3
Facepattern
350
38
  3
Flat
350
2A
  3
FlatWithEdges
350
2B
  3
Gouraud
350
2C
  3
GouraudWithEdges
350
2D
  3
JitterOff
350
FDF
  3
Linepattern
350
37
  3
OverhangOff
350
FE2
  3
Realistic
350
33
  3
Thicken
350
36
  0
XRECORD
  5
123F
102
{ACAD_REACTORS
330
C
102
}
330
C
100
AcDbXrecord
280
     1
 90
        1
330
6C
330
106D
330
10B7
  0
DICTIONARY
  5
1240
102
{ACAD_REACTORS
330
C
102
}
330
C
100
AcDbDictionary
281
     1
  3
CANNOSCALE
350
1244
  3
CMLEADERSTYLE
350
1242
  3
CTABLESTYLE
350
1241
  3
LIGHTINGUNITS
350
1245
  3
MSLTSCALE
350
1243
  0
DICTIONARY
  5
FE6
102
{ACAD_REACTORS
330
FE5
102
}
330
FE5
100
AcDbDictionary
281
     1
  0
XRECORD
  5
289
102
{ACAD_REACTORS
330
288
102
}
330
288
100
AcDbXrecord
280
     1
290
     1
  0
XRECORD
  5
28B
102
{ACAD_REACTORS
330
28A
102
}
330
28A
100
AcDbXrecord
280
     1
290
     1
  0
SORTENTSTABLE
  5
955
102
{ACAD_REACTORS
330
954
102
}
330
954
100
AcDbSortentsTable
330
74
331
1088
  5
108D
331
10BF
  5
10C6
331
10C7
  5
114F
331
1098
  5
109D
331
CCB
  5
E0C
331
114F
  5
E02
331
CD3
  5
E14
331
CDB
  5
1089
331
C1E
  5
C48
331
C55
  5
C7F
331
BDF
  5
C09
331
C94
  5
CBE
331
C9C
  5
CC6
331
BE7
  5
C11
331
C26
  5
C50
331
C5D
  5
C87
331
CA4
  5
CCE
331
BB8
  5
BE2
331
BEF
  5
C19
331
C2E
  5
C58
331
C65
  5
C8F
331
C36
  5
C60
331
C6D
  5
C97
331
BF7
  5
C21
331
CAC
  5
CD6
331
10A8
  5
10AD
331
10B0
  5
10BC
331
BC0
  5
BEA
331
CB4
  5
CDE
331
C3E
  5
C68
331
C75
  5
C9F
331
BC8
  5
BF2
331
BFF
  5
C29
331
CBC
  5
DF8
331
C46
  5
C70
331
C7D
  5
CA7
331
BD0
  5
BFA
331
C07
  5
C31
331
CC4
  5
E05
331
C0F
  5
C39
331
C4E
  5
C78
331
C85
  5
CAF
331
C8D
  5
CB7
331
C17
  5
C41
331
10B8
  5
10C0
331
1089
  5
1094
331
10C0
  5
10C7
331
10C8
  5
1150
331
1099
  5
109E
331
CCC
  5
E0D
331
CD4
  5
E15
331
CDC
  5
108A
331
BD8
  5
C02
331
C56
  5
C80
331
C95
  5
CBF
331
BE0
  5
C0A
331
C1F
  5
C49
331
C5E
  5
C88
331
C9D
  5
CC7
331
BE8
  5
C12
331
C27
  5
C51
331
C2F
  5
C59
331
C66
  5
C90
331
BB9
  5
BE3
331
BF0
  5
C1A
331
CA5
  5
CCF
331
CAD
  5
CD7
331
C37
  5
C61
331
C6E
  5
C98
331
10A9
  5
10AE
331
BF8
  5
C22
331
BC1
  5
BEB
331
CB5
  5
DF1
331
BC9
  5
BF3
331
C00
  5
C2A
331
C3F
  5
C69
331
C76
  5
CA0
331
C47
  5
C71
331
C7E
  5
CA8
331
BD1
  5
BFB
331
C08
  5
C32
331
CBD
  5
DF9
331
CC5
  5
E06
331
C4F
  5
C79
331
C86
  5
CB0
331
C10
  5
C3A
331
C8E
  5
CB8
331
108A
  5
1095
331
10C1
  5
10C8
331
109A
  5
10A7
331
CCD
  5
E0E
331
CD5
  5
E16
331
CDD
  5
108B
331
BD9
  5
C03
331
C18
  5
C42
331
C20
  5
C4A
331
C57
  5
C81
331
BE1
  5
C0B
331
C96
  5
CC0
331
C9E
  5
CC8
331
BE9
  5
C13
331
C28
  5
C52
331
C5F
  5
C89
331
C67
  5
C91
331
CA6
  5
CD0
331
BBA
  5
BE4
331
BF1
  5
C1B
331
C30
  5
C5A
331
C6F
  5
C99
331
CAE
  5
CD8
331
10AA
  5
10AF
331
C38
  5
C62
331
BC2
  5
BEC
331
BF9
  5
C23
331
CB6
  5
DF2
331
C40
  5
C6A
331
C77
  5
CA1
331
BCA
  5
BF4
331
C01
  5
C2B
331
CBE
  5
DFA
331
C09
  5
C33
331
C48
  5
C72
331
C7F
  5
CA9
331
BD2
  5
BFC
331
CC6
  5
E07
331
C11
  5
C3B
331
C87
  5
CB1
331
C8F
  5
CB9
331
108B
  5
1096
331
109B
  5
10A8
331
CCE
  5
E0F
331
CD6
  5
E17
331
CDE
  5
108C
331
BDA
  5
C04
331
C19
  5
C43
331
C50
  5
C7A
331
C58
  5
C82
331
C97
  5
CC1
331
BE2
  5
C0C
331
C21
  5
C4B
331
C60
  5
C8A
331
C9F
  5
CC9
331
BEA
  5
C14
331
C29
  5
C53
331
C31
  5
C5B
331
C68
  5
C92
331
BBB
  5
BE5
331
BF2
  5
C1C
331
CA7
  5
CD1
331
CAF
  5
CD9
331
10AB
  5
10B0
331
BFA
  5
C24
331
C39
  5
C63
331
C70
  5
C9A
331
BC3
  5
BED
331
C78
  5
CA2
331
CB7
  5
DF3
331
BCB
  5
BF5
331
C02
  5
C2C
331
C41
  5
C6B
331
C49
  5
C73
331
C80
  5
CAA
331
BD3
  5
BFD
331
C0A
  5
C34
331
CBF
  5
DFB
331
CC7
  5
E08
331
C88
  5
CB2
331
C12
  5
C3C
331
10BB
  5
10C1
331
108C
  5
1097
331
1094
  5
1099
331
109C
  5
10A9
331
CCF
  5
E10
331
CD7
  5
E18
331
C1A
  5
C44
331
C51
  5
C7B
331
BDB
  5
C05
331
C90
  5
CBA
331
C22
  5
C4C
331
C59
  5
C83
331
BE3
  5
C0D
331
C98
  5
CC2
331
CA0
  5
CCA
331
BEB
  5
C15
331
BB4
  5
BDE
331
C2A
  5
C54
331
C61
  5
C8B
331
C69
  5
C93
331
CA8
  5
CD2
331
BBC
  5
BE6
331
BF3
  5
C1D
331
C32
  5
C5C
331
10AC
  5
10B6
331
C3A
  5
C64
331
C71
  5
C9B
331
BC4
  5
BEE
331
BFB
  5
C25
331
CB0
  5
CDA
331
CB8
  5
DF4
331
C42
  5
C6C
331
C79
  5
CA3
331
BCC
  5
BF6
331
C03
  5
C2D
331
CC0
  5
DFC
331
C0B
  5
C35
331
C4A
  5
C74
331
C81
  5
CAB
331
BD4
  5
BFE
331
C89
  5
CB3
331
C13
  5
C3D
331
10BC
  5
10C4
331
108D
  5
1098
331
10C4
  5
114C
331
1095
  5
109A
331
114C
  5
DFF
331
109D
  5
10AA
331
CC8
  5
E09
331
CD0
  5
E11
331
CD8
  5
E19
331
C91
  5
CBB
331
BDC
  5
C06
331
C1B
  5
C45
331
C52
  5
C7C
331
C5A
  5
C84
331
C99
  5
CC3
331
BE4
  5
C0E
331
C23
  5
C4D
331
C2B
  5
C55
331
C62
  5
C8C
331
BEC
  5
C16
331
CA1
  5
CCB
331
BB5
  5
BDF
331
CA9
  5
CD3
331
C33
  5
C5D
331
C6A
  5
C94
331
BBD
  5
BE7
331
BF4
  5
C1E
331
10AD
  5
10B7
331
CB1
  5
CDB
331
BC5
  5
BEF
331
BFC
  5
C26
331
C3B
  5
C65
331
C72
  5
C9C
331
C7A
  5
CA4
331
CB9
  5
DF5
331
BCD
  5
BF7
331
C04
  5
C2E
331
C43
  5
C6D
331
C4B
  5
C75
331
C82
  5
CAC
331
BD5
  5
BFF
331
C0C
  5
C36
331
C8A
  5
CB4
331
C14
  5
C3E
331
10C5
  5
114D
331
1096
  5
109B
331
CC9
  5
E0A
331
114D
  5
E00
331
109E
  5
10AB
331
287
  5
287
331
CD1
  5
E12
331
CD9
  5
E1A
331
C1C
  5
C46
331
C53
  5
C7D
331
BDD
  5
C07
331
C92
  5
CBC
331
C9A
  5
CC4
331
C24
  5
C4E
331
C5B
  5
C85
331
BE5
  5
C0F
331
CA2
  5
CCC
331
BED
  5
C17
331
BB6
  5
BE0
331
C2C
  5
C56
331
C63
  5
C8D
331
C34
  5
C5E
331
C6B
  5
C95
331
BBE
  5
BE8
331
BF5
  5
C1F
331
CAA
  5
CD4
331
10AE
  5
10B8
331
10B6
  5
10BE
331
C3C
  5
C66
331
C73
  5
C9D
331
BC6
  5
BF0
331
BFD
  5
C27
331
CB2
  5
CDC
331
CBA
  5
DF6
331
C44
  5
C6E
331
C7B
  5
CA5
331
BCE
  5
BF8
331
C05
  5
C2F
331
BD6
  5
C00
331
C0D
  5
C37
331
C4C
  5
C76
331
C83
  5
CAD
331
C8B
  5
CB5
331
C15
  5
C3F
331
10BE
  5
10C5
331
10C6
  5
114E
331
1097
  5
109C
331
114E
  5
E01
331
CCA
  5
E0B
331
CD2
  5
E13
331
CDA
  5
1088
331
C93
  5
CBD
331
BDE
  5
C08
331
C1D
  5
C47
331
C54
  5
C7E
331
C5C
  5
C86
331
C9B
  5
CC5
331
BE6
  5
C10
331
C25
  5
C4F
331
C2D
  5
C57
331
C64
  5
C8E
331
BEE
  5
C18
331
CA3
  5
CCD
331
BB7
  5
BE1
331
CAB
  5
CD5
331
C35
  5
C5F
331
C6C
  5
C96
331
BBF
  5
BE9
331
BF6
  5
C20
331
10A7
  5
10AC
331
10AF
  5
10BB
331
10B7
  5
10BF
331
CB3
  5
CDD
331
BC7
  5
BF1
331
BFE
  5
C28
331
C3D
  5
C67
331
C74
  5
C9E
331
C45
  5
C6F
331
C7C
  5
CA6
331
BCF
  5
BF9
331
C06
  5
C30
331
CBB
  5
DF7
331
C4D
  5
C77
331
C84
  5
CAE
331
BD7
  5
C01
331
C0E
  5
C38
331
CC3
  5
E04
331
C8C
  5
CB6
331
C16
  5
C40
  0
SORTENTSTABLE
  5
E1D
102
{ACAD_REACTORS
330
E1C
102
}
330
E1C
100
AcDbSortentsTable
330
E1B
  0
SORTENTSTABLE
  5
E58
102
{ACAD_REACTORS
330
E57
102
}
330
E57
100
AcDbSortentsTable
330
E56
  0
SORTENTSTABLE
  5
EA0
102
{ACAD_REACTORS
330
E9F
102
}
330
E9F
100
AcDbSortentsTable
330
E9E
  0
SORTENTSTABLE
  5
EA7
102
{ACAD_REACTORS
330
EA6
102
}
330
EA6
100
AcDbSortentsTable
330
EA5
  0
SORTENTSTABLE
  5
EBD
102
{ACAD_REACTORS
330
EBC
102
}
330
EBC
100
AcDbSortentsTable
330
EBB
  0
SORTENTSTABLE
  5
FA3
102
{ACAD_REACTORS
330
FA2
102
}
330
FA2
100
AcDbSortentsTable
330
FA1
  0
SORTENTSTABLE
  5
1086
102
{ACAD_REACTORS
330
1029
102
}
330
1029
100
AcDbSortentsTable
330
FE7
331
1060
  5
1064
331
1068
  5
106F
331
104A
  5
104C
331
1070
  5
1077
331
1052
  5
1054
331
1078
  5
1066
331
105A
  5
105E
331
1061
  5
1065
331
1069
  5
1070
331
104B
  5
104D
331
1071
  5
1078
331
1053
  5
1055
331
1079
  5
1068
331
105B
  5
105F
331
1080
  5
1081
331
1062
  5
1069
331
106A
  5
1071
331
104C
  5
104E
331
1072
  5
1079
331
1054
  5
1056
331
107A
  5
107F
331
105C
  5
1060
331
1081
  5
1082
331
1063
  5
106A
331
106B
  5
1072
331
104D
  5
104F
331
1073
  5
107A
331
1055
  5
1057
331
107B
  5
1047
331
105D
  5
1061
331
1082
  5
1083
331
1046
  5
1048
331
1064
  5
106B
331
106C
  5
1073
331
104E
  5
1050
331
1074
  5
107B
331
1056
  5
1058
331
107C
  5
1080
331
105E
  5
1062
331
1083
  5
1084
331
1047
  5
1049
331
1065
  5
106C
331
106D
  5
1074
331
104F
  5
1051
331
1075
  5
107C
331
1057
  5
105B
331
107D
  5
1059
331
105F
  5
1063
331
1084
  5
1067
331
1066
  5
106D
331
1048
  5
104A
331
106E
  5
1075
331
1050
  5
1052
331
1058
  5
105C
331
1076
  5
107D
331
107E
  5
105A
331
1049
  5
104B
331
1067
  5
106E
331
106F
  5
1076
331
1051
  5
1053
331
1077
  5
107E
331
1059
  5
105D
331
107F
  5
1046
  0
XRECORD
  5
1256
102
{ACAD_REACTORS
330
1255
102
}
330
1255
100
AcDbXrecord
280
     1
 40
283676.0
  1
\pxsm1,qc;{\fISOCPEUR|b0|i0|c0|p34;\W1;Description\POutline drawing}
  0
XRECORD
  5
1258
102
{ACAD_REACTORS
330
1257
102
}
330
1257
100
AcDbXrecord
280
     1
 40
232728.0
  1
\pxsm1,qc;{\fISOCPEUR|b0|i0|c0|p34;\W1;22S 28 .1\POutline drawing}
  0
LAYOUT
  5
73
102
{ACAD_REACTORS
330
69
102
}
330
69
100
AcDbPlotSettings
  1

  2
HP LaserJet M5035@ 6th Floor ++
  4

  6

 40
0.0
 41
0.0
 42
0.0
 43
0.0
 44
0.0
 45
0.0
 46
0.0
 47
0.0
 48
0.0
 49
0.0
140
0.0
141
0.0
142
1.0
143
1.0
 70
   688
 72
     0
 73
     0
 74
     5
  7

 75
    16
147
1.0
 76
     0
 77
     2
 78
   300
148
0.0
149
0.0
100
AcDbLayout
  1
Layout1
 70
     1
 71
     1
 10
0.0
 20
0.0
 11
12.0
 21
9.0
 12
0.0
 22
0.0
 32
0.0
 14
1.000000000000000E+20
 24
1.000000000000000E+20
 34
1.000000000000000E+20
 15
-1.000000000000000E+20
 25
-1.000000000000000E+20
 35
-1.000000000000000E+20
146
0.0
 13
0.0
 23
0.0
 33
0.0
 16
1.0
 26
0.0
 36
0.0
 17
0.0
 27
1.0
 37
0.0
 76
     0
330
70
  0
LAYOUT
  5
77
102
{ACAD_REACTORS
330
69
102
}
330
69
100
AcDbPlotSettings
  1

  2
HP LaserJet M5035@ 6th Floor ++
  4
Letter
  6

 40
6.805083274841308
 41
5.027085781097412
 42
6.805068969726562
 43
5.027069091796875
 44
215.8999938964844
 45
279.3999938964844
 46
0.0
 47
0.0
 48
0.0
 49
0.0
140
0.0
141
0.0
142
1.0
143
22.50128049870758
 70
 11952
 72
     0
 73
     1
 74
     0
  7

 75
     0
147
0.0444419152082228
 76
     0
 77
     2
 78
   300
148
-8449.225112758723
149
-1412.024741574528
100
AcDbLayout
  1
Model
 70
     1
 71
     0
 10
0.0
 20
0.0
 11
12.0
 21
9.0
 12
0.0
 22
0.0
 32
0.0
 14
0.0
 24
0.0
 34
0.0
 15
0.0
 25
0.0
 35
0.0
146
0.0
 13
0.0
 23
0.0
 33
0.0
 16
1.0
 26
0.0
 36
0.0
 17
0.0
 27
1.0
 37
0.0
 76
     0
330
74
331
8C
1001
ACAD_PSEXT
1000
HP LaserJet M5035@ 6th Floor ++
1000
HP LaserJet M5035 mfp PCL6
1000
10.156.107.7
1000

1070
     0
  0
MATERIAL
  5
19
102
{ACAD_XDICTIONARY
360
1A
102
}
102
{ACAD_REACTORS
330
10
102
}
330
10
100
AcDbMaterial
  1
ByBlock
 72
     0
 43
0.0208333333333333
 43
0.0
 43
0.0
 43
0.0
 43
0.0
 43
0.0208333333333333
 43
0.0
 43
0.0
 43
0.0
 43
0.0
 43
1.0
 43
0.0
 43
0.0
 43
0.0
 43
0.0
 43
1.0
 77
     0
 47
0.0208333333333333
 47
0.0
 47
0.0
 47
0.0
 47
0.0
 47
0.0208333333333333
 47
0.0
 47
0.0
 47
0.0
 47
0.0
 47
1.0
 47
0.0
 47
0.0
 47
0.0
 47
0.0
 47
1.0
171
     0
 49
0.0208333333333333
 49
0.0
 49
0.0
 49
0.0
 49
0.0
 49
0.0208333333333333
 49
0.0
 49
0.0
 49
0.0
 49
0.0
 49
1.0
 49
0.0
 49
0.0
 49
0.0
 49
0.0
 49
1.0
175
     0
142
0.0208333333333333
142
0.0
142
0.0
142
0.0
142
0.0
142
0.0208333333333333
142
0.0
142
0.0
142
0.0
142
0.0
142
1.0
142
0.0
142
0.0
142
0.0
142
0.0
142
1.0
179
     0
144
0.0208333333333333
144
0.0
144
0.0
144
0.0
144
0.0
144
0.0208333333333333
144
0.0
144
0.0
144
0.0
144
0.0
144
1.0
144
0.0
144
0.0
144
0.0
144
0.0
144
1.0
147
0.0208333333333333
147
0.0
147
0.0
147
0.0
147
0.0
147
0.0208333333333333
147
0.0
147
0.0
147
0.0
147
0.0
147
1.0
147
0.0
147
0.0
147
0.0
147
0.0
147
1.0
  0
MATERIAL
  5
11
102
{ACAD_XDICTIONARY
360
12
102
}
102
{ACAD_REACTORS
330
10
102
}
330
10
100
AcDbMaterial
  1
ByLayer
 72
     0
 43
0.0208333333333333
 43
0.0
 43
0.0
 43
0.0
 43
0.0
 43
0.0208333333333333
 43
0.0
 43
0.0
 43
0.0
 43
0.0
 43
1.0
 43
0.0
 43
0.0
 43
0.0
 43
0.0
 43
1.0
 77
     0
 47
0.0208333333333333
 47
0.0
 47
0.0
 47
0.0
 47
0.0
 47
0.0208333333333333
 47
0.0
 47
0.0
 47
0.0
 47
0.0
 47
1.0
 47
0.0
 47
0.0
 47
0.0
 47
0.0
 47
1.0
171
     0
 49
0.0208333333333333
 49
0.0
 49
0.0
 49
0.0
 49
0.0
 49
0.0208333333333333
 49
0.0
 49
0.0
 49
0.0
 49
0.0
 49
1.0
 49
0.0
 49
0.0
 49
0.0
 49
0.0
 49
1.0
175
     0
142
0.0208333333333333
142
0.0
142
0.0
142
0.0
142
0.0
142
0.0208333333333333
142
0.0
142
0.0
142
0.0
142
0.0
142
1.0
142
0.0
142
0.0
142
0.0
142
0.0
142
1.0
179
     0
144
0.0208333333333333
144
0.0
144
0.0
144
0.0
144
0.0
144
0.0208333333333333
144
0.0
144
0.0
144
0.0
144
0.0
144
1.0
144
0.0
144
0.0
144
0.0
144
0.0
144
1.0
147
0.0208333333333333
147
0.0
147
0.0
147
0.0
147
0.0
147
0.0208333333333333
147
0.0
147
0.0
147
0.0
147
0.0
147
1.0
147
0.0
147
0.0
147
0.0
147
0.0
147
1.0
  0
MATERIAL
  5
21
102
{ACAD_XDICTIONARY
360
22
102
}
102
{ACAD_REACTORS
330
10
102
}
330
10
100
AcDbMaterial
  1
Global
 72
     0
 43
0.0208333333333333
 43
0.0
 43
0.0
 43
0.0
 43
0.0
 43
0.0208333333333333
 43
0.0
 43
0.0
 43
0.0
 43
0.0
 43
1.0
 43
0.0
 43
0.0
 43
0.0
 43
0.0
 43
1.0
 77
     0
 47
0.0208333333333333
 47
0.0
 47
0.0
 47
0.0
 47
0.0
 47
0.0208333333333333
 47
0.0
 47
0.0
 47
0.0
 47
0.0
 47
1.0
 47
0.0
 47
0.0
 47
0.0
 47
0.0
 47
1.0
171
     0
 49
0.0208333333333333
 49
0.0
 49
0.0
 49
0.0
 49
0.0
 49
0.0208333333333333
 49
0.0
 49
0.0
 49
0.0
 49
0.0
 49
1.0
 49
0.0
 49
0.0
 49
0.0
 49
0.0
 49
1.0
175
     0
142
0.0208333333333333
142
0.0
142
0.0
142
0.0
142
0.0
142
0.0208333333333333
142
0.0
142
0.0
142
0.0
142
0.0
142
1.0
142
0.0
142
0.0
142
0.0
142
0.0
142
1.0
179
     0
144
0.0208333333333333
144
0.0
144
0.0
144
0.0
144
0.0
144
0.0208333333333333
144
0.0
144
0.0
144
0.0
144
0.0
144
1.0
144
0.0
144
0.0
144
0.0
144
0.0
144
1.0
147
0.0208333333333333
147
0.0
147
0.0
147
0.0
147
0.0
147
0.0208333333333333
147
0.0
147
0.0
147
0.0
147
0.0
147
1.0
147
0.0
147
0.0
147
0.0
147
0.0
147
1.0
  0
MLEADERSTYLE
  5
6E
102
{ACAD_REACTORS
330
6D
102
}
330
6D
100
AcDbMLeaderStyle
170
     2
171
     1
172
     0
 90
        2
 40
0.0
 41
0.0
173
     1
 91
-1056964608
340
62
 92
       -2
290
     1
 42
0.09
291
     1
 43
0.36
  3
Standard
 44
0.18
300

342
5D
174
     1
178
     6
175
     1
176
     0
 93
-1056964608
 45
0.18
292
     0
297
     0
 46
0.18
 94
-1056964608
 47
1.0
 49
1.0
140
1.0
293
     1
141
0.0
294
     1
177
     0
142
1.0
295
     0
296
     0
143
0.125
1001
ACAD_MLEADERVER
1070
     2
  0
MLINESTYLE
  5
67
102
{ACAD_REACTORS
330
66
102
}
330
66
100
AcDbMlineStyle
  2
STANDARD
 70
     0
  3

 62
   256
 51
90.0
 52
90.0
 71
     2
 49
0.5
 62
   256
  6
BYLAYER
 49
-0.5
 62
   256
  6
BYLAYER
  0
ACDBPLACEHOLDER
  5
F
102
{ACAD_REACTORS
330
E
102
}
330
E
  0
SCALE
  5
3B
102
{ACAD_REACTORS
330
3A
102
}
330
3A
100
AcDbScale
 70
     0
300
1:1
140
1.0
141
1.0
290
     1
  0
SCALE
  5
3C
102
{ACAD_REACTORS
330
3A
102
}
330
3A
100
AcDbScale
 70
     0
300
1:2
140
1.0
141
2.0
290
     0
  0
SCALE
  5
3D
102
{ACAD_REACTORS
330
3A
102
}
330
3A
100
AcDbScale
 70
     0
300
1:4
140
1.0
141
4.0
290
     0
  0
SCALE
  5
3E
102
{ACAD_REACTORS
330
3A
102
}
330
3A
100
AcDbScale
 70
     0
300
1:5
140
1.0
141
5.0
290
     0
  0
SCALE
  5
3F
102
{ACAD_REACTORS
330
3A
102
}
330
3A
100
AcDbScale
 70
     0
300
1:8
140
1.0
141
8.0
290
     0
  0
SCALE
  5
40
102
{ACAD_REACTORS
330
3A
102
}
330
3A
100
AcDbScale
 70
     0
300
1:10
140
1.0
141
10.0
290
     0
  0
SCALE
  5
41
102
{ACAD_REACTORS
330
3A
102
}
330
3A
100
AcDbScale
 70
     0
300
1:16
140
1.0
141
16.0
290
     0
  0
SCALE
  5
42
102
{ACAD_REACTORS
330
3A
102
}
330
3A
100
AcDbScale
 70
     0
300
1:20
140
1.0
141
20.0
290
     0
  0
SCALE
  5
43
102
{ACAD_REACTORS
330
3A
102
}
330
3A
100
AcDbScale
 70
     0
300
1:30
140
1.0
141
30.0
290
     0
  0
SCALE
  5
44
102
{ACAD_REACTORS
330
3A
102
}
330
3A
100
AcDbScale
 70
     0
300
1:40
140
1.0
141
40.0
290
     0
  0
SCALE
  5
45
102
{ACAD_REACTORS
330
3A
102
}
330
3A
100
AcDbScale
 70
     0
300
1:50
140
1.0
141
50.0
290
     0
  0
SCALE
  5
46
102
{ACAD_REACTORS
330
3A
102
}
330
3A
100
AcDbScale
 70
     0
300
1:100
140
1.0
141
100.0
290
     0
  0
SCALE
  5
47
102
{ACAD_REACTORS
330
3A
102
}
330
3A
100
AcDbScale
 70
     0
300
2:1
140
2.0
141
1.0
290
     0
  0
SCALE
  5
48
102
{ACAD_REACTORS
330
3A
102
}
330
3A
100
AcDbScale
 70
     0
300
4:1
140
4.0
141
1.0
290
     0
  0
SCALE
  5
49
102
{ACAD_REACTORS
330
3A
102
}
330
3A
100
AcDbScale
 70
     0
300
8:1
140
8.0
141
1.0
290
     0
  0
SCALE
  5
4A
102
{ACAD_REACTORS
330
3A
102
}
330
3A
100
AcDbScale
 70
     0
300
10:1
140
10.0
141
1.0
290
     0
  0
SCALE
  5
4B
102
{ACAD_REACTORS
330
3A
102
}
330
3A
100
AcDbScale
 70
     0
300
100:1
140
100.0
141
1.0
290
     0
  0
SCALE
  5
4C
102
{ACAD_REACTORS
330
3A
102
}
330
3A
100
AcDbScale
 70
     0
300
1/128" = 1'-0"
140
0.0078125
141
12.0
290
     0
  0
SCALE
  5
4D
102
{ACAD_REACTORS
330
3A
102
}
330
3A
100
AcDbScale
 70
     0
300
1/64" = 1'-0"
140
0.015625
141
12.0
290
     0
  0
SCALE
  5
4E
102
{ACAD_REACTORS
330
3A
102
}
330
3A
100
AcDbScale
 70
     0
300
1/32" = 1'-0"
140
0.03125
141
12.0
290
     0
  0
SCALE
  5
4F
102
{ACAD_REACTORS
330
3A
102
}
330
3A
100
AcDbScale
 70
     0
300
1/16" = 1'-0"
140
0.0625
141
12.0
290
     0
  0
SCALE
  5
50
102
{ACAD_REACTORS
330
3A
102
}
330
3A
100
AcDbScale
 70
     0
300
3/32" = 1'-0"
140
0.09375
141
12.0
290
     0
  0
SCALE
  5
51
102
{ACAD_REACTORS
330
3A
102
}
330
3A
100
AcDbScale
 70
     0
300
1/8" = 1'-0"
140
0.125
141
12.0
290
     0
  0
SCALE
  5
52
102
{ACAD_REACTORS
330
3A
102
}
330
3A
100
AcDbScale
 70
     0
300
3/16" = 1'-0"
140
0.1875
141
12.0
290
     0
  0
SCALE
  5
53
102
{ACAD_REACTORS
330
3A
102
}
330
3A
100
AcDbScale
 70
     0
300
1/4" = 1'-0"
140
0.25
141
12.0
290
     0
  0
SCALE
  5
54
102
{ACAD_REACTORS
330
3A
102
}
330
3A
100
AcDbScale
 70
     0
300
3/8" = 1'-0"
140
0.375
141
12.0
290
     0
  0
SCALE
  5
55
102
{ACAD_REACTORS
330
3A
102
}
330
3A
100
AcDbScale
 70
     0
300
1/2" = 1'-0"
140
0.5
141
12.0
290
     0
  0
SCALE
  5
56
102
{ACAD_REACTORS
330
3A
102
}
330
3A
100
AcDbScale
 70
     0
300
3/4" = 1'-0"
140
0.75
141
12.0
290
     0
  0
SCALE
  5
57
102
{ACAD_REACTORS
330
3A
102
}
330
3A
100
AcDbScale
 70
     0
300
1" = 1'-0"
140
1.0
141
12.0
290
     0
  0
SCALE
  5
58
102
{ACAD_REACTORS
330
3A
102
}
330
3A
100
AcDbScale
 70
     0
300
1-1/2" = 1'-0"
140
1.5
141
12.0
290
     0
  0
SCALE
  5
59
102
{ACAD_REACTORS
330
3A
102
}
330
3A
100
AcDbScale
 70
     0
300
3" = 1'-0"
140
3.0
141
12.0
290
     0
  0
SCALE
  5
5A
102
{ACAD_REACTORS
330
3A
102
}
330
3A
100
AcDbScale
 70
     0
300
6" = 1'-0"
140
6.0
141
12.0
290
     0
  0
SCALE
  5
5B
102
{ACAD_REACTORS
330
3A
102
}
330
3A
100
AcDbScale
 70
     0
300
1'-0" = 1'-0"
140
12.0
141
12.0
290
     0
  0
TABLESTYLE
  5
6C
102
{ACAD_XDICTIONARY
360
1239
102
}
102
{ACAD_REACTORS
330
6B
102
}
330
6B
100
AcDbTableStyle
  3
Standard
 70
     0
 71
     0
 40
0.06
 41
0.06
280
     0
281
     0
  7
STANDARD
140
0.18
170
     2
 62
     0
 63
     7
283
     0
 90
      512
 91
        0
  1

274
    -2
284
     1
 64
     0
275
    -2
285
     1
 65
     0
276
    -2
286
     1
 66
     0
277
    -2
287
     1
 67
     0
278
    -2
288
     1
 68
     0
279
    -2
289
     1
 69
     0
  7
STANDARD
140
0.25
170
     5
 62
     0
 63
     7
283
     0
 90
      512
 91
        0
  1

274
    -2
284
     1
 64
     0
275
    -2
285
     1
 65
     0
276
    -2
286
     1
 66
     0
277
    -2
287
     1
 67
     0
278
    -2
288
     1
 68
     0
279
    -2
289
     1
 69
     0
  7
STANDARD
140
0.18
170
     5
 62
     0
 63
     7
283
     0
 90
      512
 91
        0
  1

274
    -2
284
     1
 64
     0
275
    -2
285
     1
 65
     0
276
    -2
286
     1
 66
     0
277
    -2
287
     1
 67
     0
278
    -2
288
     1
 68
     0
279
    -2
289
     1
 69
     0
  0
VISUALSTYLE
  5
2F
102
{ACAD_REACTORS
330
29
102
}
330
29
100
AcDbVisualStyle
  2
2dWireframe
 70
     4
 71
     0
 72
     2
 73
     0
 90
        0
 40
-0.6
 41
-30.0
 62
     5
 63
     7
421
 16777215
 74
     1
 91
        4
 64
     7
 65
   257
 75
     1
175
     1
 42
1.0
 92
        0
 66
   257
 43
1.0
 76
     1
 77
     6
 78
     2
 67
     7
 79
     5
170
     0
171
     0
290
     0
174
     0
 93
        1
 44
0.0
173
     0
291
     0
 45
0.0
  0
VISUALSTYLE
  5
31
102
{ACAD_REACTORS
330
29
102
}
330
29
100
AcDbVisualStyle
  2
3D Hidden
 70
     6
 71
     1
 72
     2
 73
     2
 90
        0
 40
-0.6
 41
-30.0
 62
     5
 63
     7
421
 16777215
 74
     2
 91
        2
 64
     7
 65
   257
 75
     2
175
     1
 42
40.0
 92
        0
 66
   257
 43
1.0
 76
     1
 77
     6
 78
     2
 67
     7
 79
     3
170
     0
171
     0
290
     0
174
     0
 93
        1
 44
0.0
173
     0
291
     0
 45
0.0
  0
VISUALSTYLE
  5
30
102
{ACAD_REACTORS
330
29
102
}
330
29
100
AcDbVisualStyle
  2
3dWireframe
 70
     5
 71
     0
 72
     2
 73
     0
 90
        0
 40
-0.6
 41
-30.0
 62
     5
 63
     7
421
 16777215
 74
     1
 91
        4
 64
     7
 65
   257
 75
     1
175
     1
 42
1.0
 92
        0
 66
   257
 43
1.0
 76
     1
 77
     6
 78
     2
 67
     7
 79
     5
170
     0
171
     0
290
     0
174
     0
 93
        1
 44
0.0
173
     0
291
     0
 45
0.0
  0
VISUALSTYLE
  5
2E
102
{ACAD_REACTORS
330
29
102
}
330
29
100
AcDbVisualStyle
  2
Basic
 70
     7
 71
     1
 72
     0
 73
     1
 90
        0
 40
-0.6
 41
-30.0
 62
     5
 63
     7
421
 16777215
 74
     0
 91
        4
 64
     7
 65
   257
 75
     1
175
     1
 42
1.0
 92
        8
 66
     7
 43
1.0
 76
     1
 77
     6
 78
     2
 67
     7
 79
     5
170
     0
171
     0
290
     0
174
     0
 93
        1
 44
0.0
173
     0
291
     1
 45
0.0
  0
VISUALSTYLE
  5
35
102
{ACAD_REACTORS
330
29
102
}
330
29
100
AcDbVisualStyle
  2
Brighten
 70
    12
 71
     2
 72
     2
 73
     0
 90
        0
 40
-0.6
 41
-30.0
 62
     5
 63
     7
421
 16777215
 74
     1
 91
        4
 64
     7
 65
   257
 75
     1
175
     1
 42
1.0
 92
        8
 66
     7
 43
1.0
 76
     1
 77
     6
 78
     2
 67
     7
 79
     5
170
     0
171
     0
290
     0
174
     0
 93
        1
 44
50.0
173
     0
291
     1
 45
0.0
  0
VISUALSTYLE
  5
39
102
{ACAD_REACTORS
330
29
102
}
330
29
100
AcDbVisualStyle
  2
ColorChange
 70
    16
 71
     2
 72
     2
 73
     3
 90
        0
 40
-0.6
 41
-30.0
 62
     5
 63
     8
421
  8421504
 74
     1
 91
        4
 64
     7
 65
   257
 75
     1
175
     1
 42
1.0
 92
        8
 66
     8
424
  8421504
 43
1.0
 76
     1
 77
     6
 78
     2
 67
     7
 79
     5
170
     0
171
     0
290
     0
174
     0
 93
        1
 44
0.0
173
     0
291
     1
 45
0.0
  0
VISUALSTYLE
  5
32
102
{ACAD_REACTORS
330
29
102
}
330
29
100
AcDbVisualStyle
  2
Conceptual
 70
     9
 71
     3
 72
     2
 73
     0
 90
        0
 40
-0.6
 41
-30.0
 62
     5
 63
     7
421
 16777215
 74
     2
 91
        2
 64
     7
 65
   257
 75
     1
175
     1
 42
40.0
 92
        8
 66
     7
 43
1.0
 76
     1
 77
     6
 78
     2
 67
     7
 79
     3
170
     0
171
     0
290
     0
174
     0
 93
        1
 44
0.0
173
     0
291
     0
 45
0.0
  0
VISUALSTYLE
  5
34
102
{ACAD_REACTORS
330
29
102
}
330
29
100
AcDbVisualStyle
  2
Dim
 70
    11
 71
     2
 72
     2
 73
     0
 90
        0
 40
-0.6
 41
-30.0
 62
     5
 63
     7
421
 16777215
 74
     1
 91
        4
 64
     7
 65
   257
 75
     1
175
     1
 42
1.0
 92
        8
 66
     7
 43
1.0
 76
     1
 77
     6
 78
     2
 67
     7
 79
     5
170
     0
171
     0
290
     0
174
     0
 93
        1
 44
-50.0
173
     0
291
     1
 45
0.0
  0
VISUALSTYLE
  5
FDC
102
{ACAD_XDICTIONARY
360
FDD
102
}
102
{ACAD_REACTORS
330
29
102
}
330
29
100
AcDbVisualStyle
  2
EdgeColorOff
 70
    22
 71
     2
 72
     2
 73
     0
 90
        0
 40
-0.6
 41
-30.0
 62
     5
 63
     7
 74
     1
 91
        4
 64
     7
 65
   257
 75
     1
175
     1
 42
1.0
 92
        8
 66
     7
 43
1.0
 76
     1
 77
     6
 78
     2
 67
     7
 79
     5
170
     0
171
     0
290
     0
174
     0
 93
        1
 44
0.0
173
     0
291
     1
 45
0.0
  0
VISUALSTYLE
  5
38
102
{ACAD_REACTORS
330
29
102
}
330
29
100
AcDbVisualStyle
  2
Facepattern
 70
    15
 71
     2
 72
     2
 73
     0
 90
        0
 40
-0.6
 41
-30.0
 62
     5
 63
     7
421
 16777215
 74
     1
 91
        4
 64
     7
 65
   257
 75
     1
175
     1
 42
1.0
 92
        8
 66
     7
 43
1.0
 76
     1
 77
     6
 78
     2
 67
     7
 79
     5
170
     0
171
     0
290
     0
174
     0
 93
        1
 44
0.0
173
     0
291
     1
 45
0.0
  0
VISUALSTYLE
  5
2A
102
{ACAD_REACTORS
330
29
102
}
330
29
100
AcDbVisualStyle
  2
Flat
 70
     0
 71
     2
 72
     1
 73
     1
 90
        2
 40
-0.6
 41
30.0
 62
     5
 63
     7
421
 16777215
 74
     0
 91
        4
 64
     7
 65
   257
 75
     1
175
     1
 42
1.0
 92
        8
 66
     7
 43
1.0
 76
     1
 77
     6
 78
     2
 67
     7
 79
     5
170
     0
171
     0
290
     0
174
     0
 93
       13
 44
0.0
173
     0
291
     1
 45
0.0
  0
VISUALSTYLE
  5
2B
102
{ACAD_REACTORS
330
29
102
}
330
29
100
AcDbVisualStyle
  2
FlatWithEdges
 70
     1
 71
     2
 72
     1
 73
     1
 90
        2
 40
-0.6
 41
30.0
 62
     5
 63
     7
421
 16777215
 74
     1
 91
        4
 64
     7
 65
   257
 75
     1
175
     1
 42
1.0
 92
        0
 66
   257
 43
1.0
 76
     1
 77
     6
 78
     2
 67
     7
 79
     5
170
     0
171
     0
290
     0
174
     0
 93
       13
 44
0.0
173
     0
291
     1
 45
0.0
  0
VISUALSTYLE
  5
2C
102
{ACAD_REACTORS
330
29
102
}
330
29
100
AcDbVisualStyle
  2
Gouraud
 70
     2
 71
     2
 72
     2
 73
     1
 90
        2
 40
-0.6
 41
30.0
 62
     5
 63
     7
421
 16777215
 74
     0
 91
        4
 64
     7
 65
   257
 75
     1
175
     1
 42
1.0
 92
        0
 66
     7
 43
1.0
 76
     1
 77
     6
 78
     2
 67
     7
 79
     5
170
     0
171
     0
290
     0
174
     0
 93
       13
 44
0.0
173
     0
291
     1
 45
0.0
  0
VISUALSTYLE
  5
2D
102
{ACAD_REACTORS
330
29
102
}
330
29
100
AcDbVisualStyle
  2
GouraudWithEdges
 70
     3
 71
     2
 72
     2
 73
     1
 90
        2
 40
-0.6
 41
30.0
 62
     5
 63
     7
421
 16777215
 74
     1
 91
        4
 64
     7
 65
   257
 75
     1
175
     1
 42
1.0
 92
        0
 66
   257
 43
1.0
 76
     1
 77
     6
 78
     2
 67
     7
 79
     5
170
     0
171
     0
290
     0
174
     0
 93
       13
 44
0.0
173
     0
291
     1
 45
0.0
  0
VISUALSTYLE
  5
FDF
102
{ACAD_XDICTIONARY
360
FE0
102
}
102
{ACAD_REACTORS
330
29
102
}
330
29
100
AcDbVisualStyle
  2
JitterOff
 70
    20
 71
     2
 72
     2
 73
     0
 90
        0
 40
-0.6
 41
-30.0
 62
     5
 63
     7
 74
     1
 91
        4
 64
     7
 65
   257
 75
     1
175
     1
 42
1.0
 92
       10
 66
     7
 43
1.0
 76
     1
 77
     6
 78
     2
 67
     7
 79
     5
170
     0
171
     0
290
     0
174
     0
 93
        1
 44
0.0
173
     0
291
     1
 45
0.0
  0
VISUALSTYLE
  5
37
102
{ACAD_REACTORS
330
29
102
}
330
29
100
AcDbVisualStyle
  2
Linepattern
 70
    14
 71
     2
 72
     2
 73
     0
 90
        0
 40
-0.6
 41
-30.0
 62
     5
 63
     7
421
 16777215
 74
     1
 91
        4
 64
     7
 65
   257
 75
     7
175
     7
 42
1.0
 92
        8
 66
     7
 43
1.0
 76
     1
 77
     6
 78
     2
 67
     7
 79
     5
170
     0
171
     0
290
     0
174
     0
 93
        1
 44
0.0
173
     0
291
     1
 45
0.0
  0
VISUALSTYLE
  5
FE2
102
{ACAD_XDICTIONARY
360
FE3
102
}
102
{ACAD_REACTORS
330
29
102
}
330
29
100
AcDbVisualStyle
  2
OverhangOff
 70
    21
 71
     2
 72
     2
 73
     0
 90
        0
 40
-0.6
 41
-30.0
 62
     5
 63
     7
 74
     1
 91
        4
 64
     7
 65
   257
 75
     1
175
     1
 42
1.0
 92
        9
 66
     7
 43
1.0
 76
     1
 77
     6
 78
     2
 67
     7
 79
     5
170
     0
171
     0
290
     0
174
     0
 93
        1
 44
0.0
173
     0
291
     1
 45
0.0
  0
VISUALSTYLE
  5
33
102
{ACAD_REACTORS
330
29
102
}
330
29
100
AcDbVisualStyle
  2
Realistic
 70
     8
 71
     2
 72
     2
 73
     0
 90
        0
 40
-0.6
 41
-30.0
 62
     5
 63
     7
421
 16777215
 74
     1
 91
        0
 64
     7
 65
   257
 75
     1
175
     1
 42
1.0
 92
        8
 66
     8
424
  7895160
 43
1.0
 76
     1
 77
     6
 78
     2
 67
     7
 79
     5
170
     0
171
     0
290
     0
174
     0
 93
       13
 44
0.0
173
     0
291
     0
 45
0.0
  0
VISUALSTYLE
  5
36
102
{ACAD_REACTORS
330
29
102
}
330
29
100
AcDbVisualStyle
  2
Thicken
 70
    13
 71
     2
 72
     2
 73
     0
 90
        0
 40
-0.6
 41
-30.0
 62
     5
 63
     7
421
 16777215
 74
     1
 91
        4
 64
     7
 65
   257
 75
     1
175
     1
 42
1.0
 92
       12
 66
     7
 43
1.0
 76
     1
 77
     6
 78
     2
 67
     7
 79
     5
170
     0
171
     0
290
     0
174
     0
 93
        1
 44
0.0
173
     0
291
     1
 45
0.0
  0
DICTIONARYVAR
  5
1244
102
{ACAD_REACTORS
330
1240
102
}
330
1240
100
DictionaryVariables
280
     0
  1
1:1
  0
DICTIONARYVAR
  5
1242
102
{ACAD_REACTORS
330
1240
102
}
330
1240
100
DictionaryVariables
280
     0
  1
STANDARD
  0
DICTIONARYVAR
  5
1241
102
{ACAD_REACTORS
330
1240
102
}
330
1240
100
DictionaryVariables
280
     0
  1
STANDARD
  0
DICTIONARYVAR
  5
1245
102
{ACAD_REACTORS
330
1240
102
}
330
1240
100
DictionaryVariables
280
     0
  1
0
  0
DICTIONARYVAR
  5
1243
102
{ACAD_REACTORS
330
1240
102
}
330
1240
100
DictionaryVariables
280
     0
  1
0
  0
DICTIONARY
  5
1A
330
19
100
AcDbDictionary
280
     1
281
     1
  3
BUMPTILE
360
1C
  3
DIFFUSETILE
360
1B
  3
OPACITYTILE
360
1F
  3
REFLECTIONTILE
360
1E
  3
REFRACTIONTILE
360
20
  3
SPECULARTILE
360
1D
  0
DICTIONARY
  5
12
330
11
100
AcDbDictionary
280
     1
281
     1
  3
BUMPTILE
360
14
  3
DIFFUSETILE
360
13
  3
OPACITYTILE
360
17
  3
REFLECTIONTILE
360
16
  3
REFRACTIONTILE
360
18
  3
SPECULARTILE
360
15
  0
DICTIONARY
  5
22
330
21
100
AcDbDictionary
280
     1
281
     1
  3
BUMPTILE
360
24
  3
DIFFUSETILE
360
23
  3
OPACITYTILE
360
27
  3
REFLECTIONTILE
360
26
  3
REFRACTIONTILE
360
28
  3
SPECULARTILE
360
25
  0
DICTIONARY
  5
1239
330
6C
100
AcDbDictionary
280
     1
281
     1
  3
ACAD_ROUNDTRIP_2008_TABLESTYLE_CELLSTYLEMAP
360
1254
  0
DICTIONARY
  5
FDD
330
FDC
100
AcDbDictionary
280
     1
281
     1
  3
ACAD_XREC_ROUNDTRIP
360
FDE
  0
DICTIONARY
  5
FE0
330
FDF
100
AcDbDictionary
280
     1
281
     1
  3
ACAD_XREC_ROUNDTRIP
360
FE1
  0
DICTIONARY
  5
FE3
330
FE2
100
AcDbDictionary
280
     1
281
     1
  3
ACAD_XREC_ROUNDTRIP
360
FE4
  0
XRECORD
  5
1C
102
{ACAD_REACTORS
330
1A
102
}
330
1A
100
AcDbXrecord
280
     1
270
     1
271
     1
  0
XRECORD
  5
1B
102
{ACAD_REACTORS
330
1A
102
}
330
1A
100
AcDbXrecord
280
     1
270
     1
271
     1
  0
XRECORD
  5
1F
102
{ACAD_REACTORS
330
1A
102
}
330
1A
100
AcDbXrecord
280
     1
270
     1
271
     1
  0
XRECORD
  5
1E
102
{ACAD_REACTORS
330
1A
102
}
330
1A
100
AcDbXrecord
280
     1
270
     1
271
     1
  0
XRECORD
  5
20
102
{ACAD_REACTORS
330
1A
102
}
330
1A
100
AcDbXrecord
280
     1
270
     1
271
     1
  0
XRECORD
  5
1D
102
{ACAD_REACTORS
330
1A
102
}
330
1A
100
AcDbXrecord
280
     1
270
     1
271
     1
  0
XRECORD
  5
14
102
{ACAD_REACTORS
330
12
102
}
330
12
100
AcDbXrecord
280
     1
270
     1
271
     1
  0
XRECORD
  5
13
102
{ACAD_REACTORS
330
12
102
}
330
12
100
AcDbXrecord
280
     1
270
     1
271
     1
  0
XRECORD
  5
17
102
{ACAD_REACTORS
330
12
102
}
330
12
100
AcDbXrecord
280
     1
270
     1
271
     1
  0
XRECORD
  5
16
102
{ACAD_REACTORS
330
12
102
}
330
12
100
AcDbXrecord
280
     1
270
     1
271
     1
  0
XRECORD
  5
18
102
{ACAD_REACTORS
330
12
102
}
330
12
100
AcDbXrecord
280
     1
270
     1
271
     1
  0
XRECORD
  5
15
102
{ACAD_REACTORS
330
12
102
}
330
12
100
AcDbXrecord
280
     1
270
     1
271
     1
  0
XRECORD
  5
24
102
{ACAD_REACTORS
330
22
102
}
330
22
100
AcDbXrecord
280
     1
270
     1
271
     1
  0
XRECORD
  5
23
102
{ACAD_REACTORS
330
22
102
}
330
22
100
AcDbXrecord
280
     1
270
     1
271
     1
  0
XRECORD
  5
27
102
{ACAD_REACTORS
330
22
102
}
330
22
100
AcDbXrecord
280
     1
270
     1
271
     1
  0
XRECORD
  5
26
102
{ACAD_REACTORS
330
22
102
}
330
22
100
AcDbXrecord
280
     1
270
     1
271
     1
  0
XRECORD
  5
28
102
{ACAD_REACTORS
330
22
102
}
330
22
100
AcDbXrecord
280
     1
270
     1
271
     1
  0
XRECORD
  5
25
102
{ACAD_REACTORS
330
22
102
}
330
22
100
AcDbXrecord
280
     1
270
     1
271
     1
  0
CELLSTYLEMAP
  5
1254
102
{ACAD_REACTORS
330
1239
102
}
330
1239
100
AcDbCellStyleMap
 90
        3
300
CELLSTYLE
  1
TABLEFORMAT_BEGIN
 90
        5
170
     1
 91
        0
 92
    32768
 62
   257
 93
        1
300
CONTENTFORMAT
  1
CONTENTFORMAT_BEGIN
 90
        0
 91
        0
 92
      512
 93
        0
300

 40
0.0
140
1.0
 94
        5
 62
     0
340
5D
144
0.25
309
CONTENTFORMAT_END
171
     0
 94
        0
309
TABLEFORMAT_END
  1
CELLSTYLE_BEGIN
 90
        1
 91
        1
300
_TITLE
309
CELLSTYLE_END
300
CELLSTYLE
  1
TABLEFORMAT_BEGIN
 90
        5
170
     1
 91
        0
 92
        0
 62
   257
 93
        1
300
CONTENTFORMAT
  1
CONTENTFORMAT_BEGIN
 90
        0
 91
        0
 92
      512
 93
        0
300

 40
0.0
140
1.0
 94
        5
 62
     0
340
5D
144
0.18
309
CONTENTFORMAT_END
171
     0
 94
        0
309
TABLEFORMAT_END
  1
CELLSTYLE_BEGIN
 90
        2
 91
        1
300
_HEADER
309
CELLSTYLE_END
300
CELLSTYLE
  1
TABLEFORMAT_BEGIN
 90
        5
170
     1
 91
        0
 92
        0
 62
   257
 93
        1
300
CONTENTFORMAT
  1
CONTENTFORMAT_BEGIN
 90
        0
 91
        0
 92
      512
 93
        0
300

 40
0.0
140
1.0
 94
        2
 62
     0
340
5D
144
0.18
309
CONTENTFORMAT_END
171
     0
 94
        0
309
TABLEFORMAT_END
  1
CELLSTYLE_BEGIN
 90
        3
 91
        2
300
_DATA
309
CELLSTYLE_END
  0
XRECORD
  5
FDE
102
{ACAD_REACTORS
330
FDD
102
}
330
FDD
100
AcDbXrecord
280
     1
102
RTVSPropertyOp0
 70
     0
102
RTVSPropertyOp1
 70
     0
102
RTVSPropertyOp2
 70
     0
102
RTVSPropertyOp3
 70
     0
102
RTVSPropertyOp4
 70
     0
102
RTVSPropertyOp5
 70
     0
102
RTVSPropertyOp6
 70
     0
102
RTVSPropertyOp7
 70
     0
102
RTVSPropertyOp8
 70
     0
102
RTVSPropertyOp9
 70
     0
102
RTVSPropertyOp10
 70
     0
102
RTVSPropertyOp11
 70
     0
102
RTVSPropertyOp12
 70
     0
102
RTVSPropertyOp13
 70
     0
102
RTVSPropertyOp14
 70
     2
102
RTVSPropertyOp15
 70
     0
102
RTVSPropertyOp16
 70
     0
102
RTVSPropertyOp17
 70
     0
102
RTVSPropertyOp18
 70
     0
102
RTVSPropertyOp19
 70
     0
102
RTVSPropertyOp20
 70
     0
102
RTVSPropertyOp21
 70
     0
102
RTVSPropertyOp22
 70
     0
102
RTVSPropertyOp23
 70
     0
102
RTVSPropertyOp24
 70
     0
102
RTVSPropertyOp25
 70
     0
102
RTVSPropertyOp26
 70
     0
102
RTVSPropertyOp27
 70
     0
  0
XRECORD
  5
FE1
102
{ACAD_REACTORS
330
FE0
102
}
330
FE0
100
AcDbXrecord
280
     1
102
RTVSPropertyOp0
 70
     0
102
RTVSPropertyOp1
 70
     0
102
RTVSPropertyOp2
 70
     0
102
RTVSPropertyOp3
 70
     0
102
RTVSPropertyOp4
 70
     0
102
RTVSPropertyOp5
 70
     0
102
RTVSPropertyOp6
 70
     0
102
RTVSPropertyOp7
 70
     0
102
RTVSPropertyOp8
 70
     0
102
RTVSPropertyOp9
 70
     0
102
RTVSPropertyOp10
 70
     0
102
RTVSPropertyOp11
 70
     0
102
RTVSPropertyOp12
 70
     0
102
RTVSPropertyOp13
 70
     0
102
RTVSPropertyOp14
 70
     2
102
RTVSPropertyOp15
 70
     0
102
RTVSPropertyOp16
 70
     0
102
RTVSPropertyOp17
 70
     0
102
RTVSPropertyOp18
 70
     0
102
RTVSPropertyOp19
 70
     0
102
RTVSPropertyOp20
 70
     0
102
RTVSPropertyOp21
 70
     0
102
RTVSPropertyOp22
 70
     0
102
RTVSPropertyOp23
 70
     0
102
RTVSPropertyOp24
 70
     0
102
RTVSPropertyOp25
 70
     0
102
RTVSPropertyOp26
 70
     0
102
RTVSPropertyOp27
 70
     0
  0
XRECORD
  5
FE4
102
{ACAD_REACTORS
330
FE3
102
}
330
FE3
100
AcDbXrecord
280
     1
102
RTVSPropertyOp0
 70
     0
102
RTVSPropertyOp1
 70
     0
102
RTVSPropertyOp2
 70
     0
102
RTVSPropertyOp3
 70
     0
102
RTVSPropertyOp4
 70
     0
102
RTVSPropertyOp5
 70
     0
102
RTVSPropertyOp6
 70
     0
102
RTVSPropertyOp7
 70
     0
102
RTVSPropertyOp8
 70
     0
102
RTVSPropertyOp9
 70
     0
102
RTVSPropertyOp10
 70
     0
102
RTVSPropertyOp11
 70
     0
102
RTVSPropertyOp12
 70
     0
102
RTVSPropertyOp13
 70
     0
102
RTVSPropertyOp14
 70
     2
102
RTVSPropertyOp15
 70
     0
102
RTVSPropertyOp16
 70
     0
102
RTVSPropertyOp17
 70
     0
102
RTVSPropertyOp18
 70
     0
102
RTVSPropertyOp19
 70
     0
102
RTVSPropertyOp20
 70
     0
102
RTVSPropertyOp21
 70
     0
102
RTVSPropertyOp22
 70
     0
102
RTVSPropertyOp23
 70
     0
102
RTVSPropertyOp24
 70
     0
102
RTVSPropertyOp25
 70
     0
102
RTVSPropertyOp26
 70
     0
102
RTVSPropertyOp27
 70
     0
  0
ENDSEC
  0
EOF
