  0
SECTION
  2
HEADER
  9
$ACADVER
  1
AC1021
  9
$ACADMAINTVER
 70
    25
  9
$DWGCODEPAGE
  3
ANSI_1252
  9
$LASTSAVEDBY
  1
nishant.babu
  9
$INSBASE
 10
0.0
 20
0.0
 30
0.0
  9
$EXTMIN
 10
381.6540757152393
 20
-41.70901338088578
 30
-0.0015258207003583
  9
$EXTMAX
 10
578.1982586967583
 20
96.81706867143043
 30
0.0000000349246037
  9
$LIMMIN
 10
-76.16357666833025
 20
-89.82696359761041
  9
$LIMMAX
 10
118.8364233316699
 20
48.4230364023896
  9
$ORTHOMODE
 70
     0
  9
$REGENMODE
 70
     1
  9
$FILLMODE
 70
     1
  9
$QTEXTMODE
 70
     0
  9
$MIRRTEXT
 70
     0
  9
$LTSCALE
 40
1.0
  9
$ATTMODE
 70
     1
  9
$TEXTSIZE
 40
3.5
  9
$TRACEWID
 40
0.5
  9
$TEXTSTYLE
  7
STANDARD
  9
$CLAYER
  8
0
  9
$CELTYPE
  6
ByLayer
  9
$CECOLOR
 62
   256
  9
$CELTSCALE
 40
1.0
  9
$DISPSILH
 70
     0
  9
$DIMSCALE
 40
1.0
  9
$DIMASZ
 40
1.75
  9
$DIMEXO
 40
0.0
  9
$DIMDLI
 40
7.0
  9
$DIMRND
 40
0.0
  9
$DIMDLE
 40
0.0
  9
$DIMEXE
 40
0.5
  9
$DIMTP
 40
0.0
  9
$DIMTM
 40
0.0
  9
$DIMTXT
 40
1.75
  9
$DIMCEN
 40
0.0
  9
$DIMTSZ
 40
0.0
  9
$DIMTOL
 70
     0
  9
$DIMLIM
 70
     0
  9
$DIMTIH
 70
     0
  9
$DIMTOH
 70
     0
  9
$DIMSE1
 70
     0
  9
$DIMSE2
 70
     0
  9
$DIMTAD
 70
     1
  9
$DIMZIN
 70
     9
  9
$DIMBLK
  1

  9
$DIMASO
 70
     1
  9
$DIMSHO
 70
     1
  9
$DIMPOST
  1

  9
$DIMAPOST
  1

  9
$DIMALT
 70
     0
  9
$DIMALTD
 70
     2
  9
$DIMALTF
 40
25.4
  9
$DIMLFAC
 40
1.0
  9
$DIMTOFL
 70
     0
  9
$DIMTVP
 40
0.0
  9
$DIMTIX
 70
     0
  9
$DIMSOXD
 70
     0
  9
$DIMSAH
 70
     0
  9
$DIMBLK1
  1

  9
$DIMBLK2
  1

  9
$DIMSTYLE
  2
DMST_1
  9
$DIMCLRD
 70
     2
  9
$DIMCLRE
 70
     2
  9
$DIMCLRT
 70
     3
  9
$DIMTFAC
 40
1.0
  9
$DIMGAP
 40
0.09
  9
$DIMJUST
 70
     0
  9
$DIMSD1
 70
     0
  9
$DIMSD2
 70
     0
  9
$DIMTOLJ
 70
     1
  9
$DIMTZIN
 70
     0
  9
$DIMALTZ
 70
     0
  9
$DIMALTTZ
 70
     0
  9
$DIMUPT
 70
     0
  9
$DIMDEC
 70
     4
  9
$DIMTDEC
 70
     4
  9
$DIMALTU
 70
     2
  9
$DIMALTTD
 70
     2
  9
$DIMTXSTY
  7
STANDARD
  9
$DIMAUNIT
 70
     0
  9
$DIMADEC
 70
     0
  9
$DIMALTRND
 40
0.0
  9
$DIMAZIN
 70
     0
  9
$DIMDSEP
 70
    46
  9
$DIMATFIT
 70
     3
  9
$DIMFRAC
 70
     0
  9
$DIMLDRBLK
  1

  9
$DIMLUNIT
 70
     2
  9
$DIMLWD
 70
    -2
  9
$DIMLWE
 70
    -2
  9
$DIMTMOVE
 70
     2
  9
$DIMFXL
 40
1.0
  9
$DIMFXLON
 70
     0
  9
$DIMJOGANG
 40
0.7853981633974483
  9
$DIMTFILL
 70
     0
  9
$DIMTFILLCLR
 70
     0
  9
$DIMARCSYM
 70
     0
  9
$DIMLTYPE
  6

  9
$DIMLTEX1
  6

  9
$DIMLTEX2
  6

  9
$LUNITS
 70
     2
  9
$LUPREC
 70
     4
  9
$SKETCHINC
 40
0.1
  9
$FILLETRAD
 40
2.0
  9
$AUNITS
 70
     0
  9
$AUPREC
 70
     0
  9
$MENU
  1
ACAD
  9
$ELEVATION
 40
0.0
  9
$PELEVATION
 40
0.0
  9
$THICKNESS
 40
0.0
  9
$LIMCHECK
 70
     0
  9
$CHAMFERA
 40
0.0
  9
$CHAMFERB
 40
0.0
  9
$CHAMFERC
 40
0.0
  9
$CHAMFERD
 40
0.0
  9
$SKPOLY
 70
     0
  9
$TDCREATE
 40
2456511.732813611
  9
$TDUCREATE
 40
2456511.503646945
  9
$TDUPDATE
 40
2456512.410420023
  9
$TDUUPDATE
 40
2456512.181253356
  9
$TDINDWG
 40
0.6735522454
  9
$TDUSRTIMER
 40
0.6735522454
  9
$USRTIMER
 70
     1
  9
$ANGBASE
 50
0.0
  9
$ANGDIR
 70
     0
  9
$PDMODE
 70
     0
  9
$PDSIZE
 40
0.0
  9
$PLINEWID
 40
0.0
  9
$SPLFRAME
 70
     0
  9
$SPLINETYPE
 70
     6
  9
$SPLINESEGS
 70
     8
  9
$HANDSEED
  5
DB7
  9
$SURFTAB1
 70
     6
  9
$SURFTAB2
 70
     6
  9
$SURFTYPE
 70
     6
  9
$SURFU
 70
     6
  9
$SURFV
 70
     6
  9
$UCSBASE
  2

  9
$UCSNAME
  2

  9
$UCSORG
 10
0.0
 20
0.0
 30
0.0
  9
$UCSXDIR
 10
1.0
 20
0.0
 30
0.0
  9
$UCSYDIR
 10
0.0
 20
1.0
 30
0.0
  9
$UCSORTHOREF
  2

  9
$UCSORTHOVIEW
 70
     0
  9
$UCSORGTOP
 10
0.0
 20
0.0
 30
0.0
  9
$UCSORGBOTTOM
 10
0.0
 20
0.0
 30
0.0
  9
$UCSORGLEFT
 10
0.0
 20
0.0
 30
0.0
  9
$UCSORGRIGHT
 10
0.0
 20
0.0
 30
0.0
  9
$UCSORGFRONT
 10
0.0
 20
0.0
 30
0.0
  9
$UCSORGBACK
 10
0.0
 20
0.0
 30
0.0
  9
$PUCSBASE
  2

  9
$PUCSNAME
  2

  9
$PUCSORG
 10
0.0
 20
0.0
 30
0.0
  9
$PUCSXDIR
 10
1.0
 20
0.0
 30
0.0
  9
$PUCSYDIR
 10
0.0
 20
1.0
 30
0.0
  9
$PUCSORTHOREF
  2

  9
$PUCSORTHOVIEW
 70
     0
  9
$PUCSORGTOP
 10
0.0
 20
0.0
 30
0.0
  9
$PUCSORGBOTTOM
 10
0.0
 20
0.0
 30
0.0
  9
$PUCSORGLEFT
 10
0.0
 20
0.0
 30
0.0
  9
$PUCSORGRIGHT
 10
0.0
 20
0.0
 30
0.0
  9
$PUCSORGFRONT
 10
0.0
 20
0.0
 30
0.0
  9
$PUCSORGBACK
 10
0.0
 20
0.0
 30
0.0
  9
$USERI1
 70
     0
  9
$USERI2
 70
     0
  9
$USERI3
 70
     0
  9
$USERI4
 70
     0
  9
$USERI5
 70
     0
  9
$USERR1
 40
0.0
  9
$USERR2
 40
0.0
  9
$USERR3
 40
0.0
  9
$USERR4
 40
0.0
  9
$USERR5
 40
0.0
  9
$WORLDVIEW
 70
     1
  9
$SHADEDGE
 70
     3
  9
$SHADEDIF
 70
    70
  9
$TILEMODE
 70
     1
  9
$MAXACTVP
 70
    64
  9
$PINSBASE
 10
0.0
 20
0.0
 30
0.0
  9
$PLIMCHECK
 70
     0
  9
$PEXTMIN
 10
1.000000000000000E+20
 20
1.000000000000000E+20
 30
1.000000000000000E+20
  9
$PEXTMAX
 10
-1.000000000000000E+20
 20
-1.000000000000000E+20
 30
-1.000000000000000E+20
  9
$PLIMMIN
 10
0.0
 20
0.0
  9
$PLIMMAX
 10
12.0
 20
9.0
  9
$UNITMODE
 70
     0
  9
$VISRETAIN
 70
     1
  9
$PLINEGEN
 70
     0
  9
$PSLTSCALE
 70
     1
  9
$TREEDEPTH
 70
  3020
  9
$CMLSTYLE
  2
Standard
  9
$CMLJUST
 70
     0
  9
$CMLSCALE
 40
1.0
  9
$PROXYGRAPHICS
 70
     1
  9
$MEASUREMENT
 70
     0
  9
$CELWEIGHT
370
    -1
  9
$ENDCAPS
280
     0
  9
$JOINSTYLE
280
     0
  9
$LWDISPLAY
290
     0
  9
$INSUNITS
 70
     4
  9
$HYPERLINKBASE
  1

  9
$STYLESHEET
  1
SSG1.ctb
  9
$XEDIT
290
     1
  9
$CEPSNTYPE
380
     0
  9
$PSTYLEMODE
290
     1
  9
$FINGERPRINTGUID
  2
{B6E67B0B-EF8E-45EA-B4F9-48D9468C4932}
  9
$VERSIONGUID
  2
{381A7B31-A9BA-4533-A7F4-E9D2DE841433}
  9
$EXTNAMES
290
     1
  9
$PSVPSCALE
 40
0.0
  9
$OLESTARTUP
290
     0
  9
$SORTENTS
280
   127
  9
$INDEXCTL
280
     0
  9
$HIDETEXT
280
     0
  9
$XCLIPFRAME
290
     0
  9
$HALOGAP
280
     0
  9
$OBSCOLOR
 70
   257
  9
$OBSLTYPE
280
     0
  9
$INTERSECTIONDISPLAY
280
     0
  9
$INTERSECTIONCOLOR
 70
   257
  9
$DIMASSOC
280
     1
  9
$PROJECTNAME
  1

  9
$CAMERADISPLAY
290
     0
  9
$LENSLENGTH
 40
50.0
  9
$CAMERAHEIGHT
 40
0.0
  9
$STEPSPERSEC
 40
2.0
  9
$STEPSIZE
 40
6.0
  9
$3DDWFPREC
 40
2.0
  9
$PSOLWIDTH
 40
0.25
  9
$PSOLHEIGHT
 40
4.0
  9
$LOFTANG1
 40
1.570796326794896
  9
$LOFTANG2
 40
1.570796326794896
  9
$LOFTMAG1
 40
0.0
  9
$LOFTMAG2
 40
0.0
  9
$LOFTPARAM
 70
     7
  9
$LOFTNORMALS
280
     1
  9
$LATITUDE
 40
37.795
  9
$LONGITUDE
 40
-122.394
  9
$NORTHDIRECTION
 40
0.0
  9
$TIMEZONE
 70
 -8000
  9
$LIGHTGLYPHDISPLAY
280
     1
  9
$TILEMODELIGHTSYNCH
280
     1
  9
$CMATERIAL
347
11
  9
$SOLIDHIST
280
     1
  9
$SHOWHIST
280
     1
  9
$DWFFRAME
280
     2
  9
$DGNFRAME
280
     0
  9
$REALWORLDSCALE
290
     1
  9
$INTERFERECOLOR
 62
     1
  9
$INTERFEREOBJVS
345
33
  9
$INTERFEREVPVS
346
30
  9
$CSHADOW
280
     0
  9
$SHADOWPLANELOCATION
 40
0.0
  0
ENDSEC
  0
SECTION
  2
CLASSES
  0
CLASS
  1
ACDBDICTIONARYWDFLT
  2
AcDbDictionaryWithDefault
  3
ObjectDBX Classes
 90
        0
 91
        1
280
     0
281
     0
  0
CLASS
  1
MATERIAL
  2
AcDbMaterial
  3
ObjectDBX Classes
 90
     1153
 91
        3
280
     0
281
     0
  0
CLASS
  1
VISUALSTYLE
  2
AcDbVisualStyle
  3
ObjectDBX Classes
 90
     4095
 91
       19
280
     0
281
     0
  0
CLASS
  1
SCALE
  2
AcDbScale
  3
ObjectDBX Classes
 90
     1153
 91
       33
280
     0
281
     0
  0
CLASS
  1
TABLESTYLE
  2
AcDbTableStyle
  3
ObjectDBX Classes
 90
     4095
 91
        1
280
     0
281
     0
  0
CLASS
  1
MLEADERSTYLE
  2
AcDbMLeaderStyle
  3
ACDB_MLEADERSTYLE_CLASS
 90
     4095
 91
        1
280
     0
281
     0
  0
CLASS
  1
CELLSTYLEMAP
  2
AcDbCellStyleMap
  3
ObjectDBX Classes
 90
     1152
 91
        7
280
     0
281
     0
  0
CLASS
  1
DICTIONARYVAR
  2
AcDbDictionaryVar
  3
ObjectDBX Classes
 90
        0
 91
        5
280
     0
281
     0
  0
CLASS
  1
ACAD_EVALUATION_GRAPH
  2
AcDbEvalGraph
  3
ObjectDBX Classes
 90
     1153
 91
        0
280
     0
281
     0
  0
CLASS
  1
ACAECUSTOBJ
  2
AcAeEditorObj
  3
AcAeEditorObj
 90
     1024
 91
        0
280
     0
281
     0
  0
CLASS
  1
ACDB_DYNAMICBLOCKPURGEPREVENTER_VERSION
  2
AcDbDynamicBlockPurgePreventer
  3
ObjectDBX Classes
 90
     1153
 91
        0
280
     0
281
     0
  0
CLASS
  1
SORTENTSTABLE
  2
AcDbSortentsTable
  3
ObjectDBX Classes
 90
        0
 91
        8
280
     0
281
     0
  0
ENDSEC
  0
SECTION
  2
TABLES
  0
TABLE
  2
VPORT
  5
8
330
0
100
AcDbSymbolTable
 70
     1
  0
VPORT
  5
8B
330
8
100
AcDbSymbolTableRecord
100
AcDbViewportTableRecord
  2
*Active
 70
     0
 10
0.0
 20
0.0
 11
1.0
 21
1.0
 12
482.2938786082759
 22
23.05860577412341
 13
0.0
 23
0.0
 14
1.0
 24
1.0
 15
0.0
 25
0.0
 16
0.0
 26
0.0
 36
1.0
 17
0.0
 27
0.0
 37
0.0
 40
154.8881609387589
 41
2.017241379310344
 42
50.0
 43
0.0
 44
0.0
 50
0.0
 51
0.0
 71
     0
 72
   100
 73
     1
 74
     1
 75
     0
 76
     0
 77
     0
 78
     0
281
     0
 65
     1
110
0.0
120
0.0
130
0.0
111
1.0
121
0.0
131
0.0
112
0.0
122
1.0
132
0.0
 79
     0
146
0.0
348
2F
 60
     3
 61
     5
292
     1
282
     1
141
0.0
142
0.0
 63
   250
421
  3355443
  0
ENDTAB
  0
TABLE
  2
LTYPE
  5
5
330
0
100
AcDbSymbolTable
 70
     9
  0
LTYPE
  5
62
330
5
100
AcDbSymbolTableRecord
100
AcDbLinetypeTableRecord
  2
ByBlock
 70
     0
  3

 72
    65
 73
     0
 40
0.0
  0
LTYPE
  5
63
330
5
100
AcDbSymbolTableRecord
100
AcDbLinetypeTableRecord
  2
ByLayer
 70
     0
  3

 72
    65
 73
     0
 40
0.0
  0
LTYPE
  5
64
330
5
100
AcDbSymbolTableRecord
100
AcDbLinetypeTableRecord
  2
CONTINUOUS
 70
     0
  3
Solid line
 72
    65
 73
     0
 40
0.0
  0
LTYPE
  5
7B
330
5
100
AcDbSymbolTableRecord
100
AcDbLinetypeTableRecord
  2
BORDER
 70
     0
  3
__ __ . __ __ .
 72
    65
 73
     6
 40
8.980263157894743
 49
2.565789473684212
 74
     0
 49
-1.282894736842105
 74
     0
 49
2.565789473684212
 74
     0
 49
-1.282894736842105
 74
     0
 49
0.0
 74
     0
 49
-1.282894736842105
 74
     0
  0
LTYPE
  5
7C
330
5
100
AcDbSymbolTableRecord
100
AcDbLinetypeTableRecord
  2
CENTER
 70
     0
  3
____ _ ____ _
 72
    65
 73
     4
 40
10.26315789473685
 49
6.414473684210531
 74
     0
 49
-1.282894736842105
 74
     0
 49
1.282894736842105
 74
     0
 49
-1.282894736842105
 74
     0
  0
LTYPE
  5
7D
330
5
100
AcDbSymbolTableRecord
100
AcDbLinetypeTableRecord
  2
DASHDOT
 70
     0
  3
__ . __ . __ .
 72
    65
 73
     4
 40
5.131578947368425
 49
2.565789473684212
 74
     0
 49
-1.282894736842105
 74
     0
 49
0.0
 74
     0
 49
-1.282894736842105
 74
     0
  0
LTYPE
  5
7E
330
5
100
AcDbSymbolTableRecord
100
AcDbLinetypeTableRecord
  2
DASHED
 70
     0
  3
__ __ __ __ __
 72
    65
 73
     2
 40
3.84868421052632
 49
2.565789473684212
 74
     0
 49
-1.282894736842105
 74
     0
  0
LTYPE
  5
7F
330
5
100
AcDbSymbolTableRecord
100
AcDbLinetypeTableRecord
  2
DIVIDE
 70
     0
  3
__ . . __ . . 
 72
    65
 73
     6
 40
6.414473684210531
 49
2.565789473684212
 74
     0
 49
-1.282894736842105
 74
     0
 49
0.0
 74
     0
 49
-1.282894736842105
 74
     0
 49
0.0
 74
     0
 49
-1.282894736842105
 74
     0
  0
LTYPE
  5
80
330
5
100
AcDbSymbolTableRecord
100
AcDbLinetypeTableRecord
  2
DOT
 70
     0
  3
..............
 72
    65
 73
     4
 40
2.565789473684212
 49
0.0
 74
     0
 49
-1.282894736842105
 74
     0
 49
0.0
 74
     0
 49
-1.282894736842105
 74
     0
  0
LTYPE
  5
81
330
5
100
AcDbSymbolTableRecord
100
AcDbLinetypeTableRecord
  2
HIDDEN
 70
     0
  3
_ _ _ _ _ _ _
 72
    65
 73
     2
 40
1.92434210526316
 49
1.282894736842105
 74
     0
 49
-0.6414473684210532
 74
     0
  0
LTYPE
  5
82
330
5
100
AcDbSymbolTableRecord
100
AcDbLinetypeTableRecord
  2
PHANTOM
 70
     0
  3
_____ _ _ _____ _ _ 
 72
    65
 73
     6
 40
12.82894736842106
 49
6.414473684210531
 74
     0
 49
-1.282894736842105
 74
     0
 49
1.282894736842105
 74
     0
 49
-1.282894736842105
 74
     0
 49
1.282894736842105
 74
     0
 49
-1.282894736842105
 74
     0
  0
ENDTAB
  0
TABLE
  2
LAYER
  5
2
102
{ACAD_XDICTIONARY
360
CD2
102
}
330
0
100
AcDbSymbolTable
 70
     6
  0
LAYER
  5
5C
102
{ACAD_XDICTIONARY
360
21F
102
}
330
2
100
AcDbSymbolTableRecord
100
AcDbLayerTableRecord
  2
0
 70
     0
 62
     7
  6
CONTINUOUS
370
    -3
390
F
347
21
  0
LAYER
  5
83
102
{ACAD_XDICTIONARY
360
221
102
}
330
2
100
AcDbSymbolTableRecord
100
AcDbLayerTableRecord
  2
1
 70
     0
 62
     7
  6
CONTINUOUS
370
    -3
390
F
347
21
  0
LAYER
  5
2FE
330
2
100
AcDbSymbolTableRecord
100
AcDbLayerTableRecord
  2
Defpoints
 70
     0
 62
     7
  6
CONTINUOUS
290
     0
370
    -3
390
F
347
21
  0
LAYER
  5
CB3
330
2
100
AcDbSymbolTableRecord
100
AcDbLayerTableRecord
  2
Dark hatch1
 70
     0
 62
     3
  6
CONTINUOUS
370
    25
390
F
347
21
1001
AcAecLayerStandard
1000

1000

  0
LAYER
  5
CB4
330
2
100
AcDbSymbolTableRecord
100
AcDbLayerTableRecord
  2
DEFAULT_1
 70
     0
 62
     7
  6
CENTER
370
    -3
390
F
347
21
  0
LAYER
  5
CB5
330
2
100
AcDbSymbolTableRecord
100
AcDbLayerTableRecord
  2
02___PRT_ALL_AXES
 70
     0
 62
     7
  6
CONTINUOUS
370
    -3
390
F
347
21
  0
ENDTAB
  0
TABLE
  2
STYLE
  5
3
330
0
100
AcDbSymbolTable
 70
    10
  0
STYLE
  5
5D
330
3
100
AcDbSymbolTableRecord
100
AcDbTextStyleTableRecord
  2
STANDARD
 70
     0
 40
0.0
 41
1.0
 50
0.0
 71
     0
 42
3.5
  3
isocpeur.ttf
  4

1001
ACAD
1000
ISOCPEUR
1071
       34
  0
STYLE
  5
61
330
3
100
AcDbSymbolTableRecord
100
AcDbTextStyleTableRecord
  2
Annotative
 70
     0
 40
0.0
 41
1.0
 50
0.0
 71
     0
 42
0.2
  3

  4

1001
AcadAnnotative
1000
AnnotativeData
1002
{
1070
     1
1070
     1
1002
}
  0
STYLE
  5
84
330
3
100
AcDbSymbolTableRecord
100
AcDbTextStyleTableRecord
  2
SIMPLEX
 70
     0
 40
0.0
 41
1.0
 50
0.0
 71
     0
 42
3.5
  3
simplex
  4

  0
STYLE
  5
85
330
3
100
AcDbSymbolTableRecord
100
AcDbTextStyleTableRecord
  2
COMPLEX
 70
     0
 40
0.0
 41
1.0
 50
0.0
 71
     0
 42
3.5
  3
complex
  4

  0
STYLE
  5
86
330
3
100
AcDbSymbolTableRecord
100
AcDbTextStyleTableRecord
  2
ITALIC
 70
     0
 40
0.0
 41
1.0
 50
0.0
 71
     0
 42
3.5
  3
italic
  4

  0
STYLE
  5
CB6
330
3
100
AcDbSymbolTableRecord
100
AcDbTextStyleTableRecord
  2
SLDTEXTSTYLE0
 70
     0
 40
0.0
 41
0.605
 50
0.0
 71
     0
 42
0.0
  3
TXT
  4

  0
STYLE
  5
CB7
330
3
100
AcDbSymbolTableRecord
100
AcDbTextStyleTableRecord
  2
style1
 70
     0
 40
0.0
 41
1.0
 50
0.0
 71
     0
 42
0.2
  3
isocpeur.ttf
  4

1001
ACAD
1000
ISOCPEUR
1071
       34
  0
STYLE
  5
CB8
330
3
100
AcDbSymbolTableRecord
100
AcDbTextStyleTableRecord
  2
NEW
 70
     0
 40
0.0
 41
1.0
 50
0.0
 71
     0
 42
0.2
  3
ARIAL.TTF
  4

1001
ACAD
1000
Arial
1071
       34
  0
ENDTAB
  0
TABLE
  2
VIEW
  5
6
330
0
100
AcDbSymbolTable
 70
     0
  0
ENDTAB
  0
TABLE
  2
UCS
  5
7
330
0
100
AcDbSymbolTable
 70
     0
  0
ENDTAB
  0
TABLE
  2
APPID
  5
9
330
0
100
AcDbSymbolTable
 70
    14
  0
APPID
  5
5E
330
9
100
AcDbSymbolTableRecord
100
AcDbRegAppTableRecord
  2
ACAD
 70
     0
  0
APPID
  5
65
330
9
100
AcDbSymbolTableRecord
100
AcDbRegAppTableRecord
  2
AcadAnnotative
 70
     0
  0
APPID
  5
6F
330
9
100
AcDbSymbolTableRecord
100
AcDbRegAppTableRecord
  2
ACAD_MLEADERVER
 70
     0
  0
APPID
  5
363
330
9
100
AcDbSymbolTableRecord
100
AcDbRegAppTableRecord
  2
ACAUTHENVIRON
 70
     0
  0
APPID
  5
3FF
330
9
100
AcDbSymbolTableRecord
100
AcDbRegAppTableRecord
  2
AcDbDynamicBlockTrueName
 70
     0
  0
APPID
  5
400
330
9
100
AcDbSymbolTableRecord
100
AcDbRegAppTableRecord
  2
AcDbDynamicBlockGUID
 70
     0
  0
APPID
  5
402
330
9
100
AcDbSymbolTableRecord
100
AcDbRegAppTableRecord
  2
AcDbBlockRepETag
 70
     0
  0
APPID
  5
761
330
9
100
AcDbSymbolTableRecord
100
AcDbRegAppTableRecord
  2
AcadAnnoPO
 70
     0
  0
APPID
  5
CC3
330
9
100
AcDbSymbolTableRecord
100
AcDbRegAppTableRecord
  2
ACAD_PSEXT
 70
     0
  0
APPID
  5
CC4
330
9
100
AcDbSymbolTableRecord
100
AcDbRegAppTableRecord
  2
ACAD_DSTYLE_DIMJAG
 70
     0
  0
APPID
  5
CC5
330
9
100
AcDbSymbolTableRecord
100
AcDbRegAppTableRecord
  2
ACAD_DSTYLE_DIMTALN
 70
     0
  0
APPID
  5
CC6
330
9
100
AcDbSymbolTableRecord
100
AcDbRegAppTableRecord
  2
DCO15
 70
     0
  0
APPID
  5
CC7
330
9
100
AcDbSymbolTableRecord
100
AcDbRegAppTableRecord
  2
ACAD_EXEMPT_FROM_CAD_STANDARDS
 70
     0
  0
APPID
  5
CC8
330
9
100
AcDbSymbolTableRecord
100
AcDbRegAppTableRecord
  2
AcAecLayerStandard
 70
     0
  0
ENDTAB
  0
TABLE
  2
DIMSTYLE
  5
A
330
0
100
AcDbSymbolTable
 70
    17
100
AcDbDimStyleTable
 71
     2
340
78
340
5F
  0
DIMSTYLE
105
5F
330
A
100
AcDbSymbolTableRecord
100
AcDbDimStyleTableRecord
  2
Standard
 70
     0
340
5D
  0
DIMSTYLE
105
60
330
A
100
AcDbSymbolTableRecord
100
AcDbDimStyleTableRecord
  2
Annotative
 70
     0
340
5D
1001
AcadAnnotative
1000
AnnotativeData
1002
{
1070
     1
1070
     1
1002
}
  0
DIMSTYLE
105
78
102
{ACAD_REACTORS
330
826
330
829
330
827
330
822
330
828
330
824
330
9A2
330
825
330
823
102
}
330
A
100
AcDbSymbolTableRecord
100
AcDbDimStyleTableRecord
  2
DMST_1
 70
     0
 41
1.75
 42
0.0
 43
7.0
 44
0.5
 73
     0
 74
     0
 77
     1
 78
     9
140
1.75
141
0.0
176
     2
177
     2
178
     3
279
     2
340
5D
  0
DIMSTYLE
105
79
330
A
100
AcDbSymbolTableRecord
100
AcDbDimStyleTableRecord
  2
DMST_2
 70
     0
 41
1.75
 42
0.0
 43
7.0
 44
0.5
 73
     0
 74
     0
 77
     1
 78
     9
140
1.75
141
0.0
176
     2
177
     2
178
     3
279
     2
340
5D
  0
DIMSTYLE
105
7A
330
A
100
AcDbSymbolTableRecord
100
AcDbDimStyleTableRecord
  2
DMST_3
 70
     0
 41
1.75
 42
0.0
 43
7.0
 44
0.5
 73
     0
 74
     0
 77
     1
 78
     9
140
1.75
141
0.0
176
     2
177
     2
178
     3
279
     2
340
5D
  0
DIMSTYLE
105
CB9
330
A
100
AcDbSymbolTableRecord
100
AcDbDimStyleTableRecord
  2
DIMSTYLE_1
 70
     0
 41
4.0
 48
0.1
 71
     1
 73
     0
 74
     0
 77
     1
 78
     8
140
2.799999999999999
144
0.6666666667
146
0.75
178
     5
271
     2
272
     2
284
     8
340
5D
341
B96
342
B96
343
B96
344
B96
  0
DIMSTYLE
105
CBA
330
A
100
AcDbSymbolTableRecord
100
AcDbDimStyleTableRecord
  2
DIMSTYLE_2
 70
     0
 41
4.0
 47
0.01
 48
0.01
 73
     0
 74
     0
 77
     1
 78
     8
140
2.799999999999999
144
0.6666666667
178
     5
271
     2
272
     2
284
     8
340
5D
341
B96
342
B96
343
B96
344
B96
  0
DIMSTYLE
105
CBB
330
A
100
AcDbSymbolTableRecord
100
AcDbDimStyleTableRecord
  2
DIMSTYLE_3
 70
     0
 41
4.0
 47
0.2
 48
0.2
 71
     1
 73
     0
 74
     0
 77
     1
 78
     8
140
2.799999999999999
144
0.6666666667
178
     5
271
     2
272
     2
284
     8
340
5D
341
B96
342
B96
343
B96
344
B96
  0
DIMSTYLE
105
CBC
330
A
100
AcDbSymbolTableRecord
100
AcDbDimStyleTableRecord
  2
DIMSTYLE_4
 70
     0
 41
4.0
 47
0.1
 48
0.1
 71
     1
 73
     0
 74
     0
 77
     1
 78
     8
140
2.799999999999999
144
0.6666666667
271
     1
272
     1
284
     8
340
5D
341
B96
342
B96
343
B96
344
B96
  0
DIMSTYLE
105
CBD
330
A
100
AcDbSymbolTableRecord
100
AcDbDimStyleTableRecord
  2
DIMSTYLE_7
 70
     0
 41
4.0
 73
     0
 74
     0
 77
     1
 78
     8
140
2.799999999999999
144
0.6666666667
178
     5
271
     0
272
     0
284
     8
340
5D
341
B96
342
B96
343
B96
344
B96
  0
DIMSTYLE
105
CBE
330
A
100
AcDbSymbolTableRecord
100
AcDbDimStyleTableRecord
  2
DIMSTYLE_8
 70
     0
 41
4.0
 47
0.3
 48
0.3
 71
     1
 73
     0
 74
     0
 77
     1
 78
     8
140
2.799999999999999
144
0.6666666667
178
     5
271
     2
272
     2
284
     8
340
5D
341
B96
342
B96
343
B96
344
B96
  0
DIMSTYLE
105
CBF
330
A
100
AcDbSymbolTableRecord
100
AcDbDimStyleTableRecord
  2
DIMSTYLE_9
 70
     0
 41
4.0
 48
0.1
 71
     1
 77
     1
 78
     8
140
2.799999999999999
144
0.6666666667
146
0.75
178
     5
271
     2
272
     2
284
     8
340
5D
341
B96
342
B96
343
B96
344
B96
  0
DIMSTYLE
105
CC0
330
A
100
AcDbSymbolTableRecord
100
AcDbDimStyleTableRecord
  2
DIMSTYLE_10
 70
     0
 41
4.0
 47
0.9
 48
0.9
 71
     1
 73
     0
 74
     0
 77
     1
 78
     8
140
2.799999999999999
144
0.6666666667
271
     2
272
     2
284
     8
340
5D
341
B96
342
B96
343
B96
344
B96
  0
DIMSTYLE
105
CC1
330
A
100
AcDbSymbolTableRecord
100
AcDbDimStyleTableRecord
  2
DIMSTYLE_11
 70
     0
 41
4.0
 47
0.1
 48
0.1
 71
     1
 73
     0
 74
     0
 77
     1
 78
     8
140
2.799999999999999
144
0.6666666667
271
     2
272
     2
284
     8
340
5D
341
B96
342
B96
343
B96
344
B96
  0
DIMSTYLE
105
CC2
330
A
100
AcDbSymbolTableRecord
100
AcDbDimStyleTableRecord
  2
DIMSTYLE_12
 70
     0
 41
4.0
 47
3.0
 48
3.0
 71
     1
 73
     0
 74
     0
 77
     1
 78
     8
140
2.799999999999999
144
0.6666666667
178
     5
271
     2
272
     2
284
     8
340
5D
341
B96
342
B96
343
B96
344
B96
  0
ENDTAB
  0
TABLE
  2
BLOCK_RECORD
  5
1
330
0
100
AcDbSymbolTable
 70
    78
  0
BLOCK_RECORD
  5
74
102
{ACAD_XDICTIONARY
360
A0C
102
}
330
1
100
AcDbSymbolTableRecord
100
AcDbBlockTableRecord
  2
*Model_Space
340
77
 70
     0
280
     1
281
     0
  0
BLOCK_RECORD
  5
70
330
1
100
AcDbSymbolTableRecord
100
AcDbBlockTableRecord
  2
*Paper_Space
340
73
 70
     0
280
     1
281
     0
  0
BLOCK_RECORD
  5
8C
330
1
100
AcDbSymbolTableRecord
100
AcDbBlockTableRecord
  2
A3SN_
340
0
 70
     0
280
     1
281
     0
  0
BLOCK_RECORD
  5
14C
102
{ACAD_XDICTIONARY
360
364
102
}
330
1
100
AcDbSymbolTableRecord
100
AcDbBlockTableRecord
  2
TOP_TOP_
340
0
102
{BLKREFS
331
21E
102
}
 70
     0
280
     1
281
     0
1001
AcDbDynamicBlockGUID
1000
{5F91DB18-0E6A-470A-BB15-5605F73A13CC}
1001
AcDbBlockRepETag
1070
     1
1071
        0
  0
BLOCK_RECORD
  5
403
330
1
100
AcDbSymbolTableRecord
100
AcDbBlockTableRecord
  2
*D25
340
0
 70
     0
280
     1
281
     0
  0
BLOCK_RECORD
  5
40B
330
1
100
AcDbSymbolTableRecord
100
AcDbBlockTableRecord
  2
*D26
340
0
 70
     0
280
     1
281
     0
  0
BLOCK_RECORD
  5
413
330
1
100
AcDbSymbolTableRecord
100
AcDbBlockTableRecord
  2
*D27
340
0
 70
     0
280
     1
281
     0
  0
BLOCK_RECORD
  5
41D
330
1
100
AcDbSymbolTableRecord
100
AcDbBlockTableRecord
  2
*D28
340
0
 70
     0
280
     1
281
     0
  0
BLOCK_RECORD
  5
427
330
1
100
AcDbSymbolTableRecord
100
AcDbBlockTableRecord
  2
*D29
340
0
 70
     0
280
     1
281
     0
  0
BLOCK_RECORD
  5
42F
330
1
100
AcDbSymbolTableRecord
100
AcDbBlockTableRecord
  2
*D30
340
0
 70
     0
280
     1
281
     0
  0
BLOCK_RECORD
  5
439
330
1
100
AcDbSymbolTableRecord
100
AcDbBlockTableRecord
  2
*D31
340
0
 70
     0
280
     1
281
     0
  0
BLOCK_RECORD
  5
6AE
330
1
100
AcDbSymbolTableRecord
100
AcDbBlockTableRecord
  2
*D48
340
0
 70
     0
280
     1
281
     0
  0
BLOCK_RECORD
  5
6BA
330
1
100
AcDbSymbolTableRecord
100
AcDbBlockTableRecord
  2
*D49
340
0
 70
     0
280
     1
281
     0
  0
BLOCK_RECORD
  5
6C7
330
1
100
AcDbSymbolTableRecord
100
AcDbBlockTableRecord
  2
*D50
340
0
 70
     0
280
     1
281
     0
  0
BLOCK_RECORD
  5
6D3
330
1
100
AcDbSymbolTableRecord
100
AcDbBlockTableRecord
  2
*D51
340
0
 70
     0
280
     1
281
     0
  0
BLOCK_RECORD
  5
6DF
330
1
100
AcDbSymbolTableRecord
100
AcDbBlockTableRecord
  2
*D52
340
0
 70
     0
280
     1
281
     0
  0
BLOCK_RECORD
  5
6EB
330
1
100
AcDbSymbolTableRecord
100
AcDbBlockTableRecord
  2
*D53
340
0
 70
     0
280
     1
281
     0
  0
BLOCK_RECORD
  5
6F7
330
1
100
AcDbSymbolTableRecord
100
AcDbBlockTableRecord
  2
*D54
340
0
 70
     0
280
     1
281
     0
  0
BLOCK_RECORD
  5
704
330
1
100
AcDbSymbolTableRecord
100
AcDbBlockTableRecord
  2
*D55
340
0
 70
     0
280
     1
281
     0
  0
BLOCK_RECORD
  5
832
330
1
100
AcDbSymbolTableRecord
100
AcDbBlockTableRecord
  2
*D56
340
0
 70
     0
280
     1
281
     0
  0
BLOCK_RECORD
  5
83E
330
1
100
AcDbSymbolTableRecord
100
AcDbBlockTableRecord
  2
*D57
340
0
 70
     0
280
     1
281
     0
  0
BLOCK_RECORD
  5
84B
330
1
100
AcDbSymbolTableRecord
100
AcDbBlockTableRecord
  2
*D58
340
0
 70
     0
280
     1
281
     0
  0
BLOCK_RECORD
  5
857
330
1
100
AcDbSymbolTableRecord
100
AcDbBlockTableRecord
  2
*D59
340
0
 70
     0
280
     1
281
     0
  0
BLOCK_RECORD
  5
863
330
1
100
AcDbSymbolTableRecord
100
AcDbBlockTableRecord
  2
*D60
340
0
 70
     0
280
     1
281
     0
  0
BLOCK_RECORD
  5
86F
330
1
100
AcDbSymbolTableRecord
100
AcDbBlockTableRecord
  2
*D61
340
0
 70
     0
280
     1
281
     0
  0
BLOCK_RECORD
  5
87B
330
1
100
AcDbSymbolTableRecord
100
AcDbBlockTableRecord
  2
*D62
340
0
 70
     0
280
     1
281
     0
  0
BLOCK_RECORD
  5
888
330
1
100
AcDbSymbolTableRecord
100
AcDbBlockTableRecord
  2
*D63
340
0
 70
     0
280
     1
281
     0
  0
BLOCK_RECORD
  5
9A3
330
1
100
AcDbSymbolTableRecord
100
AcDbBlockTableRecord
  2
*D65
340
0
 70
     0
280
     1
281
     0
  0
BLOCK_RECORD
  5
B06
102
{ACAD_XDICTIONARY
360
B07
102
}
330
1
100
AcDbSymbolTableRecord
100
AcDbBlockTableRecord
  2
A$C08716F59
340
0
102
{BLKREFS
331
B7C
331
D03
102
}
 70
     4
280
     1
281
     0
  0
BLOCK_RECORD
  5
B41
102
{ACAD_XDICTIONARY
360
B42
102
}
330
1
100
AcDbSymbolTableRecord
100
AcDbBlockTableRecord
  2
A$C058C21FF
340
0
 70
     4
280
     1
281
     0
  0
BLOCK_RECORD
  5
B84
330
1
100
AcDbSymbolTableRecord
100
AcDbBlockTableRecord
  2
_Dot
340
0
 70
     0
280
     1
281
     0
  0
BLOCK_RECORD
  5
B89
102
{ACAD_XDICTIONARY
360
B8A
102
}
330
1
100
AcDbSymbolTableRecord
100
AcDbBlockTableRecord
  2
A$C53560A2D
340
0
102
{BLKREFS
331
B94
102
}
 70
     1
280
     1
281
     0
  0
BLOCK_RECORD
  5
B90
102
{ACAD_XDICTIONARY
360
B91
102
}
330
1
100
AcDbSymbolTableRecord
100
AcDbBlockTableRecord
  2
A$C25042B23
340
0
 70
     1
280
     1
281
     0
  0
BLOCK_RECORD
  5
B96
330
1
100
AcDbSymbolTableRecord
100
AcDbBlockTableRecord
  2
_FILLED
340
0
102
{BLKREFS
331
B9F
331
BA0
102
}
 70
     0
280
     1
281
     0
  0
BLOCK_RECORD
  5
B9A
330
1
100
AcDbSymbolTableRecord
100
AcDbBlockTableRecord
  2
*D72
340
0
 70
     0
280
     1
281
     0
  0
BLOCK_RECORD
  5
BA6
102
{ACAD_XDICTIONARY
360
BA7
102
}
330
1
100
AcDbSymbolTableRecord
100
AcDbBlockTableRecord
  2
A$C274A2516
340
0
 70
     4
280
     1
281
     0
  0
BLOCK_RECORD
  5
C8C
102
{ACAD_XDICTIONARY
360
C8D
102
}
330
1
100
AcDbSymbolTableRecord
100
AcDbBlockTableRecord
  2
A$C217E344C
340
0
 70
     4
280
     1
281
     0
  0
BLOCK_RECORD
  5
CD4
102
{ACAD_XDICTIONARY
360
D16
102
}
330
1
100
AcDbSymbolTableRecord
100
AcDbBlockTableRecord
  2
new A3-S11
340
0
 70
     4
280
     1
281
     0
  0
ENDTAB
  0
ENDSEC
  0
SECTION
  2
BLOCKS
  0
BLOCK
  5
75
330
74
100
AcDbEntity
  8
0
100
AcDbBlockBegin
  2
*Model_Space
 70
     0
 10
0.0
 20
0.0
 30
0.0
  3
*Model_Space
  1

  0
ENDBLK
  5
76
330
74
100
AcDbEntity
  8
0
100
AcDbBlockEnd
  0
BLOCK
  5
71
330
70
100
AcDbEntity
 67
     1
  8
0
100
AcDbBlockBegin
  2
*Paper_Space
 70
     0
 10
0.0
 20
0.0
 30
0.0
  3
*Paper_Space
  1

  0
ENDBLK
  5
72
330
70
100
AcDbEntity
 67
     1
  8
0
100
AcDbBlockEnd
  0
BLOCK
  5
8D
330
8C
100
AcDbEntity
  8
0
100
AcDbBlockBegin
  2
A3SN_
 70
     0
 10
42.67284666333961
 20
-27.9039271952208
 30
0.0
  3
A3SN_
  1

  0
LINE
  5
8E
330
8C
100
AcDbEntity
  8
1
 62
     4
100
AcDbLine
 10
237.6728466633397
 20
-175.6539271952208
 30
0.0
 11
57.67284666333972
 21
-175.6539271952208
 31
0.0
  0
LINE
  5
8F
330
8C
100
AcDbEntity
  8
1
  6
DASHDOT
 62
     2
100
AcDbLine
 10
234.4157897618507
 20
-160.6539271952208
 30
0.0
 11
226.6394398090226
 21
-160.6539271952208
 31
0.0
  0
LINE
  5
90
330
8C
100
AcDbEntity
  8
1
  6
DASHDOT
 62
     2
100
AcDbLine
 10
230.5276147854366
 20
-156.7657522188068
 30
0.0
 11
230.5276147854366
 21
-164.5421021716348
 31
0.0
  0
LINE
  5
91
330
8C
100
AcDbEntity
  8
1
  6
DASHDOT
 62
     2
100
AcDbLine
 10
224.4157897618507
 20
-160.6539271952208
 30
0.0
 11
213.4157897618507
 21
-160.6539271952208
 31
0.0
  0
LINE
  5
92
330
8C
100
AcDbEntity
  8
1
 62
     4
100
AcDbLine
 10
57.67284666333972
 20
-148.6539271952208
 30
0.0
 11
57.6728466633396
 21
-179.6539271952208
 31
0.0
  0
LINE
  5
93
330
8C
100
AcDbEntity
  8
1
 62
     4
100
AcDbLine
 10
237.6728466633397
 20
96.84607280477921
 30
0.0
 11
-152.3271533366605
 21
96.84607280477921
 31
0.0
  0
LINE
  5
94
330
8C
100
AcDbEntity
  8
1
 62
     4
100
AcDbLine
 10
237.6728466633397
 20
-179.6539271952208
 30
0.0
 11
-142.3271533366605
 21
-179.6539271952208
 31
0.0
  0
LINE
  5
95
330
8C
100
AcDbEntity
  8
1
 62
     4
100
AcDbLine
 10
112.6728466633397
 20
-155.6539271952208
 30
0.0
 11
112.6728466633397
 21
-175.6539271952208
 31
0.0
  0
LINE
  5
96
330
8C
100
AcDbEntity
  8
1
 62
     4
100
AcDbLine
 10
237.6728466633397
 20
-155.6539271952208
 30
0.0
 11
57.67284666333953
 21
-155.6539271952208
 31
0.0
  0
LINE
  5
97
330
8C
100
AcDbEntity
  8
1
 62
     4
100
AcDbLine
 10
182.6728466633396
 20
-165.6539271952208
 30
0.0
 11
237.6728466633397
 21
-165.6539271952208
 31
0.0
  0
LINE
  5
98
330
8C
100
AcDbEntity
  8
1
 62
     4
100
AcDbLine
 10
182.6728466633396
 20
-175.6539271952208
 30
0.0
 11
182.6728466633396
 21
-155.6539271952208
 31
0.0
  0
LINE
  5
99
330
8C
100
AcDbEntity
  8
1
 62
     4
100
AcDbLine
 10
237.6728466633397
 20
-179.6539271952208
 30
0.0
 11
237.6728466633397
 21
96.84607280477921
 31
0.0
  0
LINE
  5
9A
330
8C
100
AcDbEntity
  8
1
 62
     2
100
AcDbLine
 10
210.1728466633397
 20
-148.6539271952208
 30
0.0
 11
210.1728466633397
 21
-165.6539271952208
 31
0.0
  0
LINE
  5
9B
330
8C
100
AcDbEntity
  8
1
 62
     4
100
AcDbLine
 10
57.67284666333972
 20
-148.6539271952208
 30
0.0
 11
237.6728466633397
 21
-148.6539271952208
 31
0.0
  0
LINE
  5
9C
330
8C
100
AcDbEntity
  8
1
 62
     7
100
AcDbLine
 10
91.67284666333971
 20
-148.6539271952208
 30
0.0
 11
91.67284666333971
 21
-155.6539271952208
 31
0.0
  0
LINE
  5
9D
330
8C
100
AcDbEntity
  8
1
 62
     7
100
AcDbLine
 10
125.6728466633397
 20
-148.6539271952208
 30
0.0
 11
125.6728466633397
 21
-155.6539271952208
 31
0.0
  0
LINE
  5
9E
330
8C
100
AcDbEntity
  8
1
 62
     7
100
AcDbLine
 10
159.6728466633397
 20
-148.6539271952208
 30
0.0
 11
159.6728466633397
 21
-155.6539271952208
 31
0.0
  0
LINE
  5
9F
330
8C
100
AcDbEntity
  8
1
 62
     4
100
AcDbLine
 10
-152.3271533366605
 20
96.84607280477921
 30
0.0
 11
-152.3271533366605
 21
-124.6539271952208
 31
0.0
  0
LINE
  5
A0
330
8C
100
AcDbEntity
  8
1
 62
     4
100
AcDbLine
 10
-142.3271533366605
 20
-124.6539271952208
 30
0.0
 11
-142.3271533366605
 21
-179.6539271952208
 31
0.0
  0
LINE
  5
A1
330
8C
100
AcDbEntity
  8
1
 62
     4
100
AcDbLine
 10
-152.3271533366605
 20
-124.6539271952208
 30
0.0
 11
-142.3271533366605
 21
-124.6539271952208
 31
0.0
  0
LINE
  5
A2
330
8C
100
AcDbEntity
  8
1
 62
     7
100
AcDbLine
 10
213.9157897618507
 20
-159.0803774231868
 30
0.0
 11
213.9157897618507
 21
-162.2274769672548
 31
0.0
  0
LINE
  5
A3
330
8C
100
AcDbEntity
  8
1
 62
     7
100
AcDbLine
 10
223.9157897618507
 20
-157.265752218807
 30
0.0
 11
213.9157897618507
 21
-159.0803774231868
 31
0.0
  0
LINE
  5
A4
330
8C
100
AcDbEntity
  8
1
 62
     7
100
AcDbLine
 10
213.9157897618507
 20
-162.2274769672548
 30
0.0
 11
223.9157897618507
 21
-164.0421021716348
 31
0.0
  0
LINE
  5
A5
330
8C
100
AcDbEntity
  8
1
 62
     7
100
AcDbLine
 10
223.9157897618507
 20
-164.0421021716348
 30
0.0
 11
223.9157897618507
 21
-157.265752218807
 31
0.0
  0
CIRCLE
  5
A6
330
8C
100
AcDbEntity
  8
1
 62
     7
100
AcDbCircle
 10
230.5276147854366
 20
-160.6539271952208
 30
0.0
 40
3.388174976414091
  0
CIRCLE
  5
A7
330
8C
100
AcDbEntity
  8
1
 62
     7
100
AcDbCircle
 10
230.5276147854366
 20
-160.6539271952208
 30
0.0
 40
1.573549772034085
  0
TEXT
  5
A8
330
8C
100
AcDbEntity
  8
1
 62
     2
100
AcDbText
 10
56.57284666333961
 20
-177.6539271952208
 30
0.0
 40
1.8
  1
F.05.003.17.01 - 25.02.93
 50
90.0
 41
0.5400000000000001
 11
55.67284666333961
 21
-177.6539271952208
 31
0.0
100
AcDbText
 73
     2
  0
TEXT
  5
A9
330
8C
100
AcDbEntity
  8
1
 62
     2
100
AcDbText
 10
81.29739666333968
 20
-178.5539271952208
 30
0.0
 40
1.8
  1
Ce plan reste notre propriÅtÅ. Il ne peut, sans notre autorisation Åcrite Átre copiÅ, reproduit, communiquÅ È des tiers ou mis È leur disposition.
 41
0.8100000000000001
 72
     1
 11
147.6728466633397
 21
-177.6539271952208
 31
0.0
100
AcDbText
 73
     2
  0
TEXT
  5
AA
330
8C
100
AcDbEntity
  8
1
 62
     4
100
AcDbText
 10
71.99684666333974
 20
-164.6539271952208
 30
0.0
 40
6.0
  1
Portescap
 41
0.72
 72
     1
 11
85.17284666333974
 21
-164.6539271952208
 31
0.0
100
AcDbText
  0
TEXT
  5
AB
330
8C
100
AcDbEntity
  8
1
 62
     3
100
AcDbText
 10
72.42884666333974
 20
-171.6539271952208
 30
0.0
 40
3.0
  1
La Chaux-de-Fonds
 41
0.72
 72
     1
 11
85.17284666333974
 21
-171.6539271952208
 31
0.0
100
AcDbText
  0
TEXT
  5
AC
330
8C
100
AcDbEntity
  8
1
 62
     4
100
AcDbText
 10
124.2728466633397
 20
-164.4039271952208
 30
0.0
 40
5.0
  1
 28D 11    .1
 41
0.7200000000000001
100
AcDbText
  0
TEXT
  5
AD
330
8C
100
AcDbEntity
  8
1
 62
     4
100
AcDbText
 10
124.2728466633397
 20
-171.9039271952208
 30
0.0
 40
5.0
  1
Encombrement
 41
0.7200000000000001
100
AcDbText
  0
TEXT
  5
AE
330
8C
100
AcDbEntity
  8
1
 62
     4
100
AcDbText
 10
193.6128466633395
 20
-173.1539271952208
 30
0.0
 40
5.0
  1
1.011.28.0130.S11
 41
0.7200000000000001
 72
     1
 11
210.1728466633396
 21
-170.6539271952208
 31
0.0
100
AcDbText
 73
     2
  0
TEXT
  5
AF
330
8C
100
AcDbEntity
  8
1
 62
     2
100
AcDbText
 10
127.6728466633397
 20
-153.153927195221
 30
0.0
 40
2.0
  1
ContrÂlÅ :
 41
0.5850000000000001
 11
127.6728466633397
 21
-152.153927195221
 31
0.0
100
AcDbText
 73
     2
  0
TEXT
  5
B0
330
8C
100
AcDbEntity
  8
1
 62
     2
100
AcDbText
 10
93.6728466633397
 20
-153.153927195221
 30
0.0
 40
2.0
  1
Conforme :
 41
0.5850000000000001
 11
93.6728466633397
 21
-152.153927195221
 31
0.0
100
AcDbText
 73
     2
  0
TEXT
  5
B1
330
8C
100
AcDbEntity
  8
1
 62
     2
100
AcDbText
 10
59.67284666333973
 20
-153.1539271952208
 30
0.0
 40
2.0
  1
DessinÅ :
 41
0.5850000000000001
 11
59.67284666333973
 21
-152.1539271952208
 31
0.0
100
AcDbText
 73
     2
  0
TEXT
  5
B2
330
8C
100
AcDbEntity
  8
1
 62
     2
100
AcDbText
 10
70.24260595610312
 20
-153.4039271952208
 30
0.0
 40
2.5
  1
27.11.91 FCh
 41
0.7200000000000001
 11
70.24260595610312
 21
-152.1539271952208
 31
0.0
100
AcDbText
 73
     2
  0
TEXT
  5
B3
330
8C
100
AcDbEntity
  8
1
 62
     4
100
AcDbText
 10
-149.8271533366605
 20
-135.5939271952208
 30
0.0
 40
5.0
  1
1.011.28.0130.S11
 50
270.0
 41
0.7200000000000001
 72
     1
 11
-147.3271533366605
 21
-152.1539271952208
 31
0.0
100
AcDbText
 73
     2
  0
TEXT
  5
B4
330
8C
100
AcDbEntity
  8
1
 62
     3
100
AcDbText
 10
167.8115966633397
 20
-153.6539271952208
 30
0.0
 40
3.0
  1
Cotes et tolÅrances en mm
 41
0.675
 72
     1
 11
184.9228466633397
 21
-152.1539271952208
 31
0.0
100
AcDbText
 73
     2
  0
TEXT
  5
B5
330
8C
100
AcDbEntity
  8
1
 62
     3
100
AcDbText
 10
190.8788466633397
 20
-162.4039271952208
 30
0.0
 40
3.5
  1
Ech. 2:1
 41
0.72
 72
     1
 11
196.4228466633397
 21
-160.6539271952208
 31
0.0
100
AcDbText
 73
     2
  0
TEXT
  5
B6
330
8C
100
AcDbEntity
  8
1
 62
     2
100
AcDbText
 10
212.1728466633397
 20
-153.1539271952208
 30
0.0
 40
2.0
  1
Edition:
 41
0.5850000000000001
 11
212.1728466633397
 21
-152.1539271952208
 31
0.0
100
AcDbText
 73
     2
  0
TEXT
  5
B7
330
8C
100
AcDbEntity
  8
1
 62
     3
100
AcDbText
 10
222.7426059561031
 20
-153.4039271952208
 30
0.0
 40
2.5
  1
01
 41
0.7200000000000001
 11
222.7426059561031
 21
-152.1539271952208
 31
0.0
100
AcDbText
 73
     2
  0
ENDBLK
  5
B8
330
8C
100
AcDbEntity
  8
0
100
AcDbBlockEnd
  0
BLOCK
  5
14D
330
14C
100
AcDbEntity
  8
0
100
AcDbBlockBegin
  2
TOP_TOP_
 70
     0
 10
-36.4765410711143
 20
-37.89919323098511
 30
0.0
  3
TOP_TOP_
  1

  0
ENDBLK
  5
21D
330
14C
100
AcDbEntity
  8
0
100
AcDbBlockEnd
  0
BLOCK
  5
404
330
403
100
AcDbEntity
  8
1
100
AcDbBlockBegin
  2
*D25
 70
     1
 10
0.0
 20
0.0
 30
0.0
  3
*D25
  1

  0
LINE
  5
405
330
403
100
AcDbEntity
  8
1
 62
     2
100
AcDbLine
 10
-12.15375176560629
 20
-42.9609352956034
 30
0.0
 11
49.54624823439372
 21
-42.9609352956034
 31
0.0
  0
LINE
  5
406
330
403
100
AcDbEntity
  8
1
 62
     2
100
AcDbLine
 10
-12.15375176560629
 20
-26.35196359761041
 30
0.0
 11
-12.15375176560629
 21
-43.4609352956034
 31
0.0
  0
LINE
  5
407
330
403
100
AcDbEntity
  8
1
 62
     2
100
AcDbLine
 10
49.54624823439372
 20
-27.3269635976104
 30
0.0
 11
49.54624823439372
 21
-43.4609352956034
 31
0.0
  0
SOLID
  5
408
330
403
100
AcDbEntity
  8
1
 62
     2
100
AcDbTrace
 10
49.54624823439372
 20
-42.9609352956034
 30
0.0
 11
47.79624823439372
 21
-43.18843529560339
 31
0.0
 12
47.79624823439372
 22
-42.7334352956034
 32
0.0
 13
47.79624823439372
 23
-42.7334352956034
 33
0.0
  0
TEXT
  5
409
330
403
100
AcDbEntity
  8
1
 62
     3
100
AcDbText
 10
16.102585804541
 20
-41.7859352956034
 30
0.0
 40
1.75
  1
61,7
 41
0.7200000000000001
100
AcDbText
  0
ENDBLK
  5
40A
330
403
100
AcDbEntity
  8
0
100
AcDbBlockEnd
  0
BLOCK
  5
40C
330
40B
100
AcDbEntity
  8
1
100
AcDbBlockBegin
  2
*D26
 70
     1
 10
0.0
 20
0.0
 30
0.0
  3
*D26
  1

  0
LINE
  5
40D
330
40B
100
AcDbEntity
  8
1
 62
     2
100
AcDbLine
 10
-7.51005114507339
 20
-0.9769635976104071
 30
0.0
 11
-7.51005114507339
 21
8.568867981136106
 31
0.0
  0
LINE
  5
40E
330
40B
100
AcDbEntity
  8
1
 62
     2
100
AcDbLine
 10
-9.953751765606291
 20
-0.9769635976104071
 30
0.0
 11
-7.01005114507339
 21
-0.9769635976104071
 31
0.0
  0
SOLID
  5
40F
330
40B
100
AcDbEntity
  8
1
 62
     2
100
AcDbTrace
 10
-7.51005114507339
 20
-0.9769635976104071
 30
0.0
 11
-7.737551145073391
 21
0.773036402389593
 31
0.0
 12
-7.282551145073391
 22
0.773036402389593
 32
0.0
 13
-7.282551145073391
 23
0.773036402389593
 33
0.0
  0
TEXT
  5
410
330
40B
100
AcDbEntity
  8
1
 62
     3
100
AcDbText
 10
-8.685051145073391
 20
3.458867981136109
 30
0.0
 40
1.75
  1
25,95
 50
90.0
 41
0.7200000000000001
100
AcDbText
  0
TEXT
  5
411
330
40B
100
AcDbEntity
  8
1
 62
     3
100
AcDbText
 10
-8.685051145073391
 20
1.74386798113611
 30
0.0
 40
1.75
  1
Ö
 50
90.0
 41
0.7200000000000001
100
AcDbText
  0
ENDBLK
  5
412
330
40B
100
AcDbEntity
  8
0
100
AcDbBlockEnd
  0
BLOCK
  5
414
330
413
100
AcDbEntity
  8
1
100
AcDbBlockBegin
  2
*D27
 70
     1
 10
0.0
 20
0.0
 30
0.0
  3
*D27
  1

  0
LINE
  5
415
330
413
100
AcDbEntity
  8
1
 62
     2
100
AcDbLine
 10
67.04297932847788
 20
-11.9519635976104
 30
0.0
 11
67.04297932847788
 21
-1.76818955574905
 31
0.0
  0
LINE
  5
416
330
413
100
AcDbEntity
  8
1
 62
     2
100
AcDbLine
 10
61.78743188535829
 20
-11.9519635976104
 30
0.0
 11
67.54297932847788
 21
-11.9519635976104
 31
0.0
  0
SOLID
  5
417
330
413
100
AcDbEntity
  8
1
 62
     2
100
AcDbTrace
 10
67.04297932847788
 20
-11.9519635976104
 30
0.0
 11
66.81547932847788
 21
-10.2019635976104
 31
0.0
 12
67.27047932847788
 22
-10.2019635976104
 32
0.0
 13
67.27047932847788
 23
-10.2019635976104
 33
0.0
  0
TEXT
  5
418
330
413
100
AcDbEntity
  8
1
 62
     3
100
AcDbText
 10
65.23360432847789
 20
-7.84418955574905
 30
0.0
 40
1.75
  1
4
 50
90.0
 41
0.7200000000000001
100
AcDbText
  0
TEXT
  5
419
330
413
100
AcDbEntity
  8
1
 62
     3
100
AcDbText
 10
63.89922932847788
 20
-6.12918955574905
 30
0.0
 40
1.225
  1
-0,006
 50
90.0
 41
0.7200000000000001
100
AcDbText
  0
TEXT
  5
41A
330
413
100
AcDbEntity
  8
1
 62
     3
100
AcDbText
 10
65.9204793284779
 20
-6.12918955574905
 30
0.0
 40
1.225
  1
-0,009
 50
90.0
 41
0.7200000000000001
100
AcDbText
  0
TEXT
  5
41B
330
413
100
AcDbEntity
  8
1
 62
     3
100
AcDbText
 10
65.23360432847789
 20
-9.55918955574905
 30
0.0
 40
1.75
  1
Ö
 50
90.0
 41
0.7200000000000001
100
AcDbText
  0
ENDBLK
  5
41C
330
413
100
AcDbEntity
  8
0
100
AcDbBlockEnd
  0
BLOCK
  5
41E
330
41D
100
AcDbEntity
  8
1
100
AcDbBlockBegin
  2
*D28
 70
     1
 10
0.0
 20
0.0
 30
0.0
  3
*D28
  1

  0
LINE
  5
41F
330
41D
100
AcDbEntity
  8
1
 62
     2
100
AcDbLine
 10
59.5094157109418
 20
-6.95196359761045
 30
0.0
 11
59.5094157109418
 21
4.409168005619955
 31
0.0
  0
LINE
  5
420
330
41D
100
AcDbEntity
  8
1
 62
     2
100
AcDbLine
 10
51.04624823439371
 20
-6.95196359761045
 30
0.0
 11
60.0094157109418
 21
-6.95196359761045
 31
0.0
  0
SOLID
  5
421
330
41D
100
AcDbEntity
  8
1
 62
     2
100
AcDbTrace
 10
59.5094157109418
 20
-6.95196359761045
 30
0.0
 11
59.2819157109418
 21
-5.20196359761045
 31
0.0
 12
59.7369157109418
 22
-5.20196359761045
 32
0.0
 13
59.7369157109418
 23
-5.20196359761045
 33
0.0
  0
TEXT
  5
422
330
41D
100
AcDbEntity
  8
1
 62
     3
100
AcDbText
 10
57.7000407109418
 20
-2.506831994380045
 30
0.0
 40
1.75
  1
14
 50
90.0
 41
0.7200000000000001
100
AcDbText
  0
TEXT
  5
423
330
41D
100
AcDbEntity
  8
1
 62
     3
100
AcDbText
 10
56.4881657109418
 20
0.048168005619953
 30
0.0
 40
1.225
  1
 0
 50
90.0
 41
0.7200000000000001
100
AcDbText
  0
TEXT
  5
424
330
41D
100
AcDbEntity
  8
1
 62
     3
100
AcDbText
 10
58.3869157109418
 20
0.048168005619953
 30
0.0
 40
1.225
  1
-0,027
 50
90.0
 41
0.7200000000000001
100
AcDbText
  0
TEXT
  5
425
330
41D
100
AcDbEntity
  8
1
 62
     3
100
AcDbText
 10
57.7000407109418
 20
-4.221831994380046
 30
0.0
 40
1.75
  1
Ö
 50
90.0
 41
0.7200000000000001
100
AcDbText
  0
ENDBLK
  5
426
330
41D
100
AcDbEntity
  8
0
100
AcDbBlockEnd
  0
BLOCK
  5
428
330
427
100
AcDbEntity
  8
1
100
AcDbBlockBegin
  2
*D29
 70
     1
 10
0.0
 20
0.0
 30
0.0
  3
*D29
  1

  0
LINE
  5
429
330
427
100
AcDbEntity
  8
1
 62
     2
100
AcDbLine
 10
43.8257390538335
 20
-0.0769635976104457
 30
0.0
 11
43.8257390538335
 21
10.02282282337095
 31
0.0
  0
LINE
  5
42A
330
427
100
AcDbEntity
  8
1
 62
     2
100
AcDbLine
 10
48.34624823439371
 20
-0.0769635976104457
 30
0.0
 11
43.3257390538335
 21
-0.0769635976104457
 31
0.0
  0
SOLID
  5
42B
330
427
100
AcDbEntity
  8
1
 62
     2
100
AcDbTrace
 10
43.8257390538335
 20
-0.0769635976104457
 30
0.0
 11
43.5982390538335
 21
1.673036402389554
 31
0.0
 12
44.0532390538335
 22
1.673036402389554
 32
0.0
 13
44.0532390538335
 23
1.673036402389554
 33
0.0
  0
TEXT
  5
42C
330
427
100
AcDbEntity
  8
1
 62
     3
100
AcDbText
 10
42.65073905383349
 20
4.91282282337095
 30
0.0
 40
1.75
  1
27,75
 50
90.0
 41
0.7200000000000001
100
AcDbText
  0
TEXT
  5
42D
330
427
100
AcDbEntity
  8
1
 62
     3
100
AcDbText
 10
42.65073905383349
 20
3.19782282337095
 30
0.0
 40
1.75
  1
Ö
 50
90.0
 41
0.7200000000000001
100
AcDbText
  0
ENDBLK
  5
42E
330
427
100
AcDbEntity
  8
0
100
AcDbBlockEnd
  0
BLOCK
  5
430
330
42F
100
AcDbEntity
  8
1
100
AcDbBlockBegin
  2
*D30
 70
     1
 10
0.0
 20
0.0
 30
0.0
  3
*D30
  1

  0
LINE
  5
431
330
42F
100
AcDbEntity
  8
1
 62
     2
100
AcDbLine
 10
17.3698427720593
 20
0.0480364023895996
 30
0.0
 11
17.3698427720593
 21
10.10682282337096
 31
0.0
  0
LINE
  5
432
330
42F
100
AcDbEntity
  8
1
 62
     2
100
AcDbLine
 10
38.42124823439376
 20
0.0480364023895996
 30
0.0
 11
16.8698427720593
 21
0.0480364023895996
 31
0.0
  0
SOLID
  5
433
330
42F
100
AcDbEntity
  8
1
 62
     2
100
AcDbTrace
 10
17.3698427720593
 20
0.0480364023895996
 30
0.0
 11
17.1423427720593
 21
1.7980364023896
 31
0.0
 12
17.5973427720593
 22
1.7980364023896
 32
0.0
 13
17.5973427720593
 23
1.7980364023896
 33
0.0
  0
TEXT
  5
434
330
42F
100
AcDbEntity
  8
1
 62
     3
100
AcDbText
 10
15.5604677720593
 20
4.828822823370959
 30
0.0
 40
1.75
  1
28
 50
90.0
 41
0.7200000000000001
100
AcDbText
  0
TEXT
  5
435
330
42F
100
AcDbEntity
  8
1
 62
     3
100
AcDbText
 10
14.3485927720593
 20
7.803822823370958
 30
0.0
 40
1.225
  1
 0
 50
90.0
 41
0.7200000000000001
100
AcDbText
  0
TEXT
  5
436
330
42F
100
AcDbEntity
  8
1
 62
     3
100
AcDbText
 10
16.2473427720593
 20
7.803822823370958
 30
0.0
 40
1.225
  1
-0,1
 50
90.0
 41
0.7200000000000001
100
AcDbText
  0
TEXT
  5
437
330
42F
100
AcDbEntity
  8
1
 62
     3
100
AcDbText
 10
15.5604677720593
 20
3.113822823370959
 30
0.0
 40
1.75
  1
Ö
 50
90.0
 41
0.7200000000000001
100
AcDbText
  0
ENDBLK
  5
438
330
42F
100
AcDbEntity
  8
0
100
AcDbBlockEnd
  0
BLOCK
  5
43A
330
439
100
AcDbEntity
  8
1
100
AcDbBlockBegin
  2
*D31
 70
     1
 10
0.0
 20
0.0
 30
0.0
  3
*D31
  1

  0
LINE
  5
43B
330
439
100
AcDbEntity
  8
1
 62
     2
100
AcDbLine
 10
-55.7537517656063
 20
10.1071413887467
 30
0.0
 11
-43.84625176560629
 21
10.1071413887467
 31
0.0
  0
LINE
  5
43C
330
439
100
AcDbEntity
  8
1
 62
     2
100
AcDbLine
 10
-55.7537517656063
 20
-13.9519635976104
 30
0.0
 11
-55.7537517656063
 21
10.6071413887467
 31
0.0
  0
SOLID
  5
43D
330
439
100
AcDbEntity
  8
1
 62
     2
100
AcDbTrace
 10
-55.7537517656063
 20
10.1071413887467
 30
0.0
 11
-54.00375176560629
 21
10.3346413887467
 31
0.0
 12
-54.00375176560629
 22
9.879641388746698
 32
0.0
 13
-54.00375176560629
 23
9.879641388746698
 33
0.0
  0
TEXT
  5
43E
330
439
100
AcDbEntity
  8
1
 62
     3
100
AcDbText
 10
-45.9462517656063
 20
11.1071413887467
 30
0.0
 40
1.75
  1
20
 41
0.7200000000000001
100
AcDbText
  0
TEXT
  5
43F
330
439
100
AcDbEntity
  8
1
 62
     3
100
AcDbText
 10
-47.6612517656063
 20
11.1071413887467
 30
0.0
 40
1.75
  1
Ö
 41
0.7200000000000001
100
AcDbText
  0
ENDBLK
  5
440
330
439
100
AcDbEntity
  8
0
100
AcDbBlockEnd
  0
BLOCK
  5
6AF
330
6AE
100
AcDbEntity
  8
0
100
AcDbBlockBegin
  2
*D48
 70
     1
 10
0.0
 20
0.0
 30
0.0
  3
*D48
  1

  0
LINE
  5
712
330
6AE
100
AcDbEntity
  8
1
  6
Continuous
 62
     2
370
    -2
100
AcDbLine
 10
120.5057732283965
 20
49.72795264712471
 30
0.0
 11
120.5057732283965
 21
32.13965286448106
 31
0.0
  0
LINE
  5
713
330
6AE
100
AcDbEntity
  8
1
  6
Continuous
 62
     2
370
    -2
100
AcDbLine
 10
111.2457732283965
 20
48.10194971164766
 30
0.0
 11
111.2457732283965
 21
32.13965286448106
 31
0.0
  0
LINE
  5
714
330
6AE
100
AcDbEntity
  8
1
  6
Continuous
 62
     2
370
    -2
100
AcDbLine
 10
118.7557732283965
 20
32.63965286448107
 30
0.0
 11
112.9957732283965
 21
32.63965286448107
 31
0.0
  0
SOLID
  5
715
330
6AE
100
AcDbEntity
  8
1
  6
Continuous
 62
     2
100
AcDbTrace
 10
118.7557732283965
 20
32.93131953114773
 30
0.0
 11
118.7557732283965
 21
32.3479861978144
 31
0.0
 12
120.5057732283965
 22
32.63965286448107
 32
0.0
 13
120.5057732283965
 23
32.63965286448107
 33
0.0
  0
SOLID
  5
716
330
6AE
100
AcDbEntity
  8
1
  6
Continuous
 62
     2
100
AcDbTrace
 10
112.9957732283965
 20
32.93131953114773
 30
0.0
 11
112.9957732283965
 21
32.3479861978144
 31
0.0
 12
111.2457732283965
 22
32.63965286448107
 32
0.0
 13
111.2457732283965
 23
32.63965286448107
 33
0.0
  0
MTEXT
  5
717
330
6AE
100
AcDbEntity
  8
1
  6
Continuous
 62
     3
100
AcDbMText
 10
115.8757732283965
 20
33.7504861978144
 30
0.0
 40
1.75
 41
0.0
 46
0.0
 71
     5
 72
     1
  1
\A1;9,4
 73
     1
 44
1.0
  0
POINT
  5
718
330
6AE
100
AcDbEntity
  8
Defpoints
  6
Continuous
 62
     0
100
AcDbPoint
 10
120.5057732283965
 20
49.72795264712471
 30
0.0
  0
POINT
  5
719
330
6AE
100
AcDbEntity
  8
Defpoints
  6
Continuous
 62
     0
100
AcDbPoint
 10
111.2457732283965
 20
48.10194971164766
 30
0.0
  0
POINT
  5
71A
330
6AE
100
AcDbEntity
  8
Defpoints
  6
Continuous
 62
     0
100
AcDbPoint
 10
111.2457732283965
 20
32.63965286448107
 30
0.0
  0
ENDBLK
  5
6B0
330
6AE
100
AcDbEntity
  8
0
100
AcDbBlockEnd
  0
BLOCK
  5
6BB
330
6BA
100
AcDbEntity
  8
0
100
AcDbBlockBegin
  2
*D49
 70
     1
 10
0.0
 20
0.0
 30
0.0
  3
*D49
  1

  0
LINE
  5
71B
330
6BA
100
AcDbEntity
  8
1
  6
Continuous
 62
     2
370
    -2
100
AcDbLine
 10
16.2057732283965
 20
60.26220374949204
 30
0.0
 11
16.2057732283965
 21
71.16798687480756
 31
0.0
  0
LINE
  5
71C
330
6BA
100
AcDbEntity
  8
1
  6
Continuous
 62
     2
370
    -2
100
AcDbLine
 10
19.2057732283965
 20
60.26220374949204
 30
0.0
 11
19.2057732283965
 21
71.16798687480756
 31
0.0
  0
LINE
  5
71D
330
6BA
100
AcDbEntity
  8
1
  6
Continuous
 62
     2
370
    -2
100
AcDbLine
 10
14.4557732283965
 20
70.66798687480757
 30
0.0
 11
12.7057732283965
 21
70.66798687480757
 31
0.0
  0
LINE
  5
71E
330
6BA
100
AcDbEntity
  8
1
  6
Continuous
 62
     2
370
    -2
100
AcDbLine
 10
20.9557732283965
 20
70.66798687480757
 30
0.0
 11
22.7057732283965
 21
70.66798687480757
 31
0.0
  0
MTEXT
  5
71F
330
6BA
100
AcDbEntity
  8
1
  6
Continuous
 62
     3
100
AcDbMText
 10
17.7057732283965
 20
72.41798687480756
 30
0.0
 40
1.75
 41
0.0
 46
0.0
 71
     5
 72
     1
  1
\A1;M3
 73
     1
 44
1.0
  0
SOLID
  5
720
330
6BA
100
AcDbEntity
  8
1
  6
Continuous
 62
     2
100
AcDbTrace
 10
14.4557732283965
 20
70.95965354147423
 30
0.0
 11
14.4557732283965
 21
70.3763202081409
 31
0.0
 12
16.2057732283965
 22
70.66798687480757
 32
0.0
 13
16.2057732283965
 23
70.66798687480757
 33
0.0
  0
SOLID
  5
721
330
6BA
100
AcDbEntity
  8
1
  6
Continuous
 62
     2
100
AcDbTrace
 10
20.9557732283965
 20
70.95965354147423
 30
0.0
 11
20.9557732283965
 21
70.3763202081409
 31
0.0
 12
19.2057732283965
 22
70.66798687480757
 32
0.0
 13
19.2057732283965
 23
70.66798687480757
 33
0.0
  0
POINT
  5
722
330
6BA
100
AcDbEntity
  8
Defpoints
  6
Continuous
 62
     0
100
AcDbPoint
 10
16.2057732283965
 20
60.26220374949204
 30
0.0
  0
POINT
  5
723
330
6BA
100
AcDbEntity
  8
Defpoints
  6
Continuous
 62
     0
100
AcDbPoint
 10
19.2057732283965
 20
60.26220374949204
 30
0.0
  0
POINT
  5
724
330
6BA
100
AcDbEntity
  8
Defpoints
  6
Continuous
 62
     0
100
AcDbPoint
 10
19.2057732283965
 20
70.66798687480757
 30
0.0
  0
ENDBLK
  5
6BC
330
6BA
100
AcDbEntity
  8
0
100
AcDbBlockEnd
  0
BLOCK
  5
6C8
330
6C7
100
AcDbEntity
  8
0
100
AcDbBlockBegin
  2
*D50
 70
     1
 10
0.0
 20
0.0
 30
0.0
  3
*D50
  1

  0
LINE
  5
725
330
6C7
100
AcDbEntity
  8
1
  6
Continuous
 62
     2
370
    -2
100
AcDbLine
 10
46.30577322839648
 20
39.20194971164766
 30
0.0
 11
46.30577322839648
 21
32.09736570035776
 31
0.0
  0
LINE
  5
726
330
6C7
100
AcDbEntity
  8
1
  6
Continuous
 62
     2
370
    -2
100
AcDbLine
 10
53.30577322839648
 20
38.62694971164766
 30
0.0
 11
53.30577322839648
 21
32.09736570035776
 31
0.0
  0
LINE
  5
727
330
6C7
100
AcDbEntity
  8
1
  6
Continuous
 62
     2
370
    -2
100
AcDbLine
 10
48.05577322839649
 20
32.59736570035776
 30
0.0
 11
51.55577322839647
 21
32.59736570035776
 31
0.0
  0
SOLID
  5
728
330
6C7
100
AcDbEntity
  8
1
  6
Continuous
 62
     2
100
AcDbTrace
 10
48.05577322839649
 20
32.88903236702443
 30
0.0
 11
48.05577322839649
 21
32.3056990336911
 31
0.0
 12
46.30577322839648
 22
32.59736570035776
 32
0.0
 13
46.30577322839648
 23
32.59736570035776
 33
0.0
  0
SOLID
  5
729
330
6C7
100
AcDbEntity
  8
1
  6
Continuous
 62
     2
100
AcDbTrace
 10
51.55577322839647
 20
32.88903236702443
 30
0.0
 11
51.55577322839647
 21
32.3056990336911
 31
0.0
 12
53.30577322839648
 22
32.59736570035776
 32
0.0
 13
53.30577322839648
 23
32.59736570035776
 33
0.0
  0
MTEXT
  5
72A
330
6C7
100
AcDbEntity
  8
1
  6
Continuous
 62
     3
100
AcDbMText
 10
49.80577322839648
 20
33.56236570035777
 30
0.0
 40
1.75
 41
0.0
 46
0.0
 71
     5
 72
     1
  1
\A1;7
 73
     1
 44
1.0
  0
POINT
  5
72B
330
6C7
100
AcDbEntity
  8
Defpoints
  6
Continuous
 62
     0
100
AcDbPoint
 10
46.30577322839648
 20
39.20194971164766
 30
0.0
  0
POINT
  5
72C
330
6C7
100
AcDbEntity
  8
Defpoints
  6
Continuous
 62
     0
100
AcDbPoint
 10
53.30577322839648
 20
38.62694971164766
 30
0.0
  0
POINT
  5
72D
330
6C7
100
AcDbEntity
  8
Defpoints
  6
Continuous
 62
     0
100
AcDbPoint
 10
53.30577322839648
 20
32.59736570035776
 30
0.0
  0
ENDBLK
  5
6C9
330
6C7
100
AcDbEntity
  8
0
100
AcDbBlockEnd
  0
BLOCK
  5
6D4
330
6D3
100
AcDbEntity
  8
0
100
AcDbBlockBegin
  2
*D51
 70
     1
 10
0.0
 20
0.0
 30
0.0
  3
*D51
  1

  0
LINE
  5
72E
330
6D3
100
AcDbEntity
  8
1
  6
Continuous
 62
     2
370
    -2
100
AcDbLine
 10
46.30577322839648
 20
39.20194971164766
 30
0.0
 11
46.30577322839648
 21
22.09297801365467
 31
0.0
  0
LINE
  5
72F
330
6D3
100
AcDbEntity
  8
1
  6
Continuous
 62
     2
370
    -2
100
AcDbLine
 10
41.70577322839648
 20
59.25194971164767
 30
0.0
 11
41.70577322839648
 21
22.09297801365467
 31
0.0
  0
LINE
  5
730
330
6D3
100
AcDbEntity
  8
1
  6
Continuous
 62
     2
370
    -2
100
AcDbLine
 10
44.55577322839649
 20
22.59297801365466
 30
0.0
 11
43.45577322839647
 21
22.59297801365466
 31
0.0
  0
SOLID
  5
731
330
6D3
100
AcDbEntity
  8
1
  6
Continuous
 62
     2
100
AcDbTrace
 10
44.55577322839649
 20
22.88464468032133
 30
0.0
 11
44.55577322839649
 21
22.301311346988
 31
0.0
 12
46.30577322839648
 22
22.59297801365466
 32
0.0
 13
46.30577322839648
 23
22.59297801365466
 33
0.0
  0
SOLID
  5
732
330
6D3
100
AcDbEntity
  8
1
  6
Continuous
 62
     2
100
AcDbTrace
 10
43.45577322839647
 20
22.88464468032133
 30
0.0
 11
43.45577322839647
 21
22.301311346988
 31
0.0
 12
41.70577322839648
 22
22.59297801365466
 32
0.0
 13
41.70577322839648
 23
22.59297801365466
 33
0.0
  0
MTEXT
  5
733
330
6D3
100
AcDbEntity
  8
1
  6
Continuous
 62
     3
100
AcDbMText
 10
44.00577322839648
 20
23.55797801365467
 30
0.0
 40
1.75
 41
0.0
 46
0.0
 71
     5
 72
     1
  1
\A1;4.6
 73
     1
 44
1.0
  0
POINT
  5
734
330
6D3
100
AcDbEntity
  8
Defpoints
  6
Continuous
 62
     0
100
AcDbPoint
 10
46.30577322839648
 20
39.20194971164766
 30
0.0
  0
POINT
  5
735
330
6D3
100
AcDbEntity
  8
Defpoints
  6
Continuous
 62
     0
100
AcDbPoint
 10
41.70577322839648
 20
59.25194971164767
 30
0.0
  0
POINT
  5
736
330
6D3
100
AcDbEntity
  8
Defpoints
  6
Continuous
 62
     0
100
AcDbPoint
 10
41.70577322839648
 20
22.59297801365466
 30
0.0
  0
ENDBLK
  5
6D5
330
6D3
100
AcDbEntity
  8
0
100
AcDbBlockEnd
  0
BLOCK
  5
6E0
330
6DF
100
AcDbEntity
  8
0
100
AcDbBlockBegin
  2
*D52
 70
     1
 10
0.0
 20
0.0
 30
0.0
  3
*D52
  1

  0
LINE
  5
737
330
6DF
100
AcDbEntity
  8
1
  6
Continuous
 62
     2
370
    -2
100
AcDbLine
 10
120.5057732283965
 20
49.72795264712471
 30
0.0
 11
120.5057732283965
 21
22.09297801365477
 31
0.0
  0
LINE
  5
738
330
6DF
100
AcDbEntity
  8
1
  6
Continuous
 62
     2
370
    -2
100
AcDbLine
 10
108.0057732283965
 20
38.22694971164766
 30
0.0
 11
108.0057732283965
 21
22.09297801365477
 31
0.0
  0
LINE
  5
739
330
6DF
100
AcDbEntity
  8
1
  6
Continuous
 62
     2
370
    -2
100
AcDbLine
 10
118.7557732283965
 20
22.59297801365477
 30
0.0
 11
109.7557732283965
 21
22.59297801365477
 31
0.0
  0
SOLID
  5
73A
330
6DF
100
AcDbEntity
  8
1
  6
Continuous
 62
     2
100
AcDbTrace
 10
118.7557732283965
 20
22.88464468032144
 30
0.0
 11
118.7557732283965
 21
22.3013113469881
 31
0.0
 12
120.5057732283965
 22
22.59297801365477
 32
0.0
 13
120.5057732283965
 23
22.59297801365477
 33
0.0
  0
SOLID
  5
73B
330
6DF
100
AcDbEntity
  8
1
  6
Continuous
 62
     2
100
AcDbTrace
 10
109.7557732283965
 20
22.88464468032144
 30
0.0
 11
109.7557732283965
 21
22.3013113469881
 31
0.0
 12
108.0057732283965
 22
22.59297801365477
 32
0.0
 13
108.0057732283965
 23
22.59297801365477
 33
0.0
  0
MTEXT
  5
73C
330
6DF
100
AcDbEntity
  8
1
  6
Continuous
 62
     3
100
AcDbMText
 10
114.2557732283965
 20
23.55797801365477
 30
0.0
 40
1.75
 41
0.0
 46
0.0
 71
     5
 72
     1
  1
\A1;12.5
 73
     1
 44
1.0
  0
POINT
  5
73D
330
6DF
100
AcDbEntity
  8
Defpoints
  6
Continuous
 62
     0
100
AcDbPoint
 10
120.5057732283965
 20
49.72795264712471
 30
0.0
  0
POINT
  5
73E
330
6DF
100
AcDbEntity
  8
Defpoints
  6
Continuous
 62
     0
100
AcDbPoint
 10
108.0057732283965
 20
38.22694971164766
 30
0.0
  0
POINT
  5
73F
330
6DF
100
AcDbEntity
  8
Defpoints
  6
Continuous
 62
     0
100
AcDbPoint
 10
108.0057732283965
 20
22.59297801365477
 30
0.0
  0
ENDBLK
  5
6E1
330
6DF
100
AcDbEntity
  8
0
100
AcDbBlockEnd
  0
BLOCK
  5
6EC
330
6EB
100
AcDbEntity
  8
0
100
AcDbBlockBegin
  2
*D53
 70
     1
 10
0.0
 20
0.0
 30
0.0
  3
*D53
  1

  0
LINE
  5
740
330
6EB
100
AcDbEntity
  8
1
  6
Continuous
 62
     2
370
    -2
100
AcDbLine
 10
120.5057732283965
 20
49.72795264712471
 30
0.0
 11
120.5057732283965
 21
27.10724222452006
 31
0.0
  0
LINE
  5
741
330
6EB
100
AcDbEntity
  8
1
  6
Continuous
 62
     2
370
    -2
100
AcDbLine
 10
110.0057732283965
 20
45.10194971164766
 30
0.0
 11
110.0057732283965
 21
27.10724222452006
 31
0.0
  0
LINE
  5
742
330
6EB
100
AcDbEntity
  8
1
  6
Continuous
 62
     2
370
    -2
100
AcDbLine
 10
118.7557732283965
 20
27.60724222452007
 30
0.0
 11
111.7557732283965
 21
27.60724222452007
 31
0.0
  0
SOLID
  5
743
330
6EB
100
AcDbEntity
  8
1
  6
Continuous
 62
     2
100
AcDbTrace
 10
118.7557732283965
 20
27.89890889118674
 30
0.0
 11
118.7557732283965
 21
27.3155755578534
 31
0.0
 12
120.5057732283965
 22
27.60724222452007
 32
0.0
 13
120.5057732283965
 23
27.60724222452007
 33
0.0
  0
SOLID
  5
744
330
6EB
100
AcDbEntity
  8
1
  6
Continuous
 62
     2
100
AcDbTrace
 10
111.7557732283965
 20
27.89890889118674
 30
0.0
 11
111.7557732283965
 21
27.3155755578534
 31
0.0
 12
110.0057732283965
 22
27.60724222452007
 32
0.0
 13
110.0057732283965
 23
27.60724222452007
 33
0.0
  0
MTEXT
  5
745
330
6EB
100
AcDbEntity
  8
1
  6
Continuous
 62
     3
100
AcDbMText
 10
115.2557732283965
 20
28.57224222452007
 30
0.0
 40
1.75
 41
0.0
 46
0.0
 71
     5
 72
     1
  1
\A1;(10.5
 73
     1
 44
1.0
  0
POINT
  5
746
330
6EB
100
AcDbEntity
  8
Defpoints
  6
Continuous
 62
     0
100
AcDbPoint
 10
120.5057732283965
 20
49.72795264712471
 30
0.0
  0
POINT
  5
747
330
6EB
100
AcDbEntity
  8
Defpoints
  6
Continuous
 62
     0
100
AcDbPoint
 10
110.0057732283965
 20
45.10194971164766
 30
0.0
  0
POINT
  5
748
330
6EB
100
AcDbEntity
  8
Defpoints
  6
Continuous
 62
     0
100
AcDbPoint
 10
110.0057732283965
 20
27.60724222452007
 30
0.0
  0
ENDBLK
  5
6ED
330
6EB
100
AcDbEntity
  8
0
100
AcDbBlockEnd
  0
BLOCK
  5
6F8
330
6F7
100
AcDbEntity
  8
0
100
AcDbBlockBegin
  2
*D54
 70
     1
 10
0.0
 20
0.0
 30
0.0
  3
*D54
  1

  0
LINE
  5
749
330
6F7
100
AcDbEntity
  8
1
  6
Continuous
 62
     2
370
    -2
100
AcDbLine
 10
108.0057732283965
 20
38.22694971164766
 30
0.0
 11
108.0057732283965
 21
27.10129834875336
 31
0.0
  0
LINE
  5
74A
330
6F7
100
AcDbEntity
  8
1
  6
Continuous
 62
     2
370
    -2
100
AcDbLine
 10
110.0057732283965
 20
45.10194971164766
 30
0.0
 11
110.0057732283965
 21
27.10129834875336
 31
0.0
  0
LINE
  5
74B
330
6F7
100
AcDbEntity
  8
1
  6
Continuous
 62
     2
370
    -2
100
AcDbLine
 10
106.2557732283965
 20
27.60129834875336
 30
0.0
 11
104.5057732283965
 21
27.60129834875336
 31
0.0
  0
LINE
  5
74C
330
6F7
100
AcDbEntity
  8
1
  6
Continuous
 62
     2
370
    -2
100
AcDbLine
 10
111.7557732283965
 20
27.60129834875336
 30
0.0
 11
113.5057732283965
 21
27.60129834875336
 31
0.0
  0
SOLID
  5
74D
330
6F7
100
AcDbEntity
  8
1
  6
Continuous
 62
     2
100
AcDbTrace
 10
106.2557732283965
 20
27.89296501542003
 30
0.0
 11
106.2557732283965
 21
27.30963168208669
 31
0.0
 12
108.0057732283965
 22
27.60129834875336
 32
0.0
 13
108.0057732283965
 23
27.60129834875336
 33
0.0
  0
SOLID
  5
74E
330
6F7
100
AcDbEntity
  8
1
  6
Continuous
 62
     2
100
AcDbTrace
 10
111.7557732283965
 20
27.89296501542003
 30
0.0
 11
111.7557732283965
 21
27.30963168208669
 31
0.0
 12
110.0057732283965
 22
27.60129834875336
 32
0.0
 13
110.0057732283965
 23
27.60129834875336
 33
0.0
  0
MTEXT
  5
74F
330
6F7
100
AcDbEntity
  8
1
  6
Continuous
 62
     3
100
AcDbMText
 10
109.0057732283965
 20
28.56629834875336
 30
0.0
 40
1.75
 41
0.0
 46
0.0
 71
     5
 72
     1
  1
\A1;2
 73
     1
 44
1.0
  0
POINT
  5
750
330
6F7
100
AcDbEntity
  8
Defpoints
  6
Continuous
 62
     0
100
AcDbPoint
 10
108.0057732283965
 20
38.22694971164766
 30
0.0
  0
POINT
  5
751
330
6F7
100
AcDbEntity
  8
Defpoints
  6
Continuous
 62
     0
100
AcDbPoint
 10
110.0057732283965
 20
45.10194971164766
 30
0.0
  0
POINT
  5
752
330
6F7
100
AcDbEntity
  8
Defpoints
  6
Continuous
 62
     0
100
AcDbPoint
 10
110.0057732283965
 20
27.60129834875336
 30
0.0
  0
ENDBLK
  5
6F9
330
6F7
100
AcDbEntity
  8
0
100
AcDbBlockEnd
  0
BLOCK
  5
705
330
704
100
AcDbEntity
  8
0
100
AcDbBlockBegin
  2
*D55
 70
     1
 10
0.0
 20
0.0
 30
0.0
  3
*D55
  1

  0
LINE
  5
753
330
704
100
AcDbEntity
  8
1
  6
Continuous
 62
     2
370
    -2
100
AcDbLine
 10
-3.794226771603518
 20
51.60194971164766
 30
0.0
 11
-6.838009368792089
 21
51.60194971164766
 31
0.0
  0
LINE
  5
754
330
704
100
AcDbEntity
  8
1
  6
Continuous
 62
     2
370
    -2
100
AcDbLine
 10
6.487023228396498
 20
40.83075875207873
 30
0.0
 11
2.933881929802181
 21
34.67653749644214
 31
0.0
  0
ARC
  5
755
330
704
100
AcDbEntity
  8
1
  6
Continuous
 62
     2
370
    -2
100
AcDbCircle
 10
12.7057732283965
 20
51.60194971164766
 30
0.0
 40
19.04378259718859
100
AcDbArc
 50
185.2669645026708
 51
234.7330354973291
  0
SOLID
  5
756
330
704
100
AcDbEntity
  8
1
  6
Continuous
 62
     2
100
AcDbTrace
 10
-6.548961183403001
 20
49.84039676712491
 30
0.0
 11
-5.966243914119349
 21
49.86719904046854
 31
0.0
 12
-6.338009368792089
 22
51.60194971164766
 32
0.0
 13
-6.338009368792089
 23
51.60194971164766
 33
0.0
  0
SOLID
  5
757
330
704
100
AcDbEntity
  8
1
  6
Continuous
 62
     2
100
AcDbTrace
 10
1.86742650666533
 20
36.29888386191999
 30
0.0
 11
1.552856422428739
 21
35.80763704016827
 31
0.0
 12
3.183881929802184
 22
35.10955019833436
 32
0.0
 13
3.183881929802184
 23
35.10955019833436
 33
0.0
  0
MTEXT
  5
758
330
704
100
AcDbEntity
  8
1
  6
Continuous
 62
     3
100
AcDbMText
 10
-2.950911770264834
 20
42.56255841305338
 30
0.0
 40
1.75
 41
0.0
 46
0.0
 71
     5
 72
     1
  1
\A1;6x60\U+00B0
 11
0.4999999999999995
 21
-0.8660254037844389
 31
0.0
 73
     1
 44
1.0
  0
POINT
  5
759
330
704
100
AcDbEntity
  8
Defpoints
  6
Continuous
 62
     0
100
AcDbPoint
 10
-5.189528750032723
 20
45.08859245829436
 30
0.0
  0
POINT
  5
75A
330
704
100
AcDbEntity
  8
Defpoints
  6
Continuous
 62
     0
100
AcDbPoint
 10
29.20577322839648
 20
51.60194971164766
 30
0.0
  0
POINT
  5
75B
330
704
100
AcDbEntity
  8
Defpoints
  6
Continuous
 62
     0
100
AcDbPoint
 10
18.92452322839648
 20
62.37314067121658
 30
0.0
  0
POINT
  5
75C
330
704
100
AcDbEntity
  8
Defpoints
  6
Continuous
 62
     0
100
AcDbPoint
 10
6.487023228396498
 20
40.83075875207873
 30
0.0
  0
POINT
  5
75D
330
704
100
AcDbEntity
  8
Defpoints
  6
Continuous
 62
     0
100
AcDbPoint
 10
-3.794226771603518
 20
51.60194971164766
 30
0.0
  0
ENDBLK
  5
706
330
704
100
AcDbEntity
  8
0
100
AcDbBlockEnd
  0
BLOCK
  5
833
330
832
100
AcDbEntity
  8
0
100
AcDbBlockBegin
  2
*D56
 70
     1
 10
0.0
 20
0.0
 30
0.0
  3
*D56
  1

  0
LINE
  5
999
330
832
100
AcDbEntity
  8
1
  6
Continuous
 62
     2
370
    -2
100
AcDbLine
 10
521.3881131469674
 20
49.72795264712471
 30
0.0
 11
521.3881131469674
 21
32.13965286448106
 31
0.0
  0
LINE
  5
99A
330
832
100
AcDbEntity
  8
1
  6
Continuous
 62
     2
370
    -2
100
AcDbLine
 10
512.1281131469674
 20
48.10194971164766
 30
0.0
 11
512.1281131469674
 21
32.13965286448106
 31
0.0
  0
LINE
  5
99B
330
832
100
AcDbEntity
  8
1
  6
Continuous
 62
     2
370
    -2
100
AcDbLine
 10
519.6381131469674
 20
32.63965286448107
 30
0.0
 11
513.8781131469674
 21
32.63965286448107
 31
0.0
  0
SOLID
  5
99C
330
832
100
AcDbEntity
  8
1
  6
Continuous
 62
     2
100
AcDbTrace
 10
519.6381131469674
 20
32.93131953114773
 30
0.0
 11
519.6381131469674
 21
32.3479861978144
 31
0.0
 12
521.3881131469674
 22
32.63965286448107
 32
0.0
 13
521.3881131469674
 23
32.63965286448107
 33
0.0
  0
SOLID
  5
99D
330
832
100
AcDbEntity
  8
1
  6
Continuous
 62
     2
100
AcDbTrace
 10
513.8781131469674
 20
32.93131953114773
 30
0.0
 11
513.8781131469674
 21
32.3479861978144
 31
0.0
 12
512.1281131469674
 22
32.63965286448107
 32
0.0
 13
512.1281131469674
 23
32.63965286448107
 33
0.0
  0
MTEXT
  5
99E
330
832
100
AcDbEntity
  8
1
  6
Continuous
 62
     3
100
AcDbMText
 10
516.7581131469675
 20
34.26465286448106
 30
0.0
 40
1.75
 41
0.0
 46
0.0
 71
     5
 72
     1
  1
\A1;9.4
 73
     1
 44
1.0
  0
POINT
  5
99F
330
832
100
AcDbEntity
  8
Defpoints
  6
Continuous
 62
     0
100
AcDbPoint
 10
521.3881131469674
 20
49.72795264712471
 30
0.0
  0
POINT
  5
9A0
330
832
100
AcDbEntity
  8
Defpoints
  6
Continuous
 62
     0
100
AcDbPoint
 10
512.1281131469674
 20
48.10194971164766
 30
0.0
  0
POINT
  5
9A1
330
832
100
AcDbEntity
  8
Defpoints
  6
Continuous
 62
     0
100
AcDbPoint
 10
512.1281131469674
 20
32.63965286448107
 30
0.0
  0
ENDBLK
  5
834
330
832
100
AcDbEntity
  8
0
100
AcDbBlockEnd
  0
BLOCK
  5
83F
330
83E
100
AcDbEntity
  8
0
100
AcDbBlockBegin
  2
*D57
 70
     1
 10
0.0
 20
0.0
 30
0.0
  3
*D57
  1

  0
LINE
  5
ACE
330
83E
100
AcDbEntity
  8
1
  6
Continuous
 62
     2
370
    -2
100
AcDbLine
 10
417.0881131469674
 20
60.26220374949204
 30
0.0
 11
417.0881131469674
 21
71.26489224194074
 31
0.0
  0
LINE
  5
ACF
330
83E
100
AcDbEntity
  8
1
  6
Continuous
 62
     2
370
    -2
100
AcDbLine
 10
420.0881131469675
 20
60.26220374949204
 30
0.0
 11
420.0881131469675
 21
71.26489224194074
 31
0.0
  0
LINE
  5
AD0
330
83E
100
AcDbEntity
  8
1
  6
Continuous
 62
     2
370
    -2
100
AcDbLine
 10
415.3381131469674
 20
70.76489224194074
 30
0.0
 11
413.5881131469674
 21
70.76489224194074
 31
0.0
  0
LINE
  5
AD1
330
83E
100
AcDbEntity
  8
1
  6
Continuous
 62
     2
370
    -2
100
AcDbLine
 10
421.8381131469675
 20
70.76489224194074
 30
0.0
 11
437.1881131469675
 21
70.76489224194074
 31
0.0
  0
LINE
  5
AD2
330
83E
100
AcDbEntity
  8
1
  6
Continuous
 62
     2
370
    -2
100
AcDbLine
 10
417.0881131469674
 20
70.76489224194074
 30
0.0
 11
420.0881131469675
 21
70.76489224194074
 31
0.0
  0
SOLID
  5
AD3
330
83E
100
AcDbEntity
  8
1
  6
Continuous
 62
     2
100
AcDbTrace
 10
415.3381131469674
 20
71.05655890860742
 30
0.0
 11
415.3381131469674
 21
70.47322557527407
 31
0.0
 12
417.0881131469674
 22
70.76489224194074
 32
0.0
 13
417.0881131469674
 23
70.76489224194074
 33
0.0
  0
SOLID
  5
AD4
330
83E
100
AcDbEntity
  8
1
  6
Continuous
 62
     2
100
AcDbTrace
 10
421.8381131469675
 20
71.05655890860742
 30
0.0
 11
421.8381131469675
 21
70.47322557527407
 31
0.0
 12
420.0881131469675
 22
70.76489224194074
 32
0.0
 13
420.0881131469675
 23
70.76489224194074
 33
0.0
  0
MTEXT
  5
AD5
330
83E
100
AcDbEntity
  8
1
  6
Continuous
 62
     3
100
AcDbMText
 10
430.3881131469674
 20
72.14055512072862
 30
0.0
 40
1.75
 41
0.0
 46
0.0
 71
     5
 72
     1
  1
\A1;M3x3.8 max.
 73
     1
 44
1.0
  0
POINT
  5
AD6
330
83E
100
AcDbEntity
  8
Defpoints
  6
Continuous
 62
     0
100
AcDbPoint
 10
417.0881131469674
 20
60.26220374949204
 30
0.0
  0
POINT
  5
AD7
330
83E
100
AcDbEntity
  8
Defpoints
  6
Continuous
 62
     0
100
AcDbPoint
 10
420.0881131469675
 20
60.26220374949204
 30
0.0
  0
POINT
  5
AD8
330
83E
100
AcDbEntity
  8
Defpoints
  6
Continuous
 62
     0
100
AcDbPoint
 10
420.0881131469675
 20
70.76489224194074
 30
0.0
  0
ENDBLK
  5
840
330
83E
100
AcDbEntity
  8
0
100
AcDbBlockEnd
  0
BLOCK
  5
84C
330
84B
100
AcDbEntity
  8
0
100
AcDbBlockBegin
  2
*D58
 70
     1
 10
0.0
 20
0.0
 30
0.0
  3
*D58
  1

  0
LINE
  5
956
330
84B
100
AcDbEntity
  8
1
  6
Continuous
 62
     2
370
    -2
100
AcDbLine
 10
447.1881131469674
 20
39.20194971164766
 30
0.0
 11
447.1881131469674
 21
32.09736570035776
 31
0.0
  0
LINE
  5
957
330
84B
100
AcDbEntity
  8
1
  6
Continuous
 62
     2
370
    -2
100
AcDbLine
 10
454.1881131469674
 20
38.62694971164766
 30
0.0
 11
454.1881131469674
 21
32.09736570035776
 31
0.0
  0
LINE
  5
958
330
84B
100
AcDbEntity
  8
1
  6
Continuous
 62
     2
370
    -2
100
AcDbLine
 10
448.9381131469674
 20
32.59736570035776
 30
0.0
 11
452.4381131469674
 21
32.59736570035776
 31
0.0
  0
SOLID
  5
959
330
84B
100
AcDbEntity
  8
1
  6
Continuous
 62
     2
100
AcDbTrace
 10
448.9381131469674
 20
32.88903236702443
 30
0.0
 11
448.9381131469674
 21
32.3056990336911
 31
0.0
 12
447.1881131469674
 22
32.59736570035776
 32
0.0
 13
447.1881131469674
 23
32.59736570035776
 33
0.0
  0
SOLID
  5
95A
330
84B
100
AcDbEntity
  8
1
  6
Continuous
 62
     2
100
AcDbTrace
 10
452.4381131469674
 20
32.88903236702443
 30
0.0
 11
452.4381131469674
 21
32.3056990336911
 31
0.0
 12
454.1881131469674
 22
32.59736570035776
 32
0.0
 13
454.1881131469674
 23
32.59736570035776
 33
0.0
  0
MTEXT
  5
95B
330
84B
100
AcDbEntity
  8
1
  6
Continuous
 62
     3
100
AcDbMText
 10
450.6881131469675
 20
34.22236570035777
 30
0.0
 40
1.75
 41
0.0
 46
0.0
 71
     5
 72
     1
  1
\A1;7
 73
     1
 44
1.0
  0
POINT
  5
95C
330
84B
100
AcDbEntity
  8
Defpoints
  6
Continuous
 62
     0
100
AcDbPoint
 10
447.1881131469674
 20
39.20194971164766
 30
0.0
  0
POINT
  5
95D
330
84B
100
AcDbEntity
  8
Defpoints
  6
Continuous
 62
     0
100
AcDbPoint
 10
454.1881131469674
 20
38.62694971164766
 30
0.0
  0
POINT
  5
95E
330
84B
100
AcDbEntity
  8
Defpoints
  6
Continuous
 62
     0
100
AcDbPoint
 10
454.1881131469674
 20
32.59736570035776
 30
0.0
  0
ENDBLK
  5
84D
330
84B
100
AcDbEntity
  8
0
100
AcDbBlockEnd
  0
BLOCK
  5
858
330
857
100
AcDbEntity
  8
0
100
AcDbBlockBegin
  2
*D59
 70
     1
 10
0.0
 20
0.0
 30
0.0
  3
*D59
  1

  0
LINE
  5
9FA
330
857
100
AcDbEntity
  8
1
  6
Continuous
 62
     2
370
    -2
100
AcDbLine
 10
447.1881131469674
 20
39.20194971164766
 30
0.0
 11
447.1881131469674
 21
22.09297801365478
 31
0.0
  0
LINE
  5
9FB
330
857
100
AcDbEntity
  8
1
  6
Continuous
 62
     2
370
    -2
100
AcDbLine
 10
442.5881131469674
 20
59.25194971164767
 30
0.0
 11
442.5881131469674
 21
22.09297801365477
 31
0.0
  0
LINE
  5
9FC
330
857
100
AcDbEntity
  8
1
  6
Continuous
 62
     2
370
    -2
100
AcDbLine
 10
448.9381131469674
 20
22.59297801365478
 30
0.0
 11
450.6881131469675
 21
22.59297801365478
 31
0.0
  0
LINE
  5
9FD
330
857
100
AcDbEntity
  8
1
  6
Continuous
 62
     2
370
    -2
100
AcDbLine
 10
440.8381131469674
 20
22.59297801365478
 30
0.0
 11
439.0881131469675
 21
22.59297801365478
 31
0.0
  0
LINE
  5
9FE
330
857
100
AcDbEntity
  8
1
  6
Continuous
 62
     2
370
    -2
100
AcDbLine
 10
447.1881131469674
 20
22.59297801365478
 30
0.0
 11
442.5881131469674
 21
22.59297801365478
 31
0.0
  0
SOLID
  5
9FF
330
857
100
AcDbEntity
  8
1
  6
Continuous
 62
     2
100
AcDbTrace
 10
448.9381131469674
 20
22.88464468032144
 30
0.0
 11
448.9381131469674
 21
22.30131134698811
 31
0.0
 12
447.1881131469674
 22
22.59297801365478
 32
0.0
 13
447.1881131469674
 23
22.59297801365478
 33
0.0
  0
SOLID
  5
A00
330
857
100
AcDbEntity
  8
1
  6
Continuous
 62
     2
100
AcDbTrace
 10
440.8381131469674
 20
22.88464468032144
 30
0.0
 11
440.8381131469674
 21
22.30131134698811
 31
0.0
 12
442.5881131469674
 22
22.59297801365478
 32
0.0
 13
442.5881131469674
 23
22.59297801365478
 33
0.0
  0
MTEXT
  5
A01
330
857
100
AcDbEntity
  8
1
  6
Continuous
 62
     3
100
AcDbMText
 10
444.8881131469675
 20
24.21797801365478
 30
0.0
 40
1.75
 41
0.0
 46
0.0
 71
     5
 72
     1
  1
\A1;4.6
 73
     1
 44
1.0
  0
POINT
  5
A02
330
857
100
AcDbEntity
  8
Defpoints
  6
Continuous
 62
     0
100
AcDbPoint
 10
447.1881131469674
 20
39.20194971164766
 30
0.0
  0
POINT
  5
A03
330
857
100
AcDbEntity
  8
Defpoints
  6
Continuous
 62
     0
100
AcDbPoint
 10
442.5881131469674
 20
59.25194971164767
 30
0.0
  0
POINT
  5
A04
330
857
100
AcDbEntity
  8
Defpoints
  6
Continuous
 62
     0
100
AcDbPoint
 10
442.5881131469674
 20
22.59297801365478
 30
0.0
  0
ENDBLK
  5
859
330
857
100
AcDbEntity
  8
0
100
AcDbBlockEnd
  0
BLOCK
  5
864
330
863
100
AcDbEntity
  8
0
100
AcDbBlockBegin
  2
*D60
 70
     1
 10
0.0
 20
0.0
 30
0.0
  3
*D60
  1

  0
LINE
  5
8F4
330
863
100
AcDbEntity
  8
1
  6
Continuous
 62
     2
370
    -2
100
AcDbLine
 10
521.3881131469674
 20
49.72795264712471
 30
0.0
 11
521.3881131469674
 21
22.09297801365477
 31
0.0
  0
LINE
  5
8F5
330
863
100
AcDbEntity
  8
1
  6
Continuous
 62
     2
370
    -2
100
AcDbLine
 10
508.8881131469674
 20
38.22694971164766
 30
0.0
 11
508.8881131469674
 21
22.09297801365477
 31
0.0
  0
LINE
  5
8F6
330
863
100
AcDbEntity
  8
1
  6
Continuous
 62
     2
370
    -2
100
AcDbLine
 10
519.6381131469674
 20
22.59297801365477
 30
0.0
 11
510.6381131469674
 21
22.59297801365477
 31
0.0
  0
SOLID
  5
8F7
330
863
100
AcDbEntity
  8
1
  6
Continuous
 62
     2
100
AcDbTrace
 10
519.6381131469674
 20
22.88464468032144
 30
0.0
 11
519.6381131469674
 21
22.3013113469881
 31
0.0
 12
521.3881131469674
 22
22.59297801365477
 32
0.0
 13
521.3881131469674
 23
22.59297801365477
 33
0.0
  0
SOLID
  5
8F8
330
863
100
AcDbEntity
  8
1
  6
Continuous
 62
     2
100
AcDbTrace
 10
510.6381131469674
 20
22.88464468032144
 30
0.0
 11
510.6381131469674
 21
22.3013113469881
 31
0.0
 12
508.8881131469674
 22
22.59297801365477
 32
0.0
 13
508.8881131469674
 23
22.59297801365477
 33
0.0
  0
MTEXT
  5
8F9
330
863
100
AcDbEntity
  8
1
  6
Continuous
 62
     3
100
AcDbMText
 10
515.1381131469674
 20
24.21797801365477
 30
0.0
 40
1.75
 41
0.0
 46
0.0
 71
     5
 72
     1
  1
\A1;12.5
 73
     1
 44
1.0
  0
POINT
  5
8FA
330
863
100
AcDbEntity
  8
Defpoints
  6
Continuous
 62
     0
100
AcDbPoint
 10
521.3881131469674
 20
49.72795264712471
 30
0.0
  0
POINT
  5
8FB
330
863
100
AcDbEntity
  8
Defpoints
  6
Continuous
 62
     0
100
AcDbPoint
 10
508.8881131469674
 20
38.22694971164766
 30
0.0
  0
POINT
  5
8FC
330
863
100
AcDbEntity
  8
Defpoints
  6
Continuous
 62
     0
100
AcDbPoint
 10
508.8881131469674
 20
22.59297801365477
 30
0.0
  0
ENDBLK
  5
865
330
863
100
AcDbEntity
  8
0
100
AcDbBlockEnd
  0
BLOCK
  5
870
330
86F
100
AcDbEntity
  8
0
100
AcDbBlockBegin
  2
*D61
 70
     1
 10
0.0
 20
0.0
 30
0.0
  3
*D61
  1

  0
LINE
  5
990
330
86F
100
AcDbEntity
  8
1
  6
Continuous
 62
     2
370
    -2
100
AcDbLine
 10
521.3881131469674
 20
49.72795264712471
 30
0.0
 11
521.3881131469674
 21
27.10724222452006
 31
0.0
  0
LINE
  5
991
330
86F
100
AcDbEntity
  8
1
  6
Continuous
 62
     2
370
    -2
100
AcDbLine
 10
510.8881131469675
 20
45.10194971164766
 30
0.0
 11
510.8881131469675
 21
27.10724222452006
 31
0.0
  0
LINE
  5
992
330
86F
100
AcDbEntity
  8
1
  6
Continuous
 62
     2
370
    -2
100
AcDbLine
 10
519.6381131469674
 20
27.60724222452007
 30
0.0
 11
512.6381131469675
 21
27.60724222452007
 31
0.0
  0
SOLID
  5
993
330
86F
100
AcDbEntity
  8
1
  6
Continuous
 62
     2
100
AcDbTrace
 10
519.6381131469674
 20
27.89890889118674
 30
0.0
 11
519.6381131469674
 21
27.3155755578534
 31
0.0
 12
521.3881131469674
 22
27.60724222452007
 32
0.0
 13
521.3881131469674
 23
27.60724222452007
 33
0.0
  0
SOLID
  5
994
330
86F
100
AcDbEntity
  8
1
  6
Continuous
 62
     2
100
AcDbTrace
 10
512.6381131469675
 20
27.89890889118674
 30
0.0
 11
512.6381131469675
 21
27.3155755578534
 31
0.0
 12
510.8881131469675
 22
27.60724222452007
 32
0.0
 13
510.8881131469675
 23
27.60724222452007
 33
0.0
  0
MTEXT
  5
995
330
86F
100
AcDbEntity
  8
1
  6
Continuous
 62
     3
100
AcDbMText
 10
516.1381131469674
 20
29.40724222452006
 30
0.0
 40
1.75
 41
0.0
 46
0.0
 71
     5
 72
     1
  1
\A1;(10.5)
 73
     1
 44
1.0
  0
POINT
  5
996
330
86F
100
AcDbEntity
  8
Defpoints
  6
Continuous
 62
     0
100
AcDbPoint
 10
521.3881131469674
 20
49.72795264712471
 30
0.0
  0
POINT
  5
997
330
86F
100
AcDbEntity
  8
Defpoints
  6
Continuous
 62
     0
100
AcDbPoint
 10
510.8881131469675
 20
45.10194971164766
 30
0.0
  0
POINT
  5
998
330
86F
100
AcDbEntity
  8
Defpoints
  6
Continuous
 62
     0
100
AcDbPoint
 10
510.8881131469675
 20
27.60724222452007
 30
0.0
  0
ENDBLK
  5
871
330
86F
100
AcDbEntity
  8
0
100
AcDbBlockEnd
  0
BLOCK
  5
87C
330
87B
100
AcDbEntity
  8
0
100
AcDbBlockBegin
  2
*D62
 70
     1
 10
0.0
 20
0.0
 30
0.0
  3
*D62
  1

  0
LINE
  5
985
330
87B
100
AcDbEntity
  8
1
  6
Continuous
 62
     2
370
    -2
100
AcDbLine
 10
508.8881131469674
 20
38.22694971164766
 30
0.0
 11
508.8881131469674
 21
27.10724222452006
 31
0.0
  0
LINE
  5
986
330
87B
100
AcDbEntity
  8
1
  6
Continuous
 62
     2
370
    -2
100
AcDbLine
 10
510.8881131469675
 20
45.10194971164766
 30
0.0
 11
510.8881131469675
 21
27.10724222452006
 31
0.0
  0
LINE
  5
987
330
87B
100
AcDbEntity
  8
1
  6
Continuous
 62
     2
370
    -2
100
AcDbLine
 10
507.1381131469674
 20
27.60724222452007
 30
0.0
 11
505.3881131469674
 21
27.60724222452007
 31
0.0
  0
LINE
  5
988
330
87B
100
AcDbEntity
  8
1
  6
Continuous
 62
     2
370
    -2
100
AcDbLine
 10
512.6381131469675
 20
27.60724222452007
 30
0.0
 11
514.3881131469675
 21
27.60724222452007
 31
0.0
  0
LINE
  5
989
330
87B
100
AcDbEntity
  8
1
  6
Continuous
 62
     2
370
    -2
100
AcDbLine
 10
508.8881131469674
 20
27.60724222452007
 30
0.0
 11
510.8881131469675
 21
27.60724222452007
 31
0.0
  0
SOLID
  5
98A
330
87B
100
AcDbEntity
  8
1
  6
Continuous
 62
     2
100
AcDbTrace
 10
507.1381131469674
 20
27.89890889118674
 30
0.0
 11
507.1381131469674
 21
27.3155755578534
 31
0.0
 12
508.8881131469674
 22
27.60724222452007
 32
0.0
 13
508.8881131469674
 23
27.60724222452007
 33
0.0
  0
SOLID
  5
98B
330
87B
100
AcDbEntity
  8
1
  6
Continuous
 62
     2
100
AcDbTrace
 10
512.6381131469675
 20
27.89890889118674
 30
0.0
 11
512.6381131469675
 21
27.3155755578534
 31
0.0
 12
510.8881131469675
 22
27.60724222452007
 32
0.0
 13
510.8881131469675
 23
27.60724222452007
 33
0.0
  0
MTEXT
  5
98C
330
87B
100
AcDbEntity
  8
1
  6
Continuous
 62
     3
100
AcDbMText
 10
509.8881131469674
 20
29.23224222452006
 30
0.0
 40
1.75
 41
0.0
 46
0.0
 71
     5
 72
     1
  1
\A1;2
 73
     1
 44
1.0
  0
POINT
  5
98D
330
87B
100
AcDbEntity
  8
Defpoints
  6
Continuous
 62
     0
100
AcDbPoint
 10
508.8881131469674
 20
38.22694971164766
 30
0.0
  0
POINT
  5
98E
330
87B
100
AcDbEntity
  8
Defpoints
  6
Continuous
 62
     0
100
AcDbPoint
 10
510.8881131469675
 20
45.10194971164766
 30
0.0
  0
POINT
  5
98F
330
87B
100
AcDbEntity
  8
Defpoints
  6
Continuous
 62
     0
100
AcDbPoint
 10
510.8881131469675
 20
27.60724222452007
 30
0.0
  0
ENDBLK
  5
87D
330
87B
100
AcDbEntity
  8
0
100
AcDbBlockEnd
  0
BLOCK
  5
889
330
888
100
AcDbEntity
  8
0
100
AcDbBlockBegin
  2
*D63
 70
     1
 10
0.0
 20
0.0
 30
0.0
  3
*D63
  1

  0
LINE
  5
A61
330
888
100
AcDbEntity
  8
1
  6
Continuous
 62
     2
370
    -2
100
AcDbLine
 10
397.0881131469675
 20
51.60194971164767
 30
0.0
 11
394.0443305497788
 21
51.60194971164767
 31
0.0
  0
LINE
  5
A62
330
888
100
AcDbEntity
  8
1
  6
Continuous
 62
     2
370
    -2
100
AcDbLine
 10
407.3693631469675
 20
40.8307587520787
 30
0.0
 11
403.8162218483731
 21
34.67653749644203
 31
0.0
  0
ARC
  5
A63
330
888
100
AcDbEntity
  8
1
  6
Continuous
 62
     2
370
    -2
100
AcDbCircle
 10
413.5881131469674
 20
51.60194971164767
 30
0.0
 40
19.04378259718873
100
AcDbArc
 50
185.2669645026708
 51
234.7330354973291
  0
SOLID
  5
A64
330
888
100
AcDbEntity
  8
1
  6
Continuous
 62
     2
100
AcDbTrace
 10
394.3333787351678
 20
49.84039676712493
 30
0.0
 11
394.9160960044515
 21
49.86719904046859
 31
0.0
 12
394.5443305497787
 22
51.60194971164767
 32
0.0
 13
394.5443305497787
 23
51.60194971164767
 33
0.0
  0
SOLID
  5
A65
330
888
100
AcDbEntity
  8
1
  6
Continuous
 62
     2
100
AcDbTrace
 10
402.7497664252362
 20
36.29888386191988
 30
0.0
 11
402.4351963409996
 21
35.80763704016817
 31
0.0
 12
404.066221848373
 22
35.10955019833423
 32
0.0
 13
404.066221848373
 23
35.10955019833423
 33
0.0
  0
MTEXT
  5
A66
330
888
100
AcDbEntity
  8
1
  6
Continuous
 62
     3
100
AcDbMText
 10
398.71951126575
 20
43.01755841305331
 30
0.0
 40
1.75
 41
0.0
 46
0.0
 71
     5
 72
     1
  1
\A1;6x60\U+00B0
 11
0.4999999999999995
 21
-0.8660254037844389
 31
0.0
 73
     1
 44
1.0
  0
POINT
  5
A67
330
888
100
AcDbEntity
  8
Defpoints
  6
Continuous
 62
     0
100
AcDbPoint
 10
395.6928111685381
 20
45.08859245829433
 30
0.0
  0
POINT
  5
A68
330
888
100
AcDbEntity
  8
Defpoints
  6
Continuous
 62
     0
100
AcDbPoint
 10
430.0881131469674
 20
51.6019497116477
 30
0.0
  0
POINT
  5
A69
330
888
100
AcDbEntity
  8
Defpoints
  6
Continuous
 62
     0
100
AcDbPoint
 10
419.8068631469674
 20
62.37314067121662
 30
0.0
  0
POINT
  5
A6A
330
888
100
AcDbEntity
  8
Defpoints
  6
Continuous
 62
     0
100
AcDbPoint
 10
407.3693631469675
 20
40.8307587520787
 30
0.0
  0
POINT
  5
A6B
330
888
100
AcDbEntity
  8
Defpoints
  6
Continuous
 62
     0
100
AcDbPoint
 10
397.0881131469675
 20
51.60194971164767
 30
0.0
  0
ENDBLK
  5
88A
330
888
100
AcDbEntity
  8
0
100
AcDbBlockEnd
  0
BLOCK
  5
9A4
330
9A3
100
AcDbEntity
  8
0
100
AcDbBlockBegin
  2
*D65
 70
     1
 10
0.0
 20
0.0
 30
0.0
  3
*D65
  1

  0
LINE
  5
9AF
330
9A3
100
AcDbEntity
  8
1
  6
Continuous
 62
     2
370
    -2
100
AcDbLine
 10
508.8881131469674
 20
38.22694971164766
 30
0.0
 11
508.8881131469674
 21
22.09297801365478
 31
0.0
  0
LINE
  5
9B0
330
9A3
100
AcDbEntity
  8
1
  6
Continuous
 62
     2
370
    -2
100
AcDbLine
 10
447.1881131469674
 20
39.20194971164766
 30
0.0
 11
447.1881131469674
 21
22.09297801365478
 31
0.0
  0
LINE
  5
9B1
330
9A3
100
AcDbEntity
  8
1
  6
Continuous
 62
     2
370
    -2
100
AcDbLine
 10
507.1381131469674
 20
22.59297801365478
 30
0.0
 11
448.9381131469674
 21
22.59297801365478
 31
0.0
  0
SOLID
  5
9B2
330
9A3
100
AcDbEntity
  8
1
  6
Continuous
 62
     2
100
AcDbTrace
 10
507.1381131469674
 20
22.88464468032144
 30
0.0
 11
507.1381131469674
 21
22.30131134698811
 31
0.0
 12
508.8881131469674
 22
22.59297801365478
 32
0.0
 13
508.8881131469674
 23
22.59297801365478
 33
0.0
  0
SOLID
  5
9B3
330
9A3
100
AcDbEntity
  8
1
  6
Continuous
 62
     2
100
AcDbTrace
 10
448.9381131469674
 20
22.88464468032144
 30
0.0
 11
448.9381131469674
 21
22.30131134698811
 31
0.0
 12
447.1881131469674
 22
22.59297801365478
 32
0.0
 13
447.1881131469674
 23
22.59297801365478
 33
0.0
  0
MTEXT
  5
9B4
330
9A3
100
AcDbEntity
  8
1
  6
Continuous
 62
     3
100
AcDbMText
 10
478.0381131469674
 20
24.21797801365478
 30
0.0
 40
1.75
 41
0.0
 46
0.0
 71
     5
 72
     1
  1
\A1;61.7
 73
     1
 44
1.0
  0
POINT
  5
9B5
330
9A3
100
AcDbEntity
  8
Defpoints
  6
Continuous
 62
     0
100
AcDbPoint
 10
508.8881131469674
 20
38.22694971164766
 30
0.0
  0
POINT
  5
9B6
330
9A3
100
AcDbEntity
  8
Defpoints
  6
Continuous
 62
     0
100
AcDbPoint
 10
447.1881131469674
 20
39.20194971164766
 30
0.0
  0
POINT
  5
9B7
330
9A3
100
AcDbEntity
  8
Defpoints
  6
Continuous
 62
     0
100
AcDbPoint
 10
447.1881131469674
 20
22.59297801365478
 30
0.0
  0
ENDBLK
  5
9A5
330
9A3
100
AcDbEntity
  8
0
100
AcDbBlockEnd
  0
BLOCK
  5
B09
330
B06
100
AcDbEntity
  8
0
 62
   255
100
AcDbBlockBegin
  2
A$C08716F59
 70
     0
 10
0.0
 20
0.0
 30
0.0
  3
A$C08716F59
  1

  0
LINE
  5
B0A
330
B06
100
AcDbEntity
  8
0
  6
Continuous
 62
   255
100
AcDbLine
 10
0.0
 20
12.17339149400141
 30
0.0
 11
182.9999999999895
 21
12.17339149400141
 31
0.0
  0
LINE
  5
B0B
330
B06
100
AcDbEntity
  8
0
  6
Continuous
 62
   255
100
AcDbLine
 10
139.4722028839473
 20
8.115594329334285
 30
0.0
 11
182.9999999999895
 21
8.115594329334271
 31
0.0
  0
LINE
  5
B0C
330
B06
100
AcDbEntity
  8
0
  6
Continuous
 62
   255
100
AcDbLine
 10
139.4722028839473
 20
4.057797164667164
 30
0.0
 11
182.9999999999895
 21
4.05779716466715
 31
0.0
  0
MTEXT
  5
B0D
330
B06
100
AcDbEntity
  8
0
100
AcDbMText
 10
1.226077007665935
 20
16.62833710178165
 30
0.0
 40
2.494547437295386
 41
0.0
 46
0.0
 71
     1
 72
     5
  1
General tolerances ISO 2768-1 (fine)
 73
     1
 44
1.0
  0
MTEXT
  5
B0E
330
B06
100
AcDbEntity
  8
0
100
AcDbMText
 10
1.221253973245666
 20
22.7493147206207
 30
0.0
 40
2.494547437295386
 41
0.0
 46
0.0
 71
     1
 72
     5
  1
{\fISOCPEUR|b0|i0|c0|p34;\W1;Nominal dimension in mm}
  7
SLDTEXTSTYLE0
 73
     1
 44
1.0
1001
AcDbBlockRepETag
1070
     1
1071
        3
1005
0
  0
LINE
  5
B0F
330
B06
100
AcDbEntity
  8
0
  6
Continuous
 62
   255
100
AcDbLine
 10
58.34685140027523
 20
24.34678298800282
 30
0.0
 11
58.34685140027523
 21
0.0000000000000142
 31
0.0
1001
AcDbBlockRepETag
1070
     1
1071
        9
1005
0
  0
LINE
  5
B10
330
B06
100
AcDbEntity
  8
0
  6
Continuous
 62
   255
100
AcDbLine
 10
0.0
 20
24.34678298800282
 30
0.0
 11
58.34685140027528
 21
24.34678298800282
 31
0.0
1001
AcDbBlockRepETag
1070
     1
1071
       10
1005
0
  0
LINE
  5
B11
330
B06
100
AcDbEntity
  8
0
  6
Continuous
 62
   255
100
AcDbLine
 10
58.34685140027523
 20
24.34678298800282
 30
0.0
 11
182.9999999999895
 21
24.34678298800282
 31
0.0
1001
AcDbBlockRepETag
1070
     1
1071
       10
1005
0
  0
LINE
  5
B12
330
B06
100
AcDbEntity
  8
0
  6
Continuous
 62
   255
100
AcDbLine
 10
79.12237616689424
 20
12.17339149400141
 30
0.0
 11
79.12237616689424
 21
24.34678298800282
 31
0.0
1001
AcDbBlockRepETag
1070
     1
1071
       14
1005
0
  0
LINE
  5
B13
330
B06
100
AcDbEntity
  8
0
  6
Continuous
 62
   255
100
AcDbLine
 10
99.89790093351338
 20
12.17339149400141
 30
0.0
 11
99.89790093351338
 21
24.34678298800282
 31
0.0
1001
AcDbBlockRepETag
1070
     1
1071
       14
1005
0
  0
MTEXT
  5
B14
330
B06
100
AcDbEntity
  8
0
100
AcDbMText
 10
168.9677353328222
 20
16.88893582326733
 30
0.0
 40
2.494547437295386
 41
0.0
 46
0.0
 71
     1
 72
     5
  1
%%p 0.3
 73
     1
 44
1.0
1001
AcDbBlockRepETag
1070
     1
1071
       24
1005
0
  0
MTEXT
  5
B15
330
B06
100
AcDbEntity
  8
0
100
AcDbMText
 10
147.9410418409381
 20
16.95985493722907
 30
0.0
 40
2.494547437295386
 41
0.0
 46
0.0
 71
     1
 72
     5
  1
%%p 0.2
 73
     1
 44
1.0
1001
AcDbBlockRepETag
1070
     1
1071
       25
1005
0
  0
MTEXT
  5
B16
330
B06
100
AcDbEntity
  8
0
100
AcDbMText
 10
126.4009074272721
 20
16.87519524493729
 30
0.0
 40
2.494547437295386
 41
0.0
 46
0.0
 71
     1
 72
     5
  1
%%p 0.15
 73
     1
 44
1.0
1001
AcDbBlockRepETag
1070
     1
1071
       26
1005
0
  0
MTEXT
  5
B17
330
B06
100
AcDbEntity
  8
0
100
AcDbMText
 10
105.9463212275484
 20
16.90112504597954
 30
0.0
 40
2.494547437295386
 41
0.0
 46
0.0
 71
     1
 72
     5
  1
%%p 0.1
 73
     1
 44
1.0
1001
AcDbBlockRepETag
1070
     1
1071
       27
1005
0
  0
MTEXT
  5
B18
330
B06
100
AcDbEntity
  8
0
100
AcDbMText
 10
84.98914242355727
 20
17.01437400608699
 30
0.0
 40
2.494547437295386
 41
0.0
 46
0.0
 71
     1
 72
     5
  1
%%p 0.05
 73
     1
 44
1.0
1001
AcDbBlockRepETag
1070
     1
1071
       28
1005
0
  0
TEXT
  5
B19
330
B06
100
AcDbEntity
  8
0
  6
Continuous
100
AcDbText
 10
164.1615107706293
 20
20.37929673764472
 30
0.0
 40
2.494547437295386
  1
400 - 1000
100
AcDbText
1001
AcDbBlockRepETag
1070
     1
1071
       37
1005
0
  0
MTEXT
  5
B1A
330
B06
100
AcDbEntity
  8
0
100
AcDbMText
 10
144.158621869803
 20
22.96803362317041
 30
0.0
 40
2.494547437295386
 41
0.0
 46
0.0
 71
     1
 72
     5
  1
120 - 400
 73
     1
 44
1.0
1001
AcDbBlockRepETag
1070
     1
1071
       29
1005
0
  0
MTEXT
  5
B1B
330
B06
100
AcDbEntity
  8
0
100
AcDbMText
 10
124.3756636317091
 20
22.72513565785164
 30
0.0
 40
2.494547437295386
 41
0.0
 46
0.0
 71
     1
 72
     5
  1
30 - 120
 73
     1
 44
1.0
1001
AcDbBlockRepETag
1070
     1
1071
       30
1005
0
  0
MTEXT
  5
B1C
330
B06
100
AcDbEntity
  8
0
100
AcDbMText
 10
104.9462539288026
 20
22.75232551006025
 30
0.0
 40
2.494547437295386
 41
0.0
 46
0.0
 71
     1
 72
     5
  1
6 - 30
 73
     1
 44
1.0
1001
AcDbBlockRepETag
1070
     1
1071
       31
1005
0
  0
MTEXT
  5
B1D
330
B06
100
AcDbEntity
  8
0
100
AcDbMText
 10
85.07950812762828
 20
22.70556959691623
 30
0.0
 40
2.494547437295386
 41
0.0
 46
0.0
 71
     1
 72
     5
  1
3 - 6
 73
     1
 44
1.0
1001
AcDbBlockRepETag
1070
     1
1071
       32
1005
0
  0
MTEXT
  5
B1E
330
B06
100
AcDbEntity
  8
0
100
AcDbMText
 10
63.01858838858902
 20
22.78653418981571
 30
0.0
 40
2.494547437295386
 41
0.0
 46
0.0
 71
     1
 72
     5
  1
0.5 - 3
 73
     1
 44
1.0
1001
AcDbBlockRepETag
1070
     1
1071
       33
1005
0
  0
MTEXT
  5
B1F
330
B06
100
AcDbEntity
  8
0
100
AcDbMText
 10
63.43852565896918
 20
16.8478471152647
 30
0.0
 40
2.494547437295386
 41
0.0
 46
0.0
 71
     1
 72
     5
  1
%%p 0.05
 73
     1
 44
1.0
1001
AcDbBlockRepETag
1070
     1
1071
       34
1005
0
  0
LINE
  5
B20
330
B06
100
AcDbEntity
  8
0
  6
Continuous
 62
   255
100
AcDbLine
 10
0.0
 20
18.2600872410037
 30
0.0
 11
182.9999999999897
 21
18.260087241002
 31
0.0
  0
LINE
  5
B21
330
B06
100
AcDbEntity
  8
0
  6
Continuous
 62
   255
100
AcDbLine
 10
0.0
 20
0.0
 30
0.0
 11
182.9999999999895
 21
0.0
 31
0.0
  0
LINE
  5
B22
330
B06
100
AcDbEntity
  8
0
  6
Continuous
 62
   255
100
AcDbLine
 10
0.0
 20
6.086695747002281
 30
0.0
 11
139.4722028839473
 21
6.086695747001002
 31
0.0
  0
MTEXT
  5
B23
330
B06
100
AcDbEntity
  8
0
100
AcDbMText
 10
1.201782440435636
 20
10.72252304166511
 30
0.0
 40
2.494547437295386
 41
0.0
 46
0.0
 71
     1
 72
     5
  1
{\fISOCPEUR|b0|i0|c0|p34;\W1;Shorter arm length of angle in mm}
  7
SLDTEXTSTYLE0
 73
     1
 44
1.0
1001
AcDbBlockRepETag
1070
     1
1071
        0
1005
0
  0
MTEXT
  5
B24
330
B06
100
AcDbEntity
  8
0
100
AcDbMText
 10
61.86525580137936
 20
10.6131426958143
 30
0.0
 40
2.494547437295386
 41
0.0
 46
0.0
 71
     1
 72
     5
  1
0 - 10
 73
     1
 44
1.0
1001
AcDbBlockRepETag
1070
     1
1071
       33
1005
0
  0
MTEXT
  5
B25
330
B06
100
AcDbEntity
  8
0
100
AcDbMText
 10
64.26181913627715
 20
4.674455621263291
 30
0.0
 40
2.494547437295386
 41
0.0
 46
0.0
 71
     1
 72
     5
  1
%%P 1%%D
 73
     1
 44
1.0
1001
AcDbBlockRepETag
1070
     1
1071
       34
1005
0
  0
MTEXT
  5
B26
330
B06
100
AcDbEntity
  8
0
100
AcDbMText
 10
77.03151478382711
 20
10.6131426958143
 30
0.0
 40
2.494547437295386
 41
0.0
 46
0.0
 71
     1
 72
     5
  1
10 - 50
 73
     1
 44
1.0
1001
AcDbBlockRepETag
1070
     1
1071
       33
1005
0
  0
MTEXT
  5
B27
330
B06
100
AcDbEntity
  8
0
100
AcDbMText
 10
78.88210132936956
 20
4.674455621263291
 30
0.0
 40
2.494547437295386
 41
0.0
 46
0.0
 71
     1
 72
     5
  1
%%P 0.5%%D
 73
     1
 44
1.0
1001
AcDbBlockRepETag
1070
     1
1071
       34
1005
0
  0
MTEXT
  5
B28
330
B06
100
AcDbEntity
  8
0
100
AcDbMText
 10
92.59088918373743
 20
10.6131426958143
 30
0.0
 40
2.494547437295386
 41
0.0
 46
0.0
 71
     1
 72
     5
  1
50 - 120
 73
     1
 44
1.0
1001
AcDbBlockRepETag
1070
     1
1071
       33
1005
0
  0
MTEXT
  5
B29
330
B06
100
AcDbEntity
  8
0
100
AcDbMText
 10
93.18809940139329
 20
4.674455621263291
 30
0.0
 40
2.494547437295386
 41
0.0
 46
0.0
 71
     1
 72
     5
  1
%%P 0.333%%D
 73
     1
 44
1.0
1001
AcDbBlockRepETag
1070
     1
1071
       34
1005
0
  0
MTEXT
  5
B2A
330
B06
100
AcDbEntity
  8
0
100
AcDbMText
 10
107.5423679565415
 20
10.6131426958143
 30
0.0
 40
2.494547437295386
 41
0.0
 46
0.0
 71
     1
 72
     5
  1
120 - 400
 73
     1
 44
1.0
1001
AcDbBlockRepETag
1070
     1
1071
       33
1005
0
  0
MTEXT
  5
B2B
330
B06
100
AcDbEntity
  8
0
100
AcDbMText
 10
109.7564886466487
 20
4.674455621263291
 30
0.0
 40
2.494547437295386
 41
0.0
 46
0.0
 71
     1
 72
     5
  1
%%P 0.166%%D
 73
     1
 44
1.0
1001
AcDbBlockRepETag
1070
     1
1071
       34
1005
0
  0
MTEXT
  5
B2C
330
B06
100
AcDbEntity
  8
0
100
AcDbMText
 10
123.9025409958209
 20
10.6131426958143
 30
0.0
 40
2.494547437295386
 41
0.0
 46
0.0
 71
     1
 72
     5
  1
{\W0.9;400 - 1000}
 73
     1
 44
1.0
1001
AcDbBlockRepETag
1070
     1
1071
       33
1005
0
  0
MTEXT
  5
B2D
330
B06
100
AcDbEntity
  8
0
100
AcDbMText
 10
125.3174912143491
 20
4.674455621263291
 30
0.0
 40
2.494547437295386
 41
0.0
 46
0.0
 71
     1
 72
     5
  1
%%P 0.083%%D
 73
     1
 44
1.0
1001
AcDbBlockRepETag
1070
     1
1071
       34
1005
0
  0
MTEXT
  5
B2E
330
B06
100
AcDbEntity
  8
0
100
AcDbMText
 10
1.226077007665821
 20
4.82201452720912
 30
0.0
 40
2.494547437295386
 41
0.0
 46
0.0
 71
     1
 72
     5
  1
General tolerances ISO 2768-1 (fine)
 73
     1
 44
1.0
  0
LINE
  5
B2F
330
B06
100
AcDbEntity
  8
0
  6
Continuous
 62
   255
100
AcDbLine
 10
74.57192169700966
 20
12.17339149400141
 30
0.0
 11
74.57192169700966
 21
0.0000000000000142
 31
0.0
1001
AcDbBlockRepETag
1070
     1
1071
        9
1005
0
  0
LINE
  5
B30
330
B06
100
AcDbEntity
  8
0
  6
Continuous
 62
   255
100
AcDbLine
 10
90.79699199374408
 20
12.17339149400141
 30
0.0
 11
90.79699199374408
 21
0.0000000000000142
 31
0.0
1001
AcDbBlockRepETag
1070
     1
1071
        9
1005
0
  0
LINE
  5
B31
330
B06
100
AcDbEntity
  8
0
  6
Continuous
 62
   255
100
AcDbLine
 10
107.0220622904785
 20
12.17339149400141
 30
0.0
 11
107.0220622904785
 21
0.0000000000000142
 31
0.0
1001
AcDbBlockRepETag
1070
     1
1071
        9
1005
0
  0
LINE
  5
B32
330
B06
100
AcDbEntity
  8
0
  6
Continuous
 62
   255
100
AcDbLine
 10
123.2471325872129
 20
12.17339149400141
 30
0.0
 11
123.2471325872129
 21
0.0000000000000142
 31
0.0
1001
AcDbBlockRepETag
1070
     1
1071
        9
1005
0
  0
LINE
  5
B33
330
B06
100
AcDbEntity
  8
0
  6
Continuous
 62
   255
100
AcDbLine
 10
139.4722028839473
 20
12.17339149400141
 30
0.0
 11
139.4722028839473
 21
0.0000000000000142
 31
0.0
1001
AcDbBlockRepETag
1070
     1
1071
        9
1005
0
  0
TOLERANCE
  5
B34
330
B06
100
AcDbEntity
  8
0
100
AcDbFcf
  3
Standard
 10
140.3018912761555
 20
10.16670485428646
 30
0.0
  1
%%v%%v%%vH1%%v%%v
1001
ACAD
1000
DSTYLE
1002
{
1070
    40
1040
0.5
1070
   140
1040
3.24
1070
   147
1040
1.62
1002
}
  0
MTEXT
  5
B35
330
B06
100
AcDbEntity
  8
0
100
AcDbMText
 10
144.6501712219154
 20
11.25538089487233
 30
0.0
 40
1.995637949836309
 41
0.0
 46
0.0
 71
     1
 72
     5
  1
.....
 73
     1
 44
1.0
1001
AcDbBlockRepETag
1070
     1
1071
       34
1005
0
  0
MTEXT
  5
B36
330
B06
100
AcDbEntity
  8
0
100
AcDbMText
 10
148.0466459170135
 20
11.25538089487233
 30
0.0
 40
1.995637949836309
 41
0.0
 46
0.0
 71
     1
 72
     5
  1
Horizontal CTQ Dimensions
 73
     1
 44
1.0
1001
AcDbBlockRepETag
1070
     1
1071
       34
1005
0
  0
TOLERANCE
  5
B37
330
B06
100
AcDbEntity
  8
0
100
AcDbFcf
  3
Standard
 10
140.3018912761555
 20
6.108907689619343
 30
0.0
  1
%%v%%v%%vV1%%v%%v
1001
ACAD
1000
DSTYLE
1002
{
1070
    40
1040
0.5
1070
   140
1040
3.24
1070
   147
1040
1.62
1002
}
  0
MTEXT
  5
B38
330
B06
100
AcDbEntity
  8
0
100
AcDbMText
 10
144.6501712219154
 20
7.197583730205209
 30
0.0
 40
1.995637949836309
 41
0.0
 46
0.0
 71
     1
 72
     5
  1
.....
 73
     1
 44
1.0
1001
AcDbBlockRepETag
1070
     1
1071
       34
1005
0
  0
MTEXT
  5
B39
330
B06
100
AcDbEntity
  8
0
100
AcDbMText
 10
148.0466459170135
 20
7.197583730205209
 30
0.0
 40
1.995637949836309
 41
0.0
 46
0.0
 71
     1
 72
     5
  1
Vertical CTQ Dimensions
 73
     1
 44
1.0
1001
AcDbBlockRepETag
1070
     1
1071
       34
1005
0
  0
TOLERANCE
  5
B3A
330
B06
100
AcDbEntity
  8
0
100
AcDbFcf
  3
Standard
 10
140.3018912761555
 20
2.051110524952221
 30
0.0
  1
%%v%%v%%vS1%%v%%v
1001
ACAD
1000
DSTYLE
1002
{
1070
    40
1040
0.5
1070
   140
1040
3.24
1070
   147
1040
1.62
1002
}
  0
MTEXT
  5
B3B
330
B06
100
AcDbEntity
  8
0
100
AcDbMText
 10
144.6501712219154
 20
3.139786565538088
 30
0.0
 40
1.995637949836309
 41
0.0
 46
0.0
 71
     1
 72
     5
  1
.....
 73
     1
 44
1.0
1001
AcDbBlockRepETag
1070
     1
1071
       34
1005
0
  0
MTEXT
  5
B3C
330
B06
100
AcDbEntity
  8
0
100
AcDbMText
 10
148.0466459170135
 20
3.139786565538088
 30
0.0
 40
1.995637949836309
 41
0.0
 46
0.0
 71
     1
 72
     5
  1
GD&T & Other Features
 73
     1
 44
1.0
1001
AcDbBlockRepETag
1070
     1
1071
       34
1005
0
  0
LINE
  5
B3D
330
B06
100
AcDbEntity
  8
0
  6
Continuous
 62
   255
100
AcDbLine
 10
120.6734257001324
 20
12.17339149400141
 30
0.0
 11
120.6734257001324
 21
24.34678298800282
 31
0.0
1001
AcDbBlockRepETag
1070
     1
1071
       14
1005
0
  0
LINE
  5
B3E
330
B06
100
AcDbEntity
  8
0
  6
Continuous
 62
   255
100
AcDbLine
 10
141.4489504667515
 20
12.17339149400141
 30
0.0
 11
141.4489504667515
 21
24.34678298800282
 31
0.0
1001
AcDbBlockRepETag
1070
     1
1071
       14
1005
0
  0
LINE
  5
B3F
330
B06
100
AcDbEntity
  8
0
  6
Continuous
 62
   255
100
AcDbLine
 10
162.2244752333704
 20
12.17339149400141
 30
0.0
 11
162.2244752333704
 21
24.34678298800282
 31
0.0
1001
AcDbBlockRepETag
1070
     1
1071
       14
1005
0
  0
ENDBLK
  5
B40
330
B06
100
AcDbEntity
  8
0
 62
   255
100
AcDbBlockEnd
  0
BLOCK
  5
B44
330
B41
100
AcDbEntity
  8
0
100
AcDbBlockBegin
  2
A$C058C21FF
 70
     0
 10
0.0
 20
0.0
 30
0.0
  3
A$C058C21FF
  1

  0
LINE
  5
B45
330
B41
100
AcDbEntity
  8
0
  6
Continuous
 62
   255
100
AcDbLine
 10
392.9999664095999
 20
-277.0
 30
0.0
 11
392.9999664095999
 21
0.0
 31
0.0
  0
LINE
  5
B46
330
B41
100
AcDbEntity
  8
0
  6
Continuous
 62
   255
100
AcDbLine
 10
10.0
 20
-277.0
 30
0.0
 11
392.9999664095999
 21
-277.0
 31
0.0
  0
LINE
  5
B47
330
B41
100
AcDbEntity
  8
0
  6
Continuous
 62
   255
100
AcDbLine
 10
0.0
 20
0.0
 30
0.0
 11
0.0
 21
-222.0000000000001
 31
0.0
  0
LINE
  5
B48
330
B41
100
AcDbEntity
  8
0
  6
Continuous
 62
   255
100
AcDbLine
 10
0.0
 20
0.0
 30
0.0
 11
392.9999664095999
 21
0.0
 31
0.0
  0
LINE
  5
B49
330
B41
100
AcDbEntity
  8
1
 62
     2
100
AcDbLine
 10
212.9999664095992
 20
-240.7736213082135
 30
0.0
 11
212.9999664095992
 21
-233.1532223398645
 31
0.0
1001
AcDbBlockRepETag
1070
     1
1071
     2034
1005
0
  0
LINE
  5
B4A
330
B41
100
AcDbEntity
  8
1
 62
     2
100
AcDbLine
 10
377.9999664095851
 20
-240.7736213082135
 30
0.0
 11
212.9999664095992
 21
-240.7736213082135
 31
0.0
1001
AcDbBlockRepETag
1070
     1
1071
     2035
1005
0
  0
LINE
  5
B4B
330
B41
100
AcDbEntity
  8
1
 62
     2
100
AcDbLine
 10
377.9999664095851
 20
-233.1532223398645
 30
0.0
 11
377.9999664095851
 21
-240.7736213082135
 31
0.0
1001
AcDbBlockRepETag
1070
     1
1071
     2036
1005
0
  0
LINE
  5
B4C
330
B41
100
AcDbEntity
  8
1
 62
     2
100
AcDbLine
 10
212.9999664095992
 20
-233.1532223398645
 30
0.0
 11
377.9999664095851
 21
-233.1532223398645
 31
0.0
1001
AcDbBlockRepETag
1070
     1
1071
     2037
1005
0
  0
TEXT
  5
B4D
330
B41
100
AcDbEntity
  8
1
 62
     3
100
AcDbText
 10
214.4930914539439
 20
-238.5485951401706
 30
0.0
 40
3.299999999999733
  1
Technology: Description - no. x.xxx.xx.xxxx
100
AcDbText
1001
AcDbBlockRepETag
1070
     1
1071
     2042
1005
0
  0
LINE
  5
B4E
330
B41
100
AcDbEntity
  8
0
  6
Continuous
 62
   255
100
AcDbLine
 10
10.0
 20
-222.0
 30
0.0
 11
10.0
 21
-277.0
 31
0.0
1001
AcDbBlockRepETag
1070
     1
1071
     1946
1005
0
  0
LINE
  5
B4F
330
B41
100
AcDbEntity
  8
0
  6
Continuous
 62
   255
100
AcDbLine
 10
10.0
 20
-222.0
 30
0.0
 11
0.0
 21
-222.0
 31
0.0
  0
TEXT
  5
B50
330
B41
100
AcDbEntity
  8
1
 62
     4
100
AcDbText
 10
2.500000000000001
 20
-237.5000000000001
 30
0.0
 40
5.0
  1
Drg. No.
 50
270.0
 72
     1
 11
5.0
 21
-249.5000000000001
 31
0.0
100
AcDbText
 73
     2
  0
LINE
  5
B51
330
B41
100
AcDbEntity
  8
0
  6
CENTER
 62
     2
 48
0.2
370
     9
100
AcDbLine
 10
386.4999681855563
 20
-259.423144560453
 30
0.0
 11
386.4999681855563
 21
-252.4231464730208
 31
0.0
1001
AcDbBlockRepETag
1070
     1
1071
        1
1005
0
  0
LINE
  5
B52
330
B41
100
AcDbEntity
  8
0
  6
Continuous
 62
   255
100
AcDbLine
 10
383.8712940050734
 20
-262.0000040983596
 30
0.0
 11
383.8712940050734
 21
-273.0000010928959
 31
0.0
1001
AcDbBlockRepETag
1070
     1
1071
        5
1005
0
  0
LINE
  5
B53
330
B41
100
AcDbEntity
  8
0
  6
CENTER
 62
     2
 48
0.2
370
     9
100
AcDbLine
 10
371.4999722839166
 20
-255.9231455167369
 30
0.0
 11
380.4999698249001
 21
-255.9231455167369
 31
0.0
1001
AcDbBlockRepETag
1070
     1
1071
        9
1005
0
  0
LINE
  5
B54
330
B41
100
AcDbEntity
  8
0
  6
Continuous
 62
   255
100
AcDbLine
 10
379.9999699615125
 20
-252.8231463637312
 30
0.0
 11
371.9999721473041
 21
-254.4231459265728
 31
0.0
1001
AcDbBlockRepETag
1070
     1
1071
       10
1005
0
  0
LINE
  5
B55
330
B41
100
AcDbEntity
  8
0
  6
Continuous
 62
   255
100
AcDbLine
 10
379.9999699615125
 20
-259.0231446697427
 30
0.0
 11
379.9999699615125
 21
-252.8231463637312
 31
0.0
1001
AcDbBlockRepETag
1070
     1
1071
       11
1005
0
  0
LINE
  5
B56
330
B41
100
AcDbEntity
  8
0
  6
Continuous
 62
   255
100
AcDbLine
 10
371.9999721473041
 20
-257.423145106901
 30
0.0
 11
379.9999699615125
 21
-259.0231446697427
 31
0.0
1001
AcDbBlockRepETag
1070
     1
1071
       12
1005
0
  0
LINE
  5
B57
330
B41
100
AcDbEntity
  8
0
  6
Continuous
 62
   255
100
AcDbLine
 10
371.9999721473041
 20
-254.4231459265728
 30
0.0
 11
371.9999721473041
 21
-257.423145106901
 31
0.0
1001
AcDbBlockRepETag
1070
     1
1071
       13
1005
0
  0
LINE
  5
B58
330
B41
100
AcDbEntity
  8
0
  6
Continuous
 62
   255
100
AcDbLine
 10
352.9999773385603
 20
-262.0000040983596
 30
0.0
 11
352.9999773385601
 21
-250.0008059763035
 31
0.0
1001
AcDbBlockRepETag
1070
     1
1071
       19
1005
0
  0
LINE
  5
B59
330
B41
100
AcDbEntity
  8
0
  6
Continuous
 62
   255
100
AcDbLine
 10
318.9999866281746
 20
-262.0000040983596
 30
0.0
 11
318.9999866281746
 21
-273.0000010928959
 31
0.0
1001
AcDbBlockRepETag
1070
     1
1071
       20
1005
0
  0
LINE
  5
B5A
330
B41
100
AcDbEntity
  8
0
  6
Continuous
 62
   255
100
AcDbLine
 10
352.9999773385601
 20
-262.0000040983594
 30
0.0
 11
392.9999664096001
 21
-262.0000040983596
 31
0.0
1001
AcDbBlockRepETag
1070
     1
1071
       21
1005
0
  0
LINE
  5
B5B
330
B41
100
AcDbEntity
  8
0
  6
Continuous
 62
   255
100
AcDbLine
 10
245.0000068467473
 20
-262.0000040983596
 30
0.0
 11
245.0000068467473
 21
-273.0000010928959
 31
0.0
1001
AcDbBlockRepETag
1070
     1
1071
       22
1005
0
  0
LINE
  5
B5C
330
B41
100
AcDbEntity
  8
0
  6
Continuous
 62
   255
100
AcDbLine
 10
257.6666700525782
 20
-256.0008059763035
 30
0.0
 11
257.6666700525779
 21
-273.0000010928959
 31
0.0
1001
AcDbBlockRepETag
1070
     1
1071
       22
1005
0
  0
LINE
  5
B5D
330
B41
100
AcDbEntity
  8
0
  6
Continuous
 62
   255
100
AcDbLine
 10
210.000016409587
 20
-233.1532223398645
 30
0.0
 11
210.000016409587
 21
-277.0
 31
0.0
1001
AcDbBlockRepETag
1070
     1
1071
       26
1005
0
  0
LINE
  5
B5E
330
B41
100
AcDbEntity
  8
0
  6
Continuous
 62
   255
100
AcDbLine
 10
367.9999732402
 20
-250.0008059763035
 30
0.0
 11
367.9999732402
 21
-262.0000040983596
 31
0.0
1001
AcDbBlockRepETag
1070
     1
1071
       27
1005
0
  0
LINE
  5
B5F
330
B41
100
AcDbEntity
  8
0
  6
Continuous
 62
   255
100
AcDbLine
 10
185.0000232401867
 20
-257.5000053278675
 30
0.0
 11
185.0000232401869
 21
-277.0
 31
0.0
1001
AcDbBlockRepETag
1070
     1
1071
       29
1005
0
  0
LINE
  5
B60
330
B41
100
AcDbEntity
  8
0
  6
Continuous
 62
     2
370
     9
100
AcDbLine
 10
27.00001640958703
 20
-266.5000028688518
 30
0.0
 11
210.000016409587
 21
-266.5000028688518
 31
0.0
1001
AcDbBlockRepETag
1070
     1
1071
       30
1005
0
  0
LINE
  5
B61
330
B41
100
AcDbEntity
  8
0
  6
Continuous
 62
   255
100
AcDbLine
 10
27.00001640958703
 20
-271.0000016393439
 30
0.0
 11
210.000016409587
 21
-271.0000016393439
 31
0.0
1001
AcDbBlockRepETag
1070
     1
1071
       31
1005
0
  0
LINE
  5
B62
330
B41
100
AcDbEntity
  8
0
  6
Continuous
 62
   255
100
AcDbLine
 10
27.00001640958703
 20
-277.0
 30
0.0
 11
27.00001640958681
 21
-233.1532223398645
 31
0.0
1001
AcDbBlockRepETag
1070
     1
1071
       32
1005
0
  0
LINE
  5
B63
330
B41
100
AcDbEntity
  8
0
  6
Continuous
 62
     2
370
     9
100
AcDbLine
 10
210.000016409587
 20
-262.0000040983596
 30
0.0
 11
27.00001640958703
 21
-262.0000040983596
 31
0.0
1001
AcDbBlockRepETag
1070
     1
1071
       33
1005
0
  0
LINE
  5
B64
330
B41
100
AcDbEntity
  8
0
  6
Continuous
 62
   255
100
AcDbLine
 10
160.0000300707861
 20
-257.5000053278675
 30
0.0
 11
160.0000300707863
 21
-277.0
 31
0.0
1001
AcDbBlockRepETag
1070
     1
1071
       34
1005
0
  0
LINE
  5
B65
330
B41
100
AcDbEntity
  8
0
  6
Continuous
 62
   255
100
AcDbLine
 10
135.0000369013846
 20
-257.5000053278675
 30
0.0
 11
135.0000369013846
 21
-277.0
 31
0.0
1001
AcDbBlockRepETag
1070
     1
1071
       35
1005
0
  0
LINE
  5
B66
330
B41
100
AcDbEntity
  8
0
  6
Continuous
 62
   255
100
AcDbLine
 10
33.90006452432795
 20
-257.5000053278675
 30
0.0
 11
33.90006452432795
 21
-277.0
 31
0.0
1001
AcDbBlockRepETag
1070
     1
1071
       36
1005
0
  0
LINE
  5
B67
330
B41
100
AcDbEntity
  8
0
  6
CENTER
 62
     2
 48
0.2
370
     9
100
AcDbLine
 10
382.8999691691633
 20
-255.9231455167369
 30
0.0
 11
389.9999672292731
 21
-255.9231455167369
 31
0.0
1001
AcDbBlockRepETag
1070
     1
1071
       37
1005
0
  0
LINE
  5
B68
330
B41
100
AcDbEntity
  8
0
  6
Continuous
 62
   255
100
AcDbLine
 10
392.9999664096001
 20
-273.0000010928959
 30
0.0
 11
210.000016409587
 21
-273.0000010928959
 31
0.0
1001
AcDbBlockRepETag
1070
     1
1071
       38
1005
0
  0
CIRCLE
  5
B69
330
B41
100
AcDbEntity
  8
0
  6
Continuous
 62
   255
100
AcDbCircle
 10
386.4999681855563
 20
-255.9231455167369
 30
0.0
 40
3.099999153005696
1001
AcDbBlockRepETag
1070
     1
1071
       39
1005
0
  0
CIRCLE
  5
B6A
330
B41
100
AcDbEntity
  8
0
  6
Continuous
 62
   255
100
AcDbCircle
 10
386.4999681855563
 20
-255.9231455167369
 30
0.0
 40
1.499999590164046
1001
AcDbBlockRepETag
1070
     1
1071
       40
1005
0
  0
MTEXT
  5
B6B
330
B41
100
AcDbEntity
  8
0
 62
   255
100
AcDbMText
 10
356.8782500675213
 20
-252.7695148487513
 30
0.0
 40
1.999999453552061
 41
0.0
 46
0.0
 71
     1
 72
     5
  1
Scale
 73
     1
 44
1.0
1001
AcDbBlockRepETag
1070
     1
1071
       46
1005
0
  0
MTEXT
  5
B6C
330
B41
100
AcDbEntity
  8
0
 62
   255
100
AcDbMText
 10
384.7939704696303
 20
-264.9195248175762
 30
0.0
 40
4.508695652173912
 41
0.0
 46
0.0
 71
     1
 72
     5
  1
{\fISOCPEUR|b0|i0|c0|p34;\W1;A3}
  7
SLDTEXTSTYLE0
 73
     1
 44
1.0
1001
AcDbBlockRepETag
1070
     1
1071
       50
1005
0
  0
TEXT
  5
B6D
330
B41
100
AcDbEntity
  8
0
  6
Continuous
 62
   255
100
AcDbText
 10
213.5367887974839
 20
-275.600626952933
 30
0.0
 40
1.72391304347826
  1
This drawing remains our property. Without written approval it may not be copied, reproduced or communicated or made available to third parties.
100
AcDbText
1001
AcDbBlockRepETag
1070
     1
1071
       51
1005
0
  0
MTEXT
  5
B6E
330
B41
100
AcDbEntity
  8
0
 62
   255
100
AcDbMText
 10
28.38043281742353
 20
-272.4012695934838
 30
0.0
 40
1.999999453552061
 41
0.0
 46
0.0
 71
     1
 72
     5
  1
No.
 73
     1
 44
1.0
1001
AcDbBlockRepETag
1070
     1
1071
       52
1005
0
  0
MTEXT
  5
B6F
330
B41
100
AcDbEntity
  8
0
 62
   255
100
AcDbMText
 10
62.8916152131303
 20
-272.5568974675624
 30
0.0
 40
1.999999453552061
 41
0.0
 46
0.0
 71
     1
 72
     5
  1
Modifications
 73
     1
 44
1.0
1001
AcDbBlockRepETag
1070
     1
1071
       53
1005
0
  0
MTEXT
  5
B70
330
B41
100
AcDbEntity
  8
0
 62
   255
100
AcDbMText
 10
113.8766488820463
 20
-272.4090513971577
 30
0.0
 40
1.999999453552061
 41
0.0
 46
0.0
 71
     1
 72
     5
  1
Communication
 73
     1
 44
1.0
1001
AcDbBlockRepETag
1070
     1
1071
       54
1005
0
  0
MTEXT
  5
B71
330
B41
100
AcDbEntity
  8
0
 62
   255
100
AcDbMText
 10
143.9645104743263
 20
-272.4579818509886
 30
0.0
 40
1.999999453552061
 41
0.0
 46
0.0
 71
     1
 72
     5
  1
Drawn
 73
     1
 44
1.0
1001
AcDbBlockRepETag
1070
     1
1071
       55
1005
0
  0
MTEXT
  5
B72
330
B41
100
AcDbEntity
  8
0
 62
   255
100
AcDbMText
 10
191.619644925147
 20
-272.537497781863
 30
0.0
 40
1.999999453552061
 41
0.0
 46
0.0
 71
     1
 72
     5
  1
Approved
 73
     1
 44
1.0
1001
AcDbBlockRepETag
1070
     1
1071
       56
1005
0
  0
MTEXT
  5
B73
330
B41
100
AcDbEntity
  8
0
 62
   255
100
AcDbMText
 10
336.1114445882952
 20
-264.9508328035223
 30
0.0
 40
4.508695652173912
 41
0.0
 46
0.0
 71
     1
 72
     5
  1
{\fISOCPEUR|b0|i0|c0|p34;\W1;Drg. No.}
  7
SLDTEXTSTYLE0
 73
     1
 44
1.0
1001
AcDbBlockRepETag
1070
     1
1071
       58
1005
0
  0
MTEXT
  5
B74
330
B41
100
AcDbEntity
  8
0
 62
   255
100
AcDbMText
 10
266.8224219787517
 20
-264.9557813549702
 30
0.0
 40
4.508695652173912
 41
0.0
 46
0.0
 71
     1
 72
     5
  1
{\fISOCPEUR|b0|i0|c0|p34;\W1;Description}
  7
SLDTEXTSTYLE0
 73
     1
 44
1.0
1001
AcDbBlockRepETag
1070
     1
1071
       59
1005
0
  0
MTEXT
  5
B75
330
B41
100
AcDbEntity
  8
0
 62
   255
100
AcDbMText
 10
358.084726654057
 20
-256.6405790150835
 30
0.0
 40
2.499999316940077
 41
0.0
 46
0.0
 71
     1
 72
     5
  1
X:1
 73
     1
 44
1.0
1001
AcDbBlockRepETag
1070
     1
1071
       60
1005
0
  0
MTEXT
  5
B76
330
B41
100
AcDbEntity
  8
0
 62
     1
100
AcDbMText
 10
214.8544231156891
 20
-262.8294794084584
 30
0.0
 40
3.999998907104123
 41
0.0
 46
0.0
 71
     1
 72
     5
  1
{\fISOCPEUR|b0|i0|c0|p34;\W1;Portescap}
  7
SLDTEXTSTYLE0
 73
     1
 44
1.0
1001
AcDbBlockRepETag
1070
     1
1071
       65
1005
0
  0
LINE
  5
B77
330
B41
100
AcDbEntity
  8
0
  6
Continuous
 62
   255
100
AcDbLine
 10
110.0000437319843
 20
-257.5000053278675
 30
0.0
 11
110.0000437319845
 21
-277.0
 31
0.0
1001
AcDbBlockRepETag
1070
     1
1071
       66
1005
0
  0
MTEXT
  5
B78
330
B41
100
AcDbEntity
  8
0
 62
   255
100
AcDbMText
 10
167.3053807416859
 20
-272.4579818509886
 30
0.0
 40
1.999999453552061
 41
0.0
 46
0.0
 71
     1
 72
     5
  1
Checked
 73
     1
 44
1.0
1001
AcDbBlockRepETag
1070
     1
1071
       67
1005
0
  0
LINE
  5
B79
330
B41
100
AcDbEntity
  8
0
  6
Continuous
 62
   255
100
AcDbLine
 10
374.7426216005465
 20
-262.0000040983596
 30
0.0
 11
374.7426216005463
 21
-277.0
 31
0.0
1001
AcDbBlockRepETag
1070
     1
1071
        5
1005
0
  0
MTEXT
  5
B7A
330
B41
100
AcDbEntity
  8
0
 62
   255
100
AcDbMText
 10
376.1389629657326
 20
-264.9195248175762
 30
0.0
 40
4.508695652173912
 41
0.0
 46
0.0
 71
     1
 72
     5
  1
{\fISOCPEUR|b0|i0|c0|p34;\W1;00}
  7
SLDTEXTSTYLE0
 73
     1
 44
1.0
1001
AcDbBlockRepETag
1070
     1
1071
       50
1005
0
  0
TEXT
  5
B7B
330
B41
100
AcDbEntity
  8
0
  6
Continuous
 62
   255
100
AcDbText
 10
377.1554068563314
 20
-275.600626952933
 30
0.0
 40
1.72391304347826
  1
Sheet 1 of 1
100
AcDbText
1001
AcDbBlockRepETag
1070
     1
1071
       51
1005
0
  0
INSERT
  5
B7C
330
B41
100
AcDbEntity
  8
0
 62
   255
100
AcDbBlockReference
  2
A$C08716F59
 10
27.00001640958681
 20
-257.5000053278673
 30
0.0
  0
LINE
  5
B7D
330
B41
100
AcDbEntity
  8
0
  6
Continuous
 62
   255
100
AcDbLine
 10
245.0000068467473
 20
-269.0000021857919
 30
0.0
 11
210.000016409587
 21
-269.0000021857919
 31
0.0
1001
AcDbBlockRepETag
1070
     1
1071
       38
1005
0
  0
TEXT
  5
B7E
330
B41
100
AcDbEntity
  8
0
  6
Continuous
 62
   255
100
AcDbText
 10
213.5367887974839
 20
-271.7908875797558
 30
0.0
 40
1.72391304347826
  1
PI/R&D/F/18 Rev 00
100
AcDbText
1001
AcDbBlockRepETag
1070
     1
1071
       51
1005
0
  0
MTEXT
  5
B7F
330
B41
100
AcDbEntity
  8
0
  6
Continuous
 62
   255
100
AcDbMText
 10
211.8594586296933
 20
-254.9213169641921
 30
0.0
 40
2.499999316940077
 41
122.5201940634145
 46
0.0
 71
     7
 72
     1
  1
All dimensions and tolerances are in mm unless & otherwise specified.
  7
style1
 73
     1
 44
1.0
1001
AcDbBlockRepETag
1070
     1
1071
       64
1005
0
  0
LINE
  5
B80
330
B41
100
AcDbEntity
  8
0
  6
Continuous
 62
   255
100
AcDbLine
 10
210.000016409587
 20
-262.0008059763035
 30
0.0
 11
257.6666700525782
 21
-262.0008059763035
 31
0.0
1001
AcDbBlockRepETag
1070
     1
1071
        3
1005
0
  0
LINE
  5
B81
330
B41
100
AcDbEntity
  8
0
  6
Continuous
 62
   255
100
AcDbLine
 10
210.000016409587
 20
-250.0008059763035
 30
0.0
 11
392.9999664096001
 21
-250.0008059763035
 31
0.0
1001
AcDbBlockRepETag
1070
     1
1071
        3
1005
0
  0
LINE
  5
B82
330
B41
100
AcDbEntity
  8
0
  6
Continuous
 62
   255
100
AcDbLine
 10
210.000016409587
 20
-256.0008059763035
 30
0.0
 11
352.9999773385601
 21
-256.0008059763033
 31
0.0
1001
AcDbBlockRepETag
1070
     1
1071
        3
1005
0
  0
ENDBLK
  5
B83
330
B41
100
AcDbEntity
  8
0
100
AcDbBlockEnd
  0
BLOCK
  5
B85
330
B84
100
AcDbEntity
  8
0
 62
   255
100
AcDbBlockBegin
  2
_Dot
 70
     0
 10
0.0
 20
0.0
 30
0.0
  3
_Dot
  1

  0
LWPOLYLINE
  5
B86
330
B84
100
AcDbEntity
  8
0
  6
ByBlock
 62
     0
100
AcDbPolyline
 90
        2
 70
     1
 43
0.5
 10
-0.25
 20
0.0
 42
1.0
 10
0.25
 20
0.0
 42
1.0
  0
LINE
  5
B87
330
B84
100
AcDbEntity
  8
0
  6
ByBlock
 62
     0
370
    -2
100
AcDbLine
 10
-0.5
 20
0.0
 30
0.0
 11
-1.0
 21
0.0
 31
0.0
  0
ENDBLK
  5
B88
330
B84
100
AcDbEntity
  8
0
 62
   255
100
AcDbBlockEnd
  0
BLOCK
  5
B8C
330
B89
100
AcDbEntity
  8
0
 62
     1
100
AcDbBlockBegin
  2
A$C53560A2D
 70
     0
 10
0.0
 20
0.0
 30
0.0
  3
A$C53560A2D
  1

  0
HATCH
  5
B8D
330
B89
100
AcDbEntity
  8
0
 62
     1
100
AcDbHatch
 10
0.0
 20
0.0
 30
0.0
210
0.0
220
0.0
230
1.0
  2
SOLID
 70
     1
 71
     0
 91
        1
 92
        7
 72
     0
 73
     1
 93
        8
 10
10.40639350736074
 20
-3.429580398453509
 10
9.8090548631219
 20
-3.429580398453495
 10
10.52161847102905
 20
-4.26222404987655
 10
9.562357823425486
 20
-5.017847907603865
 10
-0.1711005509629331
 20
-5.017847907603837
 10
-0.2076899027981653
 20
-5.086662246294196
 10
10.08230402145517
 20
-5.08666224629421
 10
11.12297052199432
 20
-4.266913789282654
 97
        0
 75
     0
 76
     1
 47
0.0237982239116982
 98
        1
 10
10.7687455105808
 20
-4.08916775948434
450
        0
451
        0
460
0.0
461
0.0
452
        0
462
0.0
453
        0
470

1001
ACAD
1010
0.0
1020
0.0
1030
0.0
  0
HATCH
  5
B8E
330
B89
100
AcDbEntity
  8
0
 62
     3
100
AcDbHatch
 10
0.0
 20
0.0
 30
0.0
210
0.0
220
0.0
230
1.0
  2
SOLID
 70
     1
 71
     0
 91
       11
 92
        7
 72
     0
 73
     1
 93
        7
 10
1.491379020905242
 20
-2.772946682047759
 10
0.995217842298814
 20
-2.772946682047745
 10
-0.0788238170088675
 20
-4.792918690406423
 10
0.3668365951625674
 20
-4.792918690406409
 10
1.182574505556942
 20
-3.200386665146865
 10
1.390757209580954
 20
-4.792918690406395
 10
1.800184269306669
 20
-4.792918690406423
 97
        0
 92
        7
 72
     1
 73
     1
 93
       17
 10
3.143752721671432
 20
-3.44625859844703
 42
0.0
 10
2.816525880617575
 20
-3.446258598447073
 42
0.0
 10
2.903841276975811
 20
-3.02813051420415
 42
0.0
 10
2.485710676876635
 20
-3.16864853873723
 42
0.0
 10
2.427738889498414
 20
-3.44625859844703
 42
0.0
 10
2.156102845410657
 20
-3.44625859844703
 42
0.0
 10
2.108120116639497
 20
-3.699877260551375
 42
0.0
 10
2.37477709420176
 20
-3.699877260551375
 42
0.0
 10
2.197341484950982
 20
-4.54956488114216
 42
0.2314303255157967
 10
2.229132535142696
 20
-4.7375738797856
 42
0.2425677700453667
 10
2.562303738103139
 20
-4.840349188736823
 42
0.0
 10
2.853955581357979
 20
-4.793092213000164
 42
0.0
 10
2.904529503834567
 20
-4.550908380596794
 42
0.0
 10
2.695000291198482
 20
-4.550908380596808
 42
-0.4760549668863254
 10
2.615472085050157
 20
-4.409046856609066
 42
0.0
 10
2.763564085320922
 20
-3.699877260551403
 42
0.0
 10
3.095769992900443
 20
-3.699877260551403
 42
0.0
 97
        0
 92
        7
 72
     1
 73
     1
 93
       15
 10
3.902783104379238
 20
-3.703880319999356
 42
-0.2432435292258966
 10
4.1605810466001
 20
-3.728705991916442
 42
-0.2718544080322752
 10
4.214411423471688
 20
-3.906094591215776
 42
0.0
 10
4.02511501860107
 20
-4.8125801186696
 42
0.0
 10
4.425338595686184
 20
-4.812580118669615
 42
0.0
 10
4.618640162861424
 20
-3.843814600173104
 42
0.1442413094369809
 10
4.566882367577647
 20
-3.577394862249789
 42
0.1968270941560047
 10
4.312159611171807
 20
-3.438006898026017
 42
0.1671955009294615
 10
3.972511122600565
 20
-3.482973954396257
 42
0.0984224330473735
 10
3.770569059989043
 20
-3.640211074021848
 42
0.0
 10
3.934493518721126
 20
-2.855224430784346
 42
0.0
 10
3.53819104308144
 20
-2.85522443078436
 42
0.0
 10
3.129447181708883
 20
-4.812580118669629
 42
0.0
 10
3.525749657348569
 20
-4.812580118669629
 42
0.0
 10
3.717837455778578
 20
-3.892727417841854
 42
-0.1681505465182262
 97
        0
 92
        7
 72
     0
 73
     1
 93
        4
 10
5.6096725110404
 20
-2.855224430784303
 10
5.213370035400828
 20
-2.855224430784332
 10
4.804626174028157
 20
-4.8125801186696
 10
5.200928649667844
 20
-4.812580118669572
 97
        0
 92
        7
 72
     1
 73
     1
 93
       11
 10
6.952147240856731
 20
-3.566721980052093
 42
0.2003410362329726
 10
6.566896274917382
 20
-3.394380580118323
 42
0.1459636918781203
 10
6.221479418630622
 20
-3.437237506523857
 42
0.1329827864341785
 10
5.809957292924593
 20
-3.742009934847047
 42
0.1181218657170001
 10
5.613713825998559
 20
-4.246632228047602
 42
0.1453361361738481
 10
5.692211359379541
 20
-4.650330645507111
 42
0.1097723388638702
 10
5.927703226469532
 20
-4.840965604516455
 42
0.0801939741507773
 10
6.283139453583146
 20
-4.8800657463362
 42
0.1155273130323037
 10
6.714757499090808
 20
-4.716668932821008
 42
0.1356436716811775
 10
6.998631608933408
 20
-4.369984603229582
 42
0.1011385320105559
 10
7.113012828394801
 20
-3.973673703014938
 42
0.236317674944661
 97
        0
 92
       22
 72
     1
 73
     1
 93
       10
 10
6.677527194323886
 20
-4.138839615245061
 42
-0.0759023682782946
 10
6.566982042139159
 20
-4.423877995135413
 42
-0.2200816587143609
 10
6.300965840747892
 20
-4.599996581122823
 42
-0.1552209024106451
 10
6.095458780820706
 20
-4.534235363900407
 42
-0.2297088204471921
 10
6.019242210293441
 20
-4.338318807139089
 42
-0.0336344069359854
 10
6.05840294270996
 20
-4.066696381694796
 42
-0.0476503727704049
 10
6.143663624704515
 20
-3.862071844709262
 42
-0.1164757194866423
 10
6.339107330614126
 20
-3.691551275783936
 42
-0.2102767852864467
 10
6.596864975328571
 20
-3.697069810236698
 42
-0.1775077200810246
 10
6.697202341601666
 20
-3.873877008374407
 42
-0.1210907755229007
 97
        0
 92
        7
 72
     1
 73
     1
 93
       15
 10
7.838830780765817
 20
-3.892727417841783
 42
-0.1681505465179636
 10
8.02377642936608
 20
-3.703880319999441
 42
-0.2432435292261799
 10
8.281574371587225
 20
-3.72870599191637
 42
-0.2718544080325296
 10
8.335404748458813
 20
-3.906094591215861
 42
0.0
 10
8.146108343588196
 20
-4.812580118669558
 42
0.0
 10
8.546331920673253
 20
-4.812580118669586
 42
0.0
 10
8.739633487848607
 20
-3.843814600173075
 42
0.1869559109727573
 10
8.708571975710412
 20
-3.55414738959827
 42
0.2282764169136722
 10
8.434241485182553
 20
-3.416409065064058
 42
0.1548211452724478
 10
8.093504447587747
 20
-3.482973954396229
 42
0.0984224330473456
 10
7.891562384976282
 20
-3.640211074021777
 42
0.0
 10
7.935547234632508
 20
-3.429580398453509
 42
0.0
 10
7.539244758992822
 20
-3.429580398453509
 42
0.0
 10
7.250440506696122
 20
-4.812580118669558
 42
0.0
 10
7.646742982335752
 20
-4.812580118669572
 42
0.0
 97
        0
 92
        7
 72
     0
 73
     1
 93
        4
 10
9.625982522468632
 20
-3.429580398453524
 10
9.229680046829003
 20
-3.429580398453509
 10
8.940875794532303
 20
-4.812580118669558
 10
9.337178270172046
 20
-4.8125801186696
 97
        0
 92
        7
 72
     0
 73
     1
 93
        4
 10
9.745922131544659
 20
-2.855224430784318
 10
9.34961965590503
 20
-2.855224430784332
 10
9.27698869286246
 20
-3.203033026980861
 10
9.673291168502146
 20
-3.203033026980861
 97
        0
 92
        7
 72
     0
 73
     1
 93
        4
 10
12.03240295060681
 20
-3.429580398453509
 10
11.44364835907379
 20
-3.429580398453495
 10
10.87989922911413
 20
-3.888285852559178
 10
11.10949294143216
 20
-4.156570318460708
 97
        0
 92
        7
 72
     0
 73
     1
 93
        4
 10
11.05743489431273
 20
-4.407247884316163
 10
10.70348876138359
 20
-4.686056509542012
 10
11.02721331439767
 20
-5.064334590103314
 10
11.61975957304332
 20
-5.064334590103271
 97
        0
 75
     0
 76
     1
 47
0.0237982239116982
 98
       11
 10
1.427474595215414
 20
-3.466921616530399
 10
2.540276924309466
 20
-3.529962242013326
 10
3.403077140388461
 20
-3.872105201460513
 10
5.128677572546564
 20
-4.050614633904856
 10
6.869154243317836
 20
-3.872105201460513
 10
6.869154243317836
 20
-3.872105201460513
 10
7.657574707896685
 20
-4.18449635002436
 10
9.221850949254132
 20
-4.184360945182802
 10
9.578826617252673
 20
-3.161037064634811
 10
11.41130113635171
 20
-3.803588918816572
 10
11.19711616802232
 20
-4.874509392213795
450
        0
451
        0
460
0.0
461
0.0
452
        0
462
0.0
453
        0
470

1001
ACAD
1010
0.0
1020
0.0
1030
0.0
  0
ENDBLK
  5
B8F
330
B89
100
AcDbEntity
  8
0
 62
     1
100
AcDbBlockEnd
  0
BLOCK
  5
B93
330
B90
100
AcDbEntity
  8
0
 62
     1
100
AcDbBlockBegin
  2
A$C25042B23
 70
     0
 10
0.0
 20
0.0
 30
0.0
  3
A$C25042B23
  1

  0
INSERT
  5
B94
330
B90
100
AcDbEntity
  8
0
 62
     1
100
AcDbBlockReference
  2
A$C53560A2D
 10
0.0000000000001137
 20
0.0
 30
0.0
  0
ENDBLK
  5
B95
330
B90
100
AcDbEntity
  8
0
 62
     1
100
AcDbBlockEnd
  0
BLOCK
  5
B97
330
B96
100
AcDbEntity
  8
0
100
AcDbBlockBegin
  2
_FILLED
 70
     0
 10
0.0
 20
0.0
 30
0.0
  3
_FILLED
  1

  0
SOLID
  5
B98
330
B96
100
AcDbEntity
  8
0
  6
ByBlock
 62
     0
100
AcDbTrace
 10
0.0
 20
0.0
 30
0.0
 11
-1.0
 21
0.1875
 31
0.0
 12
-1.0
 22
-0.1875
 32
0.0
 13
-1.0
 23
-0.1875
 33
0.0
  0
ENDBLK
  5
B99
330
B96
100
AcDbEntity
  8
0
  6
ByBlock
 62
     0
100
AcDbBlockEnd
  0
BLOCK
  5
B9B
330
B9A
100
AcDbEntity
  8
0
100
AcDbBlockBegin
  2
*D72
 70
     1
 10
0.0
 20
0.0
 30
0.0
  3
*D72
  1

  0
LINE
  5
B9C
330
B9A
100
AcDbEntity
  8
0
  6
Continuous
 62
     0
370
    -2
100
AcDbLine
 10
1802.555021500383
 20
-480.9336425058048
 30
0.0
 11
1802.555021500383
 21
-488.3557146914714
 31
0.0
  0
LINE
  5
B9D
330
B9A
100
AcDbEntity
  8
0
  6
Continuous
 62
     0
370
    -2
100
AcDbLine
 10
1847.055021181983
 20
-481.2336410539381
 30
0.0
 11
1847.055021181983
 21
-488.3557146914714
 31
0.0
  0
LINE
  5
B9E
330
B9A
100
AcDbEntity
  8
0
  6
Continuous
 62
     0
370
    -2
100
AcDbLine
 10
1806.555021500383
 20
-488.1757146914714
 30
0.0
 11
1843.055021181983
 21
-488.1757146914714
 31
0.0
  0
INSERT
  5
B9F
330
B9A
100
AcDbEntity
  8
0
  6
Continuous
 62
     0
370
    -2
100
AcDbBlockReference
  2
_FILLED
 10
1802.555021500383
 20
-488.1757146914714
 30
0.0
 41
4.0
 42
4.0
 43
4.0
 50
180.0
  0
INSERT
  5
BA0
330
B9A
100
AcDbEntity
  8
0
  6
Continuous
 62
     0
370
    -2
100
AcDbBlockReference
  2
_FILLED
 10
1847.055021181983
 20
-488.1757146914714
 30
0.0
 41
4.0
 42
4.0
 43
4.0
  0
MTEXT
  5
BA1
330
B9A
100
AcDbEntity
  8
0
  6
Continuous
 62
     5
100
AcDbMText
 10
1824.805021341183
 20
-486.6857146914714
 30
0.0
 40
2.799999999999999
 41
0.0
 46
0.0
 71
     5
 72
     1
  1
\A1;29.67±0.3
 73
     1
 44
1.0
  0
POINT
  5
BA2
330
B9A
100
AcDbEntity
  8
Defpoints
  6
Continuous
 62
     0
100
AcDbPoint
 10
1802.555021500383
 20
-480.8711425058048
 30
0.0
  0
POINT
  5
BA3
330
B9A
100
AcDbEntity
  8
Defpoints
  6
Continuous
 62
     0
100
AcDbPoint
 10
1847.055021181983
 20
-481.1711410539381
 30
0.0
  0
POINT
  5
BA4
330
B9A
100
AcDbEntity
  8
Defpoints
  6
Continuous
 62
     0
100
AcDbPoint
 10
1847.055021181983
 20
-488.1757146914714
 30
0.0
  0
ENDBLK
  5
BA5
330
B9A
100
AcDbEntity
  8
0
100
AcDbBlockEnd
  0
BLOCK
  5
BA9
330
BA6
100
AcDbEntity
  8
0
100
AcDbBlockBegin
  2
A$C274A2516
 70
     0
 10
0.0
 20
0.0
 30
0.0
  3
A$C274A2516
  1

  0
DIMENSION
  5
BAA
330
BA6
100
AcDbEntity
  8
0
  6
Continuous
 62
     2
100
AcDbDimension
  2
*D72
 10
49.41318594722497
 20
1.185548929283584
 30
0.0
 11
27.1631861064252
 21
1.185548929283584
 31
0.0
 12
-1797.641835234758
 22
489.361263620755
 32
0.0
 70
   128
 71
     0
 72
     0
 41
0.0
 42
29.66666645588333
 73
     0
 74
     0
 75
     0
  3
DIMSTYLE_8
100
AcDbAlignedDimension
 13
4.913186265624972
 23
8.490121114950227
 33
0.0
 14
49.41318594722497
 24
8.19012256681691
 34
0.0
100
AcDbRotatedDimension
  0
LINE
  5
BAB
330
BA6
100
AcDbEntity
  8
0
  6
Continuous
 62
     7
100
AcDbLine
 10
4.913186265624972
 20
30.62336891321689
 30
0.0
 11
4.913186265624972
 21
9.023539983350246
 31
0.0
  0
LINE
  5
BAC
330
BA6
100
AcDbEntity
  8
0
  6
Continuous
 62
     7
100
AcDbLine
 10
5.113185485291523
 20
30.82345444728361
 30
0.0
 11
5.113185485291523
 21
8.823454449283588
 31
0.0
  0
LINE
  5
BAD
330
BA6
100
AcDbEntity
  8
0
  6
Continuous
 62
     7
100
AcDbLine
 10
4.913187226958598
 20
30.62345408315025
 30
0.0
 11
5.11318663495831
 21
30.82345346661691
 31
0.0
  0
LINE
  5
BAE
330
BA6
100
AcDbEntity
  8
0
  6
Continuous
 62
     7
100
AcDbLine
 10
4.913187226958598
 20
9.023454813416947
 30
0.0
 11
5.11318663495831
 21
8.823455429950229
 31
0.0
  0
LWPOLYLINE
  5
BAF
330
BA6
100
AcDbEntity
  8
0
  6
Continuous
 62
     7
100
AcDbPolyline
 90
        3
 70
     0
 43
0.0
 10
8.213186495558602
 20
10.47664903488356
 10
8.175811462891488
 20
10.67089466321692
 10
8.163188469091892
 20
10.85374136828358
  0
LINE
  5
BB0
330
BA6
100
AcDbEntity
  8
0
  6
Continuous
 62
     7
100
AcDbLine
 10
7.713187482491775
 20
30.82345444728361
 30
0.0
 11
7.713187482491775
 21
8.823454449283588
 31
0.0
  0
LINE
  5
BB1
330
BA6
100
AcDbEntity
  8
0
  6
Continuous
 62
     7
100
AcDbLine
 10
7.913186265624972
 20
30.62337005035028
 30
0.0
 11
7.913186265624972
 21
9.023538846216922
 31
0.0
  0
LINE
  5
BB2
330
BA6
100
AcDbEntity
  8
0
  6
Continuous
 62
     7
100
AcDbLine
 10
8.213190692692023
 20
8.823454448283598
 30
0.0
 11
8.213188470958357
 21
10.47664542421694
 31
0.0
  0
LINE
  5
BB3
330
BA6
100
AcDbEntity
  8
0
  6
Continuous
 62
     7
100
AcDbLine
 10
8.21318847575867
 20
29.17026347688358
 30
0.0
 11
8.213190692692023
 21
30.8234544482836
 31
0.0
  0
LINE
  5
BB4
330
BA6
100
AcDbEntity
  8
0
  6
Continuous
 62
     7
100
AcDbLine
 10
8.213188774424907
 20
11.17667091475027
 30
0.0
 11
8.213186622558623
 21
28.47024295441696
 31
0.0
  0
LINE
  5
BB5
330
BA6
100
AcDbEntity
  8
0
  6
Continuous
 62
     7
100
AcDbLine
 10
9.163186265624972
 20
28.92428466195026
 30
0.0
 11
9.163186265624972
 21
28.58013880015028
 31
0.0
  0
LINE
  5
BB6
330
BA6
100
AcDbEntity
  8
0
  6
Continuous
 62
     7
100
AcDbLine
 10
9.163186265624972
 20
11.06677009641692
 30
0.0
 11
9.163186265624972
 21
10.72262423461694
 31
0.0
  0
LINE
  5
BB7
330
BA6
100
AcDbEntity
  8
0
  6
Continuous
 62
     7
100
AcDbLine
 10
10.11318626562524
 20
29.46918227648359
 30
0.0
 11
10.11318626562524
 21
28.6785390486836
 31
0.0
  0
LINE
  5
BB8
330
BA6
100
AcDbEntity
  8
0
  6
Continuous
 62
     7
100
AcDbLine
 10
10.11318626562524
 20
28.58013880015028
 30
0.0
 11
10.11318626562524
 21
28.03524118561694
 31
0.0
  0
LINE
  5
BB9
330
BA6
100
AcDbEntity
  8
0
  6
Continuous
 62
     7
100
AcDbLine
 10
10.11318626562524
 20
11.61166771095025
 30
0.0
 11
10.11318626562524
 21
11.06677009641692
 31
0.0
  0
LINE
  5
BBA
330
BA6
100
AcDbEntity
  8
0
  6
Continuous
 62
     7
100
AcDbLine
 10
10.11318626562524
 20
10.1777266200836
 30
0.0
 11
10.11318626562524
 21
10.96836984788359
 31
0.0
  0
LINE
  5
BBB
330
BA6
100
AcDbEntity
  8
0
  6
Continuous
 62
     7
100
AcDbLine
 10
10.71318626562515
 20
10.1777266200836
 30
0.0
 11
10.71318626562515
 21
10.96836984788359
 31
0.0
  0
LINE
  5
BBC
330
BA6
100
AcDbEntity
  8
0
  6
Continuous
 62
     7
100
AcDbLine
 10
10.71318626562515
 20
11.06677009641692
 30
0.0
 11
10.71318626562515
 21
11.61166771095025
 31
0.0
  0
LINE
  5
BBD
330
BA6
100
AcDbEntity
  8
0
  6
Continuous
 62
     7
100
AcDbLine
 10
10.71318626562515
 20
28.03524118561694
 30
0.0
 11
10.71318626562515
 21
28.58013880015028
 31
0.0
  0
LINE
  5
BBE
330
BA6
100
AcDbEntity
  8
0
  6
Continuous
 62
     7
100
AcDbLine
 10
10.71318626562515
 20
28.6785390486836
 30
0.0
 11
10.71318626562515
 21
29.46918227648359
 31
0.0
  0
LWPOLYLINE
  5
BBF
330
BA6
100
AcDbEntity
  8
0
  6
Continuous
 62
     7
100
AcDbPolyline
 90
        3
 70
     0
 43
0.0
 10
8.163188469091892
 20
28.79316752828362
 10
8.17583730295837
 20
28.9762081701503
 10
8.213186495224817
 20
29.17025986061691
  0
LWPOLYLINE
  5
BC0
330
BA6
100
AcDbEntity
  8
0
  6
Continuous
 62
     7
100
AcDbPolyline
 90
        3
 70
     0
 43
0.0
 10
8.163188469091892
 20
10.85374136828358
 10
8.175650471758217
 20
11.02190699701691
 10
8.213186521692023
 20
11.17666580955023
  0
LWPOLYLINE
  5
BC1
330
BA6
100
AcDbEntity
  8
0
  6
Continuous
 62
     7
100
AcDbPolyline
 90
        4
 70
     0
 43
0.0
 10
8.21318847575867
 20
29.17026347688358
 10
8.377277491491895
 20
29.35729460461693
 10
8.610037768691654
 20
29.51662803501694
 10
8.764919697225195
 20
29.58531678115026
  0
LINE
  5
BC2
330
BA6
100
AcDbEntity
  8
0
  6
Continuous
 62
     7
100
AcDbLine
 10
7.913186265624972
 20
30.52345381181692
 30
0.0
 11
8.213190692692023
 21
30.82345822101689
 31
0.0
  0
LINE
  5
BC3
330
BA6
100
AcDbEntity
  8
0
  6
Continuous
 62
     7
100
AcDbLine
 10
7.913186265624972
 20
9.123458754616933
 30
0.0
 11
8.213190692692023
 21
8.823454448283598
 31
0.0
  0
LWPOLYLINE
  5
BC4
330
BA6
100
AcDbEntity
  8
0
  6
Continuous
 62
     7
100
AcDbPolyline
 90
        3
 70
     0
 43
0.0
 10
8.213186301024961
 20
28.4702436676169
 10
8.175676291091804
 20
28.62482283895025
 10
8.163188469091892
 20
28.79316752828362
  0
LINE
  5
BC5
330
BA6
100
AcDbEntity
  8
0
  6
Continuous
 62
     7
100
AcDbLine
 10
11.66318626562497
 20
10.72262423461694
 30
0.0
 11
11.66318626562497
 21
11.06677009641692
 31
0.0
  0
LINE
  5
BC6
330
BA6
100
AcDbEntity
  8
0
  6
Continuous
 62
     7
100
AcDbLine
 10
11.66318626562497
 20
28.58013880015028
 30
0.0
 11
11.66318626562497
 21
28.92428466195026
 31
0.0
  0
LWPOLYLINE
  5
BC7
330
BA6
100
AcDbEntity
  8
0
  6
Continuous
 62
     7
100
AcDbPolyline
 90
        6
 70
     0
 43
0.0
 10
12.71318626562515
 20
10.8127819610836
 10
12.67443109789155
 20
10.5988917218836
 10
12.5559666740919
 20
10.39820804301695
 10
12.36716347122501
 20
10.22491104148361
 10
12.12976482955855
 20
10.08585990861689
 10
12.05166921982481
 20
10.05490441075022
  0
LWPOLYLINE
  5
BC8
330
BA6
100
AcDbEntity
  8
0
  6
Continuous
 62
     7
100
AcDbPolyline
 90
        4
 70
     0
 43
0.0
 10
12.71318626562515
 20
28.8341269354836
 10
12.66649113462517
 20
28.58702137181694
 10
12.53107403609192
 20
28.3411981496169
 10
12.31666526162507
 20
28.10848064181693
  0
LINE
  5
BC9
330
BA6
100
AcDbEntity
  8
0
  6
Continuous
 62
     7
100
AcDbLine
 10
12.31666526162507
 20
28.10848064181693
 30
0.0
 11
12.03189305542537
 21
27.89767473495027
 31
0.0
  0
LWPOLYLINE
  5
BCA
330
BA6
100
AcDbEntity
  8
0
  6
Continuous
 62
     7
100
AcDbPolyline
 90
       21
 70
     0
 43
0.0
 10
12.01340827709191
 20
27.88626525815022
 10
12.17785728969193
 20
27.99867631768359
 10
12.31844215395858
 20
28.1212776510169
 10
12.43326170075852
 20
28.25241128548356
 10
12.52076319275829
 20
28.39030386348355
 10
12.57976332229191
 20
28.53309062461693
 10
12.60946421382505
 20
28.67884062275022
 10
12.60946421382505
 20
28.82558283928359
 10
12.57976332229191
 20
28.97133283748355
 10
12.52076319275829
 20
29.1141195985503
 10
12.43326170075852
 20
29.25201217661692
 10
12.31844215395858
 20
29.3831458110169
 10
12.17785728969193
 20
29.50574714435021
 10
12.01340827709191
 20
29.61815820388358
 10
11.82731900695853
 20
29.71885882295027
 10
11.62210601735842
 20
29.80648719828361
 10
11.40054446209205
 20
29.87985830655026
 10
11.16563058095835
 20
29.93797992935026
 10
10.92054118129181
 20
29.98006607141696
 10
10.66859067669202
 20
30.00554758995026
 10
10.41318626562497
 20
30.01407989101693
  0
LINE
  5
BCB
330
BA6
100
AcDbEntity
  8
0
  6
Continuous
 62
     7
100
AcDbLine
 10
12.03189305542537
 20
27.89767473495027
 30
0.0
 11
11.97977812602539
 21
27.86622437968361
 31
0.0
  0
LINE
  5
BCC
330
BA6
100
AcDbEntity
  8
0
  6
Continuous
 62
     7
100
AcDbLine
 10
11.98388822782499
 20
27.86866520768359
 30
0.0
 11
12.01340827709191
 21
27.88626525815022
 31
0.0
  0
LWPOLYLINE
  5
BCD
330
BA6
100
AcDbEntity
  8
0
  6
Continuous
 62
     7
100
AcDbPolyline
 90
        4
 70
     0
 43
0.0
 10
8.769914140758373
 20
10.05817810475025
 10
8.601865428958717
 20
10.13479476535025
 10
8.377584375958576
 20
10.28934797315026
 10
8.213188470958357
 20
10.47664542421694
  0
LINE
  5
BCE
330
BA6
100
AcDbEntity
  8
0
  6
Continuous
 62
     7
100
AcDbLine
 10
11.98388822782499
 20
11.7782436888836
 30
0.0
 11
11.82731900695853
 21
11.86134425741693
 31
0.0
  0
LINE
  5
BCF
330
BA6
100
AcDbEntity
  8
0
  6
Continuous
 62
     7
100
AcDbLine
 10
12.01340827709191
 20
11.76064363841692
 30
0.0
 11
11.98388822782499
 21
11.7782436888836
 31
0.0
  0
LINE
  5
BD0
330
BA6
100
AcDbEntity
  8
0
  6
Continuous
 62
     7
100
AcDbLine
 10
11.98019621955836
 20
11.78028050148356
 30
0.0
 11
12.0739060570254
 21
11.72254413188358
 31
0.0
  0
LWPOLYLINE
  5
BD1
330
BA6
100
AcDbEntity
  8
0
  6
Continuous
 62
     7
100
AcDbPolyline
 90
        5
 70
     0
 43
0.0
 10
12.0739060570254
 20
11.72254413188358
 10
12.34085617735855
 20
11.51650455168357
 10
12.53970442229183
 20
11.29378797568358
 10
12.6674515269583
 20
11.05729195595023
 10
12.71318626562515
 20
10.8127819610836
  0
LWPOLYLINE
  5
BD2
330
BA6
100
AcDbEntity
  8
0
  6
Continuous
 62
     7
100
AcDbPolyline
 90
        3
 70
     0
 43
0.0
 10
8.213188774424907
 20
11.17667091475027
 10
8.378099694958564
 20
11.40762558268358
 10
8.611091128691896
 20
11.62239074941692
  0
LINE
  5
BD3
330
BA6
100
AcDbEntity
  8
0
  6
Continuous
 62
     7
100
AcDbLine
 10
11.82731900695853
 20
27.78556463915021
 30
0.0
 11
11.98388822782499
 21
27.86866520768359
 31
0.0
  0
LWPOLYLINE
  5
BD4
330
BA6
100
AcDbEntity
  8
0
  6
Continuous
 62
     7
100
AcDbPolyline
 90
        8
 70
     0
 43
0.0
 10
11.97977812602539
 20
27.86622437968361
 10
11.68366860235846
 20
27.71753302475025
 10
11.26093544162495
 20
27.57328605748359
 10
10.77782911862505
 20
27.48484447441689
 10
10.27437961162513
 20
27.46812908748359
 10
9.778741541358158
 20
27.52504237128363
 10
9.329011910491772
 20
27.64532754215025
 10
8.951168479492025
 20
27.80833628295028
  0
LINE
  5
BD5
330
BA6
100
AcDbEntity
  8
0
  6
Continuous
 62
     7
100
AcDbLine
 10
11.62210601735842
 20
27.69793626375025
 30
0.0
 11
11.82731900695853
 21
27.78556463915021
 31
0.0
  0
LWPOLYLINE
  5
BD6
330
BA6
100
AcDbEntity
  8
0
  6
Continuous
 62
     7
100
AcDbPolyline
 90
        6
 70
     0
 43
0.0
 10
11.62210601735842
 20
11.94897263281694
 10
11.40054446209205
 20
12.0223437410836
 10
11.16563058095835
 20
12.0804653638836
 10
10.92054118129181
 20
12.12255150595024
 10
10.66859067669202
 20
12.14803302441692
 10
10.41318626562497
 20
12.1565653254836
  0
LINE
  5
BD7
330
BA6
100
AcDbEntity
  8
0
  6
Continuous
 62
     7
100
AcDbLine
 10
11.82731900695853
 20
11.86134425741693
 30
0.0
 11
11.62210601735842
 21
11.94897263281694
 31
0.0
  0
LINE
  5
BD8
330
BA6
100
AcDbEntity
  8
0
  6
Continuous
 62
     7
100
AcDbLine
 10
7.913185039758445
 20
9.023454759816956
 30
0.0
 11
7.713185951958166
 21
8.8234557004169
 31
0.0
  0
LWPOLYLINE
  5
BD9
330
BA6
100
AcDbEntity
  8
0
  6
Continuous
 62
     7
100
AcDbPolyline
 90
       21
 70
     0
 43
0.0
 10
41.41318626562497
 20
9.632829005550263
 10
41.66859067669202
 20
9.641361306616943
 10
41.9205411812918
 20
9.66684282515024
 10
42.16563058095835
 20
9.708928967216934
 10
42.40054446209206
 20
9.767050590016935
 10
42.62210601735842
 20
9.840421698283591
 10
42.82731900695853
 20
9.92805007361693
 10
43.01340827709191
 20
10.02875069268361
 10
43.17785728969193
 20
10.14116175221693
 10
43.31844215395858
 20
10.26376308555024
 10
43.43326170075852
 20
10.39489671995028
 10
43.5207631927583
 20
10.53278929801695
 10
43.57976332229191
 20
10.67557605908359
 10
43.60946421382505
 20
10.82132605728361
 10
43.60946421382505
 20
10.96806827381692
 10
43.57976332229191
 20
11.11381827195026
 10
43.5207631927583
 20
11.25660503308359
 10
43.43326170075852
 20
11.39449761108358
 10
43.31844215395858
 20
11.5256312455503
 10
43.17785728969193
 20
11.64823257888361
 10
43.01340827709191
 20
11.76064363841692
  0
LWPOLYLINE
  5
BDA
330
BA6
100
AcDbEntity
  8
0
  6
Continuous
 62
     7
100
AcDbPolyline
 90
       21
 70
     0
 43
0.0
 10
10.41318626562497
 20
9.632829005550263
 10
10.66859067669202
 20
9.641361306616943
 10
10.92054118129181
 20
9.66684282515024
 10
11.16563058095835
 20
9.708928967216934
 10
11.40054446209205
 20
9.767050590016935
 10
11.62210601735842
 20
9.840421698283591
 10
11.82731900695853
 20
9.92805007361693
 10
12.01340827709191
 20
10.02875069268361
 10
12.17785728969193
 20
10.14116175221693
 10
12.31844215395858
 20
10.26376308555024
 10
12.43326170075852
 20
10.39489671995028
 10
12.52076319275829
 20
10.53278929801695
 10
12.57976332229191
 20
10.67557605908359
 10
12.60946421382505
 20
10.82132605728361
 10
12.60946421382505
 20
10.96806827381692
 10
12.57976332229191
 20
11.11381827195026
 10
12.52076319275829
 20
11.25660503308359
 10
12.43326170075852
 20
11.39449761108358
 10
12.31844215395858
 20
11.5256312455503
 10
12.17785728969193
 20
11.64823257888361
 10
12.01340827709191
 20
11.76064363841692
  0
LINE
  5
BDB
330
BA6
100
AcDbEntity
  8
02___PRT_ALL_AXES
  6
Continuous
 62
     7
100
AcDbLine
 10
49.21318626562515
 20
8.323454448283598
 30
0.0
 11
44.11318626562525
 21
8.323454448283598
 31
0.0
  0
LINE
  5
BDC
330
BA6
100
AcDbEntity
  8
02___PRT_ALL_AXES
  6
Continuous
 62
     7
100
AcDbLine
 10
43.61319140775822
 20
8.823454448283598
 30
0.0
 11
8.213190692692023
 21
8.823454448283598
 31
0.0
  0
LINE
  5
BDD
330
BA6
100
AcDbEntity
  8
02___PRT_ALL_AXES
  6
Continuous
 62
     7
100
AcDbLine
 10
5.113185653358414
 20
8.823454448283598
 30
0.0
 11
7.713187204091809
 21
8.823454448283598
 31
0.0
  0
LINE
  5
BDE
330
BA6
100
AcDbEntity
  8
0
  6
Continuous
 62
     7
100
AcDbLine
 10
10.11318626562524
 20
10.1777266200836
 30
0.0
 11
10.71318626562515
 21
10.1777266200836
 31
0.0
  0
LINE
  5
BDF
330
BA6
100
AcDbEntity
  8
0
  6
Continuous
 62
     7
100
AcDbLine
 10
41.11318626562524
 20
10.1777266200836
 30
0.0
 11
41.71318626562515
 21
10.1777266200836
 31
0.0
  0
LINE
  5
BE0
330
BA6
100
AcDbEntity
  8
0
  6
Continuous
 62
     7
100
AcDbLine
 10
10.11318626562524
 20
10.42347223335025
 30
0.0
 11
10.71318626562515
 21
10.42347223335025
 31
0.0
  0
LINE
  5
BE1
330
BA6
100
AcDbEntity
  8
0
  6
Continuous
 62
     7
100
AcDbLine
 10
41.11318626562524
 20
10.42347223335025
 30
0.0
 11
41.71318626562515
 21
10.42347223335025
 31
0.0
  0
LINE
  5
BE2
330
BA6
100
AcDbEntity
  8
0
  6
Continuous
 62
     7
100
AcDbLine
 10
9.163186265624972
 20
10.72262423461694
 30
0.0
 11
10.11318626562524
 21
10.72262423461694
 31
0.0
  0
LINE
  5
BE3
330
BA6
100
AcDbEntity
  8
0
  6
Continuous
 62
     7
100
AcDbLine
 10
10.71318626562515
 20
10.72262423461694
 30
0.0
 11
11.66318626562497
 21
10.72262423461694
 31
0.0
  0
LINE
  5
BE4
330
BA6
100
AcDbEntity
  8
0
  6
Continuous
 62
     7
100
AcDbLine
 10
40.16318626562497
 20
10.72262423461694
 30
0.0
 11
41.11318626562524
 21
10.72262423461694
 31
0.0
  0
LINE
  5
BE5
330
BA6
100
AcDbEntity
  8
0
  6
Continuous
 62
     7
100
AcDbLine
 10
41.71318626562515
 20
10.72262423461694
 30
0.0
 11
42.66318626562497
 21
10.72262423461694
 31
0.0
  0
LINE
  5
BE6
330
BA6
100
AcDbEntity
  8
0
  6
Continuous
 62
     7
100
AcDbLine
 10
9.163186265624972
 20
10.96836984788359
 30
0.0
 11
10.11318626562524
 21
10.96836984788359
 31
0.0
  0
LINE
  5
BE7
330
BA6
100
AcDbEntity
  8
0
  6
Continuous
 62
     7
100
AcDbLine
 10
10.71318626562515
 20
10.96836984788359
 30
0.0
 11
11.66318626562497
 21
10.96836984788359
 31
0.0
  0
LINE
  5
BE8
330
BA6
100
AcDbEntity
  8
0
  6
Continuous
 62
     7
100
AcDbLine
 10
40.16318626562497
 20
10.96836984788359
 30
0.0
 11
41.11318626562524
 21
10.96836984788359
 31
0.0
  0
LINE
  5
BE9
330
BA6
100
AcDbEntity
  8
0
  6
Continuous
 62
     7
100
AcDbLine
 10
41.71318626562515
 20
10.96836984788359
 30
0.0
 11
42.66318626562497
 21
10.96836984788359
 31
0.0
  0
LINE
  5
BEA
330
BA6
100
AcDbEntity
  8
0
  6
Continuous
 62
     7
100
AcDbLine
 10
42.66318626562497
 20
11.06677009641692
 30
0.0
 11
41.71318626562515
 21
11.06677009641692
 31
0.0
  0
LINE
  5
BEB
330
BA6
100
AcDbEntity
  8
0
  6
Continuous
 62
     7
100
AcDbLine
 10
41.11318626562524
 20
11.06677009641692
 30
0.0
 11
40.16318626562497
 21
11.06677009641692
 31
0.0
  0
LINE
  5
BEC
330
BA6
100
AcDbEntity
  8
0
  6
Continuous
 62
     7
100
AcDbLine
 10
11.66318626562497
 20
11.06677009641692
 30
0.0
 11
10.71318626562515
 21
11.06677009641692
 31
0.0
  0
LINE
  5
BED
330
BA6
100
AcDbEntity
  8
0
  6
Continuous
 62
     7
100
AcDbLine
 10
10.11318626562524
 20
11.06677009641692
 30
0.0
 11
9.163186265624972
 21
11.06677009641692
 31
0.0
  0
LINE
  5
BEE
330
BA6
100
AcDbEntity
  8
0
  6
Continuous
 62
     7
100
AcDbLine
 10
41.71318626562515
 20
11.61166771095025
 30
0.0
 11
41.11318626562524
 21
11.61166771095025
 31
0.0
  0
LINE
  5
BEF
330
BA6
100
AcDbEntity
  8
0
  6
Continuous
 62
     7
100
AcDbLine
 10
10.71318626562515
 20
11.61166771095025
 30
0.0
 11
10.11318626562524
 21
11.61166771095025
 31
0.0
  0
LWPOLYLINE
  5
BF0
330
BA6
100
AcDbEntity
  8
0
  6
Continuous
 62
     7
100
AcDbPolyline
 90
       21
 70
     0
 43
0.0
 10
10.41318626562497
 20
9.632829005550263
 10
10.15778185455838
 20
9.641361306616943
 10
9.905831350024982
 20
9.66684282515024
 10
9.660741950292049
 20
9.708928967216934
 10
9.42582806922519
 20
9.767050590016935
 10
9.20426651389198
 20
9.840421698283591
 10
8.999053524291866
 20
9.92805007361693
 10
8.812964254158487
 20
10.02875069268361
 10
8.64851524155847
 20
10.14116175221693
 10
8.507930377291813
 20
10.26376308555024
 10
8.393110830491878
 20
10.39489671995028
 10
8.305609338558497
 20
10.53278929801695
 10
8.246609209024882
 20
10.67557605908359
 10
8.21690831742535
 20
10.82132605728361
 10
8.21690831742535
 20
10.96806827381692
 10
8.246609209024882
 20
11.11381827195026
 10
8.305609338558497
 20
11.25660503308359
 10
8.393110830491878
 20
11.39449761108358
 10
8.507930377291813
 20
11.5256312455503
 10
8.64851524155847
 20
11.64823257888361
 10
8.812964254158487
 20
11.76064363841692
  0
LWPOLYLINE
  5
BF1
330
BA6
100
AcDbEntity
  8
0
  6
Continuous
 62
     7
100
AcDbPolyline
 90
       10
 70
     0
 43
0.0
 10
41.41318626562497
 20
9.632829005550263
 10
41.15778185455837
 20
9.641361306616943
 10
40.90583135002498
 20
9.66684282515024
 10
40.66074195029204
 20
9.708928967216934
 10
40.42582806922519
 20
9.767050590016935
 10
40.20426651389198
 20
9.840421698283591
 10
39.99905352429187
 20
9.92805007361693
 10
39.81296425415849
 20
10.02875069268361
 10
39.64851524155847
 20
10.14116175221693
 10
39.50793037729182
 20
10.26376308555024
  0
LINE
  5
BF2
330
BA6
100
AcDbEntity
  8
0
  6
Continuous
 62
     7
100
AcDbLine
 10
7.913185039758445
 20
30.62345413675024
 30
0.0
 11
7.713185951958166
 21
30.82345319615024
 31
0.0
  0
LINE
  5
BF3
330
BA6
100
AcDbEntity
  8
0
  6
Continuous
 62
     7
100
AcDbLine
 10
8.611091128691896
 20
11.62239074941692
 30
0.0
 11
8.846855555958427
 21
11.78085906961695
 31
0.0
  0
LINE
  5
BF4
330
BA6
100
AcDbEntity
  8
0
  6
Continuous
 62
     7
100
AcDbLine
 10
8.812964254158487
 20
11.76064363841692
 30
0.0
 11
8.842484303424953
 21
11.7782436888836
 31
0.0
  0
LWPOLYLINE
  5
BF5
330
BA6
100
AcDbEntity
  8
0
  6
Continuous
 62
     7
100
AcDbPolyline
 90
       10
 70
     0
 43
0.0
 10
8.846855555958427
 20
11.78085906961695
 10
8.909865266558426
 20
11.81646682221691
 10
9.268224909958462
 20
11.9796173426169
 10
9.669420999091926
 20
12.09903001928359
 10
10.09046133275842
 20
12.16631348475022
 10
10.51934873755863
 20
12.17995032475028
 10
10.94555498662521
 20
12.13972932795025
 10
11.35820502309161
 20
12.04646390721694
 10
11.74243219462505
 20
11.90343902028354
 10
11.98019621955836
 20
11.78028050148356
  0
LINE
  5
BF6
330
BA6
100
AcDbEntity
  8
0
  6
Continuous
 62
     7
100
AcDbLine
 10
42.40054446209206
 20
27.6245651554836
 30
0.0
 11
42.62210601735842
 21
27.69793626375025
 31
0.0
  0
LINE
  5
BF7
330
BA6
100
AcDbEntity
  8
02___PRT_ALL_AXES
  6
Continuous
 62
     7
100
AcDbLine
 10
59.21318626562515
 20
12.8234544482836
 30
0.0
 11
49.41318626562497
 21
12.8234544482836
 31
0.0
  0
LINE
  5
BF8
330
BA6
100
AcDbEntity
  8
0
  6
Continuous
 62
     7
100
AcDbLine
 10
75.81325582075852
 20
13.55505757315023
 30
0.0
 11
76.2641004612251
 21
13.55505757315023
 31
0.0
  0
LINE
  5
BF9
330
BA6
100
AcDbEntity
  8
02___PRT_ALL_AXES
  6
Continuous
 62
     7
100
AcDbLine
 10
62.71318626562515
 20
15.3234544482836
 30
0.0
 11
59.61318626562524
 21
15.3234544482836
 31
0.0
  0
LINE
  5
BFA
330
BA6
100
AcDbEntity
  8
02___PRT_ALL_AXES
  6
Continuous
 62
     7
100
AcDbLine
 10
64.84464883915871
 20
15.3234544482836
 30
0.0
 11
72.54464883915852
 21
15.3234544482836
 31
0.0
  0
LWPOLYLINE
  5
BFB
330
BA6
100
AcDbEntity
  8
02___PRT_ALL_AXES
  6
Continuous
 62
     7
100
AcDbPolyline
 90
        6
 70
     0
 43
0.0
 10
39.77301669529197
 20
10.05605731708357
 10
39.64442661809199
 20
10.11192043455025
 10
39.4255164399583
 20
10.25008211135025
 10
39.2544540539584
 20
10.41807823615028
 10
39.14794905195822
 20
10.60985040681692
 10
39.11318626562525
 20
10.8127819610836
  0
LINE
  5
BFC
330
BA6
100
AcDbEntity
  8
0
  6
Continuous
 62
     7
100
AcDbLine
 10
8.999053524291866
 20
27.78556463915021
 30
0.0
 11
8.842484303424953
 21
27.86866520768359
 31
0.0
  0
LINE
  5
BFD
330
BA6
100
AcDbEntity
  8
0
  6
Continuous
 62
     7
100
AcDbLine
 10
8.951168479492025
 20
27.80833628295028
 30
0.0
 11
8.846290845491694
 21
27.86628302555028
 31
0.0
  0
LINE
  5
BFE
330
BA6
100
AcDbEntity
  8
0
  6
Continuous
 62
     7
100
AcDbLine
 10
8.842484303424953
 20
27.86866520768359
 30
0.0
 11
8.812964254158487
 21
27.88626525815022
 31
0.0
  0
LWPOLYLINE
  5
BFF
330
BA6
100
AcDbEntity
  8
0
  6
Continuous
 62
     7
100
AcDbPolyline
 90
        4
 70
     0
 43
0.0
 10
8.846290845491694
 20
27.86628302555028
 10
8.637064237225331
 20
28.0047897214169
 10
8.387900010158318
 20
28.22842845488361
 10
8.213186622558623
 20
28.47024295441696
  0
LWPOLYLINE
  5
C00
330
BA6
100
AcDbEntity
  8
0
  6
Continuous
 62
     7
100
AcDbPolyline
 90
       21
 70
     0
 43
0.0
 10
8.812964254158487
 20
27.88626525815022
 10
8.64851524155847
 20
27.99867631768359
 10
8.507930377291813
 20
28.1212776510169
 10
8.393110830491878
 20
28.25241128548356
 10
8.305609338558497
 20
28.39030386348355
 10
8.246609209024882
 20
28.53309062461693
 10
8.21690831742535
 20
28.67884062275022
 10
8.21690831742535
 20
28.82558283928359
 10
8.246609209024882
 20
28.97133283748355
 10
8.305609338558497
 20
29.1141195985503
 10
8.393110830491878
 20
29.25201217661692
 10
8.507930377291813
 20
29.3831458110169
 10
8.64851524155847
 20
29.50574714435021
 10
8.812964254158487
 20
29.61815820388358
 10
8.999053524291866
 20
29.71885882295027
 10
9.20426651389198
 20
29.80648719828361
 10
9.42582806922519
 20
29.87985830655026
 10
9.660741950292049
 20
29.93797992935026
 10
9.905831350024982
 20
29.98006607141696
 10
10.15778185455838
 20
30.00554758995026
 10
10.41318626562497
 20
30.01407989101693
  0
LWPOLYLINE
  5
C01
330
BA6
100
AcDbEntity
  8
0
  6
Continuous
 62
     7
100
AcDbPolyline
 90
       11
 70
     0
 43
0.0
 10
39.39311083049188
 20
29.25201217661692
 10
39.50793037729182
 20
29.3831458110169
 10
39.64851524155847
 20
29.50574714435021
 10
39.81296425415849
 20
29.61815820388358
 10
39.99905352429187
 20
29.71885882295027
 10
40.20426651389198
 20
29.80648719828361
 10
40.42582806922519
 20
29.87985830655026
 10
40.66074195029204
 20
29.93797992935026
 10
40.90583135002498
 20
29.98006607141696
 10
41.15778185455837
 20
30.00554758995026
 10
41.41318626562497
 20
30.01407989101693
  0
LINE
  5
C02
330
BA6
100
AcDbEntity
  8
0
  6
Continuous
 62
     7
100
AcDbLine
 10
43.91318702595845
 20
31.12345368788357
 30
0.0
 11
44.11318703935831
 21
31.3234536744169
 31
0.0
  0
LWPOLYLINE
  5
C03
330
BA6
100
AcDbEntity
  8
0
  6
Continuous
 62
     7
100
AcDbPolyline
 90
       21
 70
     0
 43
0.0
 10
43.01340827709191
 20
27.88626525815022
 10
43.17785728969193
 20
27.99867631768359
 10
43.31844215395858
 20
28.1212776510169
 10
43.43326170075852
 20
28.25241128548356
 10
43.5207631927583
 20
28.39030386348355
 10
43.57976332229191
 20
28.53309062461693
 10
43.60946421382505
 20
28.67884062275022
 10
43.60946421382505
 20
28.82558283928359
 10
43.57976332229191
 20
28.97133283748355
 10
43.5207631927583
 20
29.1141195985503
 10
43.43326170075852
 20
29.25201217661692
 10
43.31844215395858
 20
29.3831458110169
 10
43.17785728969193
 20
29.50574714435021
 10
43.01340827709191
 20
29.61815820388358
 10
42.82731900695853
 20
29.71885882295027
 10
42.62210601735842
 20
29.80648719828361
 10
42.40054446209206
 20
29.87985830655026
 10
42.16563058095835
 20
29.93797992935026
 10
41.9205411812918
 20
29.98006607141696
 10
41.66859067669202
 20
30.00554758995026
 10
41.41318626562497
 20
30.01407989101693
  0
LINE
  5
C04
330
BA6
100
AcDbEntity
  8
02___PRT_ALL_AXES
  6
Continuous
 62
     7
100
AcDbLine
 10
43.15921761275831
 20
27.98272772895024
 30
0.0
 11
42.98023344755847
 21
27.86655554935027
 31
0.0
  0
LINE
  5
C05
330
BA6
100
AcDbEntity
  8
0
  6
Continuous
 62
     7
100
AcDbLine
 10
42.98388822782499
 20
27.86866520768359
 30
0.0
 11
43.01340827709191
 21
27.88626525815022
 31
0.0
  0
LWPOLYLINE
  5
C06
330
BA6
100
AcDbEntity
  8
02___PRT_ALL_AXES
  6
Continuous
 62
     7
100
AcDbPolyline
 90
        9
 70
     0
 43
0.0
 10
42.98023344755847
 20
27.86655554935027
 10
42.80901453729166
 20
27.77486596028359
 10
42.39429650742522
 20
27.61138776188358
 10
41.928421784492
 20
27.50450175335027
 10
41.43819929842493
 20
27.46540149768362
 10
40.95061893615866
 20
27.49683860835029
 10
40.48882221582516
 20
27.59439606895029
 10
40.08916822289165
 20
27.74109663588359
 10
39.8460619485586
 20
27.86641231781692
  0
LINE
  5
C07
330
BA6
100
AcDbEntity
  8
0
  6
Continuous
 62
     7
100
AcDbLine
 10
8.842484303424953
 20
11.7782436888836
 30
0.0
 11
8.999053524291866
 21
11.86134425741693
 31
0.0
  0
LINE
  5
C08
330
BA6
100
AcDbEntity
  8
0
  6
Continuous
 62
     7
100
AcDbLine
 10
42.82731900695853
 20
27.78556463915021
 30
0.0
 11
42.98388822782499
 21
27.86866520768359
 31
0.0
  0
LINE
  5
C09
330
BA6
100
AcDbEntity
  8
0
  6
Continuous
 62
     7
100
AcDbLine
 10
42.62210601735842
 20
27.69793626375025
 30
0.0
 11
42.82731900695853
 21
27.78556463915021
 31
0.0
  0
LWPOLYLINE
  5
C0A
330
BA6
100
AcDbEntity
  8
0
  6
Continuous
 62
     7
100
AcDbPolyline
 90
        7
 70
     0
 43
0.0
 10
8.999053524291866
 20
11.86134425741693
 10
9.20426651389198
 20
11.94897263281694
 10
9.42582806922519
 20
12.0223437410836
 10
9.660741950292049
 20
12.0804653638836
 10
9.905831350024982
 20
12.12255150595024
 10
10.15778185455838
 20
12.14803302441692
 10
10.41318626562497
 20
12.1565653254836
  0
LINE
  5
C0B
330
BA6
100
AcDbEntity
  8
02___PRT_ALL_AXES
  6
Continuous
 62
     7
100
AcDbLine
 10
63.96318626562515
 20
17.3234544482836
 30
0.0
 11
62.91318626562542
 21
17.3234544482836
 31
0.0
  0
LINE
  5
C0C
330
BA6
100
AcDbEntity
  8
0
  6
Continuous
 62
     7
100
AcDbLine
 10
63.96318626562515
 20
17.34845444828357
 30
0.0
 11
64.54464883915853
 21
17.34845444828357
 31
0.0
  0
LINE
  5
C0D
330
BA6
100
AcDbEntity
  8
DEFAULT_1
  6
CENTER
 62
     7
100
AcDbLine
 10
-0.0000000000004547
 20
19.8234544482836
 30
0.0
 11
76.70446733482504
 21
19.8234544482836
 31
0.0
  0
LINE
  5
C0E
330
BA6
100
AcDbEntity
  8
DEFAULT_1
  6
CENTER
 62
     7
100
AcDbLine
 10
78.11318626562524
 20
19.8234544482836
 30
0.0
 11
78.32265226969184
 21
19.8234544482836
 31
0.0
  0
LWPOLYLINE
  5
C0F
330
BA6
100
AcDbEntity
  8
0
  6
Continuous
 62
     7
100
AcDbPolyline
 90
        3
 70
     0
 43
0.0
 10
9.42582806922519
 20
27.6245651554836
 10
9.20426651389198
 20
27.69793626375025
 10
8.999053524291866
 20
27.78556463915021
  0
LWPOLYLINE
  5
C10
330
BA6
100
AcDbEntity
  8
0
  6
Continuous
 62
     7
100
AcDbPolyline
 90
        7
 70
     0
 43
0.0
 10
42.82731900695853
 20
11.86134425741693
 10
42.62210601735842
 20
11.94897263281694
 10
42.40054446209206
 20
12.0223437410836
 10
42.16563058095835
 20
12.0804653638836
 10
41.9205411812918
 20
12.12255150595024
 10
41.66859067669202
 20
12.14803302441692
 10
41.41318626562497
 20
12.1565653254836
  0
LINE
  5
C11
330
BA6
100
AcDbEntity
  8
0
  6
Continuous
 62
     7
100
AcDbLine
 10
42.98388822782499
 20
11.7782436888836
 30
0.0
 11
42.82731900695853
 21
11.86134425741693
 31
0.0
  0
LINE
  5
C12
330
BA6
100
AcDbEntity
  8
0
  6
Continuous
 62
     7
100
AcDbLine
 10
43.01340827709191
 20
11.76064363841692
 30
0.0
 11
42.98388822782499
 21
11.7782436888836
 31
0.0
  0
LWPOLYLINE
  5
C13
330
BA6
100
AcDbEntity
  8
02___PRT_ALL_AXES
  6
Continuous
 62
     7
100
AcDbPolyline
 90
        4
 70
     0
 43
0.0
 10
42.97853385902499
 20
11.78138856748359
 10
43.24902805335841
 20
11.59573806175029
 10
43.46120142175869
 20
11.39296609455027
 10
43.61319140775822
 20
11.17665563381689
  0
LINE
  5
C14
330
BA6
100
AcDbEntity
  8
0
  6
Continuous
 62
     7
100
AcDbLine
 10
43.91318702589205
 20
8.523455208683571
 30
0.0
 11
44.11318703935831
 21
8.323455222150244
 31
0.0
  0
LWPOLYLINE
  5
C15
330
BA6
100
AcDbEntity
  8
0
  6
Continuous
 62
     7
100
AcDbPolyline
 90
       12
 70
     0
 43
0.0
 10
39.50793037729182
 20
10.26376308555024
 10
39.39311083049188
 20
10.39489671995028
 10
39.3056093385585
 20
10.53278929801695
 10
39.24660920902488
 20
10.67557605908359
 10
39.21690831742535
 20
10.82132605728361
 10
39.21690831742535
 20
10.96806827381692
 10
39.24660920902488
 20
11.11381827195026
 10
39.3056093385585
 20
11.25660503308359
 10
39.39311083049188
 20
11.39449761108358
 10
39.50793037729182
 20
11.5256312455503
 10
39.64851524155847
 20
11.64823257888361
 10
39.81296425415849
 20
11.76064363841692
  0
LWPOLYLINE
  5
C16
330
BA6
100
AcDbEntity
  8
02___PRT_ALL_AXES
  6
Continuous
 62
     7
100
AcDbPolyline
 90
        6
 70
     0
 43
0.0
 10
39.11318626562525
 20
28.8341269354836
 10
39.16044855149176
 20
29.06949238961693
 10
39.29227063082499
 20
29.27403493368359
 10
39.49641674062514
 20
29.44784101315025
 10
39.76867322069166
 20
29.59390772641695
 10
39.78672640802506
 20
29.60022301515028
  0
LINE
  5
C17
330
BA6
100
AcDbEntity
  8
02___PRT_ALL_AXES
  6
Continuous
 62
     7
100
AcDbLine
 10
43.61319140775822
 20
28.47025326275025
 30
0.0
 11
43.43241391342508
 21
28.22182367648361
 31
0.0
  0
LINE
  5
C18
330
BA6
100
AcDbEntity
  8
02___PRT_ALL_AXES
  6
Continuous
 62
     7
100
AcDbLine
 10
43.43241391342508
 20
28.22182367648361
 30
0.0
 11
43.15921761275831
 21
27.98272772895024
 31
0.0
  0
LINE
  5
C19
330
BA6
100
AcDbEntity
  8
0
  6
Continuous
 62
     7
100
AcDbLine
 10
63.96318626562515
 20
22.29845444828356
 30
0.0
 11
64.54464883915853
 21
22.29845444828356
 31
0.0
  0
LINE
  5
C1A
330
BA6
100
AcDbEntity
  8
02___PRT_ALL_AXES
  6
Continuous
 62
     7
100
AcDbLine
 10
63.96318626562515
 20
22.3234544482836
 30
0.0
 11
62.91318626562542
 21
22.3234544482836
 31
0.0
  0
LINE
  5
C1B
330
BA6
100
AcDbEntity
  8
02___PRT_ALL_AXES
  6
Continuous
 62
     7
100
AcDbLine
 10
62.71318626562515
 20
24.3234544482836
 30
0.0
 11
59.61318626562524
 21
24.3234544482836
 31
0.0
  0
LINE
  5
C1C
330
BA6
100
AcDbEntity
  8
02___PRT_ALL_AXES
  6
Continuous
 62
     7
100
AcDbLine
 10
64.84464883915871
 20
24.3234544482836
 30
0.0
 11
72.54464883915852
 21
24.3234544482836
 31
0.0
  0
LWPOLYLINE
  5
C1D
330
BA6
100
AcDbEntity
  8
0
  6
Continuous
 62
     7
100
AcDbPolyline
 90
        6
 70
     0
 43
0.0
 10
12.04259319489165
 20
29.59820850961688
 10
12.07146388182491
 20
29.58788928708356
 10
12.3382100314252
 20
29.44227035141694
 10
12.53790027635841
 20
29.26977614608359
 10
12.66688022749167
 20
29.06718919615025
 10
12.71318626562515
 20
28.8341269354836
  0
LINE
  5
C1E
330
BA6
100
AcDbEntity
  8
0
  6
Continuous
 62
     7
100
AcDbLine
 10
40.16318626562497
 20
28.92428466195026
 30
0.0
 11
40.16318626562497
 21
28.58013880015028
 31
0.0
  0
LINE
  5
C1F
330
BA6
100
AcDbEntity
  8
0
  6
Continuous
 62
     7
100
AcDbLine
 10
40.16318626562497
 20
11.06677009641692
 30
0.0
 11
40.16318626562497
 21
10.72262423461694
 31
0.0
  0
LINE
  5
C20
330
BA6
100
AcDbEntity
  8
0
  6
Continuous
 62
     7
100
AcDbLine
 10
41.11318626562524
 20
29.46918227648359
 30
0.0
 11
41.11318626562524
 21
28.6785390486836
 31
0.0
  0
LINE
  5
C21
330
BA6
100
AcDbEntity
  8
0
  6
Continuous
 62
     7
100
AcDbLine
 10
41.11318626562524
 20
28.58013880015028
 30
0.0
 11
41.11318626562524
 21
28.03524118561694
 31
0.0
  0
LINE
  5
C22
330
BA6
100
AcDbEntity
  8
0
  6
Continuous
 62
     7
100
AcDbLine
 10
41.11318626562524
 20
11.61166771095025
 30
0.0
 11
41.11318626562524
 21
11.06677009641692
 31
0.0
  0
LINE
  5
C23
330
BA6
100
AcDbEntity
  8
0
  6
Continuous
 62
     7
100
AcDbLine
 10
41.11318626562524
 20
10.1777266200836
 30
0.0
 11
41.11318626562524
 21
10.96836984788359
 31
0.0
  0
LINE
  5
C24
330
BA6
100
AcDbEntity
  8
0
  6
Continuous
 62
     7
100
AcDbLine
 10
41.71318626562515
 20
10.1777266200836
 30
0.0
 11
41.71318626562515
 21
10.96836984788359
 31
0.0
  0
LINE
  5
C25
330
BA6
100
AcDbEntity
  8
0
  6
Continuous
 62
     7
100
AcDbLine
 10
41.71318626562515
 20
11.06677009641692
 30
0.0
 11
41.71318626562515
 21
11.61166771095025
 31
0.0
  0
LINE
  5
C26
330
BA6
100
AcDbEntity
  8
0
  6
Continuous
 62
     7
100
AcDbLine
 10
41.71318626562515
 20
28.03524118561694
 30
0.0
 11
41.71318626562515
 21
28.58013880015028
 31
0.0
  0
LINE
  5
C27
330
BA6
100
AcDbEntity
  8
0
  6
Continuous
 62
     7
100
AcDbLine
 10
41.71318626562515
 20
28.6785390486836
 30
0.0
 11
41.71318626562515
 21
29.46918227648359
 31
0.0
  0
LWPOLYLINE
  5
C28
330
BA6
100
AcDbEntity
  8
02___PRT_ALL_AXES
  6
Continuous
 62
     7
100
AcDbPolyline
 90
        4
 70
     0
 43
0.0
 10
39.11318626562525
 20
10.8127819610836
 10
39.16499459789202
 20
11.07328668095027
 10
39.30931667415871
 20
11.32446876541689
 10
39.53384360609152
 20
11.55951985668361
  0
LWPOLYLINE
  5
C29
330
BA6
100
AcDbEntity
  8
0
  6
Continuous
 62
     7
100
AcDbPolyline
 90
        5
 70
     0
 43
0.0
 10
41.41318626562497
 20
27.49034357108354
 10
41.66859067669202
 20
27.49887587215023
 10
41.9205411812918
 20
27.5243573906169
 10
42.16563058095835
 20
27.56644353268359
 10
42.40054446209206
 20
27.6245651554836
  0
LWPOLYLINE
  5
C2A
330
BA6
100
AcDbEntity
  8
0
  6
Continuous
 62
     7
100
AcDbPolyline
 90
        6
 70
     0
 43
0.0
 10
10.41318626562497
 20
27.49034357108354
 10
10.66859067669202
 20
27.49887587215023
 10
10.92054118129181
 20
27.5243573906169
 10
11.16563058095835
 20
27.56644353268359
 10
11.40054446209205
 20
27.6245651554836
 10
11.62210601735842
 20
27.69793626375025
  0
LINE
  5
C2B
330
BA6
100
AcDbEntity
  8
0
  6
Continuous
 62
     7
100
AcDbLine
 10
75.81325582075852
 20
26.09185132341691
 30
0.0
 11
76.2641004612251
 21
26.09185132341691
 31
0.0
  0
LINE
  5
C2C
330
BA6
100
AcDbEntity
  8
02___PRT_ALL_AXES
  6
Continuous
 62
     7
100
AcDbLine
 10
59.21318626562515
 20
26.8234544482836
 30
0.0
 11
49.41318626562497
 21
26.8234544482836
 31
0.0
  0
LINE
  5
C2D
330
BA6
100
AcDbEntity
  8
0
  6
Continuous
 62
     7
100
AcDbLine
 10
10.11318626562524
 20
28.03524118561694
 30
0.0
 11
10.71318626562515
 21
28.03524118561694
 31
0.0
  0
LINE
  5
C2E
330
BA6
100
AcDbEntity
  8
0
  6
Continuous
 62
     7
100
AcDbLine
 10
41.11318626562524
 20
28.03524118561694
 30
0.0
 11
41.71318626562515
 21
28.03524118561694
 31
0.0
  0
LINE
  5
C2F
330
BA6
100
AcDbEntity
  8
0
  6
Continuous
 62
     7
100
AcDbLine
 10
9.163186265624972
 20
28.58013880015028
 30
0.0
 11
10.11318626562524
 21
28.58013880015028
 31
0.0
  0
LINE
  5
C30
330
BA6
100
AcDbEntity
  8
0
  6
Continuous
 62
     7
100
AcDbLine
 10
10.71318626562515
 20
28.58013880015028
 30
0.0
 11
11.66318626562497
 21
28.58013880015028
 31
0.0
  0
LINE
  5
C31
330
BA6
100
AcDbEntity
  8
0
  6
Continuous
 62
     7
100
AcDbLine
 10
40.16318626562497
 20
28.58013880015028
 30
0.0
 11
41.11318626562524
 21
28.58013880015028
 31
0.0
  0
LINE
  5
C32
330
BA6
100
AcDbEntity
  8
0
  6
Continuous
 62
     7
100
AcDbLine
 10
41.71318626562515
 20
28.58013880015028
 30
0.0
 11
42.66318626562497
 21
28.58013880015028
 31
0.0
  0
LINE
  5
C33
330
BA6
100
AcDbEntity
  8
0
  6
Continuous
 62
     7
100
AcDbLine
 10
42.66318626562497
 20
28.6785390486836
 30
0.0
 11
41.71318626562515
 21
28.6785390486836
 31
0.0
  0
LINE
  5
C34
330
BA6
100
AcDbEntity
  8
0
  6
Continuous
 62
     7
100
AcDbLine
 10
41.11318626562524
 20
28.6785390486836
 30
0.0
 11
40.16318626562497
 21
28.6785390486836
 31
0.0
  0
LINE
  5
C35
330
BA6
100
AcDbEntity
  8
0
  6
Continuous
 62
     7
100
AcDbLine
 10
11.66318626562497
 20
28.6785390486836
 30
0.0
 11
10.71318626562515
 21
28.6785390486836
 31
0.0
  0
LINE
  5
C36
330
BA6
100
AcDbEntity
  8
0
  6
Continuous
 62
     7
100
AcDbLine
 10
10.11318626562524
 20
28.6785390486836
 30
0.0
 11
9.163186265624972
 21
28.6785390486836
 31
0.0
  0
LINE
  5
C37
330
BA6
100
AcDbEntity
  8
0
  6
Continuous
 62
     7
100
AcDbLine
 10
42.66318626562497
 20
28.92428466195026
 30
0.0
 11
41.71318626562515
 21
28.92428466195026
 31
0.0
  0
LINE
  5
C38
330
BA6
100
AcDbEntity
  8
0
  6
Continuous
 62
     7
100
AcDbLine
 10
41.11318626562524
 20
28.92428466195026
 30
0.0
 11
40.16318626562497
 21
28.92428466195026
 31
0.0
  0
LINE
  5
C39
330
BA6
100
AcDbEntity
  8
0
  6
Continuous
 62
     7
100
AcDbLine
 10
11.66318626562497
 20
28.92428466195026
 30
0.0
 11
10.71318626562515
 21
28.92428466195026
 31
0.0
  0
LINE
  5
C3A
330
BA6
100
AcDbEntity
  8
0
  6
Continuous
 62
     7
100
AcDbLine
 10
10.11318626562524
 20
28.92428466195026
 30
0.0
 11
9.163186265624972
 21
28.92428466195026
 31
0.0
  0
LINE
  5
C3B
330
BA6
100
AcDbEntity
  8
0
  6
Continuous
 62
     7
100
AcDbLine
 10
41.71318626562515
 20
29.22343666321694
 30
0.0
 11
41.11318626562524
 21
29.22343666321694
 31
0.0
  0
LINE
  5
C3C
330
BA6
100
AcDbEntity
  8
0
  6
Continuous
 62
     7
100
AcDbLine
 10
10.71318626562515
 20
29.22343666321694
 30
0.0
 11
10.11318626562524
 21
29.22343666321694
 31
0.0
  0
LINE
  5
C3D
330
BA6
100
AcDbEntity
  8
0
  6
Continuous
 62
     7
100
AcDbLine
 10
41.71318626562515
 20
29.46918227648359
 30
0.0
 11
41.11318626562524
 21
29.46918227648359
 31
0.0
  0
LINE
  5
C3E
330
BA6
100
AcDbEntity
  8
0
  6
Continuous
 62
     7
100
AcDbLine
 10
10.71318626562515
 20
29.46918227648359
 30
0.0
 11
10.11318626562524
 21
29.46918227648359
 31
0.0
  0
LWPOLYLINE
  5
C3F
330
BA6
100
AcDbEntity
  8
0
  6
Continuous
 62
     7
100
AcDbPolyline
 90
        5
 70
     0
 43
0.0
 10
10.41318626562497
 20
27.49034357108354
 10
10.15778185455838
 20
27.49887587215023
 10
9.905831350024982
 20
27.5243573906169
 10
9.660741950292049
 20
27.56644353268359
 10
9.42582806922519
 20
27.6245651554836
  0
LWPOLYLINE
  5
C40
330
BA6
100
AcDbEntity
  8
0
  6
Continuous
 62
     7
100
AcDbPolyline
 90
        5
 70
     0
 43
0.0
 10
41.41318626562497
 20
27.49034357108354
 10
41.15778185455837
 20
27.49887587215023
 10
40.90583135002498
 20
27.5243573906169
 10
40.66074195029204
 20
27.56644353268359
 10
40.42582806922519
 20
27.6245651554836
  0
LINE
  5
C41
330
BA6
100
AcDbEntity
  8
0
  6
Continuous
 62
     7
100
AcDbLine
 10
59.41318652195832
 20
15.43892494615028
 30
0.0
 11
59.61318652869204
 21
15.32345490395028
 31
0.0
  0
LWPOLYLINE
  5
C42
330
BA6
100
AcDbEntity
  8
02___PRT_ALL_AXES
  6
Continuous
 62
     7
100
AcDbPolyline
 90
        3
 70
     0
 43
0.0
 10
43.61319140775822
 20
11.17665563381689
 10
43.65074690562505
 20
11.02177461821696
 10
43.66318882502537
 20
10.85373746681693
  0
LINE
  5
C43
330
BA6
100
AcDbEntity
  8
0
  6
Continuous
 62
     7
100
AcDbLine
 10
42.66318626562497
 20
10.72262423461694
 30
0.0
 11
42.66318626562497
 21
11.06677009641692
 31
0.0
  0
LINE
  5
C44
330
BA6
100
AcDbEntity
  8
0
  6
Continuous
 62
     7
100
AcDbLine
 10
42.66318626562497
 20
28.58013880015028
 30
0.0
 11
42.66318626562497
 21
28.92428466195026
 31
0.0
  0
LINE
  5
C45
330
BA6
100
AcDbEntity
  8
02___PRT_ALL_AXES
  6
Continuous
 62
     7
100
AcDbLine
 10
43.61319140775822
 20
28.47025326275025
 30
0.0
 11
43.61319140775822
 21
11.17665563381689
 31
0.0
  0
LINE
  5
C46
330
BA6
100
AcDbEntity
  8
02___PRT_ALL_AXES
  6
Continuous
 62
     7
100
AcDbLine
 10
43.61319140775822
 20
30.8234544482836
 30
0.0
 11
43.61319140775822
 21
29.17025099088363
 31
0.0
  0
LINE
  5
C47
330
BA6
100
AcDbEntity
  8
02___PRT_ALL_AXES
  6
Continuous
 62
     7
100
AcDbLine
 10
43.61319140775822
 20
10.47665790568356
 30
0.0
 11
43.61319140775822
 21
8.823454448283598
 31
0.0
  0
LINE
  5
C48
330
BA6
100
AcDbEntity
  8
0
  6
Continuous
 62
     7
100
AcDbLine
 10
43.91318626562497
 20
31.12345444828361
 30
0.0
 11
43.91318626562497
 21
8.523454448283587
 31
0.0
  0
LINE
  5
C49
330
BA6
100
AcDbEntity
  8
0
  6
Continuous
 62
     7
100
AcDbLine
 10
44.11318626562525
 20
31.3234544482836
 30
0.0
 11
44.11318626562525
 21
8.323454448283598
 31
0.0
  0
LWPOLYLINE
  5
C4A
330
BA6
100
AcDbEntity
  8
02___PRT_ALL_AXES
  6
Continuous
 62
     7
100
AcDbPolyline
 90
        3
 70
     0
 43
0.0
 10
43.66318882502537
 20
10.85373746681693
 10
43.6507402092252
 20
10.67220416781691
 10
43.61319140775822
 20
10.47665790568356
  0
LWPOLYLINE
  5
C4B
330
BA6
100
AcDbEntity
  8
02___PRT_ALL_AXES
  6
Continuous
 62
     7
100
AcDbPolyline
 90
        3
 70
     0
 43
0.0
 10
43.66318882502537
 20
28.79317142975026
 10
43.65074688849154
 20
28.62513416755025
 10
43.61319140775822
 20
28.47025326275025
  0
LINE
  5
C4C
330
BA6
100
AcDbEntity
  8
02___PRT_ALL_AXES
  6
Continuous
 62
     7
100
AcDbLine
 10
39.53384360609152
 20
11.55951985668361
 30
0.0
 11
39.8475691519584
 21
11.78118883388356
 31
0.0
  0
LINE
  5
C4D
330
BA6
100
AcDbEntity
  8
0
  6
Continuous
 62
     7
100
AcDbLine
 10
39.81296425415849
 20
11.76064363841692
 30
0.0
 11
39.84248430342495
 21
11.7782436888836
 31
0.0
  0
LINE
  5
C4E
330
BA6
100
AcDbEntity
  8
0
  6
Continuous
 62
     7
100
AcDbLine
 10
59.41318652195832
 20
24.20798395041692
 30
0.0
 11
59.61318652869204
 21
24.32345399261692
 31
0.0
  0
LINE
  5
C4F
330
BA6
100
AcDbEntity
  8
0
  6
Continuous
 62
     7
100
AcDbLine
 10
64.54464808415832
 20
24.15025067495026
 30
0.0
 11
64.84464805395828
 21
24.32345580808357
 31
0.0
  0
LINE
  5
C50
330
BA6
100
AcDbEntity
  8
0
  6
Continuous
 62
     7
100
AcDbLine
 10
39.84248430342495
 20
11.7782436888836
 30
0.0
 11
39.99905352429187
 21
11.86134425741693
 31
0.0
  0
LWPOLYLINE
  5
C51
330
BA6
100
AcDbEntity
  8
02___PRT_ALL_AXES
  6
Continuous
 62
     7
100
AcDbPolyline
 90
        9
 70
     0
 43
0.0
 10
39.8475691519584
 20
11.78118883388356
 10
40.20635389162499
 20
11.95570138255021
 10
40.63169842215848
 20
12.09023600781694
 10
41.0822266723585
 20
12.16552035155024
 10
41.53168914069192
 20
12.17954458795026
 10
41.95729988995845
 20
12.13784087781692
 10
42.34391442109199
 20
12.05066546201692
 10
42.686284191092
 20
11.92825538915025
 10
42.97853385902499
 20
11.78138856748359
  0
LWPOLYLINE
  5
C52
330
BA6
100
AcDbEntity
  8
0
  6
Continuous
 62
     7
100
AcDbPolyline
 90
        7
 70
     0
 43
0.0
 10
39.99905352429187
 20
11.86134425741693
 10
40.20426651389198
 20
11.94897263281694
 10
40.42582806922519
 20
12.0223437410836
 10
40.66074195029204
 20
12.0804653638836
 10
40.90583135002498
 20
12.12255150595024
 10
41.15778185455837
 20
12.14803302441692
 10
41.41318626562497
 20
12.1565653254836
  0
LINE
  5
C53
330
BA6
100
AcDbEntity
  8
02___PRT_ALL_AXES
  6
Continuous
 62
     7
100
AcDbLine
 10
73.77248473789177
 20
25.30813938808359
 30
0.0
 11
72.54464883915852
 21
24.79955310641691
 31
0.0
  0
LINE
  5
C54
330
BA6
100
AcDbEntity
  8
0
  6
Continuous
 62
     7
100
AcDbLine
 10
72.54464883915852
 20
24.79955310641691
 30
0.0
 11
76.2275286377585
 21
26.32505186761688
 31
0.0
  0
LINE
  5
C55
330
BA6
100
AcDbEntity
  8
0
  6
Continuous
 62
     7
100
AcDbLine
 10
76.70446733482504
 20
24.08722389368359
 30
0.0
 11
76.69626779875852
 21
24.08382753468362
 31
0.0
  0
LINE
  5
C56
330
BA6
100
AcDbEntity
  8
0
  6
Continuous
 62
     7
100
AcDbLine
 10
75.81325582075852
 20
26.09185132341691
 30
0.0
 11
73.77248473789177
 21
25.25476281128357
 31
0.0
  0
LINE
  5
C57
330
BA6
100
AcDbEntity
  8
02___PRT_ALL_AXES
  6
Continuous
 62
     7
100
AcDbLine
 10
43.61319140775822
 20
30.8234544482836
 30
0.0
 11
8.213190692692023
 21
30.8234544482836
 31
0.0
  0
LINE
  5
C58
330
BA6
100
AcDbEntity
  8
02___PRT_ALL_AXES
  6
Continuous
 62
     7
100
AcDbLine
 10
5.113185653358414
 20
30.8234544482836
 30
0.0
 11
7.713187204091809
 21
30.8234544482836
 31
0.0
  0
LINE
  5
C59
330
BA6
100
AcDbEntity
  8
02___PRT_ALL_AXES
  6
Continuous
 62
     7
100
AcDbLine
 10
49.21318626562515
 20
31.3234544482836
 30
0.0
 11
44.11318626562525
 21
31.3234544482836
 31
0.0
  0
LINE
  5
C5A
330
BA6
100
AcDbEntity
  8
0
  6
Continuous
 62
     7
100
AcDbLine
 10
40.42582806922519
 20
27.6245651554836
 30
0.0
 11
40.20426651389198
 21
27.69793626375025
 31
0.0
  0
LWPOLYLINE
  5
C5B
330
BA6
100
AcDbEntity
  8
02___PRT_ALL_AXES
  6
Continuous
 62
     7
100
AcDbPolyline
 90
        5
 70
     0
 43
0.0
 10
43.03860304122508
 20
29.60093602615024
 10
43.05660348575838
 20
29.59438191215026
 10
43.28751771022507
 20
29.47515727575023
 10
43.4760371846919
 20
29.33306799728359
 10
43.61319140775822
 20
29.17025099088363
  0
LINE
  5
C5C
330
BA6
100
AcDbEntity
  8
0
  6
Continuous
 62
     7
100
AcDbLine
 10
75.81325582075852
 20
13.55505757315023
 30
0.0
 11
73.77248473789177
 21
14.39214608528363
 31
0.0
  0
LINE
  5
C5D
330
BA6
100
AcDbEntity
  8
02___PRT_ALL_AXES
  6
Continuous
 62
     7
100
AcDbLine
 10
73.77248473789177
 20
14.33876950848361
 30
0.0
 11
72.54464883915852
 21
14.84735579015023
 31
0.0
  0
LINE
  5
C5E
330
BA6
100
AcDbEntity
  8
0
  6
Continuous
 62
     7
100
AcDbLine
 10
76.2275286377585
 20
13.32185702895026
 30
0.0
 11
72.54464883915852
 21
14.84735579015023
 31
0.0
  0
LINE
  5
C5F
330
BA6
100
AcDbEntity
  8
0
  6
Continuous
 62
     7
100
AcDbLine
 10
76.69626779875852
 20
15.56308136188357
 30
0.0
 11
76.70446733482504
 21
15.55968500288355
 31
0.0
  0
LINE
  5
C60
330
BA6
100
AcDbEntity
  8
0
  6
Continuous
 62
     7
100
AcDbLine
 10
40.20426651389198
 20
27.69793626375025
 30
0.0
 11
39.99905352429187
 21
27.78556463915021
 31
0.0
  0
LINE
  5
C61
330
BA6
100
AcDbEntity
  8
0
  6
Continuous
 62
     7
100
AcDbLine
 10
39.99905352429187
 20
27.78556463915021
 30
0.0
 11
39.84248430342495
 21
27.86866520768359
 31
0.0
  0
LINE
  5
C62
330
BA6
100
AcDbEntity
  8
0
  6
Continuous
 62
     7
100
AcDbLine
 10
64.54464808409193
 20
15.49665822161688
 30
0.0
 11
64.84464805382504
 21
15.32345308855025
 31
0.0
  0
LINE
  5
C63
330
BA6
100
AcDbEntity
  8
0
  6
Continuous
 62
     7
100
AcDbLine
 10
39.84248430342495
 20
27.86866520768359
 30
0.0
 11
39.81296425415849
 21
27.88626525815022
 31
0.0
  0
LINE
  5
C64
330
BA6
100
AcDbEntity
  8
02___PRT_ALL_AXES
  6
Continuous
 62
     7
100
AcDbLine
 10
39.8460619485586
 20
27.86641231781692
 30
0.0
 11
39.75954476629204
 21
27.91977853595023
 31
0.0
  0
LWPOLYLINE
  5
C65
330
BA6
100
AcDbEntity
  8
0
  6
Continuous
 62
     7
100
AcDbPolyline
 90
       11
 70
     0
 43
0.0
 10
39.81296425415849
 20
27.88626525815022
 10
39.64851524155847
 20
27.99867631768359
 10
39.50793037729182
 20
28.1212776510169
 10
39.39311083049188
 20
28.25241128548356
 10
39.3056093385585
 20
28.39030386348355
 10
39.24660920902488
 20
28.53309062461693
 10
39.21690831742535
 20
28.67884062275022
 10
39.21690831742535
 20
28.82558283928359
 10
39.24660920902488
 20
28.97133283748355
 10
39.3056093385585
 20
29.1141195985503
 10
39.39311083049188
 20
29.25201217661692
  0
LWPOLYLINE
  5
C66
330
BA6
100
AcDbEntity
  8
02___PRT_ALL_AXES
  6
Continuous
 62
     7
100
AcDbPolyline
 90
        5
 70
     0
 43
0.0
 10
39.75954476629204
 20
27.91977853595023
 10
39.48865860949172
 20
28.12750994781692
 10
39.28553069702502
 20
28.35471486661692
 10
39.15730953762523
 20
28.59403280715026
 10
39.11318626562525
 20
28.8341269354836
  0
LWPOLYLINE
  5
C67
330
BA6
100
AcDbEntity
  8
02___PRT_ALL_AXES
  6
Continuous
 62
     7
100
AcDbPolyline
 90
        3
 70
     0
 43
0.0
 10
43.61319140775822
 20
29.17025099088363
 10
43.65074019022495
 20
28.97470487241691
 10
43.66318882502537
 20
28.79317142975026
  0
LINE
  5
C68
330
BA6
100
AcDbEntity
  8
0
  6
Continuous
 62
     7
100
AcDbLine
 10
49.21318626562515
 20
31.3234544482836
 30
0.0
 11
49.21318626562515
 21
8.323454448283598
 31
0.0
  0
LINE
  5
C69
330
BA6
100
AcDbEntity
  8
0
  6
Continuous
 62
     7
100
AcDbLine
 10
49.41318626562497
 20
31.12345444828361
 30
0.0
 11
49.41318626562497
 21
8.523454448283587
 31
0.0
  0
LWPOLYLINE
  5
C6A
330
BA6
100
AcDbEntity
  8
02___PRT_ALL_AXES
  6
Continuous
 62
     7
100
AcDbPolyline
 90
        4
 70
     0
 43
0.0
 10
43.61319140775822
 20
10.47665790568356
 10
43.43828767595868
 20
10.28035732901691
 10
43.17980454762483
 20
10.11080966541692
 10
43.06335927129157
 20
10.0628952830836
  0
LINE
  5
C6B
330
BA6
100
AcDbEntity
  8
0
  6
Continuous
 62
     7
100
AcDbLine
 10
43.91318877169169
 20
9.123451952416928
 30
0.0
 11
43.61319140775822
 21
8.823454448283598
 31
0.0
  0
LINE
  5
C6C
330
BA6
100
AcDbEntity
  8
0
  6
Continuous
 62
     7
100
AcDbLine
 10
43.91318877169169
 20
30.52345694415027
 30
0.0
 11
43.61319140775822
 21
30.8234544482836
 31
0.0
  0
LINE
  5
C6D
330
BA6
100
AcDbEntity
  8
0
  6
Continuous
 62
     7
100
AcDbLine
 10
49.41318538062524
 20
8.523455333483582
 30
0.0
 11
49.21318536495846
 21
8.323455349150265
 31
0.0
  0
LINE
  5
C6E
330
BA6
100
AcDbEntity
  8
0
  6
Continuous
 62
     7
100
AcDbLine
 10
62.91318597202508
 20
15.43892501075021
 30
0.0
 11
62.71318596429182
 21
15.32345497028359
 31
0.0
  0
LINE
  5
C6F
330
BA6
100
AcDbEntity
  8
0
  6
Continuous
 62
     7
100
AcDbLine
 10
62.91318597202508
 20
24.20798388581693
 30
0.0
 11
62.71318596429182
 21
24.32345392628355
 31
0.0
  0
LINE
  5
C70
330
BA6
100
AcDbEntity
  8
0
  6
Continuous
 62
     7
100
AcDbLine
 10
49.41318538055838
 20
31.12345356315024
 30
0.0
 11
49.21318536489207
 21
31.32345354748355
 31
0.0
  0
LINE
  5
C71
330
BA6
100
AcDbEntity
  8
0
  6
Continuous
 62
     7
100
AcDbLine
 10
59.21318626562515
 20
26.8234544482836
 30
0.0
 11
59.21318626562515
 21
12.8234544482836
 31
0.0
  0
LINE
  5
C72
330
BA6
100
AcDbEntity
  8
0
  6
Continuous
 62
     7
100
AcDbLine
 10
59.41318772909153
 20
13.02345298548357
 30
0.0
 11
59.21318777209171
 21
12.82345294241691
 31
0.0
  0
LINE
  5
C73
330
BA6
100
AcDbEntity
  8
0
  6
Continuous
 62
     7
100
AcDbLine
 10
59.41318772889189
 20
26.62345591121692
 30
0.0
 11
59.21318777195847
 21
26.82345595428359
 31
0.0
  0
LINE
  5
C74
330
BA6
100
AcDbEntity
  8
0
  6
Continuous
 62
     7
100
AcDbLine
 10
59.41318626562497
 20
26.62345444835023
 30
0.0
 11
59.41318626562497
 21
13.02345444821691
 31
0.0
  0
LINE
  5
C75
330
BA6
100
AcDbEntity
  8
0
  6
Continuous
 62
     7
100
AcDbLine
 10
59.61318626562524
 20
24.3234544482836
 30
0.0
 11
59.61318626562524
 21
15.3234544482836
 31
0.0
  0
LINE
  5
C76
330
BA6
100
AcDbEntity
  8
0
  6
Continuous
 62
     7
100
AcDbLine
 10
62.71318626562515
 20
24.3234544482836
 30
0.0
 11
62.71318626562515
 21
15.3234544482836
 31
0.0
  0
LINE
  5
C77
330
BA6
100
AcDbEntity
  8
0
  6
Continuous
 62
     7
100
AcDbLine
 10
62.91318626562542
 20
24.20798439448362
 30
0.0
 11
62.91318626562542
 21
15.43892450208358
 31
0.0
  0
LINE
  5
C78
330
BA6
100
AcDbEntity
  8
0
  6
Continuous
 62
     7
100
AcDbLine
 10
63.96318626562515
 20
17.3234544482836
 30
0.0
 11
63.96318626562515
 21
22.3234544482836
 31
0.0
  0
LINE
  5
C79
330
BA6
100
AcDbEntity
  8
0
  6
Continuous
 62
     7
100
AcDbLine
 10
64.54464883915853
 20
15.49665952895026
 30
0.0
 11
64.54464883915853
 21
24.15024936755026
 31
0.0
  0
LINE
  5
C7A
330
BA6
100
AcDbEntity
  8
0
  6
Continuous
 62
     7
100
AcDbLine
 10
64.84464883915871
 20
15.3234544482836
 30
0.0
 11
64.84464883915871
 21
24.3234544482836
 31
0.0
  0
LINE
  5
C7B
330
BA6
100
AcDbEntity
  8
0
  6
Continuous
100
AcDbLine
 10
77.61318626562524
 20
19.8234544482836
 30
0.0
 11
76.70446733482504
 21
18.52576521148359
 31
0.0
  0
LINE
  5
C7C
330
BA6
100
AcDbEntity
  8
0
  6
Continuous
 62
     7
100
AcDbLine
 10
73.77248473789177
 20
14.33876950848361
 30
0.0
 11
73.80152175915873
 21
14.38023560835023
 31
0.0
  0
LINE
  5
C7D
330
BA6
100
AcDbEntity
  8
0
  6
Continuous
100
AcDbLine
 10
77.61318626562524
 20
19.8234544482836
 30
0.0
 11
76.70446733482504
 21
21.12114368508361
 31
0.0
  0
LINE
  5
C7E
330
BA6
100
AcDbEntity
  8
0
  6
Continuous
 62
     7
100
AcDbLine
 10
73.80152175915873
 20
25.26667328821691
 30
0.0
 11
73.77248473789177
 21
25.30813938808359
 31
0.0
  0
LINE
  5
C7F
330
BA6
100
AcDbEntity
  8
02___PRT_ALL_AXES
  6
Continuous
 62
     7
100
AcDbLine
 10
72.54464883915852
 20
14.84735579015023
 30
0.0
 11
72.54464883915852
 21
24.79955310641691
 31
0.0
  0
LINE
  5
C80
330
BA6
100
AcDbEntity
  8
0
  6
Continuous
 62
     7
100
AcDbLine
 10
73.77248473789177
 20
14.33876950848361
 30
0.0
 11
73.77248473789177
 21
14.39214608528363
 31
0.0
  0
LINE
  5
C81
330
BA6
100
AcDbEntity
  8
0
  6
Continuous
 62
     7
100
AcDbLine
 10
73.77248473789177
 20
25.25476281128357
 30
0.0
 11
73.77248473789177
 21
25.30813938808359
 31
0.0
  0
LINE
  5
C82
330
BA6
100
AcDbEntity
  8
0
  6
Continuous
 62
     7
100
AcDbLine
 10
75.81325582075852
 20
26.09185132341691
 30
0.0
 11
75.81325582075852
 21
13.55505757315023
 31
0.0
  0
LINE
  5
C83
330
BA6
100
AcDbEntity
  8
0
  6
Continuous
 62
     7
100
AcDbLine
 10
76.2641004612251
 20
26.09185132341691
 30
0.0
 11
76.2641004612251
 21
13.55505757315023
 31
0.0
  0
LINE
  5
C84
330
BA6
100
AcDbEntity
  8
0
  6
Continuous
 62
     7
100
AcDbLine
 10
76.70446733482504
 20
24.04572918255025
 30
0.0
 11
76.70446733482504
 21
15.60117971401695
 31
0.0
  0
LINE
  5
C85
330
BA6
100
AcDbEntity
  8
0
  6
Continuous
 62
     7
100
AcDbLine
 10
76.70446733482504
 20
15.55968500288355
 30
0.0
 11
76.2275286377585
 21
13.32185702895026
 31
0.0
  0
LINE
  5
C86
330
BA6
100
AcDbEntity
  8
0
  6
Continuous
100
AcDbLine
 10
76.70446733482504
 20
15.55968500288355
 30
0.0
 11
77.61318626562524
 21
19.8234544482836
 31
0.0
  0
LINE
  5
C87
330
BA6
100
AcDbEntity
  8
0
  6
Continuous
 62
     7
100
AcDbLine
 10
76.70446733482504
 20
15.60117971401695
 30
0.0
 11
76.2641004612251
 21
13.55505757315023
 31
0.0
  0
LINE
  5
C88
330
BA6
100
AcDbEntity
  8
0
  6
Continuous
 62
     7
100
AcDbLine
 10
76.70446733482504
 20
24.04572918255025
 30
0.0
 11
76.2641004612251
 21
26.09185132341691
 31
0.0
  0
LINE
  5
C89
330
BA6
100
AcDbEntity
  8
0
  6
Continuous
 62
     7
100
AcDbLine
 10
76.2275286377585
 20
26.32505186761688
 30
0.0
 11
76.70446733482504
 21
24.08722389368359
 31
0.0
  0
LINE
  5
C8A
330
BA6
100
AcDbEntity
  8
0
  6
Continuous
100
AcDbLine
 10
76.70446733482504
 20
24.08722389368359
 30
0.0
 11
77.61318626562524
 21
19.8234544482836
 31
0.0
  0
ENDBLK
  5
C8B
330
BA6
100
AcDbEntity
  8
0
100
AcDbBlockEnd
  0
BLOCK
  5
C8F
330
C8C
100
AcDbEntity
  8
0
100
AcDbBlockBegin
  2
A$C217E344C
 70
     0
 10
0.0
 20
0.0
 30
0.0
  3
A$C217E344C
  1

  0
LINE
  5
C90
330
C8C
100
AcDbEntity
  8
0
  6
Continuous
 62
     7
100
AcDbLine
 10
10.61903407103273
 20
5.231602809099399
 30
0.0
 11
10.99941157729927
 21
7.938129400232696
 31
0.0
  0
LINE
  5
C91
330
C8C
100
AcDbEntity
  8
0
  6
Continuous
 62
     7
100
AcDbLine
 10
12.00058802289914
 20
15.06186996823271
 30
0.0
 11
12.38096552916613
 21
17.76839655936601
 31
0.0
  0
LINE
  5
C92
330
C8C
100
AcDbEntity
  8
0
  6
Continuous
 62
     7
100
AcDbLine
 10
12.38096552916613
 20
5.231602809099399
 30
0.0
 11
12.00058802289914
 21
7.938129400232696
 31
0.0
  0
LINE
  5
C93
330
C8C
100
AcDbEntity
  8
0
  6
Continuous
 62
     7
100
AcDbLine
 10
10.99941157729927
 20
15.06186996823271
 30
0.0
 11
10.61903407103273
 21
17.76839655936601
 31
0.0
  0
CIRCLE
  5
C94
330
C8C
100
AcDbEntity
  8
0
  6
Continuous
 62
     7
100
AcDbCircle
 10
3.056252113232403
 20
6.624999684232648
 30
0.0
 40
1.349968612533333
  0
ARC
  5
C95
330
C8C
100
AcDbEntity
  8
0
  6
Continuous
 62
     2
100
AcDbCircle
 10
3.056252113232403
 20
6.624999684232648
 30
0.0
 40
1.25
100
AcDbArc
 50
255.0000000000056
 51
195.0000000000007
  0
CIRCLE
  5
C96
330
C8C
100
AcDbEntity
  8
0
  6
Continuous
 62
     7
100
AcDbCircle
 10
3.056252113232403
 20
6.624999684232648
 30
0.0
 40
1.049999999999999
  0
CIRCLE
  5
C97
330
C8C
100
AcDbEntity
  8
0
  6
Continuous
 62
     7
100
AcDbCircle
 10
11.49999980009943
 20
11.49999968423265
 30
0.0
 40
11.5
  0
CIRCLE
  5
C98
330
C8C
100
AcDbEntity
  8
0
  6
Continuous
 62
     7
100
AcDbCircle
 10
11.49999980009943
 20
11.49999968423265
 30
0.0
 40
11.29999854813333
  0
CIRCLE
  5
C99
330
C8C
100
AcDbEntity
  8
0
  6
Continuous
 62
     7
100
AcDbCircle
 10
11.49999980009943
 20
11.49999968423265
 30
0.0
 40
7.0
  0
CIRCLE
  5
C9A
330
C8C
100
AcDbEntity
  8
0
  6
Continuous
 62
     7
100
AcDbCircle
 10
11.49999980009943
 20
11.49999968423265
 30
0.0
 40
6.800000496733333
  0
CIRCLE
  5
C9B
330
C8C
100
AcDbEntity
  8
0
  6
Continuous
 62
     7
100
AcDbCircle
 10
11.49999980009943
 20
11.49999968423265
 30
0.0
 40
6.700000782333333
  0
CIRCLE
  5
C9C
330
C8C
100
AcDbEntity
  8
0
  6
Continuous
 62
     7
100
AcDbCircle
 10
11.49999980009943
 20
11.49999968423265
 30
0.0
 40
6.5
  0
ARC
  5
C9D
330
C8C
100
AcDbEntity
  8
0
  6
Continuous
 62
     7
100
AcDbCircle
 10
11.49999980009943
 20
11.49999968423265
 30
0.0
 40
6.329999999999999
100
AcDbArc
 50
278.0000000000137
 51
81.99999999998622
  0
ARC
  5
C9E
330
C8C
100
AcDbEntity
  8
0
  6
Continuous
 62
     7
100
AcDbCircle
 10
11.49999980009943
 20
11.49999968423265
 30
0.0
 40
6.329999999999999
100
AcDbArc
 50
98.00000000001377
 51
261.9999999999862
  0
ARC
  5
C9F
330
C8C
100
AcDbEntity
  8
0
  6
Continuous
 62
     7
100
AcDbCircle
 10
11.49999980009943
 20
11.49999968423265
 30
0.0
 40
6.299999210733333
100
AcDbArc
 50
262.0201162354896
 51
277.9798732255151
  0
ARC
  5
CA0
330
C8C
100
AcDbEntity
  8
0
  6
Continuous
 62
     7
100
AcDbCircle
 10
11.49999980009943
 20
11.49999968423265
 30
0.0
 40
6.299999210733333
100
AcDbArc
 50
82.02011623548957
 51
97.97987322551509
  0
ARC
  5
CA1
330
C8C
100
AcDbEntity
  8
0
  6
Continuous
 62
     7
100
AcDbCircle
 10
11.49999980009943
 20
11.49999968423265
 30
0.0
 40
5.484684939799999
100
AcDbArc
 50
81.99999999998622
 51
98.00000000001377
  0
ARC
  5
CA2
330
C8C
100
AcDbEntity
  8
0
  6
Continuous
 62
     7
100
AcDbCircle
 10
11.49999980009943
 20
11.49999968423265
 30
0.0
 40
5.484684939799999
100
AcDbArc
 50
261.9999999999862
 51
278.0000000000137
  0
ARC
  5
CA3
330
C8C
100
AcDbEntity
  8
0
  6
Continuous
 62
     7
100
AcDbCircle
 10
11.49999980009943
 20
11.49999968423265
 30
0.0
 40
4.263769445399999
100
AcDbArc
 50
98.00000000001377
 51
261.9999999999862
  0
ARC
  5
CA4
330
C8C
100
AcDbEntity
  8
0
  6
Continuous
 62
     7
100
AcDbCircle
 10
11.49999980009943
 20
11.49999968423265
 30
0.0
 40
4.263769445399999
100
AcDbArc
 50
278.0000000000137
 51
81.99999999998622
  0
ARC
  5
CA5
330
C8C
100
AcDbEntity
  8
0
  6
Continuous
 62
     7
100
AcDbCircle
 10
11.49999980009943
 20
11.49999968423265
 30
0.0
 40
3.596874822533333
100
AcDbArc
 50
81.99999999998622
 51
98.00000000001377
  0
ARC
  5
CA6
330
C8C
100
AcDbEntity
  8
0
  6
Continuous
 62
     7
100
AcDbCircle
 10
11.49999980009943
 20
11.49999968423265
 30
0.0
 40
3.596874822533333
100
AcDbArc
 50
261.9999999999862
 51
278.0000000000137
  0
CIRCLE
  5
CA7
330
C8C
100
AcDbEntity
  8
02___PRT_ALL_AXES
  6
Continuous
 62
     7
100
AcDbCircle
 10
11.49999980009943
 20
11.49999968423265
 30
0.0
 40
3.342773023466666
  0
CIRCLE
  5
CA8
330
C8C
100
AcDbEntity
  8
0
  6
Continuous
 62
     7
100
AcDbCircle
 10
11.49999980009943
 20
11.49999968423265
 30
0.0
 40
2.673196196599999
  0
CIRCLE
  5
CA9
330
C8C
100
AcDbEntity
  8
0
  6
Continuous
 62
     7
100
AcDbCircle
 10
11.49999980009943
 20
11.49999968423265
 30
0.0
 40
2.5
  0
CIRCLE
  5
CAA
330
C8C
100
AcDbEntity
  8
0
  6
Continuous
 62
     7
100
AcDbCircle
 10
11.49999980009943
 20
11.49999968423265
 30
0.0
 40
2.474999999999999
  0
CIRCLE
  5
CAB
330
C8C
100
AcDbEntity
  8
0
  6
Continuous
 62
     7
100
AcDbCircle
 10
11.49999980009943
 20
11.49999968423265
 30
0.0
 40
2.199972844133333
  0
CIRCLE
  5
CAC
330
C8C
100
AcDbEntity
  8
0
  6
Continuous
 62
     7
100
AcDbCircle
 10
19.9437474870324
 20
6.624999684232648
 30
0.0
 40
1.349968612533333
  0
ARC
  5
CAD
330
C8C
100
AcDbEntity
  8
0
  6
Continuous
 62
     2
100
AcDbCircle
 10
19.9437474870324
 20
6.624999684232648
 30
0.0
 40
1.25
100
AcDbArc
 50
255.0000000000056
 51
195.0000000000007
  0
CIRCLE
  5
CAE
330
C8C
100
AcDbEntity
  8
0
  6
Continuous
 62
     7
100
AcDbCircle
 10
19.9437474870324
 20
6.624999684232648
 30
0.0
 40
1.049999999999999
  0
CIRCLE
  5
CAF
330
C8C
100
AcDbEntity
  8
0
  6
Continuous
 62
     7
100
AcDbCircle
 10
11.49999980009943
 20
21.24999968423265
 30
0.0
 40
1.349968612533333
  0
ARC
  5
CB0
330
C8C
100
AcDbEntity
  8
0
  6
Continuous
 62
     2
100
AcDbCircle
 10
11.49999980009943
 20
21.24999968423265
 30
0.0
 40
1.25
100
AcDbArc
 50
255.0000000000056
 51
195.0000000000007
  0
CIRCLE
  5
CB1
330
C8C
100
AcDbEntity
  8
0
  6
Continuous
 62
     7
100
AcDbCircle
 10
11.49999980009943
 20
21.24999968423265
 30
0.0
 40
1.049999999999999
  0
ENDBLK
  5
CB2
330
C8C
100
AcDbEntity
  8
0
100
AcDbBlockEnd
  0
BLOCK
  5
D18
330
CD4
100
AcDbEntity
  8
0
100
AcDbBlockBegin
  2
new A3-S11
 70
     0
 10
0.0
 20
0.0
 30
0.0
  3
new A3-S11
  1

  0
LINE
  5
CD5
330
CD4
100
AcDbEntity
  8
0
  6
Continuous
 62
   255
100
AcDbLine
 10
795.462730356111
 20
-277.0
 30
0.0
 11
795.462730356111
 21
0.0
 31
0.0
  0
LINE
  5
CD6
330
CD4
100
AcDbEntity
  8
0
  6
Continuous
 62
   255
100
AcDbLine
 10
412.4627639465111
 20
-277.0
 30
0.0
 11
795.462730356111
 21
-277.0
 31
0.0
  0
LINE
  5
CD7
330
CD4
100
AcDbEntity
  8
0
  6
Continuous
 62
   255
100
AcDbLine
 10
402.4627639465111
 20
0.0
 30
0.0
 11
402.4627639465111
 21
-222.0000000000001
 31
0.0
  0
LINE
  5
CD8
330
CD4
100
AcDbEntity
  8
0
  6
Continuous
 62
   255
100
AcDbLine
 10
402.4627639465111
 20
0.0
 30
0.0
 11
795.462730356111
 21
0.0
 31
0.0
  0
LINE
  5
CD9
330
CD4
100
AcDbEntity
  8
1
 62
     2
100
AcDbLine
 10
615.4627303561103
 20
-240.7736213082135
 30
0.0
 11
615.4627303561103
 21
-233.1532223398645
 31
0.0
1001
AcDbBlockRepETag
1070
     1
1071
     2034
1005
0
  0
LINE
  5
CDA
330
CD4
100
AcDbEntity
  8
1
 62
     2
100
AcDbLine
 10
755.4627303560963
 20
-240.7736213082135
 30
0.0
 11
615.4627303561103
 21
-240.7736213082135
 31
0.0
1001
AcDbBlockRepETag
1070
     1
1071
     2035
1005
0
  0
LINE
  5
CDB
330
CD4
100
AcDbEntity
  8
1
 62
     2
100
AcDbLine
 10
755.4627303560963
 20
-233.1532223398645
 30
0.0
 11
755.4627303560963
 21
-240.7736213082135
 31
0.0
1001
AcDbBlockRepETag
1070
     1
1071
     2036
1005
0
  0
LINE
  5
CDC
330
CD4
100
AcDbEntity
  8
1
 62
     2
100
AcDbLine
 10
615.4627303561103
 20
-233.1532223398645
 30
0.0
 11
755.4627303560963
 21
-233.1532223398645
 31
0.0
1001
AcDbBlockRepETag
1070
     1
1071
     2037
1005
0
  0
LINE
  5
CDD
330
CD4
100
AcDbEntity
  8
0
  6
Continuous
 62
   255
100
AcDbLine
 10
412.4627639465111
 20
-222.0
 30
0.0
 11
412.4627639465111
 21
-277.0
 31
0.0
1001
AcDbBlockRepETag
1070
     1
1071
     1946
1005
0
  0
LINE
  5
CDE
330
CD4
100
AcDbEntity
  8
0
  6
Continuous
 62
   255
100
AcDbLine
 10
412.4627639465111
 20
-222.0
 30
0.0
 11
402.4627639465111
 21
-222.0
 31
0.0
  0
LINE
  5
CDF
330
CD4
100
AcDbEntity
  8
0
  6
CENTER
 62
     2
 48
0.2
370
     9
100
AcDbLine
 10
790.0016616277157
 20
-260.4561080562671
 30
0.0
 11
790.0016616277157
 21
-253.4561099688349
 31
0.0
1001
AcDbBlockRepETag
1070
     1
1071
        1
1005
0
  0
LINE
  5
CE0
330
CD4
100
AcDbEntity
  8
0
  6
CENTER
 62
     2
 48
0.2
370
     9
100
AcDbLine
 10
775.6438450240919
 20
-256.956109012551
 30
0.0
 11
784.6438425650753
 21
-256.956109012551
 31
0.0
1001
AcDbBlockRepETag
1070
     1
1071
        9
1005
0
  0
LINE
  5
CE1
330
CD4
100
AcDbEntity
  8
0
  6
Continuous
 62
   255
100
AcDbLine
 10
784.1438427016878
 20
-253.8561098595453
 30
0.0
 11
776.1438448874794
 21
-255.4561094223869
 31
0.0
1001
AcDbBlockRepETag
1070
     1
1071
       10
1005
0
  0
LINE
  5
CE2
330
CD4
100
AcDbEntity
  8
0
  6
Continuous
 62
   255
100
AcDbLine
 10
784.1438427016878
 20
-260.0561081655568
 30
0.0
 11
784.1438427016878
 21
-253.8561098595453
 31
0.0
1001
AcDbBlockRepETag
1070
     1
1071
       11
1005
0
  0
LINE
  5
CE3
330
CD4
100
AcDbEntity
  8
0
  6
Continuous
 62
   255
100
AcDbLine
 10
776.1438448874794
 20
-258.4561086027151
 30
0.0
 11
784.1438427016878
 21
-260.0561081655568
 31
0.0
1001
AcDbBlockRepETag
1070
     1
1071
       12
1005
0
  0
LINE
  5
CE4
330
CD4
100
AcDbEntity
  8
0
  6
Continuous
 62
   255
100
AcDbLine
 10
776.1438448874794
 20
-255.4561094223869
 30
0.0
 11
776.1438448874794
 21
-258.4561086027151
 31
0.0
1001
AcDbBlockRepETag
1070
     1
1071
       13
1005
0
  0
LINE
  5
CE5
330
CD4
100
AcDbEntity
  8
0
  6
Continuous
 62
   255
100
AcDbLine
 10
732.4627505746857
 20
-255.0000010928959
 30
0.0
 11
732.4627505746857
 21
-273.0000010928959
 31
0.0
1001
AcDbBlockRepETag
1070
     1
1071
       20
1005
0
  0
LINE
  5
CE6
330
CD4
100
AcDbEntity
  8
0
  6
Continuous
 62
   255
100
AcDbLine
 10
647.4627707932584
 20
-255.0000010928961
 30
0.0
 11
647.4627707932584
 21
-273.0000010928959
 31
0.0
1001
AcDbBlockRepETag
1070
     1
1071
       22
1005
0
  0
LINE
  5
CE7
330
CD4
100
AcDbEntity
  8
0
  6
Continuous
 62
   255
100
AcDbLine
 10
612.4627803560981
 20
-233.1532223398645
 30
0.0
 11
612.4627803560981
 21
-277.0
 31
0.0
1001
AcDbBlockRepETag
1070
     1
1071
       26
1005
0
  0
LINE
  5
CE8
330
CD4
100
AcDbEntity
  8
0
  6
Continuous
 62
   255
100
AcDbLine
 10
587.4627871866977
 20
-257.5000053278675
 30
0.0
 11
587.462787186698
 21
-277.0
 31
0.0
1001
AcDbBlockRepETag
1070
     1
1071
       29
1005
0
  0
LINE
  5
CE9
330
CD4
100
AcDbEntity
  8
0
  6
Continuous
 62
     2
370
     9
100
AcDbLine
 10
429.4627803560981
 20
-266.5000028688518
 30
0.0
 11
612.4627803560981
 21
-266.5000028688518
 31
0.0
1001
AcDbBlockRepETag
1070
     1
1071
       30
1005
0
  0
LINE
  5
CEA
330
CD4
100
AcDbEntity
  8
0
  6
Continuous
 62
   255
100
AcDbLine
 10
429.4627803560981
 20
-271.0000016393439
 30
0.0
 11
612.4627803560981
 21
-271.0000016393439
 31
0.0
1001
AcDbBlockRepETag
1070
     1
1071
       31
1005
0
  0
LINE
  5
CEB
330
CD4
100
AcDbEntity
  8
0
  6
Continuous
 62
   255
100
AcDbLine
 10
429.4627803560981
 20
-277.0
 30
0.0
 11
429.4627803560979
 21
-233.1532223398645
 31
0.0
1001
AcDbBlockRepETag
1070
     1
1071
       32
1005
0
  0
LINE
  5
CEC
330
CD4
100
AcDbEntity
  8
0
  6
Continuous
 62
     2
370
     9
100
AcDbLine
 10
612.4627803560981
 20
-262.0000040983596
 30
0.0
 11
429.4627803560981
 21
-262.0000040983596
 31
0.0
1001
AcDbBlockRepETag
1070
     1
1071
       33
1005
0
  0
LINE
  5
CED
330
CD4
100
AcDbEntity
  8
0
  6
Continuous
 62
   255
100
AcDbLine
 10
562.4627940172972
 20
-257.5000053278675
 30
0.0
 11
562.4627940172975
 21
-277.0
 31
0.0
1001
AcDbBlockRepETag
1070
     1
1071
       34
1005
0
  0
LINE
  5
CEE
330
CD4
100
AcDbEntity
  8
0
  6
Continuous
 62
   255
100
AcDbLine
 10
537.4628008478957
 20
-257.5000053278675
 30
0.0
 11
537.4628008478957
 21
-277.0
 31
0.0
1001
AcDbBlockRepETag
1070
     1
1071
       35
1005
0
  0
LINE
  5
CEF
330
CD4
100
AcDbEntity
  8
0
  6
Continuous
 62
   255
100
AcDbLine
 10
436.362828470839
 20
-257.5000053278675
 30
0.0
 11
436.362828470839
 21
-277.0
 31
0.0
1001
AcDbBlockRepETag
1070
     1
1071
       36
1005
0
  0
LINE
  5
CF0
330
CD4
100
AcDbEntity
  8
0
  6
CENTER
 62
     2
 48
0.2
370
     9
100
AcDbLine
 10
786.4016626113227
 20
-256.956109012551
 30
0.0
 11
793.5016606714325
 21
-256.956109012551
 31
0.0
1001
AcDbBlockRepETag
1070
     1
1071
       37
1005
0
  0
LINE
  5
CF1
330
CD4
100
AcDbEntity
  8
0
  6
Continuous
 62
   255
100
AcDbLine
 10
795.4627303561112
 20
-273.0000010928959
 30
0.0
 11
612.4627803560981
 21
-273.0000010928959
 31
0.0
1001
AcDbBlockRepETag
1070
     1
1071
       38
1005
0
  0
CIRCLE
  5
CF2
330
CD4
100
AcDbEntity
  8
0
  6
Continuous
 62
   255
100
AcDbCircle
 10
790.0016616277157
 20
-256.956109012551
 30
0.0
 40
3.099999153005696
1001
AcDbBlockRepETag
1070
     1
1071
       39
1005
0
  0
CIRCLE
  5
CF3
330
CD4
100
AcDbEntity
  8
0
  6
Continuous
 62
   255
100
AcDbCircle
 10
790.0016616277157
 20
-256.956109012551
 30
0.0
 40
1.499999590164046
1001
AcDbBlockRepETag
1070
     1
1071
       40
1005
0
  0
MTEXT
  5
CF4
330
CD4
100
AcDbEntity
  8
0
 62
   255
100
AcDbMText
 10
742.4886817458279
 20
-258.0961633175244
 30
0.0
 40
3.0
 41
0.0
 46
0.0
 71
     1
 72
     5
  1
Scale: X:1
 73
     1
 44
1.0
1001
AcDbBlockRepETag
1070
     1
1071
       46
1005
0
  0
MTEXT
  5
CF5
330
CD4
100
AcDbEntity
  8
0
 62
   255
100
AcDbMText
 10
785.9761987320682
 20
-266.1776207634082
 30
0.0
 40
4.5
 41
0.0
 46
0.0
 71
     1
 72
     5
  1
{\fISOCPEUR|b0|i0|c0|p34;\W1;A3}
  7
SLDTEXTSTYLE0
 73
     1
 44
1.0
1001
AcDbBlockRepETag
1070
     1
1071
       50
1005
0
  0
TEXT
  5
CF6
330
CD4
100
AcDbEntity
  8
0
  6
Continuous
 62
   255
100
AcDbText
 10
615.999552743995
 20
-275.600626952933
 30
0.0
 40
1.72391304347826
  1
This drawing remains our property. Without written approval it may not be copied, reproduced, communicated or made available to third parties.
100
AcDbText
1001
AcDbBlockRepETag
1070
     1
1071
       51
1005
0
  0
MTEXT
  5
CF7
330
CD4
100
AcDbEntity
  8
0
 62
   255
100
AcDbMText
 10
430.8431967639346
 20
-272.4012695934838
 30
0.0
 40
1.999999453552061
 41
0.0
 46
0.0
 71
     1
 72
     5
  1
No.
 73
     1
 44
1.0
1001
AcDbBlockRepETag
1070
     1
1071
       52
1005
0
  0
MTEXT
  5
CF8
330
CD4
100
AcDbEntity
  8
0
 62
   255
100
AcDbMText
 10
465.3543791596414
 20
-272.5568974675624
 30
0.0
 40
1.999999453552061
 41
0.0
 46
0.0
 71
     1
 72
     5
  1
Modifications
 73
     1
 44
1.0
1001
AcDbBlockRepETag
1070
     1
1071
       53
1005
0
  0
MTEXT
  5
CF9
330
CD4
100
AcDbEntity
  8
0
 62
   255
100
AcDbMText
 10
516.3394128285574
 20
-272.4090513971577
 30
0.0
 40
1.999999453552061
 41
0.0
 46
0.0
 71
     1
 72
     5
  1
Communication
 73
     1
 44
1.0
1001
AcDbBlockRepETag
1070
     1
1071
       54
1005
0
  0
MTEXT
  5
CFA
330
CD4
100
AcDbEntity
  8
0
 62
   255
100
AcDbMText
 10
546.4272744208374
 20
-272.4579818509886
 30
0.0
 40
1.999999453552061
 41
0.0
 46
0.0
 71
     1
 72
     5
  1
Drawn
 73
     1
 44
1.0
1001
AcDbBlockRepETag
1070
     1
1071
       55
1005
0
  0
MTEXT
  5
CFB
330
CD4
100
AcDbEntity
  8
0
 62
   255
100
AcDbMText
 10
594.082408871658
 20
-272.537497781863
 30
0.0
 40
1.999999453552061
 41
0.0
 46
0.0
 71
     1
 72
     5
  1
Approved
 73
     1
 44
1.0
1001
AcDbBlockRepETag
1070
     1
1071
       56
1005
0
  0
MTEXT
  5
CFC
330
CD4
100
AcDbEntity
  8
0
 62
   255
100
AcDbMText
 10
747.2395558258272
 20
-266.23226977527
 30
0.0
 40
4.5
 41
0.0
 46
0.0
 71
     1
 72
     5
  1
{\fISOCPEUR|b0|i0|c0|p34;\W1;\C256;Drg. No.}
  7
SLDTEXTSTYLE0
 73
     1
 44
1.0
1001
AcDbBlockRepETag
1070
     1
1071
       58
1005
0
  0
MTEXT
  5
CFD
102
{ACAD_XDICTIONARY
360
DB3
102
}
330
CD4
100
AcDbEntity
  8
0
 62
   255
100
AcDbMText
 10
690.4446702144996
 20
-257.668031930731
 30
0.0
 40
4.5
 41
0.0
 46
0.0
 71
     1
 72
     5
  1
\pi-15.075;{\fISOCPEUR|b0|i0|c0|p34;\W1;Description\P\pi-21.15;Outline drawing}
  7
SLDTEXTSTYLE0
 73
     1
 44
1.0
1001
AcDbBlockRepETag
1070
     1
1071
       59
1005
0
  0
MTEXT
  5
CFE
330
CD4
100
AcDbEntity
  8
0
 62
     1
100
AcDbMText
 10
614.8696824671969
 20
-259.2996853159084
 30
0.0
 40
5.0
 41
0.0
 46
0.0
 71
     1
 72
     5
  1
{\fISOCPEUR|b0|i0|c0|p34;\W1;Portescap}
  7
SLDTEXTSTYLE0
 73
     1
 44
1.0
1001
AcDbBlockRepETag
1070
     1
1071
       65
1005
0
  0
LINE
  5
CFF
330
CD4
100
AcDbEntity
  8
0
  6
Continuous
 62
   255
100
AcDbLine
 10
512.4628076784954
 20
-257.5000053278675
 30
0.0
 11
512.4628076784956
 21
-277.0
 31
0.0
1001
AcDbBlockRepETag
1070
     1
1071
       66
1005
0
  0
MTEXT
  5
D00
330
CD4
100
AcDbEntity
  8
0
 62
   255
100
AcDbMText
 10
569.768144688197
 20
-272.4579818509886
 30
0.0
 40
1.999999453552061
 41
0.0
 46
0.0
 71
     1
 72
     5
  1
Checked
 73
     1
 44
1.0
1001
AcDbBlockRepETag
1070
     1
1071
       67
1005
0
  0
LINE
  5
D01
330
CD4
100
AcDbEntity
  8
0
  6
Continuous
 62
   255
100
AcDbLine
 10
773.534358534004
 20
-250.0008059763035
 30
0.0
 11
773.534358534003
 21
-264.0000010928961
 31
0.0
1001
AcDbBlockRepETag
1070
     1
1071
        5
1005
0
  0
TEXT
  5
D02
330
CD4
100
AcDbEntity
  8
0
  6
Continuous
 62
   255
100
AcDbText
 10
779.6181708028425
 20
-275.600626952933
 30
0.0
 40
1.72391304347826
  1
Sheet 1 of 1
100
AcDbText
1001
AcDbBlockRepETag
1070
     1
1071
       51
1005
0
  0
INSERT
  5
D03
330
CD4
100
AcDbEntity
  8
0
 62
   255
100
AcDbBlockReference
  2
A$C08716F59
 10
429.4627803560979
 20
-257.5000053278673
 30
0.0
  0
LINE
  5
D04
330
CD4
100
AcDbEntity
  8
0
  6
Continuous
 62
   255
100
AcDbLine
 10
647.4627707932584
 20
-269.0000021857919
 30
0.0
 11
612.4627803560981
 21
-269.0000021857919
 31
0.0
1001
AcDbBlockRepETag
1070
     1
1071
       38
1005
0
  0
TEXT
  5
D05
330
CD4
100
AcDbEntity
  8
0
  6
Continuous
 62
   255
100
AcDbText
 10
615.999552743995
 20
-271.7908875797558
 30
0.0
 40
1.72391304347826
  1
PI/R&D/F/18 Rev 00
100
AcDbText
1001
AcDbBlockRepETag
1070
     1
1071
       51
1005
0
  0
MTEXT
  5
D06
330
CD4
100
AcDbEntity
  8
0
  6
Continuous
 62
   255
100
AcDbMText
 10
614.3222225762045
 20
-248.3998440810558
 30
0.0
 40
2.1
 41
122.5201940634145
 46
0.0
 71
     7
 72
     1
  1
Unless & otherwise specified, all dimensions and tolerances are in mm.
  7
style1
 73
     1
 44
1.0
1001
AcDbBlockRepETag
1070
     1
1071
       64
1005
0
  0
LINE
  5
D07
330
CD4
100
AcDbEntity
  8
0
  6
Continuous
 62
   255
100
AcDbLine
 10
612.4627803560981
 20
-250.0008059763035
 30
0.0
 11
795.4627303561112
 21
-250.0008059763035
 31
0.0
1001
AcDbBlockRepETag
1070
     1
1071
        3
1005
0
  0
LINE
  5
D08
330
CD4
100
AcDbEntity
  8
0
  6
Continuous
 62
   255
100
AcDbLine
 10
773.5343585340038
 20
-255.000001092896
 30
0.0
 11
747.743499713406
 21
-255.0000010928961
 31
0.0
1001
AcDbBlockRepETag
1070
     1
1071
       38
1005
0
  0
LINE
  5
D09
330
CD4
100
AcDbEntity
  8
0
  6
Continuous
 62
   255
100
AcDbLine
 10
795.4627303561112
 20
-264.0000010928959
 30
0.0
 11
732.4627505746859
 21
-264.0000010928962
 31
0.0
1001
AcDbBlockRepETag
1070
     1
1071
       38
1005
0
  0
MTEXT
  5
D0A
330
CD4
100
AcDbEntity
  8
1
 62
     4
100
AcDbMText
 10
408.137763946511
 20
-249.4153946635623
 30
0.0
 40
4.5
 41
49.18666449634293
 46
0.0
 71
     2
 72
     5
  1
{\C256;Drg. No.}
 11
-0.0000000000000002
 21
-1.0
 31
0.0
 73
     1
 44
1.0
  0
LINE
  5
D0B
330
CD4
100
AcDbEntity
  8
0
  6
Continuous
 62
   255
100
AcDbLine
 10
783.462730356111
 20
-273.0000010928959
 30
0.0
 11
783.4627303561108
 21
-264.000001092896
 31
0.0
  0
MTEXT
  5
D0C
330
CD4
100
AcDbEntity
  8
1
 62
     3
100
AcDbMText
 10
616.955855400455
 20
-235.2485951401709
 30
0.0
 40
3.5
 41
134.8361601943441
 46
0.0
 71
     1
 72
     5
  1
Technology: Description - no. x.xxx.xx.xxxx
 73
     1
 44
1.0
  0
LINE
  5
D0D
330
CD4
100
AcDbEntity
  8
0
  6
Continuous
 62
   255
100
AcDbLine
 10
657.5563534752002
 20
-250.0008059763033
 30
0.0
 11
657.5563534752006
 21
-255.000001092896
 31
0.0
1001
AcDbBlockRepETag
1070
     1
1071
       22
1005
0
  0
LINE
  5
D0E
330
CD4
100
AcDbEntity
  8
0
  6
Continuous
 62
   255
100
AcDbLine
 10
747.7434997134055
 20
-250.0008059763033
 30
0.0
 11
747.743499713406
 21
-255.000001092896
 31
0.0
1001
AcDbBlockRepETag
1070
     1
1071
       22
1005
0
  0
LINE
  5
D0F
330
CD4
100
AcDbEntity
  8
0
  6
Continuous
 62
   255
100
AcDbLine
 10
777.1060302804662
 20
-277.0
 30
0.0
 11
777.106030280466
 21
-273.0000010928959
 31
0.0
  0
MTEXT
  5
D10
330
CD4
100
AcDbEntity
  8
0
 62
   255
100
AcDbMText
 10
614.2184337595852
 20
-251.1665621572582
 30
0.0
 40
2.5
 41
0.0
 46
0.0
 71
     1
 72
     5
  1
Drawn:
 73
     1
 44
1.0
1001
AcDbBlockRepETag
1070
     1
1071
       46
1005
0
  0
MTEXT
  5
D11
330
CD4
100
AcDbEntity
  8
0
 62
   255
100
AcDbMText
 10
659.8380221434101
 20
-251.1665621572539
 30
0.0
 40
2.5
 41
0.0
 46
0.0
 71
     1
 72
     5
  1
Checked:
 73
     1
 44
1.0
1001
AcDbBlockRepETag
1070
     1
1071
       46
1005
0
  0
MTEXT
  5
D12
330
CD4
100
AcDbEntity
  8
0
 62
   255
100
AcDbMText
 10
705.588009643413
 20
-251.1665621572539
 30
0.0
 40
2.5
 41
0.0
 46
0.0
 71
     1
 72
     5
  1
Approved:
 73
     1
 44
1.0
1001
AcDbBlockRepETag
1070
     1
1071
       46
1005
0
  0
MTEXT
  5
D13
330
CD4
100
AcDbEntity
  8
0
 62
   255
100
AcDbMText
 10
749.3687540007138
 20
-251.1665621572497
 30
0.0
 40
2.5
 41
0.0
 46
0.0
 71
     1
 72
     5
  1
Revision No: 00
 73
     1
 44
1.0
1001
AcDbBlockRepETag
1070
     1
1071
       46
1005
0
  0
LINE
  5
D14
330
CD4
100
AcDbEntity
  8
0
  6
Continuous
 62
   255
100
AcDbLine
 10
747.7434997134057
 20
-255.0000010928962
 30
0.0
 11
612.4627803560981
 21
-255.0000010928959
 31
0.0
1001
AcDbBlockRepETag
1070
     1
1071
       38
1005
0
  0
LINE
  5
D15
330
CD4
100
AcDbEntity
  8
0
  6
Continuous
 62
   255
100
AcDbLine
 10
702.6499265943025
 20
-250.0008059762993
 30
0.0
 11
702.649926594303
 21
-255.0000010928919
 31
0.0
1001
AcDbBlockRepETag
1070
     1
1071
       22
1005
0
  0
ENDBLK
  5
D19
330
CD4
100
AcDbEntity
  8
0
100
AcDbBlockEnd
  0
ENDSEC
  0
SECTION
  2
ENTITIES
  0
INSERT
  5
21E
330
74
100
AcDbEntity
  8
0
100
AcDbBlockReference
  2
TOP_TOP_
 10
0.0
 20
0.0
 30
0.0
 41
2.0
 42
2.0
 43
2.0
  0
LINE
  5
763
330
74
100
AcDbEntity
  8
1
 62
   255
100
AcDbLine
 10
549.6381131469674
 20
43.70194971164766
 30
0.0
 11
549.6381131469674
 21
43.85194971164766
 31
0.0
  0
LINE
  5
764
330
74
100
AcDbEntity
  8
1
 62
   255
100
AcDbLine
 10
551.1381131469675
 20
43.70194971164766
 30
0.0
 11
551.1381131469675
 21
43.85194971164766
 31
0.0
  0
LINE
  5
765
330
74
100
AcDbEntity
  8
1
 62
   255
100
AcDbLine
 10
548.8881131469675
 20
43.85194971164766
 30
0.0
 11
548.8881131469675
 21
44.15194971164766
 31
0.0
  0
LINE
  5
766
330
74
100
AcDbEntity
  8
1
 62
   255
100
AcDbLine
 10
551.8881131469675
 20
43.85194971164766
 30
0.0
 11
548.8881131469675
 21
43.85194971164766
 31
0.0
  0
LINE
  5
767
330
74
100
AcDbEntity
  8
1
 62
   255
100
AcDbLine
 10
551.8881131469675
 20
44.15194971164766
 30
0.0
 11
551.8881131469675
 21
43.85194971164766
 31
0.0
  0
LINE
  5
768
330
74
100
AcDbEntity
  8
1
 62
   255
100
AcDbLine
 10
549.6381131469674
 20
44.95194971164766
 30
0.0
 11
549.6381131469674
 21
44.65194971164765
 31
0.0
  0
LINE
  5
769
330
74
100
AcDbEntity
  8
1
 62
   255
100
AcDbLine
 10
551.1381131469675
 20
44.95194971164766
 30
0.0
 11
549.6381131469674
 21
44.95194971164766
 31
0.0
  0
LINE
  5
76A
330
74
100
AcDbEntity
  8
1
 62
   255
100
AcDbLine
 10
551.1381131469675
 20
44.65194971164765
 30
0.0
 11
551.1381131469675
 21
44.95194971164766
 31
0.0
  0
LINE
  5
76B
330
74
100
AcDbEntity
  8
1
 62
   255
100
AcDbLine
 10
554.8881131469674
 20
44.65194971164765
 30
0.0
 11
554.8881131469674
 21
42.85194971164766
 31
0.0
  0
LINE
  5
76C
330
74
100
AcDbEntity
  8
1
 62
   255
100
AcDbLine
 10
545.8881131469675
 20
44.65194971164765
 30
0.0
 11
554.8881131469674
 21
44.65194971164765
 31
0.0
  0
LINE
  5
76D
330
74
100
AcDbEntity
  8
1
 62
   255
100
AcDbLine
 10
545.8881131469675
 20
44.15194971164766
 30
0.0
 11
545.8881131469675
 21
44.65194971164765
 31
0.0
  0
LINE
  5
76E
330
74
100
AcDbEntity
  8
1
 62
   255
100
AcDbLine
 10
552.8881131469675
 20
44.15194971164766
 30
0.0
 11
545.8881131469675
 21
44.15194971164766
 31
0.0
  0
LINE
  5
76F
330
74
100
AcDbEntity
  8
1
 62
   255
100
AcDbLine
 10
546.3881131469674
 20
43.70194971164766
 30
0.0
 11
552.4381131469674
 21
43.70194971164766
 31
0.0
  0
LINE
  5
770
330
74
100
AcDbEntity
  8
1
 62
   255
100
AcDbLine
 10
545.8881131469675
 20
41.35194971164766
 30
0.0
 11
545.8881131469675
 21
43.20194971164767
 31
0.0
  0
LINE
  5
771
330
74
100
AcDbEntity
  8
1
 62
   255
100
AcDbLine
 10
552.8881131469675
 20
40.85194971164766
 30
0.0
 11
546.3881131469674
 21
40.85194971164766
 31
0.0
  0
LINE
  5
772
330
74
100
AcDbEntity
  8
1
 62
   255
100
AcDbLine
 10
554.8881131469674
 20
42.85194971164766
 30
0.0
 11
552.8881131469675
 21
40.85194971164766
 31
0.0
  0
LINE
  5
773
330
74
100
AcDbEntity
  8
1
 62
   255
100
AcDbLine
 10
551.1381131469675
 20
59.50194971164767
 30
0.0
 11
551.1381131469675
 21
59.35194971164766
 31
0.0
  0
LINE
  5
774
330
74
100
AcDbEntity
  8
1
 62
   255
100
AcDbLine
 10
549.6381131469674
 20
59.50194971164767
 30
0.0
 11
549.6381131469674
 21
59.35194971164766
 31
0.0
  0
LINE
  5
775
330
74
100
AcDbEntity
  8
1
 62
   255
100
AcDbLine
 10
551.8881131469675
 20
59.35194971164766
 30
0.0
 11
551.8881131469675
 21
59.05194971164767
 31
0.0
  0
LINE
  5
776
330
74
100
AcDbEntity
  8
1
 62
   255
100
AcDbLine
 10
548.8881131469675
 20
59.35194971164766
 30
0.0
 11
551.8881131469675
 21
59.35194971164766
 31
0.0
  0
LINE
  5
777
330
74
100
AcDbEntity
  8
1
 62
   255
100
AcDbLine
 10
548.8881131469675
 20
59.05194971164767
 30
0.0
 11
548.8881131469675
 21
59.35194971164766
 31
0.0
  0
LINE
  5
778
330
74
100
AcDbEntity
  8
1
 62
   255
100
AcDbLine
 10
551.1381131469675
 20
58.25194971164767
 30
0.0
 11
551.1381131469675
 21
58.55194971164767
 31
0.0
  0
LINE
  5
779
330
74
100
AcDbEntity
  8
1
 62
   255
100
AcDbLine
 10
549.6381131469674
 20
58.25194971164767
 30
0.0
 11
551.1381131469675
 21
58.25194971164767
 31
0.0
  0
LINE
  5
77A
330
74
100
AcDbEntity
  8
1
 62
   255
100
AcDbLine
 10
549.6381131469674
 20
58.55194971164767
 30
0.0
 11
549.6381131469674
 21
58.25194971164767
 31
0.0
  0
LINE
  5
77B
330
74
100
AcDbEntity
  8
1
 62
   255
100
AcDbLine
 10
545.8881131469675
 20
58.55194971164767
 30
0.0
 11
545.8881131469675
 21
60.35194971164766
 31
0.0
  0
LINE
  5
77C
330
74
100
AcDbEntity
  8
1
 62
   255
100
AcDbLine
 10
554.8881131469674
 20
58.55194971164767
 30
0.0
 11
545.8881131469675
 21
58.55194971164767
 31
0.0
  0
LINE
  5
77D
330
74
100
AcDbEntity
  8
1
 62
   255
100
AcDbLine
 10
554.8881131469674
 20
59.05194971164767
 30
0.0
 11
554.8881131469674
 21
58.55194971164767
 31
0.0
  0
LINE
  5
77E
330
74
100
AcDbEntity
  8
1
 62
   255
100
AcDbLine
 10
547.8881131469675
 20
59.05194971164767
 30
0.0
 11
554.8881131469674
 21
59.05194971164767
 31
0.0
  0
LINE
  5
77F
330
74
100
AcDbEntity
  8
1
 62
   255
100
AcDbLine
 10
554.3881131469674
 20
59.50194971164767
 30
0.0
 11
548.3381131469675
 21
59.50194971164767
 31
0.0
  0
LINE
  5
780
330
74
100
AcDbEntity
  8
1
 62
   255
100
AcDbLine
 10
554.8881131469674
 20
61.85194971164766
 30
0.0
 11
554.8881131469674
 21
60.00194971164766
 31
0.0
  0
LINE
  5
781
330
74
100
AcDbEntity
  8
1
 62
   255
100
AcDbLine
 10
547.8881131469675
 20
62.35194971164766
 30
0.0
 11
554.3881131469674
 21
62.35194971164766
 31
0.0
  0
LINE
  5
782
330
74
100
AcDbEntity
  8
1
 62
   255
100
AcDbLine
 10
545.8881131469675
 20
60.35194971164766
 30
0.0
 11
547.8881131469675
 21
62.35194971164766
 31
0.0
  0
LINE
  5
783
330
74
100
AcDbEntity
  8
1
 62
     3
100
AcDbLine
 10
557.8881131469675
 20
58.10194971164766
 30
0.0
 11
557.8881131469675
 21
60.10194971164766
 31
0.0
  0
LINE
  5
784
330
74
100
AcDbEntity
  8
1
 62
     3
100
AcDbLine
 10
557.8881131469675
 20
45.10194971164766
 30
0.0
 11
557.8881131469675
 21
43.10194971164766
 31
0.0
  0
LINE
  5
785
330
74
100
AcDbEntity
  8
1
 62
     3
100
AcDbLine
 10
556.8881131469675
 20
44.10194971164766
 30
0.0
 11
558.8881131469674
 21
44.10194971164766
 31
0.0
  0
LINE
  5
786
330
74
100
AcDbEntity
  8
1
  6
CENTER
 62
     2
100
AcDbLine
 10
533.8881131469674
 20
51.60194971164766
 30
0.0
 11
566.8881131469674
 21
51.60194971164766
 31
0.0
  0
LINE
  5
787
330
74
100
AcDbEntity
  8
1
  6
CENTER
 62
     2
100
AcDbLine
 10
550.3881131469674
 20
68.10194971164766
 30
0.0
 11
550.3881131469674
 21
35.10194971164767
 31
0.0
  0
LINE
  5
788
330
74
100
AcDbEntity
  8
1
 62
   255
100
AcDbLine
 10
414.0898428209562
 20
53.5379939606872
 30
0.0
 11
414.3278775628629
 21
53.77602870259379
 31
0.0
  0
LINE
  5
789
330
74
100
AcDbEntity
  8
1
 62
   255
100
AcDbLine
 10
412.1078505623017
 20
50.25702492548361
 30
0.0
 11
411.9317601682839
 21
49.59984662828458
 31
0.0
  0
LINE
  5
78A
330
74
100
AcDbEntity
  8
1
 62
   255
100
AcDbLine
 10
412.8483487310721
 20
53.77602870259379
 30
0.0
 11
413.0863834729787
 21
53.5379939606872
 31
0.0
  0
LINE
  5
78B
330
74
100
AcDbEntity
  8
1
 62
   255
100
AcDbLine
 10
411.643890937445
 20
52.10194971164765
 30
0.0
 11
411.5589507581971
 21
52.10194971164765
 31
0.0
  0
LINE
  5
78C
330
74
100
AcDbEntity
  8
1
 62
   255
100
AcDbLine
 10
415.5323353564898
 20
52.10194971164765
 30
0.0
 11
415.6172755357378
 21
52.10194971164765
 31
0.0
  0
LINE
  5
78D
330
74
100
AcDbEntity
  8
1
 62
   255
100
AcDbLine
 10
415.244466125651
 20
49.59984662828458
 30
0.0
 11
415.0683757316333
 21
50.25702492548361
 31
0.0
  0
LINE
  5
78E
330
74
100
AcDbEntity
  8
1
  6
CENTER
 62
     2
 48
0.5
100
AcDbLine
 10
419.8068631469674
 20
62.37314067121658
 30
0.0
 11
407.3693631469675
 21
40.83075875207874
 31
0.0
  0
LINE
  5
78F
330
74
100
AcDbEntity
  8
1
  6
CENTER
 62
     2
 48
0.75
100
AcDbLine
 10
413.5881131469674
 20
68.10194971164766
 30
0.0
 11
413.5881131469674
 21
35.10194971164765
 31
0.0
  0
LINE
  5
790
330
74
100
AcDbEntity
  8
1
  6
CENTER
 62
     2
 48
0.75
100
AcDbLine
 10
397.0881131469675
 20
51.60194971164766
 30
0.0
 11
430.0881131469674
 21
51.60194971164766
 31
0.0
  0
LINE
  5
791
330
74
100
AcDbEntity
  8
1
 62
   255
100
AcDbLine
 10
444.9381131469674
 20
44.95194971164766
 30
0.0
 11
444.9381131469674
 21
44.65194971164765
 31
0.0
  0
LINE
  5
792
330
74
100
AcDbEntity
  8
1
 62
   255
100
AcDbLine
 10
446.4381131469675
 20
44.95194971164766
 30
0.0
 11
444.9381131469674
 21
44.95194971164766
 31
0.0
  0
LINE
  5
793
330
74
100
AcDbEntity
  8
1
 62
   255
100
AcDbLine
 10
446.4381131469675
 20
44.65194971164765
 30
0.0
 11
446.4381131469675
 21
44.95194971164766
 31
0.0
  0
LINE
  5
794
330
74
100
AcDbEntity
  8
1
 62
   255
100
AcDbLine
 10
444.9381131469674
 20
43.55194971164766
 30
0.0
 11
444.9381131469674
 21
43.85194971164766
 31
0.0
  0
LINE
  5
795
330
74
100
AcDbEntity
  8
1
 62
   255
100
AcDbLine
 10
446.4381131469675
 20
43.55194971164766
 30
0.0
 11
444.9381131469674
 21
43.55194971164766
 31
0.0
  0
LINE
  5
796
330
74
100
AcDbEntity
  8
1
 62
   255
100
AcDbLine
 10
446.4381131469675
 20
43.85194971164766
 30
0.0
 11
446.4381131469675
 21
43.55194971164766
 31
0.0
  0
LINE
  5
797
330
74
100
AcDbEntity
  8
1
 62
   255
100
AcDbLine
 10
444.1881131469675
 20
43.85194971164766
 30
0.0
 11
444.1881131469675
 21
44.15194971164766
 31
0.0
  0
LINE
  5
798
330
74
100
AcDbEntity
  8
1
 62
   255
100
AcDbLine
 10
447.1881131469674
 20
43.85194971164766
 30
0.0
 11
444.1881131469675
 21
43.85194971164766
 31
0.0
  0
LINE
  5
799
330
74
100
AcDbEntity
  8
1
 62
   255
100
AcDbLine
 10
443.2881131469675
 20
44.65194971164765
 30
0.0
 11
447.1881131469674
 21
44.65194971164765
 31
0.0
  0
LINE
  5
79A
330
74
100
AcDbEntity
  8
1
 62
   255
100
AcDbLine
 10
442.5881131469674
 20
40.85194971164766
 30
0.0
 11
442.5881131469674
 21
43.95194971164767
 31
0.0
  0
LINE
  5
79B
330
74
100
AcDbEntity
  8
1
 62
   255
100
AcDbLine
 10
443.0881131469674
 20
40.85194971164765
 30
0.0
 11
442.5881131469674
 21
40.85194971164766
 31
0.0
  0
LINE
  5
79C
330
74
100
AcDbEntity
  8
1
 62
   255
100
AcDbLine
 10
443.0881131469674
 20
43.95194971164767
 30
0.0
 11
443.0881131469674
 21
40.85194971164765
 31
0.0
  0
LINE
  5
79D
330
74
100
AcDbEntity
  8
1
 62
   255
100
AcDbLine
 10
447.1881131469674
 20
44.15194971164766
 30
0.0
 11
443.2881131469675
 21
44.15194971164766
 31
0.0
  0
LINE
  5
79E
330
74
100
AcDbEntity
  8
1
 62
   255
100
AcDbLine
 10
444.9381131469674
 20
58.55194971164767
 30
0.0
 11
444.9381131469674
 21
58.25194971164767
 31
0.0
  0
LINE
  5
79F
330
74
100
AcDbEntity
  8
1
 62
   255
100
AcDbLine
 10
444.9381131469674
 20
58.25194971164767
 30
0.0
 11
446.4381131469675
 21
58.25194971164767
 31
0.0
  0
LINE
  5
7A0
330
74
100
AcDbEntity
  8
1
 62
   255
100
AcDbLine
 10
446.4381131469675
 20
58.25194971164767
 30
0.0
 11
446.4381131469675
 21
58.55194971164767
 31
0.0
  0
LINE
  5
7A1
330
74
100
AcDbEntity
  8
1
 62
   255
100
AcDbLine
 10
444.9381131469674
 20
59.35194971164766
 30
0.0
 11
444.9381131469674
 21
59.65194971164766
 31
0.0
  0
LINE
  5
7A2
330
74
100
AcDbEntity
  8
1
 62
   255
100
AcDbLine
 10
444.9381131469674
 20
59.65194971164766
 30
0.0
 11
446.4381131469675
 21
59.65194971164766
 31
0.0
  0
LINE
  5
7A3
330
74
100
AcDbEntity
  8
1
 62
   255
100
AcDbLine
 10
446.4381131469675
 20
59.65194971164766
 30
0.0
 11
446.4381131469675
 21
59.35194971164766
 31
0.0
  0
LINE
  5
7A4
330
74
100
AcDbEntity
  8
1
 62
   255
100
AcDbLine
 10
444.1881131469675
 20
59.05194971164767
 30
0.0
 11
444.1881131469675
 21
59.35194971164766
 31
0.0
  0
LINE
  5
7A5
330
74
100
AcDbEntity
  8
1
 62
   255
100
AcDbLine
 10
444.1881131469675
 20
59.35194971164766
 30
0.0
 11
447.1881131469674
 21
59.35194971164766
 31
0.0
  0
LINE
  5
7A6
330
74
100
AcDbEntity
  8
1
 62
   255
100
AcDbLine
 10
447.1881131469674
 20
58.55194971164767
 30
0.0
 11
443.2881131469675
 21
58.55194971164767
 31
0.0
  0
LINE
  5
7A7
330
74
100
AcDbEntity
  8
1
 62
   255
100
AcDbLine
 10
442.5881131469674
 20
59.25194971164767
 30
0.0
 11
442.5881131469674
 21
62.35194971164766
 31
0.0
  0
LINE
  5
7A8
330
74
100
AcDbEntity
  8
1
 62
   255
100
AcDbLine
 10
442.5881131469674
 20
62.35194971164766
 30
0.0
 11
443.0881131469674
 21
62.35194971164766
 31
0.0
  0
LINE
  5
7A9
330
74
100
AcDbEntity
  8
1
 62
   255
100
AcDbLine
 10
443.0881131469674
 20
62.35194971164766
 30
0.0
 11
443.0881131469674
 21
59.25194971164767
 31
0.0
  0
LINE
  5
7AA
330
74
100
AcDbEntity
  8
1
 62
   255
100
AcDbLine
 10
443.2881131469675
 20
59.05194971164767
 30
0.0
 11
447.1881131469674
 21
59.05194971164767
 31
0.0
  0
LINE
  5
7AB
330
74
100
AcDbEntity
  8
1
 62
   255
100
AcDbLine
 10
446.1881131469675
 20
46.40194971164766
 30
0.0
 11
446.4881131469674
 21
46.10194971164765
 31
0.0
  0
LINE
  5
7AC
330
74
100
AcDbEntity
  8
1
 62
   255
100
AcDbLine
 10
446.4881131469674
 20
57.10194971164766
 30
0.0
 11
446.1881131469675
 21
56.80194971164765
 31
0.0
  0
LINE
  5
7AD
330
74
100
AcDbEntity
  8
1
 62
     2
100
AcDbLine
 10
446.4881131469674
 20
46.10194971164765
 30
0.0
 11
446.4881131469674
 21
57.10194971164766
 31
0.0
  0
LINE
  5
7AE
330
74
100
AcDbEntity
  8
1
 62
   255
100
AcDbLine
 10
447.1881131469674
 20
46.10194971164765
 30
0.0
 11
446.4881131469674
 21
46.10194971164765
 31
0.0
  0
LINE
  5
7AF
330
74
100
AcDbEntity
  8
1
 62
   255
100
AcDbLine
 10
446.1881131469675
 20
46.40194971164766
 30
0.0
 11
446.1881131469675
 21
56.80194971164765
 31
0.0
  0
LINE
  5
7B0
330
74
100
AcDbEntity
  8
1
 62
   255
100
AcDbLine
 10
446.4881131469674
 20
57.10194971164766
 30
0.0
 11
447.1881131469674
 21
57.10194971164766
 31
0.0
  0
LINE
  5
7B1
330
74
100
AcDbEntity
  8
1
 62
   255
100
AcDbLine
 10
447.1881131469674
 20
39.20194971164766
 30
0.0
 11
447.6881131469674
 21
38.70194971164766
 31
0.0
  0
LINE
  5
7B2
330
74
100
AcDbEntity
  8
1
 62
   255
100
AcDbLine
 10
447.6881131469674
 20
64.50194971164766
 30
0.0
 11
447.1881131469674
 21
64.00194971164765
 31
0.0
  0
LINE
  5
7B3
330
74
100
AcDbEntity
  8
1
 62
     2
100
AcDbLine
 10
447.6881131469674
 20
38.70194971164766
 30
0.0
 11
447.6881131469674
 21
64.50194971164766
 31
0.0
  0
LINE
  5
7B4
330
74
100
AcDbEntity
  8
1
 62
   255
100
AcDbLine
 10
449.1881131469675
 20
38.70194971164766
 30
0.0
 11
447.6881131469674
 21
38.70194971164766
 31
0.0
  0
LINE
  5
7B5
330
74
100
AcDbEntity
  8
1
 62
   255
100
AcDbLine
 10
447.1881131469674
 20
39.20194971164766
 30
0.0
 11
447.1881131469674
 21
64.00194971164765
 31
0.0
  0
LINE
  5
7B6
330
74
100
AcDbEntity
  8
1
 62
   255
100
AcDbLine
 10
447.6881131469674
 20
64.50194971164766
 30
0.0
 11
449.1881131469675
 21
64.50194971164766
 31
0.0
  0
LINE
  5
7B7
330
74
100
AcDbEntity
  8
1
 62
   255
100
AcDbLine
 10
449.1881131469675
 20
38.70194971164766
 30
0.0
 11
449.1881131469675
 21
64.50194971164766
 31
0.0
  0
LINE
  5
7B8
330
74
100
AcDbEntity
  8
1
 62
   255
100
AcDbLine
 10
449.3881131469675
 20
38.62694971164766
 30
0.0
 11
449.1881131469675
 21
38.82694971164766
 31
0.0
  0
LINE
  5
7B9
330
74
100
AcDbEntity
  8
1
 62
   255
100
AcDbLine
 10
449.3881131469675
 20
64.57694971164766
 30
0.0
 11
449.1881131469675
 21
64.37694971164765
 31
0.0
  0
LINE
  5
7BA
330
74
100
AcDbEntity
  8
1
 62
   255
100
AcDbLine
 10
454.1881131469674
 20
64.57694971164766
 30
0.0
 11
454.1881131469674
 21
38.62694971164766
 31
0.0
  0
LINE
  5
7BB
330
74
100
AcDbEntity
  8
1
 62
     2
100
AcDbLine
 10
454.7798971728869
 20
37.60194971164765
 30
0.0
 11
454.7798971728869
 21
65.60194971164766
 31
0.0
  0
LINE
  5
7BC
330
74
100
AcDbEntity
  8
1
 62
     2
100
AcDbLine
 10
449.3881131469675
 20
64.57694971164766
 30
0.0
 11
449.3881131469675
 21
38.62694971164766
 31
0.0
  0
LINE
  5
7BD
330
74
100
AcDbEntity
  8
1
 62
   255
100
AcDbLine
 10
449.3881131469675
 20
38.62694971164766
 30
0.0
 11
454.1881131469674
 21
38.62694971164766
 31
0.0
  0
LINE
  5
7BE
330
74
100
AcDbEntity
  8
1
 62
   255
100
AcDbLine
 10
454.1881131469674
 20
38.62694971164766
 30
0.0
 11
454.7798971728869
 21
37.60194971164765
 31
0.0
  0
LINE
  5
7BF
330
74
100
AcDbEntity
  8
1
 62
   255
100
AcDbLine
 10
454.7798971728869
 20
37.60194971164765
 30
0.0
 11
497.7631131469674
 21
37.60194971164767
 31
0.0
  0
LINE
  5
7C0
330
74
100
AcDbEntity
  8
1
 62
   255
100
AcDbLine
 10
449.3881131469675
 20
64.57694971164766
 30
0.0
 11
454.1881131469674
 21
64.57694971164766
 31
0.0
  0
LINE
  5
7C1
330
74
100
AcDbEntity
  8
1
 62
   255
100
AcDbLine
 10
454.1881131469674
 20
64.57694971164766
 30
0.0
 11
454.7798971728869
 21
65.60194971164766
 31
0.0
  0
LINE
  5
7C2
330
74
100
AcDbEntity
  8
1
 62
   255
100
AcDbLine
 10
454.7798971728869
 20
65.60194971164766
 30
0.0
 11
497.7631131469675
 21
65.60194971164766
 31
0.0
  0
LINE
  5
7C3
330
74
100
AcDbEntity
  8
1
 62
     2
100
AcDbLine
 10
507.6881131469675
 20
37.72694971164766
 30
0.0
 11
507.6881131469675
 21
65.47694971164762
 31
0.0
  0
LINE
  5
7C4
330
74
100
AcDbEntity
  8
1
 62
     2
100
AcDbLine
 10
497.7631131469674
 20
37.60194971164767
 30
0.0
 11
497.7631131469675
 21
65.60194971164766
 31
0.0
  0
LINE
  5
7C5
330
74
100
AcDbEntity
  8
1
 62
   255
100
AcDbLine
 10
497.7631131469675
 20
65.60194971164766
 30
0.0
 11
497.8881131469675
 21
65.47694971164762
 31
0.0
  0
LINE
  5
7C6
330
74
100
AcDbEntity
  8
1
 62
   255
100
AcDbLine
 10
497.8881131469675
 20
65.47694971164762
 30
0.0
 11
497.8881131469675
 21
37.72694971164766
 31
0.0
  0
LINE
  5
7C7
330
74
100
AcDbEntity
  8
1
 62
   255
100
AcDbLine
 10
497.7631131469674
 20
37.60194971164767
 30
0.0
 11
497.8881131469675
 21
37.72694971164766
 31
0.0
  0
LINE
  5
7C8
330
74
100
AcDbEntity
  8
1
 62
   255
100
AcDbLine
 10
497.8881131469675
 20
37.72694971164766
 30
0.0
 11
507.6881131469675
 21
37.72694971164766
 31
0.0
  0
LINE
  5
7C9
330
74
100
AcDbEntity
  8
1
 62
   255
100
AcDbLine
 10
507.6881131469675
 20
37.72694971164766
 30
0.0
 11
507.8881131469675
 21
37.92694971164767
 31
0.0
  0
LINE
  5
7CA
330
74
100
AcDbEntity
  8
1
 62
   255
100
AcDbLine
 10
497.8881131469675
 20
65.47694971164762
 30
0.0
 11
507.6881131469675
 21
65.47694971164762
 31
0.0
  0
LINE
  5
7CB
330
74
100
AcDbEntity
  8
1
 62
   255
100
AcDbLine
 10
507.6881131469675
 20
65.47694971164762
 30
0.0
 11
507.8881131469675
 21
65.27694971164766
 31
0.0
  0
LINE
  5
7CC
330
74
100
AcDbEntity
  8
1
 62
     3
100
AcDbLine
 10
511.4881131469675
 20
49.60194971164766
 30
0.0
 11
511.2881131469674
 21
49.60194971164766
 31
0.0
  0
LINE
  5
7CD
330
74
100
AcDbEntity
  8
1
 62
     3
100
AcDbLine
 10
511.2881131469674
 20
53.60194971164766
 30
0.0
 11
511.4881131469675
 21
53.60194971164766
 31
0.0
  0
LINE
  5
7CE
330
74
100
AcDbEntity
  8
1
 62
   255
100
AcDbLine
 10
512.1281131469674
 20
49.60194971164766
 30
0.0
 11
521.129296797932
 21
49.60194971164766
 31
0.0
  0
LINE
  5
7CF
330
74
100
AcDbEntity
  8
1
 62
   255
100
AcDbLine
 10
521.3881131469674
 20
49.72795264712471
 30
0.0
 11
521.3881131469674
 21
53.47594677617063
 31
0.0
  0
LINE
  5
7D0
330
74
100
AcDbEntity
  8
1
 62
   255
100
AcDbLine
 10
521.129296797932
 20
53.60194971164766
 30
0.0
 11
512.1281131469674
 21
53.60194971164766
 31
0.0
  0
LINE
  5
7D1
330
74
100
AcDbEntity
  8
1
 62
   255
100
AcDbLine
 10
512.1281131469674
 20
55.10194971164766
 30
0.0
 11
512.1281131469674
 21
48.10194971164766
 31
0.0
  0
LINE
  5
7D2
330
74
100
AcDbEntity
  8
1
 62
   255
100
AcDbLine
 10
512.1281131469674
 20
48.10194971164766
 30
0.0
 11
511.4881131469675
 21
48.10194971164766
 31
0.0
  0
LINE
  5
7D3
330
74
100
AcDbEntity
  8
1
 62
   255
100
AcDbLine
 10
511.4881131469675
 20
48.10194971164766
 30
0.0
 11
511.4881131469675
 21
55.10194971164766
 31
0.0
  0
LINE
  5
7D4
330
74
100
AcDbEntity
  8
1
 62
   255
100
AcDbLine
 10
511.4881131469675
 20
55.10194971164766
 30
0.0
 11
512.1281131469674
 21
55.10194971164766
 31
0.0
  0
LINE
  5
7D5
330
74
100
AcDbEntity
  8
1
 62
     3
100
AcDbLine
 10
511.0881131469675
 20
48.10194971164766
 30
0.0
 11
511.2881131469674
 21
48.10194971164766
 31
0.0
  0
LINE
  5
7D6
330
74
100
AcDbEntity
  8
1
 62
     3
100
AcDbLine
 10
511.2881131469674
 20
48.10194971164766
 30
0.0
 11
511.2881131469674
 21
55.10194971164766
 31
0.0
  0
LINE
  5
7D7
330
74
100
AcDbEntity
  8
1
 62
     3
100
AcDbLine
 10
511.2881131469674
 20
55.10194971164766
 30
0.0
 11
511.0881131469675
 21
55.10194971164766
 31
0.0
  0
LINE
  5
7D8
330
74
100
AcDbEntity
  8
1
 62
     3
100
AcDbLine
 10
510.8881131469675
 20
47.10194971164766
 30
0.0
 11
511.0881131469675
 21
47.10194971164766
 31
0.0
  0
LINE
  5
7D9
330
74
100
AcDbEntity
  8
1
 62
     3
100
AcDbLine
 10
511.0881131469675
 20
47.10194971164766
 30
0.0
 11
511.0881131469675
 21
56.10194971164766
 31
0.0
  0
LINE
  5
7DA
330
74
100
AcDbEntity
  8
1
 62
     3
100
AcDbLine
 10
511.0881131469675
 20
56.10194971164766
 30
0.0
 11
510.8881131469675
 21
56.10194971164766
 31
0.0
  0
LINE
  5
7DB
330
74
100
AcDbEntity
  8
1
 62
   255
100
AcDbLine
 10
507.8881131469675
 20
37.72694971164766
 30
0.0
 11
507.8881131469675
 21
65.47694971164762
 31
0.0
  0
LINE
  5
7DC
330
74
100
AcDbEntity
  8
1
 62
     2
100
AcDbLine
 10
508.3881131469675
 20
65.47694971164762
 30
0.0
 11
508.3881131469675
 21
37.72694971164766
 31
0.0
  0
LINE
  5
7DD
330
74
100
AcDbEntity
  8
1
 62
   255
100
AcDbLine
 10
508.8881131469674
 20
38.22694971164766
 30
0.0
 11
508.8881131469674
 21
64.97694971164762
 31
0.0
  0
LINE
  5
7DE
330
74
100
AcDbEntity
  8
1
 62
     2
100
AcDbLine
 10
510.3881131469675
 20
58.60194971164762
 30
0.0
 11
510.3881131469675
 21
44.60194971164766
 31
0.0
  0
LINE
  5
7DF
330
74
100
AcDbEntity
  8
1
 62
   255
100
AcDbLine
 10
510.8881131469675
 20
45.10194971164766
 30
0.0
 11
510.8881131469675
 21
58.10194971164762
 31
0.0
  0
LINE
  5
7E0
330
74
100
AcDbEntity
  8
1
  6
CENTER
 62
     2
100
AcDbLine
 10
523.8881131469675
 20
51.60194971164766
 30
0.0
 11
443.6881131469674
 21
51.60194971164766
 31
0.0
  0
LINE
  5
7E1
330
74
100
AcDbEntity
  8
1
 62
   255
100
AcDbLine
 10
510.3881131469675
 20
58.60194971164762
 30
0.0
 11
510.8881131469675
 21
58.10194971164762
 31
0.0
  0
LINE
  5
7E2
330
74
100
AcDbEntity
  8
1
 62
   255
100
AcDbLine
 10
508.8881131469674
 20
58.60194971164762
 30
0.0
 11
510.3881131469675
 21
58.60194971164762
 31
0.0
  0
LINE
  5
7E3
330
74
100
AcDbEntity
  8
1
 62
   255
100
AcDbLine
 10
508.3881131469675
 20
65.47694971164762
 30
0.0
 11
508.8881131469674
 21
64.97694971164762
 31
0.0
  0
LINE
  5
7E4
330
74
100
AcDbEntity
  8
1
 62
   255
100
AcDbLine
 10
507.8881131469675
 20
65.47694971164762
 30
0.0
 11
508.3881131469675
 21
65.47694971164762
 31
0.0
  0
LINE
  5
7E5
330
74
100
AcDbEntity
  8
1
 62
   255
100
AcDbLine
 10
510.8881131469675
 20
45.10194971164766
 30
0.0
 11
510.3881131469675
 21
44.60194971164766
 31
0.0
  0
LINE
  5
7E6
330
74
100
AcDbEntity
  8
1
 62
   255
100
AcDbLine
 10
510.3881131469675
 20
44.60194971164766
 30
0.0
 11
508.8881131469674
 21
44.60194971164766
 31
0.0
  0
LINE
  5
7E7
330
74
100
AcDbEntity
  8
1
 62
   255
100
AcDbLine
 10
508.8881131469674
 20
38.22694971164766
 30
0.0
 11
508.3881131469675
 21
37.72694971164766
 31
0.0
  0
LINE
  5
7E8
330
74
100
AcDbEntity
  8
1
 62
   255
100
AcDbLine
 10
508.3881131469675
 20
37.72694971164766
 30
0.0
 11
507.8881131469675
 21
37.72694971164766
 31
0.0
  0
LINE
  5
7E9
330
74
100
AcDbEntity
  8
1
 62
   255
100
AcDbLine
 10
521.1463978050983
 20
49.60496508060836
 30
0.0
 11
521.3552141541338
 21
49.6809680160854
 31
0.0
  0
LINE
  5
7EA
330
74
100
AcDbEntity
  8
1
 62
   255
100
AcDbLine
 10
521.1463978050983
 20
53.59893434268696
 30
0.0
 11
521.3552141541338
 21
53.52293140720992
 31
0.0
  0
LINE
  5
7EB
330
74
100
AcDbEntity
  8
1
 62
     2
100
AcDbLine
 10
521.1381131469675
 20
53.27974830301236
 30
0.0
 11
521.1381131469675
 21
49.93238040697047
 31
0.0
  0
LINE
  5
7EC
330
74
100
AcDbEntity
  8
1
  6
CENTER
 62
     2
 48
0.5
100
AcDbLine
 10
407.3693631469675
 20
62.37314067121662
 30
0.0
 11
419.8068631469674
 21
40.83075875207872
 31
0.0
  0
ARC
  5
7ED
330
74
100
AcDbEntity
  8
1
 62
     2
100
AcDbCircle
 10
418.5881131469675
 20
60.26220374949204
 30
0.0
 40
1.5
100
AcDbArc
 50
0.0
 51
180.0
  0
ARC
  5
7EE
330
74
100
AcDbEntity
  8
1
 62
   255
100
AcDbCircle
 10
413.5881131469674
 20
51.60194971164766
 30
0.0
 40
2.549999999999999
100
AcDbArc
 50
22.72842259751248
 51
61.5995431804606
  0
ARC
  5
7EF
330
74
100
AcDbEntity
  8
1
 62
   255
100
AcDbCircle
 10
413.5881131469674
 20
51.60194971164766
 30
0.0
 40
2.549999999999974
100
AcDbArc
 50
118.4004568195394
 51
157.2715774024871
  0
ARC
  5
7F0
330
74
100
AcDbEntity
  8
1
 62
     2
100
AcDbCircle
 10
408.5881131469675
 20
60.26220374949206
 30
0.0
 40
1.500000000000008
100
AcDbArc
 50
45.19528610004633
 51
319.5230511860773
  0
ARC
  5
7F1
330
74
100
AcDbEntity
  8
1
 62
     2
100
AcDbCircle
 10
423.5881131469675
 20
51.60194971164765
 30
0.0
 40
1.499999999999998
100
AcDbArc
 50
282.1766045009495
 51
198.8020867651857
  0
ARC
  5
7F2
330
74
100
AcDbEntity
  8
1
 62
     2
100
AcDbCircle
 10
418.5881131469675
 20
42.94169567380328
 30
0.0
 40
1.499999999999988
100
AcDbArc
 50
222.650395469652
 51
136.9794462732446
  0
ARC
  5
7F3
330
74
100
AcDbEntity
  8
1
 62
     2
100
AcDbCircle
 10
408.5881131469674
 20
42.94169567380328
 30
0.0
 40
1.500000000000001
100
AcDbArc
 50
167.86788587062
 51
76.9062391778552
  0
ARC
  5
7F4
330
74
100
AcDbEntity
  8
1
 62
     2
100
AcDbCircle
 10
403.5881131469674
 20
51.60194971164766
 30
0.0
 40
1.5
100
AcDbArc
 50
110.0524594705399
 51
20.30213403904193
  0
ARC
  5
7F5
330
74
100
AcDbEntity
  8
1
 62
     2
100
AcDbCircle
 10
418.5881131469675
 20
60.26220374949204
 30
0.0
 40
1.500000000000004
100
AcDbArc
 50
339.5576040570306
 51
0.0
  0
ARC
  5
7F6
330
74
100
AcDbEntity
  8
1
 62
     2
100
AcDbCircle
 10
418.5881131469675
 20
60.26220374949204
 30
0.0
 40
1.5
100
AcDbArc
 50
180.0
 51
255.8456476410886
  0
CIRCLE
  5
7F7
330
74
100
AcDbEntity
  8
1
 62
   255
100
AcDbCircle
 10
547.3881131469674
 20
42.27694971164766
 30
0.0
 40
0.5
  0
CIRCLE
  5
7F8
330
74
100
AcDbEntity
  8
1
 62
   255
100
AcDbCircle
 10
553.3881131469675
 20
60.92694971164767
 30
0.0
 40
0.5
  0
CIRCLE
  5
7F9
330
74
100
AcDbEntity
  8
1
 62
   255
100
AcDbCircle
 10
557.8881131469675
 20
51.60194971164766
 30
0.0
 40
0.9000000000000056
  0
CIRCLE
  5
7FA
330
74
100
AcDbEntity
  8
1
 62
   255
100
AcDbCircle
 10
542.8881131469674
 20
51.60194971164766
 30
0.0
 40
0.9000000000000056
  0
CIRCLE
  5
7FB
330
74
100
AcDbEntity
  8
1
 62
   255
100
AcDbCircle
 10
550.3881131469674
 20
51.60194971164766
 30
0.0
 40
14.0
  0
CIRCLE
  5
7FC
330
74
100
AcDbEntity
  8
1
 62
   255
100
AcDbCircle
 10
550.3881131469674
 20
51.60194971164766
 30
0.0
 40
12.97499999999999
  0
CIRCLE
  5
7FD
330
74
100
AcDbEntity
  8
1
 62
     2
100
AcDbCircle
 10
550.3881131469674
 20
51.60194971164766
 30
0.0
 40
12.39999999999999
  0
CIRCLE
  5
7FE
330
74
100
AcDbEntity
  8
1
 62
   255
100
AcDbCircle
 10
550.3881131469674
 20
51.60194971164766
 30
0.0
 40
5.499999999999992
  0
CIRCLE
  5
7FF
330
74
100
AcDbEntity
  8
1
 62
     2
100
AcDbCircle
 10
550.3881131469674
 20
51.60194971164766
 30
0.0
 40
5.199999999999992
  0
CIRCLE
  5
800
330
74
100
AcDbEntity
  8
1
 62
   255
100
AcDbCircle
 10
413.5881131469674
 20
51.60194971164766
 30
0.0
 40
3.500000000000006
  0
CIRCLE
  5
801
330
74
100
AcDbEntity
  8
1
 62
   255
100
AcDbCircle
 10
408.5881131469675
 20
60.26220374949206
 30
0.0
 40
1.199999999999997
  0
CIRCLE
  5
802
330
74
100
AcDbEntity
  8
1
 62
   255
100
AcDbCircle
 10
418.5881131469675
 20
60.26220374949204
 30
0.0
 40
1.199999999999989
  0
CIRCLE
  5
803
330
74
100
AcDbEntity
  8
1
 62
   255
100
AcDbCircle
 10
423.5881131469675
 20
51.60194971164765
 30
0.0
 40
1.199999999999995
  0
CIRCLE
  5
804
330
74
100
AcDbEntity
  8
1
 62
   255
100
AcDbCircle
 10
418.5881131469675
 20
42.94169567380328
 30
0.0
 40
1.200000000000001
  0
CIRCLE
  5
805
330
74
100
AcDbEntity
  8
1
 62
   255
100
AcDbCircle
 10
408.5881131469674
 20
42.94169567380328
 30
0.0
 40
1.199999999999991
  0
CIRCLE
  5
806
330
74
100
AcDbEntity
  8
1
 62
   255
100
AcDbCircle
 10
403.5881131469674
 20
51.60194971164766
 30
0.0
 40
1.199999999999989
  0
CIRCLE
  5
807
330
74
100
AcDbEntity
  8
1
  6
CENTER
 62
     2
 48
0.75
100
AcDbCircle
 10
413.5881131469674
 20
51.60194971164766
 30
0.0
 40
10.0
  0
CIRCLE
  5
808
330
74
100
AcDbEntity
  8
1
 62
   255
100
AcDbCircle
 10
413.5881131469674
 20
51.60194971164766
 30
0.0
 40
14.0
  0
CIRCLE
  5
809
330
74
100
AcDbEntity
  8
1
 62
     2
100
AcDbCircle
 10
413.5881131469674
 20
51.60194971164766
 30
0.0
 40
13.37499999999995
  0
CIRCLE
  5
80A
330
74
100
AcDbEntity
  8
1
 62
   255
100
AcDbCircle
 10
413.5881131469674
 20
51.60194971164766
 30
0.0
 40
6.999999999999948
  0
CIRCLE
  5
80B
330
74
100
AcDbEntity
  8
1
 62
     2
100
AcDbCircle
 10
413.5881131469674
 20
51.60194971164766
 30
0.0
 40
6.499999999999959
  0
CIRCLE
  5
80C
330
74
100
AcDbEntity
  8
1
 62
   255
 48
0.75
100
AcDbCircle
 10
413.5881131469674
 20
51.60194971164766
 30
0.0
 40
4.5
  0
CIRCLE
  5
80D
330
74
100
AcDbEntity
  8
1
 62
   255
100
AcDbCircle
 10
413.5881131469674
 20
51.60194971164766
 30
0.0
 40
2.0
  0
ARC
  5
80E
330
74
100
AcDbEntity
  8
1
 62
   255
100
AcDbCircle
 10
552.4381131469674
 20
44.15194971164766
 30
0.0
 40
0.4499999999999993
100
AcDbArc
 50
270.0
 51
0.0
  0
ARC
  5
80F
330
74
100
AcDbEntity
  8
1
 62
   255
100
AcDbCircle
 10
546.3881131469674
 20
43.20194971164767
 30
0.0
 40
0.5
100
AcDbArc
 50
90.0
 51
180.0
  0
ARC
  5
810
330
74
100
AcDbEntity
  8
1
 62
   255
100
AcDbCircle
 10
546.3881131469674
 20
41.35194971164766
 30
0.0
 40
0.5
100
AcDbArc
 50
180.0
 51
270.0
  0
ARC
  5
811
330
74
100
AcDbEntity
  8
1
 62
   255
100
AcDbCircle
 10
548.3381131469675
 20
59.05194971164767
 30
0.0
 40
0.4500000000000002
100
AcDbArc
 50
90.0
 51
180.0
  0
ARC
  5
812
330
74
100
AcDbEntity
  8
1
 62
   255
100
AcDbCircle
 10
554.3881131469674
 20
60.00194971164766
 30
0.0
 40
0.5
100
AcDbArc
 50
270.0
 51
0.0
  0
ARC
  5
813
330
74
100
AcDbEntity
  8
1
 62
   255
100
AcDbCircle
 10
554.3881131469674
 20
61.85194971164766
 30
0.0
 40
0.5
100
AcDbArc
 50
0.0
 51
90.0
  0
ARC
  5
814
330
74
100
AcDbEntity
  8
1
 62
   255
100
AcDbCircle
 10
415.6172755357378
 20
52.45194971164764
 30
0.0
 40
0.3500000000000014
100
AcDbArc
 50
270.0
 51
22.72842259751248
  0
ARC
  5
815
330
74
100
AcDbEntity
  8
1
 62
   255
100
AcDbCircle
 10
411.5589507581971
 20
52.45194971164764
 30
0.0
 40
0.3500000000000012
100
AcDbArc
 50
157.2715774024875
 51
270.0
  0
ARC
  5
816
330
74
100
AcDbEntity
  8
1
 62
   255
100
AcDbCircle
 10
414.6107202753374
 20
53.49318599011917
 30
0.0
 40
0.3999999999999975
100
AcDbArc
 50
61.5995431804606
 51
134.9999999999999
  0
ARC
  5
817
330
74
100
AcDbEntity
  8
1
 62
   255
100
AcDbCircle
 10
412.5655060185975
 20
53.49318599011917
 30
0.0
 40
0.4000000000000005
100
AcDbArc
 50
45.00000000000006
 51
118.4004568195394
  0
ARC
  5
818
330
74
100
AcDbEntity
  8
1
 62
   255
100
AcDbCircle
 10
415.8240216214244
 20
49.75513805534609
 30
0.0
 40
0.5999999999999952
100
AcDbArc
 50
195.0000000000015
 51
320.4440360074763
  0
ARC
  5
819
330
74
100
AcDbEntity
  8
1
 62
   255
100
AcDbCircle
 10
411.3522046725105
 20
49.75513805534608
 30
0.0
 40
0.5999999999999888
100
AcDbArc
 50
219.5559639925237
 51
345.0000000000009
  0
ARC
  5
81A
330
74
100
AcDbEntity
  8
1
 62
   255
100
AcDbCircle
 10
443.2881131469675
 20
43.95194971164767
 30
0.0
 40
0.6999999999999993
100
AcDbArc
 50
90.0
 51
180.0
  0
ARC
  5
81B
330
74
100
AcDbEntity
  8
1
 62
   255
100
AcDbCircle
 10
443.2881131469675
 20
43.95194971164767
 30
0.0
 40
0.1999999999999993
100
AcDbArc
 50
90.0
 51
180.0
  0
ARC
  5
81C
330
74
100
AcDbEntity
  8
1
 62
   255
100
AcDbCircle
 10
443.2881131469675
 20
59.25194971164767
 30
0.0
 40
0.70000000000001
100
AcDbArc
 50
180.0
 51
270.0
  0
ARC
  5
81D
330
74
100
AcDbEntity
  8
1
 62
   255
100
AcDbCircle
 10
443.2881131469675
 20
59.25194971164767
 30
0.0
 40
0.20000000000001
100
AcDbArc
 50
180.0
 51
270.0
  0
ARC
  5
81E
330
74
100
AcDbEntity
  8
1
 62
   255
100
AcDbCircle
 10
521.3381131469675
 20
49.72795264712471
 30
0.0
 40
0.0500000000000031
100
AcDbArc
 50
289.9999999999966
 51
0.0
  0
ARC
  5
81F
330
74
100
AcDbEntity
  8
1
 62
   255
100
AcDbCircle
 10
521.129296797932
 20
49.65194971164766
 30
0.0
 40
0.0499999999999989
100
AcDbArc
 50
270.0
 51
290.0000000000001
  0
ARC
  5
820
330
74
100
AcDbEntity
  8
1
 62
   255
100
AcDbCircle
 10
521.129296797932
 20
53.55194971164767
 30
0.0
 40
0.0499999999999947
100
AcDbArc
 50
69.99999999999985
 51
90.0
  0
ARC
  5
821
330
74
100
AcDbEntity
  8
1
 62
   255
100
AcDbCircle
 10
521.3381131469675
 20
53.47594677617063
 30
0.0
 40
0.0499999999999972
100
AcDbArc
 50
0.0
 51
70.00000000000342
  0
DIMENSION
  5
822
330
74
100
AcDbEntity
  8
1
  6
Continuous
 62
     2
100
AcDbDimension
  2
*D56
 10
512.1281131469674
 20
32.63965286448107
 30
0.0
 11
516.7581131469675
 21
34.26465286448106
 31
0.0
 70
    32
  1
9.4
 71
     5
 42
9.25999999999999
 73
     0
 74
     0
 75
     0
  3
DMST_1
100
AcDbAlignedDimension
 13
521.3881131469674
 23
49.72795264712471
 33
0.0
 14
512.1281131469674
 24
48.10194971164766
 34
0.0
100
AcDbRotatedDimension
1001
ACAD
1000
DSTYLE
1002
{
1070
   147
1040
0.75
1002
}
  0
DIMENSION
  5
823
330
74
100
AcDbEntity
  8
1
  6
Continuous
 62
     2
100
AcDbDimension
  2
*D57
 10
420.0881131469675
 20
70.76489224194074
 30
0.0
 11
430.3881131469674
 21
70.76489224194074
 31
0.0
 70
   160
  1
M<>x3.8 max.
 71
     5
 42
3.0
 73
     0
 74
     0
 75
     0
  3
DMST_1
100
AcDbAlignedDimension
 13
417.0881131469674
 23
60.26220374949204
 33
0.0
 14
420.0881131469675
 24
60.26220374949204
 34
0.0
100
AcDbRotatedDimension
1001
ACAD
1000
DSTYLE
1002
{
1070
   147
1040
0.5
1070
   172
1070
     1
1070
   279
1070
     0
1002
}
  0
DIMENSION
  5
824
330
74
100
AcDbEntity
  8
1
  6
Continuous
 62
     2
100
AcDbDimension
  2
*D58
 10
454.1881131469674
 20
32.59736570035776
 30
0.0
 11
450.6881131469675
 21
34.22236570035777
 31
0.0
 70
    32
 71
     5
 42
6.999999999999943
 73
     0
 74
     0
 75
     0
  3
DMST_1
100
AcDbAlignedDimension
 13
447.1881131469674
 23
39.20194971164766
 33
0.0
 14
454.1881131469674
 24
38.62694971164766
 34
0.0
100
AcDbRotatedDimension
1001
ACAD
1000
DSTYLE
1002
{
1070
   147
1040
0.75
1002
}
  0
DIMENSION
  5
825
330
74
100
AcDbEntity
  8
1
  6
Continuous
 62
     2
100
AcDbDimension
  2
*D59
 10
442.5881131469674
 20
22.59297801365478
 30
0.0
 11
444.8881131469675
 21
22.59297801365478
 31
0.0
 70
   160
 71
     5
 42
4.600000000000022
 73
     0
 74
     0
 75
     0
  3
DMST_1
100
AcDbAlignedDimension
 13
447.1881131469674
 23
39.20194971164766
 33
0.0
 14
442.5881131469674
 24
59.25194971164767
 34
0.0
100
AcDbRotatedDimension
1001
ACAD
1000
DSTYLE
1002
{
1070
   147
1040
0.75
1070
   172
1070
     1
1070
   279
1070
     0
1002
}
  0
DIMENSION
  5
826
330
74
100
AcDbEntity
  8
1
  6
Continuous
 62
     2
100
AcDbDimension
  2
*D60
 10
508.8881131469674
 20
22.59297801365477
 30
0.0
 11
515.1381131469674
 21
24.21797801365477
 31
0.0
 70
    32
 71
     5
 42
12.5
 73
     0
 74
     0
 75
     0
  3
DMST_1
100
AcDbAlignedDimension
 13
521.3881131469674
 23
49.72795264712471
 33
0.0
 14
508.8881131469674
 24
38.22694971164766
 34
0.0
100
AcDbRotatedDimension
1001
ACAD
1000
DSTYLE
1002
{
1070
   147
1040
0.75
1002
}
  0
DIMENSION
  5
827
330
74
100
AcDbEntity
  8
1
  6
Continuous
 62
     2
100
AcDbDimension
  2
*D61
 10
510.8881131469675
 20
27.60724222452007
 30
0.0
 11
516.1381131469674
 21
29.40724222452006
 31
0.0
 70
    32
  1
(<>)
 71
     5
 42
10.5
 73
     0
 74
     0
 75
     0
  3
DMST_1
100
AcDbAlignedDimension
 13
521.3881131469674
 23
49.72795264712471
 33
0.0
 14
510.8881131469675
 24
45.10194971164766
 34
0.0
100
AcDbRotatedDimension
1001
ACAD
1000
DSTYLE
1002
{
1070
   147
1040
0.75
1002
}
  0
DIMENSION
  5
828
330
74
100
AcDbEntity
  8
1
  6
Continuous
 62
     2
100
AcDbDimension
  2
*D62
 10
510.8881131469675
 20
27.60724222452007
 30
0.0
 11
509.8881131469674
 21
27.60724222452007
 31
0.0
 70
   160
 71
     5
 42
2.0
 73
     0
 74
     0
 75
     0
  3
DMST_1
100
AcDbAlignedDimension
 13
508.8881131469674
 23
38.22694971164766
 33
0.0
 14
510.8881131469675
 24
45.10194971164766
 34
0.0
100
AcDbRotatedDimension
1001
ACAD
1000
DSTYLE
1002
{
1070
   172
1070
     1
1070
   147
1040
0.75
1070
   279
1070
     0
1002
}
  0
DIMENSION
  5
829
330
74
100
AcDbEntity
  8
1
  6
Continuous
 62
     2
100
AcDbDimension
  2
*D63
 10
397.0881131469675
 20
51.60194971164766
 30
0.0
 11
398.71951126575
 21
43.01755841305333
 31
0.0
 70
    34
  1
6x<>
 71
     5
 42
1.047197551196596
 73
     0
 74
     0
 75
     0
  3
DMST_1
100
AcDb2LineAngularDimension
 13
419.8068631469674
 23
62.37314067121658
 33
0.0
 14
407.3693631469675
 24
40.83075875207874
 34
0.0
 15
430.0881131469674
 25
51.60194971164766
 35
0.0
 16
395.6928111685381
 26
45.08859245829433
 36
0.0
1001
ACAD
1000
DSTYLE
1002
{
1070
   147
1040
1.0
1002
}
  0
DIMENSION
  5
9A2
330
74
100
AcDbEntity
  8
1
  6
Continuous
 62
     2
100
AcDbDimension
  2
*D65
 10
447.1881131469674
 20
22.59297801365478
 30
0.0
 11
478.0381131469674
 21
24.21797801365478
 31
0.0
 70
    32
 71
     5
 42
61.69999999999999
 73
     0
 74
     0
 75
     0
  3
DMST_1
100
AcDbAlignedDimension
 13
508.8881131469674
 23
38.22694971164766
 33
0.0
 14
447.1881131469674
 24
39.20194971164766
 34
0.0
100
AcDbRotatedDimension
1001
ACAD
1000
DSTYLE
1002
{
1070
   147
1040
0.75
1002
}
  0
LINE
  5
A05
330
74
100
AcDbEntity
  8
1
 62
     2
100
AcDbLine
 10
526.3848442410517
 20
53.60194971164766
 30
0.0
 11
526.3848442410517
 21
63.06501882994439
 31
0.0
  0
LINE
  5
A06
330
74
100
AcDbEntity
  8
1
 62
     2
100
AcDbLine
 10
521.129296797932
 20
53.60194971164766
 30
0.0
 11
526.8848442410517
 21
53.60194971164766
 31
0.0
  0
SOLID
  5
A07
330
74
100
AcDbEntity
  8
1
 62
     2
100
AcDbTrace
 10
526.3848442410517
 20
53.60194971164766
 30
0.0
 11
526.1573442410516
 21
55.35194971164766
 31
0.0
 12
526.6123442410516
 22
55.35194971164766
 32
0.0
 13
526.6123442410516
 23
55.35194971164766
 33
0.0
  0
TEXT
  5
A08
330
74
100
AcDbEntity
  8
1
 62
     3
100
AcDbText
 10
525.0885049119435
 20
54.77244386445168
 30
0.0
 40
1.75
  1
%%C4
 50
90.0
100
AcDbText
  0
TEXT
  5
A09
330
74
100
AcDbEntity
  8
1
 62
     3
100
AcDbText
 10
523.7541299119435
 20
58.08976726446288
 30
0.0
 40
1.225
  1
-0.006
 50
90.0
100
AcDbText
  0
TEXT
  5
A0A
330
74
100
AcDbEntity
  8
1
 62
     3
100
AcDbText
 10
525.7753799119435
 20
58.08976726446288
 30
0.0
 40
1.225
  1
-0.009
 50
90.0
100
AcDbText
  0
LINE
  5
A0E
330
74
100
AcDbEntity
  8
1
 62
     2
100
AcDbLine
 10
518.8512806235155
 20
58.60194971164761
 30
0.0
 11
518.8512806235155
 21
69.36577080861671
 31
0.0
  0
LINE
  5
A0F
330
74
100
AcDbEntity
  8
1
 62
     2
100
AcDbLine
 10
510.3881131469675
 20
58.60194971164761
 30
0.0
 11
519.3512806235155
 21
58.60194971164761
 31
0.0
  0
SOLID
  5
A10
330
74
100
AcDbEntity
  8
1
 62
     2
100
AcDbTrace
 10
518.8512806235155
 20
58.60194971164761
 30
0.0
 11
518.6237806235156
 21
60.35194971164761
 31
0.0
 12
519.0787806235156
 22
60.35194971164761
 32
0.0
 13
519.0787806235156
 23
60.35194971164761
 33
0.0
  0
TEXT
  5
A11
330
74
100
AcDbEntity
  8
1
 62
     3
100
AcDbText
 10
517.4852706000917
 20
59.83797036131624
 30
0.0
 40
1.75
  1
%%C14
 50
90.0
100
AcDbText
  0
TEXT
  5
A12
330
74
100
AcDbEntity
  8
1
 62
     3
100
AcDbText
 10
516.2733956000916
 20
63.90062337508872
 30
0.0
 40
1.225
  1
 0
 50
90.0
100
AcDbText
  0
TEXT
  5
A13
330
74
100
AcDbEntity
  8
1
 62
     3
100
AcDbText
 10
518.1721456000917
 20
63.81968843894622
 30
0.0
 40
1.225
  1
-0.027
 50
90.0
100
AcDbText
  0
LINE
  5
A15
330
74
100
AcDbEntity
  8
1
 62
     2
100
AcDbLine
 10
503.1676039664072
 20
65.47694971164762
 30
0.0
 11
503.1676039664073
 21
74.39259902745447
 31
0.0
  0
SOLID
  5
A17
330
74
100
AcDbEntity
  8
1
 62
     2
100
AcDbTrace
 10
503.1676039664072
 20
65.47694971164762
 30
0.0
 11
502.9401039664072
 21
67.22694971164762
 31
0.0
 12
503.3951039664072
 22
67.22694971164762
 32
0.0
 13
503.3951039664072
 23
67.22694971164762
 33
0.0
  0
TEXT
  5
A18
330
74
100
AcDbEntity
  8
1
 62
     3
100
AcDbText
 10
502.2852620719833
 20
66.87232459434506
 30
0.0
 40
1.75
  1
%%C27.75
 50
90.0
100
AcDbText
  0
LINE
  5
A1A
330
74
100
AcDbEntity
  8
1
 62
     2
100
AcDbLine
 10
476.711707684633
 20
65.60194971164766
 30
0.0
 11
476.711707684633
 21
74.58173524065443
 31
0.0
  0
SOLID
  5
A1C
330
74
100
AcDbEntity
  8
1
 62
     2
100
AcDbTrace
 10
476.711707684633
 20
65.60194971164766
 30
0.0
 11
476.484207684633
 21
67.35194971164766
 31
0.0
 12
476.939207684633
 22
67.35194971164766
 32
0.0
 13
476.939207684633
 23
67.35194971164766
 33
0.0
  0
TEXT
  5
A1D
330
74
100
AcDbEntity
  8
1
 62
     3
100
AcDbText
 10
475.8439966904608
 20
66.80772065345661
 30
0.0
 40
1.75
  1
%%C28
 50
90.0
100
AcDbText
  0
TEXT
  5
A1E
330
74
100
AcDbEntity
  8
1
 62
     3
100
AcDbText
 10
474.3039209391833
 20
70.9682086764062
 30
0.0
 40
1.225
  1
 0
 50
90.0
100
AcDbText
  0
TEXT
  5
A1F
330
74
100
AcDbEntity
  8
1
 62
     3
100
AcDbText
 10
476.2026709391832
 20
70.9682086764062
 30
0.0
 40
1.225
  1
-0.1
 50
90.0
100
AcDbText
  0
LINE
  5
A21
330
74
100
AcDbEntity
  8
1
 62
     2
100
AcDbLine
 10
451.8318137675004
 20
64.57694971164766
 30
0.0
 11
451.8318137675004
 21
73.19894362266893
 31
0.0
  0
SOLID
  5
A23
330
74
100
AcDbEntity
  8
1
 62
     2
100
AcDbTrace
 10
451.8318137675004
 20
64.57694971164766
 30
0.0
 11
451.6043137675004
 21
66.32694971164766
 31
0.0
 12
452.0593137675003
 22
66.32694971164766
 32
0.0
 13
452.0593137675003
 23
66.32694971164766
 33
0.0
  0
TEXT
  5
A24
330
74
100
AcDbEntity
  8
1
 62
     3
100
AcDbText
 10
451.3649471346517
 20
65.37641213555787
 30
0.0
 40
1.75
  1
%%C25.95
 50
90.0
100
AcDbText
  0
LINE
  5
ABE
330
74
100
AcDbEntity
  8
1
 62
     2
100
AcDbLine
 10
403.5881131469674
 20
75.66105469800476
 30
0.0
 11
415.4956131469674
 21
75.66105469800476
 31
0.0
  0
LINE
  5
ABF
330
74
100
AcDbEntity
  8
1
 62
     2
100
AcDbLine
 10
403.5881131469674
 20
51.60194971164766
 30
0.0
 11
403.5881131469674
 21
76.16105469800476
 31
0.0
  0
SOLID
  5
AC0
330
74
100
AcDbEntity
  8
1
 62
     2
100
AcDbTrace
 10
403.5881131469674
 20
75.66105469800476
 30
0.0
 11
405.3381131469675
 21
75.88855469800477
 31
0.0
 12
405.3381131469675
 22
75.43355469800477
 32
0.0
 13
405.3381131469675
 23
75.43355469800477
 33
0.0
  0
TEXT
  5
AC1
330
74
100
AcDbEntity
  8
1
 62
     3
100
AcDbText
 10
411.6157260971674
 20
76.20529749453243
 30
0.0
 40
1.75
  1
%%C20
100
AcDbText
  0
LINE
  5
D1D
330
74
100
AcDbEntity
  8
0
  6
Continuous
 62
   255
100
AcDbLine
 10
578.1782882442436
 20
-41.69813768735855
 30
0.0
 11
578.1782882442436
 21
96.80186231264144
 31
0.0
  0
LINE
  5
D1E
330
74
100
AcDbEntity
  8
0
  6
Continuous
 62
   255
100
AcDbLine
 10
568.9999382064212
 20
-41.69813768735855
 30
0.0
 11
568.9999382064211
 21
-39.69813823380651
 31
0.0
  0
LINE
  5
D1F
330
74
100
AcDbEntity
  8
0
  6
Continuous
 62
   255
100
AcDbLine
 10
572.1782882442436
 20
-39.69813823380651
 30
0.0
 11
572.1782882442434
 21
-35.19813823380656
 31
0.0
  0
LINE
  5
D20
330
74
100
AcDbEntity
  8
0
  6
Continuous
 62
   255
100
AcDbLine
 10
381.6783050394437
 20
-41.69813768735855
 30
0.0
 11
578.1782882442436
 21
-41.69813768735855
 31
0.0
  0
LINE
  5
D21
330
74
100
AcDbEntity
  8
0
  6
Continuous
 62
   255
100
AcDbLine
 10
381.6783050394437
 20
96.80186231264144
 30
0.0
 11
381.6783050394437
 21
-41.69813768735855
 31
0.0
  0
LINE
  5
D22
330
74
100
AcDbEntity
  8
0
  6
Continuous
 62
   255
100
AcDbLine
 10
381.6783050394437
 20
96.80186231264144
 30
0.0
 11
578.1782882442436
 21
96.80186231264144
 31
0.0
  0
LINE
  5
D29
330
74
100
AcDbEntity
  8
0
  6
CENTER
 62
     2
 48
0.2
370
     9
100
AcDbLine
 10
575.4477538800459
 20
-33.42619171549211
 30
0.0
 11
575.4477538800459
 21
-29.926192671776
 31
0.0
1001
AcDbBlockRepETag
1070
     1
1071
        1
1005
0
  0
LINE
  5
D2A
330
74
100
AcDbEntity
  8
0
  6
CENTER
 62
     2
 48
0.2
370
     9
100
AcDbLine
 10
568.268845578234
 20
-31.67619219363405
 30
0.0
 11
572.7688443487258
 21
-31.67619219363405
 31
0.0
1001
AcDbBlockRepETag
1070
     1
1071
        9
1005
0
  0
LINE
  5
D2B
330
74
100
AcDbEntity
  8
0
  6
Continuous
 62
   255
100
AcDbLine
 10
572.518844417032
 20
-30.12619261713121
 30
0.0
 11
568.5188455099278
 21
-30.92619239855202
 31
0.0
1001
AcDbBlockRepETag
1070
     1
1071
       10
1005
0
  0
LINE
  5
D2C
330
74
100
AcDbEntity
  8
0
  6
Continuous
 62
   255
100
AcDbLine
 10
572.518844417032
 20
-33.22619177013695
 30
0.0
 11
572.518844417032
 21
-30.12619261713121
 31
0.0
1001
AcDbBlockRepETag
1070
     1
1071
       11
1005
0
  0
LINE
  5
D2D
330
74
100
AcDbEntity
  8
0
  6
Continuous
 62
   255
100
AcDbLine
 10
568.5188455099278
 20
-32.42619198871608
 30
0.0
 11
572.518844417032
 21
-33.22619177013695
 31
0.0
1001
AcDbBlockRepETag
1070
     1
1071
       12
1005
0
  0
LINE
  5
D2E
330
74
100
AcDbEntity
  8
0
  6
Continuous
 62
   255
100
AcDbLine
 10
568.5188455099278
 20
-30.92619239855202
 30
0.0
 11
568.5188455099278
 21
-32.42619198871608
 31
0.0
1001
AcDbBlockRepETag
1070
     1
1071
       13
1005
0
  0
LINE
  5
D2F
330
74
100
AcDbEntity
  8
0
  6
Continuous
 62
   255
100
AcDbLine
 10
546.6782983535309
 20
-30.69813823380651
 30
0.0
 11
546.6782983535309
 21
-39.69813823380651
 31
0.0
1001
AcDbBlockRepETag
1070
     1
1071
       20
1005
0
  0
LINE
  5
D30
330
74
100
AcDbEntity
  8
0
  6
Continuous
 62
   255
100
AcDbLine
 10
504.1783084628173
 20
-30.69813823380662
 30
0.0
 11
504.1783084628173
 21
-39.69813823380651
 31
0.0
1001
AcDbBlockRepETag
1070
     1
1071
       22
1005
0
  0
LINE
  5
D31
330
74
100
AcDbEntity
  8
0
  6
Continuous
 62
   255
100
AcDbLine
 10
509.2250998037882
 20
-28.19854067551023
 30
0.0
 11
509.2250998037884
 21
-30.69813823380656
 31
0.0
1001
AcDbBlockRepETag
1070
     1
1071
       22
1005
0
  0
LINE
  5
D32
330
74
100
AcDbEntity
  8
0
  6
Continuous
 62
   255
100
AcDbLine
 10
554.3186729228908
 20
-28.19854067551023
 30
0.0
 11
554.3186729228911
 21
-30.69813823380656
 31
0.0
1001
AcDbBlockRepETag
1070
     1
1071
       22
1005
0
  0
LINE
  5
D33
330
74
100
AcDbEntity
  8
0
  6
Continuous
 62
   255
100
AcDbLine
 10
486.6783132442371
 20
-28.19854067551029
 30
0.0
 11
486.6783132442371
 21
-41.69813768735855
 31
0.0
1001
AcDbBlockRepETag
1070
     1
1071
       26
1005
0
  0
LINE
  5
D3C
330
74
100
AcDbEntity
  8
0
  6
CENTER
 62
     2
 48
0.2
370
     9
100
AcDbLine
 10
573.6477543718494
 20
-31.67619219363405
 30
0.0
 11
577.1977534019043
 21
-31.67619219363405
 31
0.0
1001
AcDbBlockRepETag
1070
     1
1071
       37
1005
0
  0
LINE
  5
D3D
330
74
100
AcDbEntity
  8
0
  6
Continuous
 62
   255
100
AcDbLine
 10
578.1782882442437
 20
-39.69813823380651
 30
0.0
 11
486.6783132442371
 21
-39.69813823380651
 31
0.0
1001
AcDbBlockRepETag
1070
     1
1071
       38
1005
0
  0
LINE
  5
D3E
330
74
100
AcDbEntity
  8
0
  6
Continuous
 62
   255
100
AcDbLine
 10
567.2141023331899
 20
-30.69813823380656
 30
0.0
 11
554.3186729228911
 21
-30.69813823380662
 31
0.0
1001
AcDbBlockRepETag
1070
     1
1071
       38
1005
0
  0
LINE
  5
D3F
330
74
100
AcDbEntity
  8
0
  6
Continuous
 62
   255
100
AcDbLine
 10
554.3186729228909
 20
-30.69813823380667
 30
0.0
 11
486.6783132442371
 21
-30.69813823380651
 31
0.0
1001
AcDbBlockRepETag
1070
     1
1071
       38
1005
0
  0
LINE
  5
D40
330
74
100
AcDbEntity
  8
0
  6
Continuous
 62
   255
100
AcDbLine
 10
578.1782882442437
 20
-35.1981382338065
 30
0.0
 11
546.6782983535311
 21
-35.19813823380668
 31
0.0
1001
AcDbBlockRepETag
1070
     1
1071
       38
1005
0
  0
CIRCLE
  5
D41
330
74
100
AcDbEntity
  8
0
  6
Continuous
 62
   255
100
AcDbCircle
 10
575.4477538800459
 20
-31.67619219363405
 30
0.0
 40
1.549999576502847
1001
AcDbBlockRepETag
1070
     1
1071
       39
1005
0
  0
CIRCLE
  5
D42
330
74
100
AcDbEntity
  8
0
  6
Continuous
 62
   255
100
AcDbCircle
 10
575.4477538800459
 20
-31.67619219363405
 30
0.0
 40
0.7499997950820232
1001
AcDbBlockRepETag
1070
     1
1071
       40
1005
0
  0
MTEXT
  5
D43
330
74
100
AcDbEntity
  8
0
 62
   255
100
AcDbMText
 10
551.6912639391021
 20
-32.24621934612077
 30
0.0
 40
1.5
 41
0.0
 46
0.0
 71
     1
 72
     5
  1
Scale: 2:1
 73
     1
 44
1.0
1001
AcDbBlockRepETag
1070
     1
1071
       46
1005
0
  0
MTEXT
  5
D44
330
74
100
AcDbEntity
  8
0
 62
   255
100
AcDbMText
 10
573.4350224322222
 20
-36.28694806906265
 30
0.0
 40
2.25
 41
0.0
 46
0.0
 71
     1
 72
     5
  1
{\fISOCPEUR|b0|i0|c0|p34;\W1;A3}
  7
SLDTEXTSTYLE0
 73
     1
 44
1.0
1001
AcDbBlockRepETag
1070
     1
1071
       50
1005
0
  0
TEXT
  5
D45
330
74
100
AcDbEntity
  8
0
  6
Continuous
 62
   255
100
AcDbText
 10
488.4466994381856
 20
-40.99845116382505
 30
0.0
 40
0.8619565217391304
  1
This drawing remains our property. Without written approval it may not be copied, reproduced, communicated or made available to third parties.
100
AcDbText
1001
AcDbBlockRepETag
1070
     1
1071
       51
1005
0
  0
MTEXT
  5
D4B
330
74
100
AcDbEntity
  8
0
 62
   255
100
AcDbMText
 10
550.5937657971903
 20
-36.31427257499354
 30
0.0
 40
2.25
 41
0.0
 46
0.0
 71
     1
 72
     5
  1
{\fISOCPEUR|b0|i0|c0|p34;\W1;\C256;1.011.28D.S25}
  7
SLDTEXTSTYLE0
 73
     1
 44
1.0
1001
AcDbBlockRepETag
1070
     1
1071
       58
1005
0
  0
MTEXT
  5
D4C
102
{ACAD_XDICTIONARY
360
DB5
102
}
330
74
100
AcDbEntity
  8
0
 62
   255
100
AcDbMText
 10
525.6692581734379
 20
-32.03215365272405
 30
0.0
 40
2.25
 41
0.0
 46
0.0
 71
     1
 72
     5
  1
\pi-8.55;{\fISOCPEUR|b0|i0|c0|p34;\W1; 28D 11    .1\P\pi-10.575;Outline drawing}
  7
SLDTEXTSTYLE0
 73
     1
 44
1.0
1001
AcDbBlockRepETag
1070
     1
1071
       59
1005
0
  0
MTEXT
  5
D4D
330
74
100
AcDbEntity
  8
0
 62
     1
100
AcDbMText
 10
487.8817642997866
 20
-32.84798034531275
 30
0.0
 40
2.5
 41
0.0
 46
0.0
 71
     1
 72
     5
  1
{\fISOCPEUR|b0|i0|c0|p34;\W1;Portescap}
  7
SLDTEXTSTYLE0
 73
     1
 44
1.0
1001
AcDbBlockRepETag
1070
     1
1071
       65
1005
0
  0
LINE
  5
D50
330
74
100
AcDbEntity
  8
0
  6
Continuous
 62
   255
100
AcDbLine
 10
567.2141023331901
 20
-28.19854067551029
 30
0.0
 11
567.2141023331896
 21
-35.19813823380662
 31
0.0
1001
AcDbBlockRepETag
1070
     1
1071
        5
1005
0
  0
TEXT
  5
D51
330
74
100
AcDbEntity
  8
0
  6
Continuous
 62
   255
100
AcDbText
 10
570.2560084676093
 20
-40.99845116382505
 30
0.0
 40
0.8619565217391304
  1
Sheet 1 of 1
100
AcDbText
1001
AcDbBlockRepETag
1070
     1
1071
       51
1005
0
  0
LINE
  5
D53
330
74
100
AcDbEntity
  8
0
  6
Continuous
 62
   255
100
AcDbLine
 10
504.1783084628173
 20
-37.69813878025451
 30
0.0
 11
486.6783132442371
 21
-37.69813878025451
 31
0.0
1001
AcDbBlockRepETag
1070
     1
1071
       38
1005
0
  0
TEXT
  5
D54
330
74
100
AcDbEntity
  8
0
  6
Continuous
 62
   255
100
AcDbText
 10
488.4466994381856
 20
-39.09358147723646
 30
0.0
 40
0.8619565217391304
  1
PI/R&D/F/18 Rev 00
100
AcDbText
1001
AcDbBlockRepETag
1070
     1
1071
       51
1005
0
  0
MTEXT
  5
D55
330
74
100
AcDbEntity
  8
0
  6
Continuous
 62
   255
100
AcDbMText
 10
487.6080343542903
 20
-27.39805972788645
 30
0.0
 40
1.05
 41
61.26009703170726
 46
0.0
 71
     7
 72
     1
  1
Unless & otherwise specified, all dimensions and tolerances are in mm.
  7
style1
 73
     1
 44
1.0
1001
AcDbBlockRepETag
1070
     1
1071
       64
1005
0
  0
LINE
  5
D56
330
74
100
AcDbEntity
  8
0
  6
Continuous
 62
   255
100
AcDbLine
 10
486.6783132442371
 20
-28.19854067551029
 30
0.0
 11
578.1782882442437
 21
-28.19854067551029
 31
0.0
1001
AcDbBlockRepETag
1070
     1
1071
        3
1005
0
  0
MTEXT
  5
D59
330
74
100
AcDbEntity
  8
0
 62
   255
100
AcDbMText
 10
487.5561399459806
 20
-28.78141876598767
 30
0.0
 40
1.25
 41
0.0
 46
0.0
 71
     1
 72
     5
  1
Drawn: 05.08.13 NB
 73
     1
 44
1.0
1001
AcDbBlockRepETag
1070
     1
1071
       46
1005
0
  0
MTEXT
  5
D5A
330
74
100
AcDbEntity
  8
0
 62
   255
100
AcDbMText
 10
510.3659341378931
 20
-28.78141876598551
 30
0.0
 40
1.25
 41
0.0
 46
0.0
 71
     1
 72
     5
  1
Checked:
 73
     1
 44
1.0
1001
AcDbBlockRepETag
1070
     1
1071
       46
1005
0
  0
MTEXT
  5
D5B
330
74
100
AcDbEntity
  8
0
 62
   255
100
AcDbMText
 10
533.2409278878945
 20
-28.78141876598551
 30
0.0
 40
1.25
 41
0.0
 46
0.0
 71
     1
 72
     5
  1
Approved:
 73
     1
 44
1.0
1001
AcDbBlockRepETag
1070
     1
1071
       46
1005
0
  0
MTEXT
  5
D5C
330
74
100
AcDbEntity
  8
0
 62
   255
100
AcDbMText
 10
555.131300066545
 20
-28.7814187659834
 30
0.0
 40
1.25
 41
0.0
 46
0.0
 71
     1
 72
     5
  1
Revision No: 00
 73
     1
 44
1.0
1001
AcDbBlockRepETag
1070
     1
1071
       46
1005
0
  0
LINE
  5
D5D
330
74
100
AcDbEntity
  8
0
  6
Continuous
 62
   255
100
AcDbLine
 10
531.7718863633394
 20
-28.19854067550819
 30
0.0
 11
531.7718863633396
 21
-30.69813823380452
 31
0.0
1001
AcDbBlockRepETag
1070
     1
1071
       22
1005
0
  0
ENDSEC
  0
SECTION
  2
OBJECTS
  0
DICTIONARY
  5
C
330
0
100
AcDbDictionary
281
     1
  3
ACAD_COLOR
350
6A
  3
ACAD_GROUP
350
D
  3
ACAD_LAYOUT
350
69
  3
ACAD_MATERIAL
350
10
  3
ACAD_MLEADERSTYLE
350
6D
  3
ACAD_MLINESTYLE
350
66
  3
ACAD_PLOTSETTINGS
350
68
  3
ACAD_PLOTSTYLENAME
350
E
  3
ACAD_SCALELIST
350
3A
  3
ACAD_TABLESTYLE
350
6B
  3
ACAD_VISUALSTYLE
350
29
  3
ACDB_RECOMPOSE_DATA
350
AF8
  3
AcDbVariableDictionary
350
AF9
  0
DICTIONARY
  5
CD2
330
2
100
AcDbDictionary
280
     1
281
     1
  3
ACAD_LAYERSTATES
360
CD3
  0
DICTIONARY
  5
21F
330
5C
100
AcDbDictionary
280
     1
281
     1
  3
ADSK_XREC_LAYER_RECONCILED
360
220
  0
DICTIONARY
  5
221
330
83
100
AcDbDictionary
280
     1
281
     1
  3
ADSK_XREC_LAYER_RECONCILED
360
222
  0
DICTIONARY
  5
A0C
330
74
100
AcDbDictionary
280
     1
281
     1
  3
ACAD_SORTENTS
360
A0D
  0
DICTIONARY
  5
364
330
14C
100
AcDbDictionary
280
     1
281
     1
  0
DICTIONARY
  5
B07
330
B06
100
AcDbDictionary
280
     1
281
     1
  3
ACAD_SORTENTS
360
B08
  0
DICTIONARY
  5
B42
330
B41
100
AcDbDictionary
280
     1
281
     1
  3
ACAD_SORTENTS
360
B43
  0
DICTIONARY
  5
B8A
330
B89
100
AcDbDictionary
280
     1
281
     1
  3
ACAD_SORTENTS
360
B8B
  0
DICTIONARY
  5
B91
330
B90
100
AcDbDictionary
280
     1
281
     1
  3
ACAD_SORTENTS
360
B92
  0
DICTIONARY
  5
BA7
330
BA6
100
AcDbDictionary
280
     1
281
     1
  3
ACAD_SORTENTS
360
BA8
  0
DICTIONARY
  5
C8D
330
C8C
100
AcDbDictionary
280
     1
281
     1
  3
ACAD_SORTENTS
360
C8E
  0
DICTIONARY
  5
D16
330
CD4
100
AcDbDictionary
280
     1
281
     1
  3
ACAD_SORTENTS
360
D17
  0
DICTIONARY
  5
DB3
330
CFD
100
AcDbDictionary
280
     1
281
     1
  3
ACAD_MTEXT_2008_RT
360
DB4
  0
DICTIONARY
  5
DB5
330
D4C
100
AcDbDictionary
280
     1
281
     1
  3
ACAD_MTEXT_2008_RT
360
DB6
  0
DICTIONARY
  5
6A
102
{ACAD_REACTORS
330
C
102
}
330
C
100
AcDbDictionary
281
     1
  0
DICTIONARY
  5
D
102
{ACAD_REACTORS
330
C
102
}
330
C
100
AcDbDictionary
281
     1
  0
DICTIONARY
  5
69
102
{ACAD_REACTORS
330
C
102
}
330
C
100
AcDbDictionary
281
     1
  3
Layout1
350
73
  3
Model
350
77
  0
DICTIONARY
  5
10
102
{ACAD_REACTORS
330
C
102
}
330
C
100
AcDbDictionary
281
     1
  3
ByBlock
350
19
  3
ByLayer
350
11
  3
Global
350
21
  0
DICTIONARY
  5
6D
102
{ACAD_REACTORS
330
C
102
}
330
C
100
AcDbDictionary
281
     1
  3
Standard
350
6E
  0
DICTIONARY
  5
66
102
{ACAD_REACTORS
330
C
102
}
330
C
100
AcDbDictionary
281
     1
  3
Standard
350
67
  0
DICTIONARY
  5
68
102
{ACAD_REACTORS
330
C
102
}
330
C
100
AcDbDictionary
281
     1
  0
ACDBDICTIONARYWDFLT
  5
E
102
{ACAD_REACTORS
330
C
102
}
330
C
100
AcDbDictionary
281
     1
  3
Normal
350
F
100
AcDbDictionaryWithDefault
340
F
  0
DICTIONARY
  5
3A
102
{ACAD_REACTORS
330
C
102
}
330
C
100
AcDbDictionary
281
     1
  3
A0
350
3B
  3
A1
350
3C
  3
A2
350
3D
  3
A3
350
3E
  3
A4
350
3F
  3
A5
350
40
  3
A6
350
41
  3
A7
350
42
  3
A8
350
43
  3
A9
350
44
  3
B0
350
45
  3
B1
350
46
  3
B2
350
47
  3
B3
350
48
  3
B4
350
49
  3
B5
350
4A
  3
B6
350
4B
  3
B7
350
4C
  3
B8
350
4D
  3
B9
350
4E
  3
C0
350
4F
  3
C1
350
50
  3
C2
350
51
  3
C3
350
52
  3
C4
350
53
  3
C5
350
54
  3
C6
350
55
  3
C7
350
56
  3
C8
350
57
  3
C9
350
58
  3
D0
350
59
  3
D1
350
5A
  3
D2
350
5B
  0
DICTIONARY
  5
6B
102
{ACAD_REACTORS
330
C
102
}
330
C
100
AcDbDictionary
281
     1
  3
Standard
350
6C
  0
DICTIONARY
  5
29
102
{ACAD_REACTORS
330
C
102
}
330
C
100
AcDbDictionary
281
     1
  3
2dWireframe
350
2F
  3
3D Hidden
350
31
  3
3dWireframe
350
30
  3
Basic
350
2E
  3
Brighten
350
35
  3
ColorChange
350
39
  3
Conceptual
350
32
  3
Dim
350
34
  3
EdgeColorOff
350
CC9
  3
Facepattern
350
38
  3
Flat
350
2A
  3
FlatWithEdges
350
2B
  3
Gouraud
350
2C
  3
GouraudWithEdges
350
2D
  3
JitterOff
350
CCC
  3
Linepattern
350
37
  3
OverhangOff
350
CCF
  3
Realistic
350
33
  3
Thicken
350
36
  0
XRECORD
  5
AF8
102
{ACAD_REACTORS
330
C
102
}
330
C
100
AcDbXrecord
280
     1
 90
        1
330
6C
330
CFD
330
D4C
  0
DICTIONARY
  5
AF9
102
{ACAD_REACTORS
330
C
102
}
330
C
100
AcDbDictionary
281
     1
  3
CANNOSCALE
350
AFD
  3
CMLEADERSTYLE
350
AFB
  3
CTABLESTYLE
350
AFA
  3
LIGHTINGUNITS
350
AFE
  3
MSLTSCALE
350
AFC
  0
DICTIONARY
  5
CD3
102
{ACAD_REACTORS
330
CD2
102
}
330
CD2
100
AcDbDictionary
281
     1
  0
XRECORD
  5
220
102
{ACAD_REACTORS
330
21F
102
}
330
21F
100
AcDbXrecord
280
     1
290
     1
  0
XRECORD
  5
222
102
{ACAD_REACTORS
330
221
102
}
330
221
100
AcDbXrecord
280
     1
290
     1
  0
SORTENTSTABLE
  5
A0D
102
{ACAD_REACTORS
330
A0C
102
}
330
A0C
100
AcDbSortentsTable
330
74
331
7A8
  5
7D2
331
771
  5
79B
331
A12
  5
D4B
331
826
  5
D2D
331
7EF
  5
819
331
7B0
  5
7DA
331
779
  5
7A3
331
A1A
  5
D53
331
7F7
  5
821
331
7B8
  5
7E2
331
781
  5
7AB
331
7FF
  5
829
331
7C0
  5
7EA
331
D51
  5
D84
331
D59
  5
D89
331
D22
  5
D6A
331
D2A
  5
D6C
331
D32
  5
D74
331
7C8
  5
7F2
331
789
  5
7B3
331
807
  5
A0A
331
7D0
  5
7FA
331
791
  5
7BB
331
80F
  5
A18
331
7D8
  5
802
331
799
  5
7C3
331
817
  5
A25
331
7E0
  5
80A
331
7A1
  5
7CB
331
76A
  5
794
331
81F
  5
D20
331
D42
  5
D7C
331
7E8
  5
812
331
7A9
  5
7D3
331
772
  5
79C
331
A13
  5
D4C
331
827
  5
D2E
331
7B1
  5
7DB
331
77A
  5
7A4
331
7F0
  5
81A
331
7F8
  5
822
331
7B9
  5
7E3
331
782
  5
7AC
331
A23
  5
D32
331
7C1
  5
7EB
331
D5A
  5
D8A
331
D2B
  5
D6D
331
D33
  5
D75
331
800
  5
82E
331
7C9
  5
7F3
331
78A
  5
7B4
331
808
  5
A0B
331
7D1
  5
7FB
331
792
  5
7BC
331
810
  5
A1A
331
7D9
  5
803
331
79A
  5
7C4
331
763
  5
78D
331
818
  5
ABE
331
7E1
  5
80B
331
7A2
  5
7CC
331
76B
  5
795
331
D43
  5
D7D
331
D4B
  5
D80
331
820
  5
D21
331
7E9
  5
813
331
7AA
  5
7D4
331
773
  5
79D
331
828
  5
D2F
331
7F1
  5
81B
331
7B2
  5
7DC
331
77B
  5
7A5
331
A1C
  5
D54
331
7F9
  5
823
331
783
  5
7AD
331
7BA
  5
7E4
331
A24
  5
D33
331
7C2
  5
7EC
331
D53
  5
D85
331
D5B
  5
D8B
331
D2C
  5
D6E
331
801
  5
830
331
7CA
  5
7F4
331
78B
  5
7B5
331
809
  5
A0F
331
7D2
  5
7FC
331
793
  5
7BD
331
811
  5
A1B
331
7DA
  5
804
331
79B
  5
7C5
331
764
  5
78E
331
A05
  5
D3C
331
819
  5
ABF
331
7E2
  5
80C
331
7A3
  5
7CD
331
76C
  5
796
331
D3C
  5
D76
331
D44
  5
D7E
331
D4C
  5
D81
331
821
  5
D22
331
7EA
  5
814
331
7AB
  5
7D5
331
774
  5
79E
331
A15
  5
D4D
331
829
  5
D30
331
7B3
  5
7DD
331
77C
  5
7A6
331
7F2
  5
81C
331
A1D
  5
D55
331
7FA
  5
824
331
7BB
  5
7E5
331
784
  5
7AE
331
7C3
  5
7ED
331
D54
  5
D86
331
D1D
  5
D65
331
D5C
  5
D8C
331
D2D
  5
D6F
331
802
  5
831
331
7CB
  5
7F5
331
78C
  5
7B6
331
80A
  5
A10
331
7D3
  5
7FD
331
794
  5
7BE
331
812
  5
A1D
331
7DB
  5
805
331
79C
  5
7C6
331
765
  5
78F
331
A06
  5
D3D
331
81A
  5
AC0
331
7A4
  5
7CE
331
76D
  5
797
331
7E3
  5
80D
331
A0E
  5
D42
331
D3D
  5
D77
331
D45
  5
D7F
331
D4D
  5
D82
331
822
  5
D29
331
7EB
  5
815
331
7AC
  5
7D6
331
775
  5
79F
331
7F3
  5
81D
331
7B4
  5
7DE
331
77D
  5
7A7
331
A1E
  5
D56
331
7FB
  5
825
331
785
  5
7AF
331
7BC
  5
7E6
331
7C4
  5
7EE
331
D55
  5
D87
331
D1E
  5
D66
331
D5D
  5
D8D
331
D2E
  5
D70
331
803
  5
A05
331
7CC
  5
7F6
331
78D
  5
7B7
331
80B
  5
A12
331
7D4
  5
7FE
331
795
  5
7BF
331
ABE
  5
D5A
331
813
  5
A1F
331
79D
  5
7C7
331
7DC
  5
806
331
766
  5
790
331
A07
  5
D3E
331
81B
  5
AC2
331
7E4
  5
80E
331
7A5
  5
7CF
331
76E
  5
798
331
A0F
  5
D43
331
D3E
  5
D78
331
823
  5
D2A
331
7EC
  5
816
331
7AD
  5
7D7
331
776
  5
7A0
331
A17
  5
D50
331
7F4
  5
81E
331
77E
  5
7A8
331
7B5
  5
7DF
331
A1F
  5
D59
331
7FC
  5
826
331
7BD
  5
7E7
331
786
  5
7B0
331
7C5
  5
7EF
331
D56
  5
D88
331
D1F
  5
D67
331
D2F
  5
D71
331
804
  5
A06
331
7CD
  5
7F7
331
78E
  5
7B8
331
80C
  5
A13
331
7D5
  5
7FF
331
796
  5
7C0
331
ABF
  5
D5B
331
814
  5
A20
331
79E
  5
7C8
331
767
  5
791
331
7DD
  5
807
331
A08
  5
D3F
331
81C
  5
D1D
331
7E5
  5
80F
331
76F
  5
799
331
7A6
  5
7D0
331
D3F
  5
D79
331
A10
  5
D44
331
824
  5
D2B
331
7ED
  5
817
331
7AE
  5
7D8
331
777
  5
7A1
331
A18
  5
D51
331
7F5
  5
81F
331
7B6
  5
7E0
331
77F
  5
7A9
331
7FD
  5
827
331
7BE
  5
7E8
331
787
  5
7B1
331
7C6
  5
7F0
331
D20
  5
D68
331
D30
  5
D72
331
805
  5
A08
331
7CE
  5
7F8
331
78F
  5
7B9
331
80D
  5
A14
331
7D6
  5
800
331
797
  5
7C1
331
AC0
  5
D5C
331
815
  5
A21
331
79F
  5
7C9
331
7DE
  5
808
331
768
  5
792
331
A09
  5
D40
331
81D
  5
D1E
331
7E6
  5
810
331
7A7
  5
7D1
331
D40
  5
D7A
331
21E
  5
21E
331
770
  5
79A
331
A11
  5
D45
331
825
  5
D2C
331
7AF
  5
7D9
331
778
  5
7A2
331
7EE
  5
818
331
9A2
  5
D64
331
7F6
  5
820
331
780
  5
7AA
331
7B7
  5
7E1
331
A21
  5
D31
331
7FE
  5
828
331
7BF
  5
7E9
331
7C7
  5
7F1
331
D50
  5
D83
331
D21
  5
D69
331
D29
  5
D6B
331
D31
  5
D73
331
788
  5
7B2
331
806
  5
A09
331
7CF
  5
7F9
331
790
  5
7BA
331
80E
  5
A15
331
7D7
  5
801
331
798
  5
7C2
331
AC1
  5
D5D
331
816
  5
A22
331
7A0
  5
7CA
331
769
  5
793
331
7DF
  5
809
331
A0A
  5
D41
331
81E
  5
D1F
331
7E7
  5
811
331
D41
  5
D7B
  0
SORTENTSTABLE
  5
B08
102
{ACAD_REACTORS
330
B07
102
}
330
B07
100
AcDbSortentsTable
330
B06
  0
SORTENTSTABLE
  5
B43
102
{ACAD_REACTORS
330
B42
102
}
330
B42
100
AcDbSortentsTable
330
B41
  0
SORTENTSTABLE
  5
B8B
102
{ACAD_REACTORS
330
B8A
102
}
330
B8A
100
AcDbSortentsTable
330
B89
  0
SORTENTSTABLE
  5
B92
102
{ACAD_REACTORS
330
B91
102
}
330
B91
100
AcDbSortentsTable
330
B90
  0
SORTENTSTABLE
  5
BA8
102
{ACAD_REACTORS
330
BA7
102
}
330
BA7
100
AcDbSortentsTable
330
BA6
  0
SORTENTSTABLE
  5
C8E
102
{ACAD_REACTORS
330
C8D
102
}
330
C8D
100
AcDbSortentsTable
330
C8C
  0
SORTENTSTABLE
  5
D17
102
{ACAD_REACTORS
330
D16
102
}
330
D16
100
AcDbSortentsTable
330
CD4
331
D04
  5
D0B
331
CE6
  5
CE8
331
D0C
  5
D10
331
CEE
  5
CF2
331
D14
  5
CF7
331
CF6
  5
CFD
331
CFD
  5
D04
331
CDF
  5
CE1
331
D05
  5
D0C
331
CE7
  5
CEB
331
CEF
  5
CF3
331
D0D
  5
CE9
331
CF7
  5
CFE
331
CD8
  5
CDA
331
CE0
  5
CE2
331
CFE
  5
D05
331
D06
  5
D0D
331
CE8
  5
CEC
331
D0E
  5
CEA
331
CF0
  5
CF4
331
CD9
  5
CDB
331
CFF
  5
D06
331
CE1
  5
CE3
331
D07
  5
D0E
331
CE9
  5
CED
331
CF1
  5
CF5
331
D0F
  5
CD6
331
CF8
  5
CFF
331
CDA
  5
CDC
331
D00
  5
D07
331
CE2
  5
CE4
331
D08
  5
CF6
331
CEA
  5
CEE
331
D10
  5
D11
331
CF2
  5
CF9
331
CF9
  5
D00
331
CDB
  5
CDD
331
D01
  5
D08
331
CE3
  5
CE5
331
D09
  5
CF8
331
CEB
  5
CEF
331
D11
  5
D12
331
CF3
  5
CFA
331
CFA
  5
D01
331
CDC
  5
CDE
331
D02
  5
D09
331
CE4
  5
CE6
331
D0A
  5
D0F
331
CEC
  5
CF0
331
CD6
  5
CD8
331
D12
  5
D13
331
CF4
  5
CFB
331
CFB
  5
D02
331
CDD
  5
CDF
331
D03
  5
D0A
331
CE5
  5
CE7
331
D0B
  5
CD7
331
CD7
  5
CD9
331
CED
  5
CF1
331
D13
  5
D14
331
CF5
  5
CFC
331
CDE
  5
CE0
331
CFC
  5
D03
  0
XRECORD
  5
DB4
102
{ACAD_REACTORS
330
DB3
102
}
330
DB3
100
AcDbXrecord
280
     1
 40
283676.0
  1
\pxsm1,qc;{\fISOCPEUR|b0|i0|c0|p34;\W1;Description\POutline drawing}
  0
XRECORD
  5
DB6
102
{ACAD_REACTORS
330
DB5
102
}
330
DB5
100
AcDbXrecord
280
     1
 40
254617.0
  1
\pxsm1,qc;{\fISOCPEUR|b0|i0|c0|p34;\W1; 28D 11    .1\POutline drawing}
  0
LAYOUT
  5
73
102
{ACAD_REACTORS
330
69
102
}
330
69
100
AcDbPlotSettings
  1

  2
HP LaserJet M5035@ 6th Floor ++
  4

  6

 40
0.0
 41
0.0
 42
0.0
 43
0.0
 44
0.0
 45
0.0
 46
0.0
 47
0.0
 48
0.0
 49
0.0
140
0.0
141
0.0
142
1.0
143
1.0
 70
   688
 72
     0
 73
     0
 74
     5
  7

 75
    16
147
1.0
 76
     0
 77
     2
 78
   300
148
0.0
149
0.0
100
AcDbLayout
  1
Layout1
 70
     1
 71
     1
 10
0.0
 20
0.0
 11
12.0
 21
9.0
 12
0.0
 22
0.0
 32
0.0
 14
1.000000000000000E+20
 24
1.000000000000000E+20
 34
1.000000000000000E+20
 15
-1.000000000000000E+20
 25
-1.000000000000000E+20
 35
-1.000000000000000E+20
146
0.0
 13
0.0
 23
0.0
 33
0.0
 16
1.0
 26
0.0
 36
0.0
 17
0.0
 27
1.0
 37
0.0
 76
     0
330
70
  0
LAYOUT
  5
77
102
{ACAD_REACTORS
330
69
102
}
330
69
100
AcDbPlotSettings
  1

  2
HP LaserJet M5035@ 6th Floor ++
  4
Letter
  6

 40
6.805083274841308
 41
5.027085781097412
 42
6.805068969726562
 43
5.027069091796875
 44
215.8999938964844
 45
279.3999938964844
 46
0.0
 47
0.0
 48
0.0
 49
0.0
140
0.0
141
0.0
142
1.0
143
36.66864885745998
 70
 11952
 72
     0
 73
     1
 74
     0
  7

 75
     0
147
0.0272712529956379
 76
     0
 77
     2
 78
   300
148
-7558.079093071741
149
2255.113445902085
100
AcDbLayout
  1
Model
 70
     1
 71
     0
 10
0.0
 20
0.0
 11
12.0
 21
9.0
 12
0.0
 22
0.0
 32
0.0
 14
0.0
 24
0.0
 34
0.0
 15
0.0
 25
0.0
 35
0.0
146
0.0
 13
0.0
 23
0.0
 33
0.0
 16
1.0
 26
0.0
 36
0.0
 17
0.0
 27
1.0
 37
0.0
 76
     0
330
74
331
8B
1001
ACAD_PSEXT
1000
HP LaserJet M5035@ 6th Floor ++
1000
HP LaserJet M5035 mfp PCL6
1000
10.156.107.7
1000

1070
     0
  0
MATERIAL
  5
19
102
{ACAD_XDICTIONARY
360
1A
102
}
102
{ACAD_REACTORS
330
10
102
}
330
10
100
AcDbMaterial
  1
ByBlock
 72
     0
 43
0.0208333333333333
 43
0.0
 43
0.0
 43
0.0
 43
0.0
 43
0.0208333333333333
 43
0.0
 43
0.0
 43
0.0
 43
0.0
 43
1.0
 43
0.0
 43
0.0
 43
0.0
 43
0.0
 43
1.0
 77
     0
 47
0.0208333333333333
 47
0.0
 47
0.0
 47
0.0
 47
0.0
 47
0.0208333333333333
 47
0.0
 47
0.0
 47
0.0
 47
0.0
 47
1.0
 47
0.0
 47
0.0
 47
0.0
 47
0.0
 47
1.0
171
     0
 49
0.0208333333333333
 49
0.0
 49
0.0
 49
0.0
 49
0.0
 49
0.0208333333333333
 49
0.0
 49
0.0
 49
0.0
 49
0.0
 49
1.0
 49
0.0
 49
0.0
 49
0.0
 49
0.0
 49
1.0
175
     0
142
0.0208333333333333
142
0.0
142
0.0
142
0.0
142
0.0
142
0.0208333333333333
142
0.0
142
0.0
142
0.0
142
0.0
142
1.0
142
0.0
142
0.0
142
0.0
142
0.0
142
1.0
179
     0
144
0.0208333333333333
144
0.0
144
0.0
144
0.0
144
0.0
144
0.0208333333333333
144
0.0
144
0.0
144
0.0
144
0.0
144
1.0
144
0.0
144
0.0
144
0.0
144
0.0
144
1.0
147
0.0208333333333333
147
0.0
147
0.0
147
0.0
147
0.0
147
0.0208333333333333
147
0.0
147
0.0
147
0.0
147
0.0
147
1.0
147
0.0
147
0.0
147
0.0
147
0.0
147
1.0
  0
MATERIAL
  5
11
102
{ACAD_XDICTIONARY
360
12
102
}
102
{ACAD_REACTORS
330
10
102
}
330
10
100
AcDbMaterial
  1
ByLayer
 72
     0
 43
0.0208333333333333
 43
0.0
 43
0.0
 43
0.0
 43
0.0
 43
0.0208333333333333
 43
0.0
 43
0.0
 43
0.0
 43
0.0
 43
1.0
 43
0.0
 43
0.0
 43
0.0
 43
0.0
 43
1.0
 77
     0
 47
0.0208333333333333
 47
0.0
 47
0.0
 47
0.0
 47
0.0
 47
0.0208333333333333
 47
0.0
 47
0.0
 47
0.0
 47
0.0
 47
1.0
 47
0.0
 47
0.0
 47
0.0
 47
0.0
 47
1.0
171
     0
 49
0.0208333333333333
 49
0.0
 49
0.0
 49
0.0
 49
0.0
 49
0.0208333333333333
 49
0.0
 49
0.0
 49
0.0
 49
0.0
 49
1.0
 49
0.0
 49
0.0
 49
0.0
 49
0.0
 49
1.0
175
     0
142
0.0208333333333333
142
0.0
142
0.0
142
0.0
142
0.0
142
0.0208333333333333
142
0.0
142
0.0
142
0.0
142
0.0
142
1.0
142
0.0
142
0.0
142
0.0
142
0.0
142
1.0
179
     0
144
0.0208333333333333
144
0.0
144
0.0
144
0.0
144
0.0
144
0.0208333333333333
144
0.0
144
0.0
144
0.0
144
0.0
144
1.0
144
0.0
144
0.0
144
0.0
144
0.0
144
1.0
147
0.0208333333333333
147
0.0
147
0.0
147
0.0
147
0.0
147
0.0208333333333333
147
0.0
147
0.0
147
0.0
147
0.0
147
1.0
147
0.0
147
0.0
147
0.0
147
0.0
147
1.0
  0
MATERIAL
  5
21
102
{ACAD_XDICTIONARY
360
22
102
}
102
{ACAD_REACTORS
330
10
102
}
330
10
100
AcDbMaterial
  1
Global
 72
     0
 43
0.0208333333333333
 43
0.0
 43
0.0
 43
0.0
 43
0.0
 43
0.0208333333333333
 43
0.0
 43
0.0
 43
0.0
 43
0.0
 43
1.0
 43
0.0
 43
0.0
 43
0.0
 43
0.0
 43
1.0
 77
     0
 47
0.0208333333333333
 47
0.0
 47
0.0
 47
0.0
 47
0.0
 47
0.0208333333333333
 47
0.0
 47
0.0
 47
0.0
 47
0.0
 47
1.0
 47
0.0
 47
0.0
 47
0.0
 47
0.0
 47
1.0
171
     0
 49
0.0208333333333333
 49
0.0
 49
0.0
 49
0.0
 49
0.0
 49
0.0208333333333333
 49
0.0
 49
0.0
 49
0.0
 49
0.0
 49
1.0
 49
0.0
 49
0.0
 49
0.0
 49
0.0
 49
1.0
175
     0
142
0.0208333333333333
142
0.0
142
0.0
142
0.0
142
0.0
142
0.0208333333333333
142
0.0
142
0.0
142
0.0
142
0.0
142
1.0
142
0.0
142
0.0
142
0.0
142
0.0
142
1.0
179
     0
144
0.0208333333333333
144
0.0
144
0.0
144
0.0
144
0.0
144
0.0208333333333333
144
0.0
144
0.0
144
0.0
144
0.0
144
1.0
144
0.0
144
0.0
144
0.0
144
0.0
144
1.0
147
0.0208333333333333
147
0.0
147
0.0
147
0.0
147
0.0
147
0.0208333333333333
147
0.0
147
0.0
147
0.0
147
0.0
147
1.0
147
0.0
147
0.0
147
0.0
147
0.0
147
1.0
  0
MLEADERSTYLE
  5
6E
102
{ACAD_REACTORS
330
6D
102
}
330
6D
100
AcDbMLeaderStyle
170
     2
171
     1
172
     0
 90
        2
 40
0.0
 41
0.0
173
     1
 91
-1056964608
340
62
 92
       -2
290
     1
 42
0.09
291
     1
 43
0.36
  3
Standard
 44
0.18
300

342
5D
174
     1
178
     6
175
     1
176
     0
 93
-1056964608
 45
0.18
292
     0
297
     0
 46
0.18
 94
-1056964608
 47
1.0
 49
1.0
140
1.0
293
     1
141
0.0
294
     1
177
     0
142
1.0
295
     0
296
     0
143
0.125
1001
ACAD_MLEADERVER
1070
     2
  0
MLINESTYLE
  5
67
102
{ACAD_REACTORS
330
66
102
}
330
66
100
AcDbMlineStyle
  2
STANDARD
 70
     0
  3

 62
   256
 51
90.0
 52
90.0
 71
     2
 49
0.5
 62
   256
  6
BYLAYER
 49
-0.5
 62
   256
  6
BYLAYER
  0
ACDBPLACEHOLDER
  5
F
102
{ACAD_REACTORS
330
E
102
}
330
E
  0
SCALE
  5
3B
102
{ACAD_REACTORS
330
3A
102
}
330
3A
100
AcDbScale
 70
     0
300
1:1
140
1.0
141
1.0
290
     1
  0
SCALE
  5
3C
102
{ACAD_REACTORS
330
3A
102
}
330
3A
100
AcDbScale
 70
     0
300
1:2
140
1.0
141
2.0
290
     0
  0
SCALE
  5
3D
102
{ACAD_REACTORS
330
3A
102
}
330
3A
100
AcDbScale
 70
     0
300
1:4
140
1.0
141
4.0
290
     0
  0
SCALE
  5
3E
102
{ACAD_REACTORS
330
3A
102
}
330
3A
100
AcDbScale
 70
     0
300
1:5
140
1.0
141
5.0
290
     0
  0
SCALE
  5
3F
102
{ACAD_REACTORS
330
3A
102
}
330
3A
100
AcDbScale
 70
     0
300
1:8
140
1.0
141
8.0
290
     0
  0
SCALE
  5
40
102
{ACAD_REACTORS
330
3A
102
}
330
3A
100
AcDbScale
 70
     0
300
1:10
140
1.0
141
10.0
290
     0
  0
SCALE
  5
41
102
{ACAD_REACTORS
330
3A
102
}
330
3A
100
AcDbScale
 70
     0
300
1:16
140
1.0
141
16.0
290
     0
  0
SCALE
  5
42
102
{ACAD_REACTORS
330
3A
102
}
330
3A
100
AcDbScale
 70
     0
300
1:20
140
1.0
141
20.0
290
     0
  0
SCALE
  5
43
102
{ACAD_REACTORS
330
3A
102
}
330
3A
100
AcDbScale
 70
     0
300
1:30
140
1.0
141
30.0
290
     0
  0
SCALE
  5
44
102
{ACAD_REACTORS
330
3A
102
}
330
3A
100
AcDbScale
 70
     0
300
1:40
140
1.0
141
40.0
290
     0
  0
SCALE
  5
45
102
{ACAD_REACTORS
330
3A
102
}
330
3A
100
AcDbScale
 70
     0
300
1:50
140
1.0
141
50.0
290
     0
  0
SCALE
  5
46
102
{ACAD_REACTORS
330
3A
102
}
330
3A
100
AcDbScale
 70
     0
300
1:100
140
1.0
141
100.0
290
     0
  0
SCALE
  5
47
102
{ACAD_REACTORS
330
3A
102
}
330
3A
100
AcDbScale
 70
     0
300
2:1
140
2.0
141
1.0
290
     0
  0
SCALE
  5
48
102
{ACAD_REACTORS
330
3A
102
}
330
3A
100
AcDbScale
 70
     0
300
4:1
140
4.0
141
1.0
290
     0
  0
SCALE
  5
49
102
{ACAD_REACTORS
330
3A
102
}
330
3A
100
AcDbScale
 70
     0
300
8:1
140
8.0
141
1.0
290
     0
  0
SCALE
  5
4A
102
{ACAD_REACTORS
330
3A
102
}
330
3A
100
AcDbScale
 70
     0
300
10:1
140
10.0
141
1.0
290
     0
  0
SCALE
  5
4B
102
{ACAD_REACTORS
330
3A
102
}
330
3A
100
AcDbScale
 70
     0
300
100:1
140
100.0
141
1.0
290
     0
  0
SCALE
  5
4C
102
{ACAD_REACTORS
330
3A
102
}
330
3A
100
AcDbScale
 70
     0
300
1/128" = 1'-0"
140
0.0078125
141
12.0
290
     0
  0
SCALE
  5
4D
102
{ACAD_REACTORS
330
3A
102
}
330
3A
100
AcDbScale
 70
     0
300
1/64" = 1'-0"
140
0.015625
141
12.0
290
     0
  0
SCALE
  5
4E
102
{ACAD_REACTORS
330
3A
102
}
330
3A
100
AcDbScale
 70
     0
300
1/32" = 1'-0"
140
0.03125
141
12.0
290
     0
  0
SCALE
  5
4F
102
{ACAD_REACTORS
330
3A
102
}
330
3A
100
AcDbScale
 70
     0
300
1/16" = 1'-0"
140
0.0625
141
12.0
290
     0
  0
SCALE
  5
50
102
{ACAD_REACTORS
330
3A
102
}
330
3A
100
AcDbScale
 70
     0
300
3/32" = 1'-0"
140
0.09375
141
12.0
290
     0
  0
SCALE
  5
51
102
{ACAD_REACTORS
330
3A
102
}
330
3A
100
AcDbScale
 70
     0
300
1/8" = 1'-0"
140
0.125
141
12.0
290
     0
  0
SCALE
  5
52
102
{ACAD_REACTORS
330
3A
102
}
330
3A
100
AcDbScale
 70
     0
300
3/16" = 1'-0"
140
0.1875
141
12.0
290
     0
  0
SCALE
  5
53
102
{ACAD_REACTORS
330
3A
102
}
330
3A
100
AcDbScale
 70
     0
300
1/4" = 1'-0"
140
0.25
141
12.0
290
     0
  0
SCALE
  5
54
102
{ACAD_REACTORS
330
3A
102
}
330
3A
100
AcDbScale
 70
     0
300
3/8" = 1'-0"
140
0.375
141
12.0
290
     0
  0
SCALE
  5
55
102
{ACAD_REACTORS
330
3A
102
}
330
3A
100
AcDbScale
 70
     0
300
1/2" = 1'-0"
140
0.5
141
12.0
290
     0
  0
SCALE
  5
56
102
{ACAD_REACTORS
330
3A
102
}
330
3A
100
AcDbScale
 70
     0
300
3/4" = 1'-0"
140
0.75
141
12.0
290
     0
  0
SCALE
  5
57
102
{ACAD_REACTORS
330
3A
102
}
330
3A
100
AcDbScale
 70
     0
300
1" = 1'-0"
140
1.0
141
12.0
290
     0
  0
SCALE
  5
58
102
{ACAD_REACTORS
330
3A
102
}
330
3A
100
AcDbScale
 70
     0
300
1-1/2" = 1'-0"
140
1.5
141
12.0
290
     0
  0
SCALE
  5
59
102
{ACAD_REACTORS
330
3A
102
}
330
3A
100
AcDbScale
 70
     0
300
3" = 1'-0"
140
3.0
141
12.0
290
     0
  0
SCALE
  5
5A
102
{ACAD_REACTORS
330
3A
102
}
330
3A
100
AcDbScale
 70
     0
300
6" = 1'-0"
140
6.0
141
12.0
290
     0
  0
SCALE
  5
5B
102
{ACAD_REACTORS
330
3A
102
}
330
3A
100
AcDbScale
 70
     0
300
1'-0" = 1'-0"
140
12.0
141
12.0
290
     0
  0
TABLESTYLE
  5
6C
102
{ACAD_XDICTIONARY
360
AF6
102
}
102
{ACAD_REACTORS
330
6B
102
}
330
6B
100
AcDbTableStyle
  3
Standard
 70
     0
 71
     0
 40
0.06
 41
0.06
280
     0
281
     0
  7
STANDARD
140
0.18
170
     2
 62
     0
 63
     7
283
     0
 90
      512
 91
        0
  1

274
    -2
284
     1
 64
     0
275
    -2
285
     1
 65
     0
276
    -2
286
     1
 66
     0
277
    -2
287
     1
 67
     0
278
    -2
288
     1
 68
     0
279
    -2
289
     1
 69
     0
  7
STANDARD
140
0.25
170
     5
 62
     0
 63
     7
283
     0
 90
      512
 91
        0
  1

274
    -2
284
     1
 64
     0
275
    -2
285
     1
 65
     0
276
    -2
286
     1
 66
     0
277
    -2
287
     1
 67
     0
278
    -2
288
     1
 68
     0
279
    -2
289
     1
 69
     0
  7
STANDARD
140
0.18
170
     5
 62
     0
 63
     7
283
     0
 90
      512
 91
        0
  1

274
    -2
284
     1
 64
     0
275
    -2
285
     1
 65
     0
276
    -2
286
     1
 66
     0
277
    -2
287
     1
 67
     0
278
    -2
288
     1
 68
     0
279
    -2
289
     1
 69
     0
  0
VISUALSTYLE
  5
2F
102
{ACAD_REACTORS
330
29
102
}
330
29
100
AcDbVisualStyle
  2
2dWireframe
 70
     4
 71
     0
 72
     2
 73
     0
 90
        0
 40
-0.6
 41
-30.0
 62
     5
 63
     7
421
 16777215
 74
     1
 91
        4
 64
     7
 65
   257
 75
     1
175
     1
 42
1.0
 92
        0
 66
   257
 43
1.0
 76
     1
 77
     6
 78
     2
 67
     7
 79
     5
170
     0
171
     0
290
     0
174
     0
 93
        1
 44
0.0
173
     0
291
     0
 45
0.0
  0
VISUALSTYLE
  5
31
102
{ACAD_REACTORS
330
29
102
}
330
29
100
AcDbVisualStyle
  2
3D Hidden
 70
     6
 71
     1
 72
     2
 73
     2
 90
        0
 40
-0.6
 41
-30.0
 62
     5
 63
     7
421
 16777215
 74
     2
 91
        2
 64
     7
 65
   257
 75
     2
175
     1
 42
40.0
 92
        0
 66
   257
 43
1.0
 76
     1
 77
     6
 78
     2
 67
     7
 79
     3
170
     0
171
     0
290
     0
174
     0
 93
        1
 44
0.0
173
     0
291
     0
 45
0.0
  0
VISUALSTYLE
  5
30
102
{ACAD_REACTORS
330
29
102
}
330
29
100
AcDbVisualStyle
  2
3dWireframe
 70
     5
 71
     0
 72
     2
 73
     0
 90
        0
 40
-0.6
 41
-30.0
 62
     5
 63
     7
421
 16777215
 74
     1
 91
        4
 64
     7
 65
   257
 75
     1
175
     1
 42
1.0
 92
        0
 66
   257
 43
1.0
 76
     1
 77
     6
 78
     2
 67
     7
 79
     5
170
     0
171
     0
290
     0
174
     0
 93
        1
 44
0.0
173
     0
291
     0
 45
0.0
  0
VISUALSTYLE
  5
2E
102
{ACAD_REACTORS
330
29
102
}
330
29
100
AcDbVisualStyle
  2
Basic
 70
     7
 71
     1
 72
     0
 73
     1
 90
        0
 40
-0.6
 41
-30.0
 62
     5
 63
     7
421
 16777215
 74
     0
 91
        4
 64
     7
 65
   257
 75
     1
175
     1
 42
1.0
 92
        8
 66
     7
 43
1.0
 76
     1
 77
     6
 78
     2
 67
     7
 79
     5
170
     0
171
     0
290
     0
174
     0
 93
        1
 44
0.0
173
     0
291
     1
 45
0.0
  0
VISUALSTYLE
  5
35
102
{ACAD_REACTORS
330
29
102
}
330
29
100
AcDbVisualStyle
  2
Brighten
 70
    12
 71
     2
 72
     2
 73
     0
 90
        0
 40
-0.6
 41
-30.0
 62
     5
 63
     7
421
 16777215
 74
     1
 91
        4
 64
     7
 65
   257
 75
     1
175
     1
 42
1.0
 92
        8
 66
     7
 43
1.0
 76
     1
 77
     6
 78
     2
 67
     7
 79
     5
170
     0
171
     0
290
     0
174
     0
 93
        1
 44
50.0
173
     0
291
     1
 45
0.0
  0
VISUALSTYLE
  5
39
102
{ACAD_REACTORS
330
29
102
}
330
29
100
AcDbVisualStyle
  2
ColorChange
 70
    16
 71
     2
 72
     2
 73
     3
 90
        0
 40
-0.6
 41
-30.0
 62
     5
 63
     8
421
  8421504
 74
     1
 91
        4
 64
     7
 65
   257
 75
     1
175
     1
 42
1.0
 92
        8
 66
     8
424
  8421504
 43
1.0
 76
     1
 77
     6
 78
     2
 67
     7
 79
     5
170
     0
171
     0
290
     0
174
     0
 93
        1
 44
0.0
173
     0
291
     1
 45
0.0
  0
VISUALSTYLE
  5
32
102
{ACAD_REACTORS
330
29
102
}
330
29
100
AcDbVisualStyle
  2
Conceptual
 70
     9
 71
     3
 72
     2
 73
     0
 90
        0
 40
-0.6
 41
-30.0
 62
     5
 63
     7
421
 16777215
 74
     2
 91
        2
 64
     7
 65
   257
 75
     1
175
     1
 42
40.0
 92
        8
 66
     7
 43
1.0
 76
     1
 77
     6
 78
     2
 67
     7
 79
     3
170
     0
171
     0
290
     0
174
     0
 93
        1
 44
0.0
173
     0
291
     0
 45
0.0
  0
VISUALSTYLE
  5
34
102
{ACAD_REACTORS
330
29
102
}
330
29
100
AcDbVisualStyle
  2
Dim
 70
    11
 71
     2
 72
     2
 73
     0
 90
        0
 40
-0.6
 41
-30.0
 62
     5
 63
     7
421
 16777215
 74
     1
 91
        4
 64
     7
 65
   257
 75
     1
175
     1
 42
1.0
 92
        8
 66
     7
 43
1.0
 76
     1
 77
     6
 78
     2
 67
     7
 79
     5
170
     0
171
     0
290
     0
174
     0
 93
        1
 44
-50.0
173
     0
291
     1
 45
0.0
  0
VISUALSTYLE
  5
CC9
102
{ACAD_XDICTIONARY
360
CCA
102
}
102
{ACAD_REACTORS
330
29
102
}
330
29
100
AcDbVisualStyle
  2
EdgeColorOff
 70
    22
 71
     2
 72
     2
 73
     0
 90
        0
 40
-0.6
 41
-30.0
 62
     5
 63
     7
 74
     1
 91
        4
 64
     7
 65
   257
 75
     1
175
     1
 42
1.0
 92
        8
 66
     7
 43
1.0
 76
     1
 77
     6
 78
     2
 67
     7
 79
     5
170
     0
171
     0
290
     0
174
     0
 93
        1
 44
0.0
173
     0
291
     1
 45
0.0
  0
VISUALSTYLE
  5
38
102
{ACAD_REACTORS
330
29
102
}
330
29
100
AcDbVisualStyle
  2
Facepattern
 70
    15
 71
     2
 72
     2
 73
     0
 90
        0
 40
-0.6
 41
-30.0
 62
     5
 63
     7
421
 16777215
 74
     1
 91
        4
 64
     7
 65
   257
 75
     1
175
     1
 42
1.0
 92
        8
 66
     7
 43
1.0
 76
     1
 77
     6
 78
     2
 67
     7
 79
     5
170
     0
171
     0
290
     0
174
     0
 93
        1
 44
0.0
173
     0
291
     1
 45
0.0
  0
VISUALSTYLE
  5
2A
102
{ACAD_REACTORS
330
29
102
}
330
29
100
AcDbVisualStyle
  2
Flat
 70
     0
 71
     2
 72
     1
 73
     1
 90
        2
 40
-0.6
 41
30.0
 62
     5
 63
     7
421
 16777215
 74
     0
 91
        4
 64
     7
 65
   257
 75
     1
175
     1
 42
1.0
 92
        8
 66
     7
 43
1.0
 76
     1
 77
     6
 78
     2
 67
     7
 79
     5
170
     0
171
     0
290
     0
174
     0
 93
       13
 44
0.0
173
     0
291
     1
 45
0.0
  0
VISUALSTYLE
  5
2B
102
{ACAD_REACTORS
330
29
102
}
330
29
100
AcDbVisualStyle
  2
FlatWithEdges
 70
     1
 71
     2
 72
     1
 73
     1
 90
        2
 40
-0.6
 41
30.0
 62
     5
 63
     7
421
 16777215
 74
     1
 91
        4
 64
     7
 65
   257
 75
     1
175
     1
 42
1.0
 92
        0
 66
   257
 43
1.0
 76
     1
 77
     6
 78
     2
 67
     7
 79
     5
170
     0
171
     0
290
     0
174
     0
 93
       13
 44
0.0
173
     0
291
     1
 45
0.0
  0
VISUALSTYLE
  5
2C
102
{ACAD_REACTORS
330
29
102
}
330
29
100
AcDbVisualStyle
  2
Gouraud
 70
     2
 71
     2
 72
     2
 73
     1
 90
        2
 40
-0.6
 41
30.0
 62
     5
 63
     7
421
 16777215
 74
     0
 91
        4
 64
     7
 65
   257
 75
     1
175
     1
 42
1.0
 92
        0
 66
     7
 43
1.0
 76
     1
 77
     6
 78
     2
 67
     7
 79
     5
170
     0
171
     0
290
     0
174
     0
 93
       13
 44
0.0
173
     0
291
     1
 45
0.0
  0
VISUALSTYLE
  5
2D
102
{ACAD_REACTORS
330
29
102
}
330
29
100
AcDbVisualStyle
  2
GouraudWithEdges
 70
     3
 71
     2
 72
     2
 73
     1
 90
        2
 40
-0.6
 41
30.0
 62
     5
 63
     7
421
 16777215
 74
     1
 91
        4
 64
     7
 65
   257
 75
     1
175
     1
 42
1.0
 92
        0
 66
   257
 43
1.0
 76
     1
 77
     6
 78
     2
 67
     7
 79
     5
170
     0
171
     0
290
     0
174
     0
 93
       13
 44
0.0
173
     0
291
     1
 45
0.0
  0
VISUALSTYLE
  5
CCC
102
{ACAD_XDICTIONARY
360
CCD
102
}
102
{ACAD_REACTORS
330
29
102
}
330
29
100
AcDbVisualStyle
  2
JitterOff
 70
    20
 71
     2
 72
     2
 73
     0
 90
        0
 40
-0.6
 41
-30.0
 62
     5
 63
     7
 74
     1
 91
        4
 64
     7
 65
   257
 75
     1
175
     1
 42
1.0
 92
       10
 66
     7
 43
1.0
 76
     1
 77
     6
 78
     2
 67
     7
 79
     5
170
     0
171
     0
290
     0
174
     0
 93
        1
 44
0.0
173
     0
291
     1
 45
0.0
  0
VISUALSTYLE
  5
37
102
{ACAD_REACTORS
330
29
102
}
330
29
100
AcDbVisualStyle
  2
Linepattern
 70
    14
 71
     2
 72
     2
 73
     0
 90
        0
 40
-0.6
 41
-30.0
 62
     5
 63
     7
421
 16777215
 74
     1
 91
        4
 64
     7
 65
   257
 75
     7
175
     7
 42
1.0
 92
        8
 66
     7
 43
1.0
 76
     1
 77
     6
 78
     2
 67
     7
 79
     5
170
     0
171
     0
290
     0
174
     0
 93
        1
 44
0.0
173
     0
291
     1
 45
0.0
  0
VISUALSTYLE
  5
CCF
102
{ACAD_XDICTIONARY
360
CD0
102
}
102
{ACAD_REACTORS
330
29
102
}
330
29
100
AcDbVisualStyle
  2
OverhangOff
 70
    21
 71
     2
 72
     2
 73
     0
 90
        0
 40
-0.6
 41
-30.0
 62
     5
 63
     7
 74
     1
 91
        4
 64
     7
 65
   257
 75
     1
175
     1
 42
1.0
 92
        9
 66
     7
 43
1.0
 76
     1
 77
     6
 78
     2
 67
     7
 79
     5
170
     0
171
     0
290
     0
174
     0
 93
        1
 44
0.0
173
     0
291
     1
 45
0.0
  0
VISUALSTYLE
  5
33
102
{ACAD_REACTORS
330
29
102
}
330
29
100
AcDbVisualStyle
  2
Realistic
 70
     8
 71
     2
 72
     2
 73
     0
 90
        0
 40
-0.6
 41
-30.0
 62
     5
 63
     7
421
 16777215
 74
     1
 91
        0
 64
     7
 65
   257
 75
     1
175
     1
 42
1.0
 92
        8
 66
     8
424
  7895160
 43
1.0
 76
     1
 77
     6
 78
     2
 67
     7
 79
     5
170
     0
171
     0
290
     0
174
     0
 93
       13
 44
0.0
173
     0
291
     0
 45
0.0
  0
VISUALSTYLE
  5
36
102
{ACAD_REACTORS
330
29
102
}
330
29
100
AcDbVisualStyle
  2
Thicken
 70
    13
 71
     2
 72
     2
 73
     0
 90
        0
 40
-0.6
 41
-30.0
 62
     5
 63
     7
421
 16777215
 74
     1
 91
        4
 64
     7
 65
   257
 75
     1
175
     1
 42
1.0
 92
       12
 66
     7
 43
1.0
 76
     1
 77
     6
 78
     2
 67
     7
 79
     5
170
     0
171
     0
290
     0
174
     0
 93
        1
 44
0.0
173
     0
291
     1
 45
0.0
  0
DICTIONARYVAR
  5
AFD
102
{ACAD_REACTORS
330
AF9
102
}
330
AF9
100
DictionaryVariables
280
     0
  1
1:1
  0
DICTIONARYVAR
  5
AFB
102
{ACAD_REACTORS
330
AF9
102
}
330
AF9
100
DictionaryVariables
280
     0
  1
STANDARD
  0
DICTIONARYVAR
  5
AFA
102
{ACAD_REACTORS
330
AF9
102
}
330
AF9
100
DictionaryVariables
280
     0
  1
STANDARD
  0
DICTIONARYVAR
  5
AFE
102
{ACAD_REACTORS
330
AF9
102
}
330
AF9
100
DictionaryVariables
280
     0
  1
0
  0
DICTIONARYVAR
  5
AFC
102
{ACAD_REACTORS
330
AF9
102
}
330
AF9
100
DictionaryVariables
280
     0
  1
0
  0
DICTIONARY
  5
1A
330
19
100
AcDbDictionary
280
     1
281
     1
  3
BUMPTILE
360
1C
  3
DIFFUSETILE
360
1B
  3
OPACITYTILE
360
1F
  3
REFLECTIONTILE
360
1E
  3
REFRACTIONTILE
360
20
  3
SPECULARTILE
360
1D
  0
DICTIONARY
  5
12
330
11
100
AcDbDictionary
280
     1
281
     1
  3
BUMPTILE
360
14
  3
DIFFUSETILE
360
13
  3
OPACITYTILE
360
17
  3
REFLECTIONTILE
360
16
  3
REFRACTIONTILE
360
18
  3
SPECULARTILE
360
15
  0
DICTIONARY
  5
22
330
21
100
AcDbDictionary
280
     1
281
     1
  3
BUMPTILE
360
24
  3
DIFFUSETILE
360
23
  3
OPACITYTILE
360
27
  3
REFLECTIONTILE
360
26
  3
REFRACTIONTILE
360
28
  3
SPECULARTILE
360
25
  0
DICTIONARY
  5
AF6
330
6C
100
AcDbDictionary
280
     1
281
     1
  3
ACAD_ROUNDTRIP_2008_TABLESTYLE_CELLSTYLEMAP
360
DB2
  0
DICTIONARY
  5
CCA
330
CC9
100
AcDbDictionary
280
     1
281
     1
  3
ACAD_XREC_ROUNDTRIP
360
CCB
  0
DICTIONARY
  5
CCD
330
CCC
100
AcDbDictionary
280
     1
281
     1
  3
ACAD_XREC_ROUNDTRIP
360
CCE
  0
DICTIONARY
  5
CD0
330
CCF
100
AcDbDictionary
280
     1
281
     1
  3
ACAD_XREC_ROUNDTRIP
360
CD1
  0
XRECORD
  5
1C
102
{ACAD_REACTORS
330
1A
102
}
330
1A
100
AcDbXrecord
280
     1
270
     1
271
     1
  0
XRECORD
  5
1B
102
{ACAD_REACTORS
330
1A
102
}
330
1A
100
AcDbXrecord
280
     1
270
     1
271
     1
  0
XRECORD
  5
1F
102
{ACAD_REACTORS
330
1A
102
}
330
1A
100
AcDbXrecord
280
     1
270
     1
271
     1
  0
XRECORD
  5
1E
102
{ACAD_REACTORS
330
1A
102
}
330
1A
100
AcDbXrecord
280
     1
270
     1
271
     1
  0
XRECORD
  5
20
102
{ACAD_REACTORS
330
1A
102
}
330
1A
100
AcDbXrecord
280
     1
270
     1
271
     1
  0
XRECORD
  5
1D
102
{ACAD_REACTORS
330
1A
102
}
330
1A
100
AcDbXrecord
280
     1
270
     1
271
     1
  0
XRECORD
  5
14
102
{ACAD_REACTORS
330
12
102
}
330
12
100
AcDbXrecord
280
     1
270
     1
271
     1
  0
XRECORD
  5
13
102
{ACAD_REACTORS
330
12
102
}
330
12
100
AcDbXrecord
280
     1
270
     1
271
     1
  0
XRECORD
  5
17
102
{ACAD_REACTORS
330
12
102
}
330
12
100
AcDbXrecord
280
     1
270
     1
271
     1
  0
XRECORD
  5
16
102
{ACAD_REACTORS
330
12
102
}
330
12
100
AcDbXrecord
280
     1
270
     1
271
     1
  0
XRECORD
  5
18
102
{ACAD_REACTORS
330
12
102
}
330
12
100
AcDbXrecord
280
     1
270
     1
271
     1
  0
XRECORD
  5
15
102
{ACAD_REACTORS
330
12
102
}
330
12
100
AcDbXrecord
280
     1
270
     1
271
     1
  0
XRECORD
  5
24
102
{ACAD_REACTORS
330
22
102
}
330
22
100
AcDbXrecord
280
     1
270
     1
271
     1
  0
XRECORD
  5
23
102
{ACAD_REACTORS
330
22
102
}
330
22
100
AcDbXrecord
280
     1
270
     1
271
     1
  0
XRECORD
  5
27
102
{ACAD_REACTORS
330
22
102
}
330
22
100
AcDbXrecord
280
     1
270
     1
271
     1
  0
XRECORD
  5
26
102
{ACAD_REACTORS
330
22
102
}
330
22
100
AcDbXrecord
280
     1
270
     1
271
     1
  0
XRECORD
  5
28
102
{ACAD_REACTORS
330
22
102
}
330
22
100
AcDbXrecord
280
     1
270
     1
271
     1
  0
XRECORD
  5
25
102
{ACAD_REACTORS
330
22
102
}
330
22
100
AcDbXrecord
280
     1
270
     1
271
     1
  0
CELLSTYLEMAP
  5
DB2
102
{ACAD_REACTORS
330
AF6
102
}
330
AF6
100
AcDbCellStyleMap
 90
        3
300
CELLSTYLE
  1
TABLEFORMAT_BEGIN
 90
        5
170
     1
 91
        0
 92
    32768
 62
   257
 93
        1
300
CONTENTFORMAT
  1
CONTENTFORMAT_BEGIN
 90
        0
 91
        0
 92
      512
 93
        0
300

 40
0.0
140
1.0
 94
        5
 62
     0
340
5D
144
0.25
309
CONTENTFORMAT_END
171
     0
 94
        0
309
TABLEFORMAT_END
  1
CELLSTYLE_BEGIN
 90
        1
 91
        1
300
_TITLE
309
CELLSTYLE_END
300
CELLSTYLE
  1
TABLEFORMAT_BEGIN
 90
        5
170
     1
 91
        0
 92
        0
 62
   257
 93
        1
300
CONTENTFORMAT
  1
CONTENTFORMAT_BEGIN
 90
        0
 91
        0
 92
      512
 93
        0
300

 40
0.0
140
1.0
 94
        5
 62
     0
340
5D
144
0.18
309
CONTENTFORMAT_END
171
     0
 94
        0
309
TABLEFORMAT_END
  1
CELLSTYLE_BEGIN
 90
        2
 91
        1
300
_HEADER
309
CELLSTYLE_END
300
CELLSTYLE
  1
TABLEFORMAT_BEGIN
 90
        5
170
     1
 91
        0
 92
        0
 62
   257
 93
        1
300
CONTENTFORMAT
  1
CONTENTFORMAT_BEGIN
 90
        0
 91
        0
 92
      512
 93
        0
300

 40
0.0
140
1.0
 94
        2
 62
     0
340
5D
144
0.18
309
CONTENTFORMAT_END
171
     0
 94
        0
309
TABLEFORMAT_END
  1
CELLSTYLE_BEGIN
 90
        3
 91
        2
300
_DATA
309
CELLSTYLE_END
  0
XRECORD
  5
CCB
102
{ACAD_REACTORS
330
CCA
102
}
330
CCA
100
AcDbXrecord
280
     1
102
RTVSPropertyOp0
 70
     0
102
RTVSPropertyOp1
 70
     0
102
RTVSPropertyOp2
 70
     0
102
RTVSPropertyOp3
 70
     0
102
RTVSPropertyOp4
 70
     0
102
RTVSPropertyOp5
 70
     0
102
RTVSPropertyOp6
 70
     0
102
RTVSPropertyOp7
 70
     0
102
RTVSPropertyOp8
 70
     0
102
RTVSPropertyOp9
 70
     0
102
RTVSPropertyOp10
 70
     0
102
RTVSPropertyOp11
 70
     0
102
RTVSPropertyOp12
 70
     0
102
RTVSPropertyOp13
 70
     0
102
RTVSPropertyOp14
 70
     2
102
RTVSPropertyOp15
 70
     0
102
RTVSPropertyOp16
 70
     0
102
RTVSPropertyOp17
 70
     0
102
RTVSPropertyOp18
 70
     0
102
RTVSPropertyOp19
 70
     0
102
RTVSPropertyOp20
 70
     0
102
RTVSPropertyOp21
 70
     0
102
RTVSPropertyOp22
 70
     0
102
RTVSPropertyOp23
 70
     0
102
RTVSPropertyOp24
 70
     0
102
RTVSPropertyOp25
 70
     0
102
RTVSPropertyOp26
 70
     0
102
RTVSPropertyOp27
 70
     0
  0
XRECORD
  5
CCE
102
{ACAD_REACTORS
330
CCD
102
}
330
CCD
100
AcDbXrecord
280
     1
102
RTVSPropertyOp0
 70
     0
102
RTVSPropertyOp1
 70
     0
102
RTVSPropertyOp2
 70
     0
102
RTVSPropertyOp3
 70
     0
102
RTVSPropertyOp4
 70
     0
102
RTVSPropertyOp5
 70
     0
102
RTVSPropertyOp6
 70
     0
102
RTVSPropertyOp7
 70
     0
102
RTVSPropertyOp8
 70
     0
102
RTVSPropertyOp9
 70
     0
102
RTVSPropertyOp10
 70
     0
102
RTVSPropertyOp11
 70
     0
102
RTVSPropertyOp12
 70
     0
102
RTVSPropertyOp13
 70
     0
102
RTVSPropertyOp14
 70
     2
102
RTVSPropertyOp15
 70
     0
102
RTVSPropertyOp16
 70
     0
102
RTVSPropertyOp17
 70
     0
102
RTVSPropertyOp18
 70
     0
102
RTVSPropertyOp19
 70
     0
102
RTVSPropertyOp20
 70
     0
102
RTVSPropertyOp21
 70
     0
102
RTVSPropertyOp22
 70
     0
102
RTVSPropertyOp23
 70
     0
102
RTVSPropertyOp24
 70
     0
102
RTVSPropertyOp25
 70
     0
102
RTVSPropertyOp26
 70
     0
102
RTVSPropertyOp27
 70
     0
  0
XRECORD
  5
CD1
102
{ACAD_REACTORS
330
CD0
102
}
330
CD0
100
AcDbXrecord
280
     1
102
RTVSPropertyOp0
 70
     0
102
RTVSPropertyOp1
 70
     0
102
RTVSPropertyOp2
 70
     0
102
RTVSPropertyOp3
 70
     0
102
RTVSPropertyOp4
 70
     0
102
RTVSPropertyOp5
 70
     0
102
RTVSPropertyOp6
 70
     0
102
RTVSPropertyOp7
 70
     0
102
RTVSPropertyOp8
 70
     0
102
RTVSPropertyOp9
 70
     0
102
RTVSPropertyOp10
 70
     0
102
RTVSPropertyOp11
 70
     0
102
RTVSPropertyOp12
 70
     0
102
RTVSPropertyOp13
 70
     0
102
RTVSPropertyOp14
 70
     2
102
RTVSPropertyOp15
 70
     0
102
RTVSPropertyOp16
 70
     0
102
RTVSPropertyOp17
 70
     0
102
RTVSPropertyOp18
 70
     0
102
RTVSPropertyOp19
 70
     0
102
RTVSPropertyOp20
 70
     0
102
RTVSPropertyOp21
 70
     0
102
RTVSPropertyOp22
 70
     0
102
RTVSPropertyOp23
 70
     0
102
RTVSPropertyOp24
 70
     0
102
RTVSPropertyOp25
 70
     0
102
RTVSPropertyOp26
 70
     0
102
RTVSPropertyOp27
 70
     0
  0
ENDSEC
  0
EOF
