  0
SECTION
  2
HEADER
  9
$ACADVER
  1
AC1015
  9
$ACADMAINTVER
 70
    20
  9
$DWGCODEPAGE
  3
ANSI_1252
  9
$INSBASE
 10
0.0
 20
0.0
 30
0.0
  9
$EXTMIN
 10
1158.204380250479
 20
92.25473534857838
 30
0.0
  9
$EXTMAX
 10
1551.20434666008
 20
369.2547353485783
 30
1.921518015105080E+99
  9
$LIMMIN
 10
-250.7010652604489
 20
-134.8102667865827
  9
$LIMMAX
 10
-55.70106526044889
 20
3.689733213417318
  9
$ORTHOMODE
 70
     0
  9
$REGENMODE
 70
     1
  9
$FILLMODE
 70
     1
  9
$QTEXTMODE
 70
     0
  9
$MIRRTEXT
 70
     0
  9
$LTSCALE
 40
1.0
  9
$ATTMODE
 70
     1
  9
$TEXTSIZE
 40
3.5
  9
$TRACEWID
 40
0.5
  9
$TEXTSTYLE
  7
STANDARD
  9
$CLAYER
  8
0
  9
$CELTYPE
  6
ByLayer
  9
$CECOLOR
 62
   256
  9
$CELTSCALE
 40
1.0
  9
$DISPSILH
 70
     0
  9
$DIMSCALE
 40
1.5
  9
$DIMASZ
 40
1.75
  9
$DIMEXO
 40
0.0
  9
$DIMDLI
 40
7.0
  9
$DIMRND
 40
0.0
  9
$DIMDLE
 40
0.0
  9
$DIMEXE
 40
0.5
  9
$DIMTP
 40
0.0
  9
$DIMTM
 40
0.0
  9
$DIMTXT
 40
1.75
  9
$DIMCEN
 40
0.0
  9
$DIMTSZ
 40
0.0
  9
$DIMTOL
 70
     0
  9
$DIMLIM
 70
     0
  9
$DIMTIH
 70
     0
  9
$DIMTOH
 70
     0
  9
$DIMSE1
 70
     0
  9
$DIMSE2
 70
     0
  9
$DIMTAD
 70
     1
  9
$DIMZIN
 70
     9
  9
$DIMBLK
  1

  9
$DIMASO
 70
     1
  9
$DIMSHO
 70
     1
  9
$DIMPOST
  1

  9
$DIMAPOST
  1

  9
$DIMALT
 70
     0
  9
$DIMALTD
 70
     2
  9
$DIMALTF
 40
25.4
  9
$DIMLFAC
 40
1.0
  9
$DIMTOFL
 70
     0
  9
$DIMTVP
 40
0.0
  9
$DIMTIX
 70
     0
  9
$DIMSOXD
 70
     0
  9
$DIMSAH
 70
     0
  9
$DIMBLK1
  1

  9
$DIMBLK2
  1

  9
$DIMSTYLE
  2
DMST_3
  9
$DIMCLRD
 70
   256
  9
$DIMCLRE
 70
   256
  9
$DIMCLRT
 70
   256
  9
$DIMTFAC
 40
1.0
  9
$DIMGAP
 40
0.09
  9
$DIMJUST
 70
     0
  9
$DIMSD1
 70
     0
  9
$DIMSD2
 70
     0
  9
$DIMTOLJ
 70
     1
  9
$DIMTZIN
 70
     0
  9
$DIMALTZ
 70
     0
  9
$DIMALTTZ
 70
     0
  9
$DIMUPT
 70
     0
  9
$DIMDEC
 70
     4
  9
$DIMTDEC
 70
     4
  9
$DIMALTU
 70
     2
  9
$DIMALTTD
 70
     2
  9
$DIMTXSTY
  7
STANDARD
  9
$DIMAUNIT
 70
     0
  9
$DIMADEC
 70
     0
  9
$DIMALTRND
 40
0.0
  9
$DIMAZIN
 70
     0
  9
$DIMDSEP
 70
    46
  9
$DIMATFIT
 70
     3
  9
$DIMFRAC
 70
     0
  9
$DIMLDRBLK
  1

  9
$DIMLUNIT
 70
     2
  9
$DIMLWD
 70
     5
  9
$DIMLWE
 70
     5
  9
$DIMTMOVE
 70
     0
  9
$LUNITS
 70
     2
  9
$LUPREC
 70
     4
  9
$SKETCHINC
 40
0.1
  9
$FILLETRAD
 40
2.0
  9
$AUNITS
 70
     0
  9
$AUPREC
 70
     0
  9
$MENU
  1
ACAD
  9
$ELEVATION
 40
0.0
  9
$PELEVATION
 40
0.0
  9
$THICKNESS
 40
0.0
  9
$LIMCHECK
 70
     0
  9
$CHAMFERA
 40
0.0
  9
$CHAMFERB
 40
0.0
  9
$CHAMFERC
 40
0.0
  9
$CHAMFERD
 40
0.0
  9
$SKPOLY
 70
     0
  9
$TDCREATE
 40
2454559.411855000
  9
$TDUCREATE
 40
2454559.182688333
  9
$TDUPDATE
 40
2456512.750487928
  9
$TDUUPDATE
 40
2456512.521321262
  9
$TDINDWG
 40
0.4591699537
  9
$TDUSRTIMER
 40
0.4591697801
  9
$USRTIMER
 70
     1
  9
$ANGBASE
 50
0.0
  9
$ANGDIR
 70
     0
  9
$PDMODE
 70
     0
  9
$PDSIZE
 40
0.0
  9
$PLINEWID
 40
0.0
  9
$SPLFRAME
 70
     0
  9
$SPLINETYPE
 70
     6
  9
$SPLINESEGS
 70
     8
  9
$HANDSEED
  5
15E00
  9
$SURFTAB1
 70
     6
  9
$SURFTAB2
 70
     6
  9
$SURFTYPE
 70
     6
  9
$SURFU
 70
     6
  9
$SURFV
 70
     6
  9
$UCSBASE
  2

  9
$UCSNAME
  2

  9
$UCSORG
 10
0.0
 20
0.0
 30
0.0
  9
$UCSXDIR
 10
1.0
 20
0.0
 30
0.0
  9
$UCSYDIR
 10
0.0
 20
1.0
 30
0.0
  9
$UCSORTHOREF
  2

  9
$UCSORTHOVIEW
 70
     0
  9
$UCSORGTOP
 10
0.0
 20
0.0
 30
0.0
  9
$UCSORGBOTTOM
 10
0.0
 20
0.0
 30
0.0
  9
$UCSORGLEFT
 10
0.0
 20
0.0
 30
0.0
  9
$UCSORGRIGHT
 10
0.0
 20
0.0
 30
0.0
  9
$UCSORGFRONT
 10
0.0
 20
0.0
 30
0.0
  9
$UCSORGBACK
 10
0.0
 20
0.0
 30
0.0
  9
$PUCSBASE
  2

  9
$PUCSNAME
  2

  9
$PUCSORG
 10
0.0
 20
0.0
 30
0.0
  9
$PUCSXDIR
 10
1.0
 20
0.0
 30
0.0
  9
$PUCSYDIR
 10
0.0
 20
1.0
 30
0.0
  9
$PUCSORTHOREF
  2

  9
$PUCSORTHOVIEW
 70
     0
  9
$PUCSORGTOP
 10
0.0
 20
0.0
 30
0.0
  9
$PUCSORGBOTTOM
 10
0.0
 20
0.0
 30
0.0
  9
$PUCSORGLEFT
 10
0.0
 20
0.0
 30
0.0
  9
$PUCSORGRIGHT
 10
0.0
 20
0.0
 30
0.0
  9
$PUCSORGFRONT
 10
0.0
 20
0.0
 30
0.0
  9
$PUCSORGBACK
 10
0.0
 20
0.0
 30
0.0
  9
$USERI1
 70
     0
  9
$USERI2
 70
     0
  9
$USERI3
 70
     0
  9
$USERI4
 70
     0
  9
$USERI5
 70
     0
  9
$USERR1
 40
0.0
  9
$USERR2
 40
0.0
  9
$USERR3
 40
0.0
  9
$USERR4
 40
0.0
  9
$USERR5
 40
0.0
  9
$WORLDVIEW
 70
     1
  9
$SHADEDGE
 70
     3
  9
$SHADEDIF
 70
    70
  9
$TILEMODE
 70
     1
  9
$MAXACTVP
 70
    64
  9
$PINSBASE
 10
0.0
 20
0.0
 30
0.0
  9
$PLIMCHECK
 70
     0
  9
$PEXTMIN
 10
1.000000000000000E+20
 20
1.000000000000000E+20
 30
1.000000000000000E+20
  9
$PEXTMAX
 10
-1.000000000000000E+20
 20
-1.000000000000000E+20
 30
-1.000000000000000E+20
  9
$PLIMMIN
 10
0.0
 20
0.0
  9
$PLIMMAX
 10
12.0
 20
9.0
  9
$UNITMODE
 70
     0
  9
$VISRETAIN
 70
     1
  9
$PLINEGEN
 70
     0
  9
$PSLTSCALE
 70
     1
  9
$TREEDEPTH
 70
  3020
  9
$CMLSTYLE
  2
Standard
  9
$CMLJUST
 70
     0
  9
$CMLSCALE
 40
1.0
  9
$PROXYGRAPHICS
 70
     1
  9
$MEASUREMENT
 70
     0
  9
$CELWEIGHT
370
    -1
  9
$ENDCAPS
280
     0
  9
$JOINSTYLE
280
     0
  9
$LWDISPLAY
290
     0
  9
$INSUNITS
 70
     4
  9
$HYPERLINKBASE
  1

  9
$STYLESHEET
  1
MONOCHROME.CTB
  9
$XEDIT
290
     1
  9
$CEPSNTYPE
380
     0
  9
$PSTYLEMODE
290
     1
  9
$FINGERPRINTGUID
  2
{958DB25C-4567-4261-9206-C82E461B688F}
  9
$VERSIONGUID
  2
{1BFCC9EF-8907-49EF-A162-EF71DCA72F11}
  9
$EXTNAMES
290
     1
  9
$PSVPSCALE
 40
0.0
  9
$OLESTARTUP
290
     0
  0
ENDSEC
  0
SECTION
  2
CLASSES
  0
CLASS
  1
ACDBDICTIONARYWDFLT
  2
AcDbDictionaryWithDefault
  3
ObjectDBX Classes
 90
        0
280
     0
281
     0
  0
CLASS
  1
MATERIAL
  2
AcDbMaterial
  3
ObjectDBX Classes
 90
     1153
280
     0
281
     0
  0
CLASS
  1
VISUALSTYLE
  2
AcDbVisualStyle
  3
ObjectDBX Classes
 90
     4095
280
     0
281
     0
  0
CLASS
  1
SCALE
  2
AcDbScale
  3
ObjectDBX Classes
 90
     1153
280
     0
281
     0
  0
CLASS
  1
TABLESTYLE
  2
AcDbTableStyle
  3
ObjectDBX Classes
 90
     4095
280
     0
281
     0
  0
CLASS
  1
MLEADERSTYLE
  2
AcDbMLeaderStyle
  3
ACDB_MLEADERSTYLE_CLASS
 90
     4095
280
     0
281
     0
  0
CLASS
  1
SORTENTSTABLE
  2
AcDbSortentsTable
  3
ObjectDBX Classes
 90
        0
280
     0
281
     0
  0
CLASS
  1
DICTIONARYVAR
  2
AcDbDictionaryVar
  3
ObjectDBX Classes
 90
        0
280
     0
281
     0
  0
CLASS
  1
CELLSTYLEMAP
  2
AcDbCellStyleMap
  3
ObjectDBX Classes
 90
     1152
280
     0
281
     0
  0
CLASS
  1
SOLID_BACKGROUND
  2
AcDbSolidBackground
  3
SCENEOE
 90
    36863
280
     0
281
     0
  0
CLASS
  1
NPOCOLLECTION
  2
AcDbImpNonPersistentObjectsCollection
  3
ObjectDBX Classes
 90
    33921
280
     0
281
     0
  0
CLASS
  1
ACDBPLACEHOLDER
  2
AcDbPlaceHolder
  3
ObjectDBX Classes
 90
        0
280
     0
281
     0
  0
CLASS
  1
LAYOUT
  2
AcDbLayout
  3
ObjectDBX Classes
 90
        0
280
     0
281
     0
  0
ENDSEC
  0
SECTION
  2
TABLES
  0
TABLE
  2
VPORT
  5
1381F
330
0
100
AcDbSymbolTable
 70
     1
  0
VPORT
  5
1388F
330
1381F
100
AcDbSymbolTableRecord
100
AcDbViewportTableRecord
  2
*ACTIVE
 70
     0
 10
0.0
 20
0.0
 11
1.0
 21
1.0
 12
1354.704363455279
 22
230.7547353485784
 13
0.0
 23
0.0
 14
1.0
 24
1.0
 15
0.0
 25
0.0
 16
0.0
 26
0.0
 36
1.0
 17
0.0
 27
0.0
 37
0.0
 40
444.7454079195047
 41
0.8894277400581959
 42
50.0
 43
0.0
 44
0.0
 50
0.0
 51
0.0
 71
     0
 72
 20000
 73
     1
 74
     1
 75
     0
 76
     0
 77
     0
 78
     0
281
     0
 65
     1
110
0.0
120
0.0
130
0.0
111
1.0
121
0.0
131
0.0
112
0.0
122
1.0
132
0.0
 79
     0
146
0.0
  0
ENDTAB
  0
TABLE
  2
LTYPE
  5
1381C
330
0
100
AcDbSymbolTable
 70
     2
  0
LTYPE
  5
13879
330
1381C
100
AcDbSymbolTableRecord
100
AcDbLinetypeTableRecord
  2
ByBlock
 70
     0
  3

 72
    65
 73
     0
 40
0.0
  0
LTYPE
  5
1387A
330
1381C
100
AcDbSymbolTableRecord
100
AcDbLinetypeTableRecord
  2
ByLayer
 70
     0
  3

 72
    65
 73
     0
 40
0.0
  0
LTYPE
  5
1387B
330
1381C
100
AcDbSymbolTableRecord
100
AcDbLinetypeTableRecord
  2
CONTINUOUS
 70
     0
  3
Solid line
 72
    65
 73
     0
 40
0.0
  0
LTYPE
  5
13890
330
1381C
100
AcDbSymbolTableRecord
100
AcDbLinetypeTableRecord
  2
CENTER
 70
     0
  3
____ _ ____ _
 72
    65
 73
     4
 40
10.26315789473684
 49
6.414473684210525
 74
     0
 49
-1.282894736842103
 74
     0
 49
1.282894736842103
 74
     0
 49
-1.282894736842103
 74
     0
  0
ENDTAB
  0
TABLE
  2
LAYER
  5
13819
102
{ACAD_XDICTIONARY
360
15C43
102
}
330
0
100
AcDbSymbolTable
 70
     6
  0
LAYER
  5
13873
102
{ACAD_XDICTIONARY
360
13C39
102
}
330
13819
100
AcDbSymbolTableRecord
100
AcDbLayerTableRecord
  2
0
 70
     0
 62
     7
  6
CONTINUOUS
370
    -3
390
13826
  0
LAYER
  5
13891
102
{ACAD_XDICTIONARY
360
13C3B
102
}
330
13819
100
AcDbSymbolTableRecord
100
AcDbLayerTableRecord
  2
1
 70
     0
 62
     7
  6
CONTINUOUS
370
    -3
390
13826
  0
LAYER
  5
13892
330
13819
100
AcDbSymbolTableRecord
100
AcDbLayerTableRecord
  2
DEFPOINTS
 70
     0
 62
     7
  6
CONTINUOUS
290
     0
370
    -3
390
13826
  0
LAYER
  5
15C28
330
13819
100
AcDbSymbolTableRecord
100
AcDbLayerTableRecord
  2
Dark hatch1
 70
     0
 62
     3
  6
CONTINUOUS
370
    25
390
13826
1001
AcAecLayerStandard
1000

1000

  0
LAYER
  5
15C29
330
13819
100
AcDbSymbolTableRecord
100
AcDbLayerTableRecord
  2
DEFAULT_1
 70
     0
 62
     7
  6
CENTER
370
    -3
390
13826
  0
LAYER
  5
15C2A
330
13819
100
AcDbSymbolTableRecord
100
AcDbLayerTableRecord
  2
02___PRT_ALL_AXES
 70
     0
 62
     7
  6
CONTINUOUS
370
    -3
390
13826
  0
ENDTAB
  0
TABLE
  2
STYLE
  5
1381A
330
0
100
AcDbSymbolTable
 70
     7
  0
STYLE
  5
13874
330
1381A
100
AcDbSymbolTableRecord
100
AcDbTextStyleTableRecord
  2
STANDARD
 70
     0
 40
0.0
 41
1.0
 50
0.0
 71
     0
 42
3.5
  3
isocpeur.ttf
  4

1001
ACAD
1000
ISOCPEUR
1071
       34
  0
STYLE
  5
13878
330
1381A
100
AcDbSymbolTableRecord
100
AcDbTextStyleTableRecord
  2
Annotative
 70
     0
 40
0.0
 41
1.0
 50
0.0
 71
     0
 42
0.2
  3

  4

1001
ACADANNOTATIVE
1000
AnnotativeData
1002
{
1070
     1
1070
     1
1002
}
  0
STYLE
  5
13893
330
1381A
100
AcDbSymbolTableRecord
100
AcDbTextStyleTableRecord
  2
TEXTSTYLE_2
 70
     0
 40
0.0
 41
0.8
 50
0.0
 71
     0
 42
0.2
  3
txt
  4

  0
STYLE
  5
13894
330
1381A
100
AcDbSymbolTableRecord
100
AcDbTextStyleTableRecord
  2
TEXTSTYLE_3
 70
     0
 40
0.0
 41
1.0
 50
0.0
 71
     0
 42
0.2
  3
txt
  4

  0
STYLE
  5
15C2B
330
1381A
100
AcDbSymbolTableRecord
100
AcDbTextStyleTableRecord
  2
SLDTEXTSTYLE0
 70
     0
 40
0.0
 41
0.605
 50
0.0
 71
     0
 42
0.0
  3
TXT
  4

  0
STYLE
  5
15C2C
330
1381A
100
AcDbSymbolTableRecord
100
AcDbTextStyleTableRecord
  2
style1
 70
     0
 40
0.0
 41
1.0
 50
0.0
 71
     0
 42
0.2
  3
isocpeur.ttf
  4

1001
ACAD
1000
ISOCPEUR
1071
       34
  0
STYLE
  5
15C2D
330
1381A
100
AcDbSymbolTableRecord
100
AcDbTextStyleTableRecord
  2
NEW
 70
     0
 40
0.0
 41
1.0
 50
0.0
 71
     0
 42
0.2
  3
arial.ttf
  4

1001
ACAD
1000
Arial
1071
       34
  0
ENDTAB
  0
TABLE
  2
VIEW
  5
1381D
330
0
100
AcDbSymbolTable
 70
     0
  0
ENDTAB
  0
TABLE
  2
UCS
  5
1381E
330
0
100
AcDbSymbolTable
 70
     0
  0
ENDTAB
  0
TABLE
  2
APPID
  5
13820
330
0
100
AcDbSymbolTable
 70
    16
  0
APPID
  5
13875
330
13820
100
AcDbSymbolTableRecord
100
AcDbRegAppTableRecord
  2
ACAD
 70
     0
  0
APPID
  5
1387C
330
13820
100
AcDbSymbolTableRecord
100
AcDbRegAppTableRecord
  2
ACADANNOTATIVE
 70
     0
  0
APPID
  5
13886
330
13820
100
AcDbSymbolTableRecord
100
AcDbRegAppTableRecord
  2
ACAD_MLEADERVER
 70
     0
  0
APPID
  5
13895
330
13820
100
AcDbSymbolTableRecord
100
AcDbRegAppTableRecord
  2
ACADANNOPO
 70
     0
  0
APPID
  5
13896
330
13820
100
AcDbSymbolTableRecord
100
AcDbRegAppTableRecord
  2
ACAUTHENVIRON
 70
     0
  0
APPID
  5
13897
330
13820
100
AcDbSymbolTableRecord
100
AcDbRegAppTableRecord
  2
DCO15
 70
     0
  0
APPID
  5
13898
330
13820
100
AcDbSymbolTableRecord
100
AcDbRegAppTableRecord
  2
ACAD_PSEXT
 70
     0
  0
APPID
  5
13899
330
13820
100
AcDbSymbolTableRecord
100
AcDbRegAppTableRecord
  2
ACAD_DSTYLE_DIMJAG
 70
     0
  0
APPID
  5
1389A
330
13820
100
AcDbSymbolTableRecord
100
AcDbRegAppTableRecord
  2
ACAD_DSTYLE_DIMTALN
 70
     0
  0
APPID
  5
1389B
330
13820
100
AcDbSymbolTableRecord
100
AcDbRegAppTableRecord
  2
ACDBDYNAMICBLOCKGUID
 70
     0
  0
APPID
  5
1389C
330
13820
100
AcDbSymbolTableRecord
100
AcDbRegAppTableRecord
  2
ACDBBLOCKREPETAG
 70
     0
  0
APPID
  5
1389D
330
13820
100
AcDbSymbolTableRecord
100
AcDbRegAppTableRecord
  2
ACDBDYNAMICBLOCKTRUENAME
 70
     0
  0
APPID
  5
1389E
330
13820
100
AcDbSymbolTableRecord
100
AcDbRegAppTableRecord
  2
ACDBBLOCKREPBTAG
 70
     0
  0
APPID
  5
1389F
330
13820
100
AcDbSymbolTableRecord
100
AcDbRegAppTableRecord
  2
ACAD_EXEMPT_FROM_CAD_STANDARDS
 70
     0
  0
APPID
  5
138A0
330
13820
100
AcDbSymbolTableRecord
100
AcDbRegAppTableRecord
  2
ACAD_DSTYLE_DIMRADIAL_EXTENSION
 70
     0
  0
APPID
  5
15C39
330
13820
100
AcDbSymbolTableRecord
100
AcDbRegAppTableRecord
  2
AcAecLayerStandard
 70
     0
  0
ENDTAB
  0
TABLE
  2
DIMSTYLE
  5
13821
330
0
100
AcDbSymbolTable
 70
    15
100
AcDbDimStyleTable
 71
     3
340
138A1
340
138A2
340
15C2E
  0
DIMSTYLE
105
13876
330
13821
100
AcDbSymbolTableRecord
100
AcDbDimStyleTableRecord
  2
STANDARD
 70
     0
279
     2
284
     9
285
     9
286
     9
340
13874
  0
DIMSTYLE
105
13877
330
13821
100
AcDbSymbolTableRecord
100
AcDbDimStyleTableRecord
  2
Annotative
 70
     0
340
13874
1001
ACADANNOTATIVE
1000
AnnotativeData
1002
{
1070
     1
1070
     1
1002
}
  0
DIMSTYLE
105
138A1
330
13821
100
AcDbSymbolTableRecord
100
AcDbDimStyleTableRecord
  2
DMST_1
 70
     0
 41
1.75
 42
0.0
 43
7.0
 44
0.5
 71
     1
 73
     0
 74
     0
 77
     1
 78
     9
140
1.75
141
0.0
146
0.7
176
     2
177
     2
178
     3
279
     2
284
     9
285
     9
286
     9
340
13874
  0
DIMSTYLE
105
138A2
102
{ACAD_REACTORS
330
145A3
330
145A8
330
14653
330
14654
330
14648
330
14655
330
14657
330
14649
330
1463F
330
14652
102
}
330
13821
100
AcDbSymbolTableRecord
100
AcDbDimStyleTableRecord
  2
DMST_3
 70
     0
 41
1.75
 42
0.0
 43
7.0
 44
0.5
 73
     0
 74
     0
 77
     1
 78
     9
140
1.75
141
0.0
176
     2
177
     2
178
     3
279
     2
284
     9
285
     9
286
     9
340
13874
  0
DIMSTYLE
105
15C2E
330
13821
100
AcDbSymbolTableRecord
100
AcDbDimStyleTableRecord
  2
DMST_2
 70
     0
 41
0.7000000000000002
 42
0.0
 43
7.0
 44
0.2
 71
     1
 73
     0
 74
     0
 77
     1
 78
     9
140
0.7000000000000002
141
0.0
146
0.7
176
     2
177
     2
178
     3
279
     2
340
13874
  0
DIMSTYLE
105
15C2F
330
13821
100
AcDbSymbolTableRecord
100
AcDbDimStyleTableRecord
  2
DIMSTYLE_1
 70
     0
 41
4.0
 48
0.1
 71
     1
 73
     0
 74
     0
 77
     1
 78
     8
140
2.799999999999998
144
0.6666666667
146
0.75
178
     5
271
     2
272
     2
284
     8
340
13874
341
15B0B
342
15B0B
343
15B0B
344
15B0B
  0
DIMSTYLE
105
15C30
330
13821
100
AcDbSymbolTableRecord
100
AcDbDimStyleTableRecord
  2
DIMSTYLE_2
 70
     0
 41
4.0
 47
0.01
 48
0.01
 73
     0
 74
     0
 77
     1
 78
     8
140
2.799999999999998
144
0.6666666667
178
     5
271
     2
272
     2
284
     8
340
13874
341
15B0B
342
15B0B
343
15B0B
344
15B0B
  0
DIMSTYLE
105
15C31
330
13821
100
AcDbSymbolTableRecord
100
AcDbDimStyleTableRecord
  2
DIMSTYLE_3
 70
     0
 41
4.0
 47
0.2
 48
0.2
 71
     1
 73
     0
 74
     0
 77
     1
 78
     8
140
2.799999999999998
144
0.6666666667
178
     5
271
     2
272
     2
284
     8
340
13874
341
15B0B
342
15B0B
343
15B0B
344
15B0B
  0
DIMSTYLE
105
15C32
330
13821
100
AcDbSymbolTableRecord
100
AcDbDimStyleTableRecord
  2
DIMSTYLE_4
 70
     0
 41
4.0
 47
0.1
 48
0.1
 71
     1
 73
     0
 74
     0
 77
     1
 78
     8
140
2.799999999999998
144
0.6666666667
271
     1
272
     1
284
     8
340
13874
341
15B0B
342
15B0B
343
15B0B
344
15B0B
  0
DIMSTYLE
105
15C33
330
13821
100
AcDbSymbolTableRecord
100
AcDbDimStyleTableRecord
  2
DIMSTYLE_7
 70
     0
 41
4.0
 73
     0
 74
     0
 77
     1
 78
     8
140
2.799999999999998
144
0.6666666667
178
     5
271
     0
272
     0
284
     8
340
13874
341
15B0B
342
15B0B
343
15B0B
344
15B0B
  0
DIMSTYLE
105
15C34
102
{ACAD_REACTORS
330
15B1F
102
}
330
13821
100
AcDbSymbolTableRecord
100
AcDbDimStyleTableRecord
  2
DIMSTYLE_8
 70
     0
 41
4.0
 47
0.3
 48
0.3
 71
     1
 73
     0
 74
     0
 77
     1
 78
     8
140
2.799999999999998
144
0.6666666667
178
     5
271
     2
272
     2
284
     8
340
13874
341
15B0B
342
15B0B
343
15B0B
344
15B0B
  0
DIMSTYLE
105
15C35
330
13821
100
AcDbSymbolTableRecord
100
AcDbDimStyleTableRecord
  2
DIMSTYLE_9
 70
     0
 41
4.0
 48
0.1
 71
     1
 77
     1
 78
     8
140
2.799999999999998
144
0.6666666667
146
0.75
178
     5
271
     2
272
     2
284
     8
340
13874
341
15B0B
342
15B0B
343
15B0B
344
15B0B
  0
DIMSTYLE
105
15C36
330
13821
100
AcDbSymbolTableRecord
100
AcDbDimStyleTableRecord
  2
DIMSTYLE_10
 70
     0
 41
4.0
 47
0.9
 48
0.9
 71
     1
 73
     0
 74
     0
 77
     1
 78
     8
140
2.799999999999998
144
0.6666666667
271
     2
272
     2
284
     8
340
13874
341
15B0B
342
15B0B
343
15B0B
344
15B0B
  0
DIMSTYLE
105
15C37
330
13821
100
AcDbSymbolTableRecord
100
AcDbDimStyleTableRecord
  2
DIMSTYLE_11
 70
     0
 41
4.0
 47
0.1
 48
0.1
 71
     1
 73
     0
 74
     0
 77
     1
 78
     8
140
2.799999999999998
144
0.6666666667
271
     2
272
     2
284
     8
340
13874
341
15B0B
342
15B0B
343
15B0B
344
15B0B
  0
DIMSTYLE
105
15C38
330
13821
100
AcDbSymbolTableRecord
100
AcDbDimStyleTableRecord
  2
DIMSTYLE_12
 70
     0
 41
4.0
 47
3.0
 48
3.0
 71
     1
 73
     0
 74
     0
 77
     1
 78
     8
140
2.799999999999998
144
0.6666666667
178
     5
271
     2
272
     2
284
     8
340
13874
341
15B0B
342
15B0B
343
15B0B
344
15B0B
  0
ENDTAB
  0
TABLE
  2
BLOCK_RECORD
  5
13818
330
0
100
AcDbSymbolTable
 70
    39
  0
BLOCK_RECORD
  5
1388B
102
{ACAD_XDICTIONARY
360
13C33
102
}
330
13818
100
AcDbSymbolTableRecord
100
AcDbBlockTableRecord
  2
*Model_Space
340
1388E
  0
BLOCK_RECORD
  5
13887
330
13818
100
AcDbSymbolTableRecord
100
AcDbBlockTableRecord
  2
*Paper_Space
340
1388A
  0
BLOCK_RECORD
  5
138A4
330
13818
100
AcDbSymbolTableRecord
100
AcDbBlockTableRecord
  2
$MODEL_SPACE
340
0
  0
BLOCK_RECORD
  5
138A6
330
13818
100
AcDbSymbolTableRecord
100
AcDbBlockTableRecord
  2
$PAPER_SPACE
340
0
  0
BLOCK_RECORD
  5
138A8
330
13818
100
AcDbSymbolTableRecord
100
AcDbBlockTableRecord
  2
COUVERCLE_35N_TOP_
340
0
102
{BLKREFS
331
2CD
102
}
  0
BLOCK_RECORD
  5
138AA
330
13818
100
AcDbSymbolTableRecord
100
AcDbBlockTableRecord
  2
_OBLIQUE
340
0
  0
BLOCK_RECORD
  5
13B5E
330
13818
100
AcDbSymbolTableRecord
100
AcDbBlockTableRecord
  2
*U4
340
0
102
{BLKREFS
331
145A0
102
}
  0
BLOCK_RECORD
  5
13B62
330
13818
100
AcDbSymbolTableRecord
100
AcDbBlockTableRecord
  2
*U5
340
0
102
{BLKREFS
331
145A1
102
}
  0
BLOCK_RECORD
  5
13B66
330
13818
100
AcDbSymbolTableRecord
100
AcDbBlockTableRecord
  2
*U6
340
0
102
{BLKREFS
331
145A2
102
}
  0
BLOCK_RECORD
  5
13B68
330
13818
100
AcDbSymbolTableRecord
100
AcDbBlockTableRecord
  2
*U7
340
0
102
{BLKREFS
331
145BB
102
}
  0
BLOCK_RECORD
  5
13B6A
330
13818
100
AcDbSymbolTableRecord
100
AcDbBlockTableRecord
  2
*U8
340
0
102
{BLKREFS
331
145BC
102
}
  0
BLOCK_RECORD
  5
13B6C
330
13818
100
AcDbSymbolTableRecord
100
AcDbBlockTableRecord
  2
*U9
340
0
102
{BLKREFS
331
145BD
102
}
  0
BLOCK_RECORD
  5
13B6E
330
13818
100
AcDbSymbolTableRecord
100
AcDbBlockTableRecord
  2
*U10
340
0
102
{BLKREFS
331
145BE
102
}
  0
BLOCK_RECORD
  5
13B70
330
13818
100
AcDbSymbolTableRecord
100
AcDbBlockTableRecord
  2
*U11
340
0
102
{BLKREFS
331
145BF
102
}
  0
BLOCK_RECORD
  5
13B72
330
13818
100
AcDbSymbolTableRecord
100
AcDbBlockTableRecord
  2
*U12
340
0
102
{BLKREFS
331
145C0
102
}
  0
BLOCK_RECORD
  5
13B76
330
13818
100
AcDbSymbolTableRecord
100
AcDbBlockTableRecord
  2
*U13
340
0
102
{BLKREFS
331
145E8
102
}
  0
BLOCK_RECORD
  5
13B92
330
13818
100
AcDbSymbolTableRecord
100
AcDbBlockTableRecord
  2
*U14
340
0
102
{BLKREFS
331
14623
102
}
  0
BLOCK_RECORD
  5
13B96
330
13818
100
AcDbSymbolTableRecord
100
AcDbBlockTableRecord
  2
*U15
340
0
102
{BLKREFS
331
14628
102
}
  0
BLOCK_RECORD
  5
13B9A
330
13818
100
AcDbSymbolTableRecord
100
AcDbBlockTableRecord
  2
*U16
340
0
102
{BLKREFS
331
14630
102
}
  0
BLOCK_RECORD
  5
13B9E
330
13818
100
AcDbSymbolTableRecord
100
AcDbBlockTableRecord
  2
*U17
340
0
102
{BLKREFS
331
14639
102
}
  0
BLOCK_RECORD
  5
13BA2
330
13818
100
AcDbSymbolTableRecord
100
AcDbBlockTableRecord
  2
*U18
340
0
102
{BLKREFS
331
1463E
102
}
  0
BLOCK_RECORD
  5
14658
330
13818
100
AcDbSymbolTableRecord
100
AcDbBlockTableRecord
  2
*D19
340
0
  0
BLOCK_RECORD
  5
14665
330
13818
100
AcDbSymbolTableRecord
100
AcDbBlockTableRecord
  2
*D20
340
0
  0
BLOCK_RECORD
  5
14672
330
13818
100
AcDbSymbolTableRecord
100
AcDbBlockTableRecord
  2
*D21
340
0
  0
BLOCK_RECORD
  5
1467E
330
13818
100
AcDbSymbolTableRecord
100
AcDbBlockTableRecord
  2
*D22
340
0
  0
BLOCK_RECORD
  5
1468A
330
13818
100
AcDbSymbolTableRecord
100
AcDbBlockTableRecord
  2
*D23
340
0
  0
BLOCK_RECORD
  5
14697
330
13818
100
AcDbSymbolTableRecord
100
AcDbBlockTableRecord
  2
*D24
340
0
  0
BLOCK_RECORD
  5
146A3
330
13818
100
AcDbSymbolTableRecord
100
AcDbBlockTableRecord
  2
*D25
340
0
  0
BLOCK_RECORD
  5
146AF
330
13818
100
AcDbSymbolTableRecord
100
AcDbBlockTableRecord
  2
*D26
340
0
  0
BLOCK_RECORD
  5
146BB
330
13818
100
AcDbSymbolTableRecord
100
AcDbBlockTableRecord
  2
*D27
340
0
  0
BLOCK_RECORD
  5
146C7
330
13818
100
AcDbSymbolTableRecord
100
AcDbBlockTableRecord
  2
*D28
340
0
  0
BLOCK_RECORD
  5
15A7B
102
{ACAD_XDICTIONARY
360
15A7C
102
}
330
13818
100
AcDbSymbolTableRecord
100
AcDbBlockTableRecord
  2
A$C08716F59
340
0
102
{BLKREFS
331
15AF1
331
15C74
102
}
1001
ACAD
1000
DesignCenter Data
1002
{
1070
     1
1070
     4
1002
}
  0
BLOCK_RECORD
  5
15AB6
102
{ACAD_XDICTIONARY
360
15AB7
102
}
330
13818
100
AcDbSymbolTableRecord
100
AcDbBlockTableRecord
  2
A$C058C21FF
340
0
1001
ACAD
1000
DesignCenter Data
1002
{
1070
     1
1070
     4
1002
}
  0
BLOCK_RECORD
  5
15AF9
330
13818
100
AcDbSymbolTableRecord
100
AcDbBlockTableRecord
  2
_Dot
340
0
  0
BLOCK_RECORD
  5
15AFE
102
{ACAD_XDICTIONARY
360
15AFF
102
}
330
13818
100
AcDbSymbolTableRecord
100
AcDbBlockTableRecord
  2
A$C53560A2D
340
0
102
{BLKREFS
331
15B09
102
}
1001
ACAD
1000
DesignCenter Data
1002
{
1070
     1
1070
     1
1002
}
  0
BLOCK_RECORD
  5
15B05
102
{ACAD_XDICTIONARY
360
15B06
102
}
330
13818
100
AcDbSymbolTableRecord
100
AcDbBlockTableRecord
  2
A$C25042B23
340
0
1001
ACAD
1000
DesignCenter Data
1002
{
1070
     1
1070
     1
1002
}
  0
BLOCK_RECORD
  5
15B0B
330
13818
100
AcDbSymbolTableRecord
100
AcDbBlockTableRecord
  2
_FILLED
340
0
102
{BLKREFS
331
15B14
331
15B15
102
}
  0
BLOCK_RECORD
  5
15B0F
330
13818
100
AcDbSymbolTableRecord
100
AcDbBlockTableRecord
  2
*D35
340
0
  0
BLOCK_RECORD
  5
15B1B
102
{ACAD_XDICTIONARY
360
15B1C
102
}
330
13818
100
AcDbSymbolTableRecord
100
AcDbBlockTableRecord
  2
A$C274A2516
340
0
1001
ACAD
1000
DesignCenter Data
1002
{
1070
     1
1070
     4
1002
}
  0
BLOCK_RECORD
  5
15C01
102
{ACAD_XDICTIONARY
360
15C02
102
}
330
13818
100
AcDbSymbolTableRecord
100
AcDbBlockTableRecord
  2
A$C217E344C
340
0
1001
ACAD
1000
DesignCenter Data
1002
{
1070
     1
1070
     4
1002
}
  0
BLOCK_RECORD
  5
15C45
102
{ACAD_XDICTIONARY
360
15C87
102
}
330
13818
100
AcDbSymbolTableRecord
100
AcDbBlockTableRecord
  2
new A3-S11
340
0
1001
ACAD
1000
DesignCenter Data
1002
{
1070
     1
1070
     4
1002
}
  0
ENDTAB
  0
ENDSEC
  0
SECTION
  2
BLOCKS
  0
BLOCK
  5
1388C
330
1388B
100
AcDbEntity
  8
0
100
AcDbBlockBegin
  2
*Model_Space
 70
     0
 10
0.0
 20
0.0
 30
0.0
  3
*Model_Space
  1

  0
ENDBLK
  5
1388D
330
1388B
100
AcDbEntity
  8
0
100
AcDbBlockEnd
  0
BLOCK
  5
13888
330
13887
100
AcDbEntity
 67
     1
  8
0
100
AcDbBlockBegin
  2
*Paper_Space
 70
     0
 10
0.0
 20
0.0
 30
0.0
  3
*Paper_Space
  1

  0
ENDBLK
  5
13889
330
13887
100
AcDbEntity
 67
     1
  8
0
100
AcDbBlockEnd
  0
BLOCK
  5
138A5
330
138A4
100
AcDbEntity
  8
0
100
AcDbBlockBegin
  2
$MODEL_SPACE
 70
     0
 10
0.0
 20
0.0
 30
0.0
  3
$MODEL_SPACE
  1

  0
ENDBLK
  5
76
330
138A4
100
AcDbEntity
  8
0
100
AcDbBlockEnd
  0
BLOCK
  5
138A7
330
138A6
100
AcDbEntity
  8
0
100
AcDbBlockBegin
  2
$PAPER_SPACE
 70
     0
 10
0.0
 20
0.0
 30
0.0
  3
$PAPER_SPACE
  1

  0
ENDBLK
  5
72
330
138A6
100
AcDbEntity
  8
0
100
AcDbBlockEnd
  0
BLOCK
  5
138A9
330
138A8
100
AcDbEntity
  8
0
100
AcDbBlockBegin
  2
COUVERCLE_35N_TOP_
 70
     0
 10
-260.7010652604489
 20
-139.8102667865827
 30
0.0
  3
COUVERCLE_35N_TOP_
  1

  0
ENDBLK
  5
2CC
330
138A8
100
AcDbEntity
  8
0
100
AcDbBlockEnd
  0
BLOCK
  5
138AB
330
138AA
100
AcDbEntity
  8
0
100
AcDbBlockBegin
  2
_OBLIQUE
 70
     0
 10
0.0
 20
0.0
 30
0.0
  3
_OBLIQUE
  1

  0
LINE
  5
18E6
330
138AA
100
AcDbEntity
  8
0
  6
ByBlock
 62
     0
100
AcDbLine
 10
-0.5
 20
-0.5
 30
0.0
 11
0.5
 21
0.5
 31
0.0
  0
ENDBLK
  5
18E8
330
138AA
100
AcDbEntity
  8
0
100
AcDbBlockEnd
  0
BLOCK
  5
13B5F
330
13B5E
100
AcDbEntity
  8
0
100
AcDbBlockBegin
  2
*U4
 70
     1
 10
0.0
 20
0.0
 30
0.0
  3
*U4
  1

  0
TEXT
  5
13488
330
13B5E
100
AcDbEntity
  8
1
100
AcDbText
 10
855.7418670631234
 20
294.7881916432022
 30
0.0
 40
2.625
  1
\U+220534
 50
90.0
100
AcDbText
  0
ENDBLK
  5
1348A
330
13B5E
100
AcDbEntity
  8
0
100
AcDbBlockEnd
  0
BLOCK
  5
13B63
330
13B62
100
AcDbEntity
  8
0
100
AcDbBlockBegin
  2
*U5
 70
     1
 10
0.0
 20
0.0
 30
0.0
  3
*U5
  1

  0
TEXT
  5
13494
330
13B62
100
AcDbEntity
  8
1
100
AcDbText
 10
828.8320941748875
 20
291.8369393247721
 30
0.0
 40
2.625
  1
\U+220535
 50
90.0
100
AcDbText
  0
ENDBLK
  5
13496
330
13B62
100
AcDbEntity
  8
0
100
AcDbBlockEnd
  0
BLOCK
  5
13B67
330
13B66
100
AcDbEntity
  8
0
100
AcDbBlockBegin
  2
*U6
 70
     1
 10
0.0
 20
0.0
 30
0.0
  3
*U6
  1

  0
TEXT
  5
134A0
330
13B66
100
AcDbEntity
  8
1
100
AcDbText
 10
800.1407101995235
 20
294.5409542227139
 30
0.0
 40
2.625
  1
\U+220533.5
 50
90.0
100
AcDbText
  0
ENDBLK
  5
134A2
330
13B66
100
AcDbEntity
  8
0
100
AcDbBlockEnd
  0
BLOCK
  5
13B69
330
13B68
100
AcDbEntity
  8
0
100
AcDbBlockBegin
  2
*U7
 70
     1
 10
0.0
 20
0.0
 30
0.0
  3
*U7
  1

  0
TEXT
  5
134B7
330
13B68
100
AcDbEntity
  8
0
100
AcDbText
 10
829.0140975335905
 20
297.9027089106015
 30
0.0
 40
1.35
  1
-0.1
 50
90.0
100
AcDbText
  0
ENDBLK
  5
134B9
330
13B68
100
AcDbEntity
  8
0
100
AcDbBlockEnd
  0
BLOCK
  5
13B6B
330
13B6A
100
AcDbEntity
  8
0
100
AcDbBlockBegin
  2
*U8
 70
     1
 10
0.0
 20
0.0
 30
0.0
  3
*U8
  1

  0
TEXT
  5
134BB
330
13B6A
100
AcDbEntity
  8
0
100
AcDbText
 10
827.2422946469493
 20
298.8056605846462
 30
0.0
 40
1.35
  1
0
 50
90.0
100
AcDbText
  0
ENDBLK
  5
134BD
330
13B6A
100
AcDbEntity
  8
0
100
AcDbBlockEnd
  0
BLOCK
  5
13B6D
330
13B6C
100
AcDbEntity
  8
0
100
AcDbBlockBegin
  2
*U9
 70
     1
 10
0.0
 20
0.0
 30
0.0
  3
*U9
  1

  0
TEXT
  5
134BF
330
13B6C
100
AcDbEntity
  8
0
100
AcDbText
 10
875.7106299122327
 20
283.1274969129549
 30
0.0
 40
1.35
  1
-0.009
 50
90.0
100
AcDbText
  0
ENDBLK
  5
134C1
330
13B6C
100
AcDbEntity
  8
0
100
AcDbBlockEnd
  0
BLOCK
  5
13B6F
330
13B6E
100
AcDbEntity
  8
0
100
AcDbBlockBegin
  2
*U10
 70
     1
 10
0.0
 20
0.0
 30
0.0
  3
*U10
  1

  0
TEXT
  5
134C3
330
13B6E
100
AcDbEntity
  8
0
100
AcDbText
 10
873.9388270255913
 20
283.1609888696252
 30
0.0
 40
1.35
  1
-0.006
 50
90.0
100
AcDbText
  0
ENDBLK
  5
134C5
330
13B6E
100
AcDbEntity
  8
0
100
AcDbBlockEnd
  0
BLOCK
  5
13B71
330
13B70
100
AcDbEntity
  8
0
100
AcDbBlockBegin
  2
*U11
 70
     1
 10
0.0
 20
0.0
 30
0.0
  3
*U11
  1

  0
TEXT
  5
134C7
330
13B70
100
AcDbEntity
  8
0
100
AcDbText
 10
883.602328489928
 20
269.9183150481478
 30
0.0
 40
1.35
  1
-0.008
 50
90.0
100
AcDbText
  0
ENDBLK
  5
134C9
330
13B70
100
AcDbEntity
  8
0
100
AcDbBlockEnd
  0
BLOCK
  5
13B73
330
13B72
100
AcDbEntity
  8
0
100
AcDbBlockBegin
  2
*U12
 70
     1
 10
0.0
 20
0.0
 30
0.0
  3
*U12
  1

  0
TEXT
  5
134CB
330
13B72
100
AcDbEntity
  8
0
100
AcDbText
 10
881.774926423065
 20
270.8780063684647
 30
0.0
 40
1.35
  1
0
 50
90.0
100
AcDbText
  0
ENDBLK
  5
134CD
330
13B72
100
AcDbEntity
  8
0
100
AcDbBlockEnd
  0
BLOCK
  5
13B77
330
13B76
100
AcDbEntity
  8
0
100
AcDbBlockBegin
  2
*U13
 70
     1
 10
0.0
 20
0.0
 30
0.0
  3
*U13
  1

  0
TEXT
  5
134D8
330
13B76
100
AcDbEntity
  8
1
100
AcDbText
 10
883.3760972324327
 20
263.9179490662887
 30
0.0
 40
2.625
  1
\U+220516
 50
90.0
100
AcDbText
  0
ENDBLK
  5
134DA
330
13B76
100
AcDbEntity
  8
0
100
AcDbBlockEnd
  0
BLOCK
  5
13B93
330
13B92
100
AcDbEntity
  8
0
100
AcDbBlockBegin
  2
*U14
 70
     1
 10
0.0
 20
0.0
 30
0.0
  3
*U14
  1

  0
TEXT
  5
13520
330
13B92
100
AcDbEntity
  8
0
100
AcDbText
 10
780.6196470634268
 20
244.8163385294591
 30
0.0
 40
2.625
  1
5.4
100
AcDbText
  0
ENDBLK
  5
13522
330
13B92
100
AcDbEntity
  8
0
100
AcDbBlockEnd
  0
BLOCK
  5
13B97
330
13B96
100
AcDbEntity
  8
0
100
AcDbBlockBegin
  2
*U15
 70
     1
 10
0.0
 20
0.0
 30
0.0
  3
*U15
  1

  0
TEXT
  5
1352B
330
13B96
100
AcDbEntity
  8
0
100
AcDbText
 10
799.0377138805692
 20
244.8535178293092
 30
0.0
 40
2.625
  1
3.2
100
AcDbText
  0
ENDBLK
  5
1352D
330
13B96
100
AcDbEntity
  8
0
100
AcDbBlockEnd
  0
BLOCK
  5
13B9B
330
13B9A
100
AcDbEntity
  8
0
100
AcDbBlockBegin
  2
*U16
 70
     1
 10
0.0
 20
0.0
 30
0.0
  3
*U16
  1

  0
TEXT
  5
13533
330
13B9A
100
AcDbEntity
  8
0
100
AcDbText
 10
875.5708988832559
 20
278.2864037629904
 30
0.0
 40
2.625
  1
\U+22055
 50
90.0
100
AcDbText
  0
ENDBLK
  5
13535
330
13B9A
100
AcDbEntity
  8
0
100
AcDbBlockEnd
  0
BLOCK
  5
13B9F
330
13B9E
100
AcDbEntity
  8
0
100
AcDbBlockBegin
  2
*U17
 70
     1
 10
0.0
 20
0.0
 30
0.0
  3
*U17
  1

  0
TEXT
  5
1353B
330
13B9E
100
AcDbEntity
  8
0
100
AcDbText
 10
961.6855886094739
 20
259.8058141021853
 30
0.0
 40
2.625
  1
38°
 50
70.99234238803389
100
AcDbText
  0
ENDBLK
  5
1353D
330
13B9E
100
AcDbEntity
  8
0
100
AcDbBlockEnd
  0
BLOCK
  5
13BA3
330
13BA2
100
AcDbEntity
  8
0
100
AcDbBlockBegin
  2
*U18
 70
     1
 10
0.0
 20
0.0
 30
0.0
  3
*U18
  1

  0
TEXT
  5
13543
330
13BA2
100
AcDbEntity
  8
0
100
AcDbText
 10
963.4657676892281
 20
281.6225167271802
 30
0.0
 40
2.625
  1
42°
 50
290.9999998532682
100
AcDbText
  0
ENDBLK
  5
13545
330
13BA2
100
AcDbEntity
  8
0
100
AcDbBlockEnd
  0
BLOCK
  5
14659
330
14658
100
AcDbEntity
  8
0
100
AcDbBlockBegin
  2
*D19
 70
     1
 10
0.0
 20
0.0
 30
0.0
  3
*D19
  1

  0
LINE
  5
146D5
330
14658
100
AcDbEntity
  8
0
370
     5
100
AcDbLine
 10
1470.7682474734
 20
261.0731535415214
 30
0.0
 11
1470.7682474734
 21
243.68802447495
 31
0.0
  0
LINE
  5
146D6
330
14658
100
AcDbEntity
  8
0
370
     5
100
AcDbLine
 10
1473.7682474734
 20
261.0731535415214
 30
0.0
 11
1473.7682474734
 21
243.68802447495
 31
0.0
  0
LINE
  5
146D7
330
14658
100
AcDbEntity
  8
0
370
     5
100
AcDbLine
 10
1468.1432474734
 20
244.43802447495
 30
0.0
 11
1465.5182474734
 21
244.43802447495
 31
0.0
  0
LINE
  5
146D8
330
14658
100
AcDbEntity
  8
0
370
     5
100
AcDbLine
 10
1476.3932474734
 20
244.43802447495
 30
0.0
 11
1479.0182474734
 21
244.43802447495
 31
0.0
  0
MTEXT
  5
146D9
330
14658
100
AcDbEntity
  8
0
100
AcDbMText
 10
1472.352667887866
 20
246.3564629170837
 30
0.0
 40
2.625
 41
0.0
 71
     5
 72
     1
  1
\A1;3
 73
     1
 44
1.0
1001
ACAD
1000
MTEXTBEGIN
1070
    73
1070
     1
1070
    44
1040
1.0
1070
    74
1070
     0
1000
MTEXTEND
  0
SOLID
  5
146DA
330
14658
100
AcDbEntity
  8
0
100
AcDbTrace
 10
1468.1432474734
 20
244.87552447495
 30
0.0
 11
1468.1432474734
 21
244.00052447495
 31
0.0
 12
1470.7682474734
 22
244.43802447495
 32
0.0
 13
1470.7682474734
 23
244.43802447495
 33
0.0
  0
SOLID
  5
146DB
330
14658
100
AcDbEntity
  8
0
100
AcDbTrace
 10
1476.3932474734
 20
244.87552447495
 30
0.0
 11
1476.3932474734
 21
244.00052447495
 31
0.0
 12
1473.7682474734
 22
244.43802447495
 32
0.0
 13
1473.7682474734
 23
244.43802447495
 33
0.0
  0
POINT
  5
146DC
330
14658
100
AcDbEntity
  8
DEFPOINTS
 62
     0
100
AcDbPoint
 10
1470.7682474734
 20
261.0731535415214
 30
0.0
  0
POINT
  5
146DD
330
14658
100
AcDbEntity
  8
DEFPOINTS
 62
     0
100
AcDbPoint
 10
1473.7682474734
 20
261.0731535415214
 30
0.0
  0
POINT
  5
146DE
330
14658
100
AcDbEntity
  8
DEFPOINTS
 62
     0
100
AcDbPoint
 10
1473.7682474734
 20
244.43802447495
 30
0.0
  0
ENDBLK
  5
1465A
330
14658
100
AcDbEntity
  8
0
100
AcDbBlockEnd
  0
BLOCK
  5
14666
330
14665
100
AcDbEntity
  8
0
100
AcDbBlockBegin
  2
*D20
 70
     1
 10
0.0
 20
0.0
 30
0.0
  3
*D20
  1

  0
LINE
  5
15DA6
330
14665
100
AcDbEntity
  8
0
370
     5
100
AcDbLine
 10
1479.743727114577
 20
276.0152799670215
 30
0.0
 11
1479.743727114577
 21
298.1144502789298
 31
0.0
  0
LINE
  5
15DA7
330
14665
100
AcDbEntity
  8
0
370
     5
100
AcDbLine
 10
1478.543730453089
 20
276.0152799670215
 30
0.0
 11
1478.543730453089
 21
298.1144502789298
 31
0.0
  0
LINE
  5
15DA8
330
14665
100
AcDbEntity
  8
0
370
     5
100
AcDbLine
 10
1482.368727114577
 20
297.3644502789298
 30
0.0
 11
1484.993727114577
 21
297.3644502789298
 31
0.0
  0
LINE
  5
15DA9
330
14665
100
AcDbEntity
  8
0
370
     5
100
AcDbLine
 10
1475.91873045309
 20
297.3644502789298
 30
0.0
 11
1473.293730453089
 21
297.3644502789298
 31
0.0
  0
MTEXT
  5
15DAA
330
14665
100
AcDbEntity
  8
0
100
AcDbMText
 10
1466.859189433725
 20
299.2404925578057
 30
0.0
 40
2.625
 41
0.0
 71
     5
 72
     1
  1
\A1;4x %%C1.2x5
 73
     1
 44
1.0
1001
ACAD
1000
MTEXTBEGIN
1070
    73
1070
     1
1070
    44
1040
1.0
1070
    74
1070
     0
1000
MTEXTEND
  0
SOLID
  5
15DAB
330
14665
100
AcDbEntity
  8
0
100
AcDbTrace
 10
1482.368727114577
 20
297.8019502789298
 30
0.0
 11
1482.368727114577
 21
296.9269502789298
 31
0.0
 12
1479.743727114577
 22
297.3644502789298
 32
0.0
 13
1479.743727114577
 23
297.3644502789298
 33
0.0
  0
SOLID
  5
15DAC
330
14665
100
AcDbEntity
  8
0
100
AcDbTrace
 10
1475.91873045309
 20
297.8019502789298
 30
0.0
 11
1475.91873045309
 21
296.9269502789298
 31
0.0
 12
1478.543730453089
 22
297.3644502789298
 32
0.0
 13
1478.543730453089
 23
297.3644502789298
 33
0.0
  0
POINT
  5
15DAD
330
14665
100
AcDbEntity
  8
DEFPOINTS
 62
     0
100
AcDbPoint
 10
1479.743727114577
 20
276.0152799670215
 30
0.0
  0
POINT
  5
15DAE
330
14665
100
AcDbEntity
  8
DEFPOINTS
 62
     0
100
AcDbPoint
 10
1478.543730453089
 20
276.0152799670215
 30
0.0
  0
POINT
  5
15DAF
330
14665
100
AcDbEntity
  8
DEFPOINTS
 62
     0
100
AcDbPoint
 10
1478.543730453089
 20
297.3644502789298
 30
0.0
  0
ENDBLK
  5
14667
330
14665
100
AcDbEntity
  8
0
100
AcDbBlockEnd
  0
BLOCK
  5
14673
330
14672
100
AcDbEntity
  8
0
100
AcDbBlockBegin
  2
*D21
 70
     1
 10
0.0
 20
0.0
 30
0.0
  3
*D21
  1

  0
LINE
  5
15D17
330
14672
100
AcDbEntity
  8
0
370
     5
100
AcDbLine
 10
1326.499606461486
 20
254.00487759689
 30
0.0
 11
1326.499606461486
 21
228.2400783332902
 31
0.0
  0
LINE
  5
15D18
330
14672
100
AcDbEntity
  8
0
370
     5
100
AcDbLine
 10
1393.699606461486
 20
253.8231535415216
 30
0.0
 11
1393.699606461486
 21
228.2400783332902
 31
0.0
  0
LINE
  5
15D19
330
14672
100
AcDbEntity
  8
0
370
     5
100
AcDbLine
 10
1329.124606461486
 20
228.9900783332902
 30
0.0
 11
1391.074606461486
 21
228.9900783332902
 31
0.0
  0
MTEXT
  5
15D1A
330
14672
100
AcDbEntity
  8
0
100
AcDbMText
 10
1359.468913472175
 20
230.9661417648083
 30
0.0
 40
2.625
 41
0.0
 71
     5
 72
     1
  1
\A1;67.2
 73
     1
 44
1.0
1001
ACAD
1000
MTEXTBEGIN
1070
    73
1070
     1
1070
    44
1040
1.0
1070
    74
1070
     0
1000
MTEXTEND
  0
SOLID
  5
15D1B
330
14672
100
AcDbEntity
  8
0
100
AcDbTrace
 10
1329.124606461486
 20
229.4275783332902
 30
0.0
 11
1329.124606461486
 21
228.5525783332902
 31
0.0
 12
1326.499606461486
 22
228.9900783332902
 32
0.0
 13
1326.499606461486
 23
228.9900783332902
 33
0.0
  0
SOLID
  5
15D1C
330
14672
100
AcDbEntity
  8
0
100
AcDbTrace
 10
1391.074606461486
 20
229.4275783332902
 30
0.0
 11
1391.074606461486
 21
228.5525783332902
 31
0.0
 12
1393.699606461486
 22
228.9900783332902
 32
0.0
 13
1393.699606461486
 23
228.9900783332902
 33
0.0
  0
POINT
  5
15D1D
330
14672
100
AcDbEntity
  8
DEFPOINTS
 62
     0
100
AcDbPoint
 10
1326.499606461486
 20
254.00487759689
 30
0.0
  0
POINT
  5
15D1E
330
14672
100
AcDbEntity
  8
DEFPOINTS
 62
     0
100
AcDbPoint
 10
1393.699606461486
 20
253.8231535415216
 30
0.0
  0
POINT
  5
15D1F
330
14672
100
AcDbEntity
  8
DEFPOINTS
 62
     0
100
AcDbPoint
 10
1393.699606461486
 20
228.9900783332902
 30
0.0
  0
ENDBLK
  5
14674
330
14672
100
AcDbEntity
  8
0
100
AcDbBlockEnd
  0
BLOCK
  5
1467F
330
1467E
100
AcDbEntity
  8
0
100
AcDbBlockBegin
  2
*D22
 70
     1
 10
0.0
 20
0.0
 30
0.0
  3
*D22
  1

  0
LINE
  5
146F2
330
1467E
100
AcDbEntity
  8
0
370
     5
100
AcDbLine
 10
1326.499606461486
 20
254.00487759689
 30
0.0
 11
1326.499606461486
 21
236.0160432278577
 31
0.0
  0
LINE
  5
146F3
330
1467E
100
AcDbEntity
  8
0
370
     5
100
AcDbLine
 10
1337.199606461487
 20
253.0786787005452
 30
0.0
 11
1337.199606461487
 21
236.0160432278577
 31
0.0
  0
LINE
  5
146F4
330
1467E
100
AcDbEntity
  8
0
370
     5
100
AcDbLine
 10
1329.124606461486
 20
236.7660432278577
 30
0.0
 11
1334.574606461487
 21
236.7660432278577
 31
0.0
  0
MTEXT
  5
146F5
330
1467E
100
AcDbEntity
  8
0
370
     5
100
AcDbMText
 10
1332.035423269079
 20
239.1602707777381
 30
0.0
 40
2.625
 41
0.0
 71
     5
 72
     1
  1
\A1;10.7
 73
     1
 44
1.0
1001
ACAD
1000
MTEXTBEGIN
1070
    73
1070
     1
1070
    44
1040
1.0
1070
    74
1070
     0
1000
MTEXTEND
  0
SOLID
  5
146F6
330
1467E
100
AcDbEntity
  8
0
100
AcDbTrace
 10
1329.124606461486
 20
237.2035432278577
 30
0.0
 11
1329.124606461486
 21
236.3285432278577
 31
0.0
 12
1326.499606461486
 22
236.7660432278577
 32
0.0
 13
1326.499606461486
 23
236.7660432278577
 33
0.0
  0
SOLID
  5
146F7
330
1467E
100
AcDbEntity
  8
0
100
AcDbTrace
 10
1334.574606461487
 20
237.2035432278577
 30
0.0
 11
1334.574606461487
 21
236.3285432278577
 31
0.0
 12
1337.199606461487
 22
236.7660432278577
 32
0.0
 13
1337.199606461487
 23
236.7660432278577
 33
0.0
  0
POINT
  5
146F8
330
1467E
100
AcDbEntity
  8
DEFPOINTS
 62
     0
100
AcDbPoint
 10
1326.499606461486
 20
254.00487759689
 30
0.0
  0
POINT
  5
146F9
330
1467E
100
AcDbEntity
  8
DEFPOINTS
 62
     0
100
AcDbPoint
 10
1337.199606461487
 20
253.0786787005452
 30
0.0
  0
POINT
  5
146FA
330
1467E
100
AcDbEntity
  8
DEFPOINTS
 62
     0
100
AcDbPoint
 10
1337.199606461487
 20
236.7660432278577
 30
0.0
  0
ENDBLK
  5
14680
330
1467E
100
AcDbEntity
  8
0
100
AcDbBlockEnd
  0
BLOCK
  5
1468B
330
1468A
100
AcDbEntity
  8
0
100
AcDbBlockBegin
  2
*D23
 70
     1
 10
0.0
 20
0.0
 30
0.0
  3
*D23
  1

  0
LINE
  5
146FB
330
1468A
100
AcDbEntity
  8
0
370
     5
100
AcDbLine
 10
1393.699606461486
 20
253.8231535415216
 30
0.0
 11
1393.699606461486
 21
236.0160432278577
 31
0.0
  0
LINE
  5
146FC
330
1468A
100
AcDbEntity
  8
0
370
     5
100
AcDbLine
 10
1395.099606461486
 20
261.8231535415215
 30
0.0
 11
1395.099606461486
 21
236.0160432278577
 31
0.0
  0
LINE
  5
146FD
330
1468A
100
AcDbEntity
  8
0
370
     5
100
AcDbLine
 10
1391.074606461486
 20
236.7660432278577
 30
0.0
 11
1388.449606461486
 21
236.7660432278577
 31
0.0
  0
LINE
  5
146FE
330
1468A
100
AcDbEntity
  8
0
370
     5
100
AcDbLine
 10
1397.724606461486
 20
236.7660432278577
 30
0.0
 11
1400.349606461485
 21
236.7660432278577
 31
0.0
  0
MTEXT
  5
146FF
330
1468A
100
AcDbEntity
  8
0
100
AcDbMText
 10
1390.336562976166
 20
239.4346594366218
 30
0.0
 40
2.625
 41
0.0
 71
     5
 72
     1
  1
\A1;1.4
 73
     1
 44
1.0
1001
ACAD
1000
MTEXTBEGIN
1070
    73
1070
     1
1070
    44
1040
1.0
1070
    74
1070
     0
1000
MTEXTEND
  0
SOLID
  5
14700
330
1468A
100
AcDbEntity
  8
0
100
AcDbTrace
 10
1391.074606461486
 20
237.2035432278577
 30
0.0
 11
1391.074606461486
 21
236.3285432278577
 31
0.0
 12
1393.699606461486
 22
236.7660432278577
 32
0.0
 13
1393.699606461486
 23
236.7660432278577
 33
0.0
  0
SOLID
  5
14701
330
1468A
100
AcDbEntity
  8
0
100
AcDbTrace
 10
1397.724606461486
 20
237.2035432278577
 30
0.0
 11
1397.724606461486
 21
236.3285432278577
 31
0.0
 12
1395.099606461486
 22
236.7660432278577
 32
0.0
 13
1395.099606461486
 23
236.7660432278577
 33
0.0
  0
POINT
  5
14702
330
1468A
100
AcDbEntity
  8
DEFPOINTS
 62
     0
100
AcDbPoint
 10
1393.699606461486
 20
253.8231535415216
 30
0.0
  0
POINT
  5
14703
330
1468A
100
AcDbEntity
  8
DEFPOINTS
 62
     0
100
AcDbPoint
 10
1395.099606461486
 20
261.8231535415215
 30
0.0
  0
POINT
  5
14704
330
1468A
100
AcDbEntity
  8
DEFPOINTS
 62
     0
100
AcDbPoint
 10
1395.099606461486
 20
236.7660432278577
 30
0.0
  0
ENDBLK
  5
1468C
330
1468A
100
AcDbEntity
  8
0
100
AcDbBlockEnd
  0
BLOCK
  5
14698
330
14697
100
AcDbEntity
  8
0
100
AcDbBlockBegin
  2
*D24
 70
     1
 10
0.0
 20
0.0
 30
0.0
  3
*D24
  1

  0
LINE
  5
15CE2
330
14697
100
AcDbEntity
  8
0
370
     5
100
AcDbLine
 10
1406.199606461486
 20
267.3767433800075
 30
0.0
 11
1406.199606461486
 21
228.2400783332902
 31
0.0
  0
LINE
  5
15CE3
330
14697
100
AcDbEntity
  8
0
370
     5
100
AcDbLine
 10
1393.699606461486
 20
253.8231535415216
 30
0.0
 11
1393.699606461486
 21
228.2400783332902
 31
0.0
  0
LINE
  5
15CE4
330
14697
100
AcDbEntity
  8
0
370
     5
100
AcDbLine
 10
1403.574606461486
 20
228.9900783332902
 30
0.0
 11
1396.324606461486
 21
228.9900783332902
 31
0.0
  0
MTEXT
  5
15CE5
330
14697
100
AcDbEntity
  8
0
100
AcDbMText
 10
1400.053259399577
 20
231.5275249141589
 30
0.0
 40
2.625
 41
0.0
 71
     5
 72
     1
  1
\A1;12.5
 73
     1
 44
1.0
1001
ACAD
1000
MTEXTBEGIN
1070
    73
1070
     1
1070
    44
1040
1.0
1070
    74
1070
     0
1000
MTEXTEND
  0
SOLID
  5
15CE6
330
14697
100
AcDbEntity
  8
0
100
AcDbTrace
 10
1403.574606461486
 20
229.4275783332902
 30
0.0
 11
1403.574606461486
 21
228.5525783332902
 31
0.0
 12
1406.199606461486
 22
228.9900783332902
 32
0.0
 13
1406.199606461486
 23
228.9900783332902
 33
0.0
  0
SOLID
  5
15CE7
330
14697
100
AcDbEntity
  8
0
100
AcDbTrace
 10
1396.324606461486
 20
229.4275783332902
 30
0.0
 11
1396.324606461486
 21
228.5525783332902
 31
0.0
 12
1393.699606461486
 22
228.9900783332902
 32
0.0
 13
1393.699606461486
 23
228.9900783332902
 33
0.0
  0
POINT
  5
15CE8
330
14697
100
AcDbEntity
  8
DEFPOINTS
 62
     0
100
AcDbPoint
 10
1406.199606461486
 20
267.3767433800075
 30
0.0
  0
POINT
  5
15CE9
330
14697
100
AcDbEntity
  8
DEFPOINTS
 62
     0
100
AcDbPoint
 10
1393.699606461486
 20
253.8231535415216
 30
0.0
  0
POINT
  5
15CEA
330
14697
100
AcDbEntity
  8
DEFPOINTS
 62
     0
100
AcDbPoint
 10
1393.699606461486
 20
228.9900783332902
 30
0.0
  0
ENDBLK
  5
14699
330
14697
100
AcDbEntity
  8
0
100
AcDbBlockEnd
  0
BLOCK
  5
146A4
330
146A3
100
AcDbEntity
  8
0
100
AcDbBlockBegin
  2
*D25
 70
     1
 10
0.0
 20
0.0
 30
0.0
  3
*D25
  1

  0
LINE
  5
1470E
330
146A3
100
AcDbEntity
  8
0
370
     5
100
AcDbLine
 10
1393.699606461486
 20
253.8231535415216
 30
0.0
 11
1393.699606461486
 21
243.2779368466338
 31
0.0
  0
LINE
  5
1470F
330
146A3
100
AcDbEntity
  8
0
370
     5
100
AcDbLine
 10
1386.199606461485
 20
252.3231535415216
 30
0.0
 11
1386.199606461485
 21
243.2779368466338
 31
0.0
  0
LINE
  5
14710
330
146A3
100
AcDbEntity
  8
0
370
     5
100
AcDbLine
 10
1391.074606461486
 20
244.0279368466338
 30
0.0
 11
1388.824606461485
 21
244.0279368466338
 31
0.0
  0
MTEXT
  5
14711
330
146A3
100
AcDbEntity
  8
0
100
AcDbMText
 10
1389.815038014865
 20
247.0159384947365
 30
0.0
 40
2.625
 41
0.0
 71
     5
 72
     1
  1
\A1;7.5
 73
     1
 44
1.0
1001
ACAD
1000
MTEXTBEGIN
1070
    73
1070
     1
1070
    44
1040
1.0
1070
    74
1070
     0
1000
MTEXTEND
  0
SOLID
  5
14712
330
146A3
100
AcDbEntity
  8
0
100
AcDbTrace
 10
1391.074606461486
 20
244.4654368466338
 30
0.0
 11
1391.074606461486
 21
243.5904368466338
 31
0.0
 12
1393.699606461486
 22
244.0279368466338
 32
0.0
 13
1393.699606461486
 23
244.0279368466338
 33
0.0
  0
SOLID
  5
14713
330
146A3
100
AcDbEntity
  8
0
100
AcDbTrace
 10
1388.824606461485
 20
244.4654368466338
 30
0.0
 11
1388.824606461485
 21
243.5904368466338
 31
0.0
 12
1386.199606461485
 22
244.0279368466338
 32
0.0
 13
1386.199606461485
 23
244.0279368466338
 33
0.0
  0
POINT
  5
14714
330
146A3
100
AcDbEntity
  8
DEFPOINTS
 62
     0
100
AcDbPoint
 10
1393.699606461486
 20
253.8231535415216
 30
0.0
  0
POINT
  5
14715
330
146A3
100
AcDbEntity
  8
DEFPOINTS
 62
     0
100
AcDbPoint
 10
1386.199606461485
 20
252.3231535415216
 30
0.0
  0
POINT
  5
14716
330
146A3
100
AcDbEntity
  8
DEFPOINTS
 62
     0
100
AcDbPoint
 10
1386.199606461485
 20
244.0279368466338
 30
0.0
  0
ENDBLK
  5
146A5
330
146A3
100
AcDbEntity
  8
0
100
AcDbBlockEnd
  0
BLOCK
  5
146B0
330
146AF
100
AcDbEntity
  8
0
100
AcDbBlockBegin
  2
*D26
 70
     1
 10
0.0
 20
0.0
 30
0.0
  3
*D26
  1

  0
LINE
  5
14740
330
146AF
100
AcDbEntity
  8
0
370
     5
100
AcDbLine
 10
1227.418569638991
 20
269.8231535415214
 30
0.0
 11
1227.418569638991
 21
294.0445139709979
 31
0.0
  0
LINE
  5
14741
330
146AF
100
AcDbEntity
  8
0
370
     5
100
AcDbLine
 10
1249.418569638991
 20
269.8231535415214
 30
0.0
 11
1249.418569638991
 21
294.0445139709979
 31
0.0
  0
LINE
  5
14742
330
146AF
100
AcDbEntity
  8
0
370
     5
100
AcDbLine
 10
1230.043569638991
 20
293.2945139709978
 30
0.0
 11
1246.793569638991
 21
293.2945139709978
 31
0.0
  0
MTEXT
  5
14743
330
146AF
100
AcDbEntity
  8
0
100
AcDbMText
 10
1238.350116154989
 20
296.0652033130833
 30
0.0
 40
2.625
 41
0.0
 71
     5
 72
     1
  1
\A1;%%C22
 73
     1
 44
1.0
1001
ACAD
1000
MTEXTBEGIN
1070
    73
1070
     1
1070
    44
1040
1.0
1070
    74
1070
     0
1000
MTEXTEND
  0
SOLID
  5
14744
330
146AF
100
AcDbEntity
  8
0
100
AcDbTrace
 10
1230.043569638991
 20
293.7320139709978
 30
0.0
 11
1230.043569638991
 21
292.8570139709979
 31
0.0
 12
1227.418569638991
 22
293.2945139709978
 32
0.0
 13
1227.418569638991
 23
293.2945139709978
 33
0.0
  0
SOLID
  5
14745
330
146AF
100
AcDbEntity
  8
0
100
AcDbTrace
 10
1246.793569638991
 20
293.7320139709978
 30
0.0
 11
1246.793569638991
 21
292.8570139709979
 31
0.0
 12
1249.418569638991
 22
293.2945139709978
 32
0.0
 13
1249.418569638991
 23
293.2945139709978
 33
0.0
  0
POINT
  5
14746
330
146AF
100
AcDbEntity
  8
DEFPOINTS
 62
     0
100
AcDbPoint
 10
1227.418569638991
 20
269.8231535415214
 30
0.0
  0
POINT
  5
14747
330
146AF
100
AcDbEntity
  8
DEFPOINTS
 62
     0
100
AcDbPoint
 10
1249.418569638991
 20
269.8231535415214
 30
0.0
  0
POINT
  5
14748
330
146AF
100
AcDbEntity
  8
DEFPOINTS
 62
     0
100
AcDbPoint
 10
1249.418569638991
 20
293.2945139709978
 30
0.0
  0
ENDBLK
  5
146B1
330
146AF
100
AcDbEntity
  8
0
100
AcDbBlockEnd
  0
BLOCK
  5
146BC
330
146BB
100
AcDbEntity
  8
0
100
AcDbBlockBegin
  2
*D27
 70
     1
 10
0.0
 20
0.0
 30
0.0
  3
*D27
  1

  0
LINE
  5
14720
330
146BB
100
AcDbEntity
  8
0
370
     5
100
AcDbLine
 10
1470.328772053798
 20
278.3231535415215
 30
0.0
 11
1449.532276982616
 21
278.3231535415215
 31
0.0
  0
LINE
  5
14721
330
146BB
100
AcDbEntity
  8
0
370
     5
100
AcDbLine
 10
1470.328772053798
 20
261.3231535415214
 30
0.0
 11
1449.532276982616
 21
261.3231535415214
 31
0.0
  0
LINE
  5
14722
330
146BB
100
AcDbEntity
  8
0
370
     5
100
AcDbLine
 10
1450.282276982616
 20
275.6981535415214
 30
0.0
 11
1450.282276982616
 21
263.9481535415214
 31
0.0
  0
MTEXT
  5
14723
330
146BB
100
AcDbEntity
  8
0
100
AcDbMText
 10
1448.135965613283
 20
269.984964502474
 30
0.0
 40
2.625
 41
0.0
 71
     5
 72
     1
  1
\A1;17
 11
0.0000000000000001
 21
1.0
 31
0.0
 73
     1
 44
1.0
1001
ACAD
1000
MTEXTBEGIN
1070
    73
1070
     1
1070
    44
1040
1.0
1070
    74
1070
     0
1000
MTEXTEND
  0
SOLID
  5
14724
330
146BB
100
AcDbEntity
  8
0
100
AcDbTrace
 10
1449.844776982615
 20
275.6981535415214
 30
0.0
 11
1450.719776982616
 21
275.6981535415214
 31
0.0
 12
1450.282276982616
 22
278.3231535415215
 32
0.0
 13
1450.282276982616
 23
278.3231535415215
 33
0.0
  0
SOLID
  5
14725
330
146BB
100
AcDbEntity
  8
0
100
AcDbTrace
 10
1449.844776982615
 20
263.9481535415214
 30
0.0
 11
1450.719776982616
 21
263.9481535415214
 31
0.0
 12
1450.282276982616
 22
261.3231535415214
 32
0.0
 13
1450.282276982616
 23
261.3231535415214
 33
0.0
  0
POINT
  5
14726
330
146BB
100
AcDbEntity
  8
DEFPOINTS
 62
     0
100
AcDbPoint
 10
1470.328772053798
 20
278.3231535415215
 30
0.0
  0
POINT
  5
14727
330
146BB
100
AcDbEntity
  8
DEFPOINTS
 62
     0
100
AcDbPoint
 10
1470.328772053798
 20
261.3231535415214
 30
0.0
  0
POINT
  5
14728
330
146BB
100
AcDbEntity
  8
DEFPOINTS
 62
     0
100
AcDbPoint
 10
1450.282276982616
 20
261.3231535415214
 30
0.0
  0
ENDBLK
  5
146BD
330
146BB
100
AcDbEntity
  8
0
100
AcDbBlockEnd
  0
BLOCK
  5
146C8
330
146C7
100
AcDbEntity
  8
0
100
AcDbBlockBegin
  2
*D28
 70
     1
 10
0.0
 20
0.0
 30
0.0
  3
*D28
  1

  0
LINE
  5
14735
330
146C7
100
AcDbEntity
  8
0
370
     5
100
AcDbLine
 10
1219.414790863009
 20
269.8231535415215
 30
0.0
 11
1213.549116495763
 21
269.8231535415215
 31
0.0
  0
LINE
  5
14736
330
146C7
100
AcDbEntity
  8
0
370
     5
100
AcDbLine
 10
1238.418569638991
 20
250.916301704647
 30
0.0
 11
1238.418569638991
 21
244.9537003982927
 31
0.0
  0
ARC
  5
14737
330
146C7
100
AcDbEntity
  8
0
370
     5
100
AcDbCircle
 10
1238.418569638991
 20
269.8231535415214
 30
0.0
 40
24.11945314322875
100
AcDbArc
 50
186.238771121342
 51
263.7612288786577
  0
SOLID
  5
14738
330
146C7
100
AcDbEntity
  8
0
100
AcDbTrace
 10
1214.005108456168
 20
267.1782356746202
 30
0.0
 11
1214.878811982708
 21
267.2258502491787
 31
0.0
 12
1214.299116495762
 22
269.8231535415214
 32
0.0
 13
1214.299116495762
 23
269.8231535415214
 33
0.0
  0
SOLID
  5
14739
330
146C7
100
AcDbEntity
  8
0
100
AcDbTrace
 10
1235.821266346648
 20
246.2833958852387
 30
0.0
 11
1235.77365177209
 21
245.4096923586981
 31
0.0
 12
1238.418569638991
 22
245.7037003982927
 32
0.0
 13
1238.418569638991
 23
245.7037003982927
 33
0.0
  0
MTEXT
  5
1473A
330
146C7
100
AcDbEntity
  8
0
100
AcDbMText
 10
1222.569075525964
 20
254.7296865819047
 30
0.0
 40
2.625
 41
0.0
 71
     5
 72
     1
  1
\A1;4x90%%D
 11
0.6896242807070149
 21
-0.7241673504510766
 31
0.0
 73
     1
 44
1.0
1001
ACAD
1000
MTEXTBEGIN
1070
    73
1070
     1
1070
    44
1040
1.0
1070
    74
1070
     0
1000
MTEXTEND
  0
POINT
  5
1473B
330
146C7
100
AcDbEntity
  8
DEFPOINTS
 62
     0
100
AcDbPoint
 10
1226.358843067377
 20
248.935094394097
 30
0.0
  0
POINT
  5
1473C
330
146C7
100
AcDbEntity
  8
DEFPOINTS
 62
     0
100
AcDbPoint
 10
1257.389055908631
 20
269.8231535415215
 30
0.0
  0
POINT
  5
1473D
330
146C7
100
AcDbEntity
  8
DEFPOINTS
 62
     0
100
AcDbPoint
 10
1238.418569638991
 20
288.6954934709248
 30
0.0
  0
POINT
  5
1473E
330
146C7
100
AcDbEntity
  8
DEFPOINTS
 62
     0
100
AcDbPoint
 10
1238.418569638991
 20
250.916301704647
 30
0.0
  0
POINT
  5
1473F
330
146C7
100
AcDbEntity
  8
DEFPOINTS
 62
     0
100
AcDbPoint
 10
1219.414790863009
 20
269.8231535415215
 30
0.0
  0
ENDBLK
  5
146C9
330
146C7
100
AcDbEntity
  8
0
100
AcDbBlockEnd
  0
BLOCK
  5
15A7E
330
15A7B
100
AcDbEntity
  8
0
 62
   255
100
AcDbBlockBegin
  2
A$C08716F59
 70
     0
 10
0.0
 20
0.0
 30
0.0
  3
A$C08716F59
  1

  0
LINE
  5
15A7F
330
15A7B
100
AcDbEntity
  8
0
  6
Continuous
 62
   255
100
AcDbLine
 10
0.0
 20
12.17339149400141
 30
0.0
 11
182.9999999999895
 21
12.17339149400141
 31
0.0
  0
LINE
  5
15A80
330
15A7B
100
AcDbEntity
  8
0
  6
Continuous
 62
   255
100
AcDbLine
 10
139.4722028839473
 20
8.115594329334285
 30
0.0
 11
182.9999999999895
 21
8.115594329334271
 31
0.0
  0
LINE
  5
15A81
330
15A7B
100
AcDbEntity
  8
0
  6
Continuous
 62
   255
100
AcDbLine
 10
139.4722028839473
 20
4.057797164667163
 30
0.0
 11
182.9999999999895
 21
4.05779716466715
 31
0.0
  0
MTEXT
  5
15A82
330
15A7B
100
AcDbEntity
  8
0
100
AcDbMText
 10
1.226077007665935
 20
16.62833710178165
 30
0.0
 40
2.494547437295385
 41
0.0
 71
     1
 72
     5
  1
General tolerances ISO 2768-1 (fine)
 73
     1
 44
1.0
1001
ACAD
1000
MTEXTBEGIN
1070
    73
1070
     1
1070
    44
1040
1.0
1070
    74
1070
     0
1000
MTEXTEND
  0
MTEXT
  5
15A83
330
15A7B
100
AcDbEntity
  8
0
100
AcDbMText
 10
1.221253973245665
 20
22.7493147206207
 30
0.0
 40
2.494547437295385
 41
0.0
 71
     1
 72
     5
  1
{\fISOCPEUR|b0|i0|c0|p34;\W1;Nominal dimension in mm}
  7
SLDTEXTSTYLE0
 73
     1
 44
1.0
1001
ACDBBLOCKREPETAG
1070
     1
1071
        3
1005
0
1001
ACAD
1000
MTEXTBEGIN
1070
    73
1070
     1
1070
    44
1040
1.0
1070
    74
1070
     0
1000
MTEXTEND
  0
LINE
  5
15A84
330
15A7B
100
AcDbEntity
  8
0
  6
Continuous
 62
   255
100
AcDbLine
 10
58.34685140027523
 20
24.34678298800282
 30
0.0
 11
58.34685140027523
 21
0.0000000000000142
 31
0.0
1001
ACDBBLOCKREPETAG
1070
     1
1071
        9
1005
0
  0
LINE
  5
15A85
330
15A7B
100
AcDbEntity
  8
0
  6
Continuous
 62
   255
100
AcDbLine
 10
0.0
 20
24.34678298800282
 30
0.0
 11
58.34685140027527
 21
24.34678298800282
 31
0.0
1001
ACDBBLOCKREPETAG
1070
     1
1071
       10
1005
0
  0
LINE
  5
15A86
330
15A7B
100
AcDbEntity
  8
0
  6
Continuous
 62
   255
100
AcDbLine
 10
58.34685140027523
 20
24.34678298800282
 30
0.0
 11
182.9999999999895
 21
24.34678298800282
 31
0.0
1001
ACDBBLOCKREPETAG
1070
     1
1071
       10
1005
0
  0
LINE
  5
15A87
330
15A7B
100
AcDbEntity
  8
0
  6
Continuous
 62
   255
100
AcDbLine
 10
79.12237616689424
 20
12.17339149400141
 30
0.0
 11
79.12237616689424
 21
24.34678298800282
 31
0.0
1001
ACDBBLOCKREPETAG
1070
     1
1071
       14
1005
0
  0
LINE
  5
15A88
330
15A7B
100
AcDbEntity
  8
0
  6
Continuous
 62
   255
100
AcDbLine
 10
99.89790093351338
 20
12.17339149400141
 30
0.0
 11
99.89790093351338
 21
24.34678298800282
 31
0.0
1001
ACDBBLOCKREPETAG
1070
     1
1071
       14
1005
0
  0
MTEXT
  5
15A89
330
15A7B
100
AcDbEntity
  8
0
100
AcDbMText
 10
168.9677353328222
 20
16.88893582326733
 30
0.0
 40
2.494547437295385
 41
0.0
 71
     1
 72
     5
  1
%%p 0.3
 73
     1
 44
1.0
1001
ACDBBLOCKREPETAG
1070
     1
1071
       24
1005
0
1001
ACAD
1000
MTEXTBEGIN
1070
    73
1070
     1
1070
    44
1040
1.0
1070
    74
1070
     0
1000
MTEXTEND
  0
MTEXT
  5
15A8A
330
15A7B
100
AcDbEntity
  8
0
100
AcDbMText
 10
147.9410418409381
 20
16.95985493722907
 30
0.0
 40
2.494547437295385
 41
0.0
 71
     1
 72
     5
  1
%%p 0.2
 73
     1
 44
1.0
1001
ACDBBLOCKREPETAG
1070
     1
1071
       25
1005
0
1001
ACAD
1000
MTEXTBEGIN
1070
    73
1070
     1
1070
    44
1040
1.0
1070
    74
1070
     0
1000
MTEXTEND
  0
MTEXT
  5
15A8B
330
15A7B
100
AcDbEntity
  8
0
100
AcDbMText
 10
126.4009074272721
 20
16.87519524493729
 30
0.0
 40
2.494547437295385
 41
0.0
 71
     1
 72
     5
  1
%%p 0.15
 73
     1
 44
1.0
1001
ACDBBLOCKREPETAG
1070
     1
1071
       26
1005
0
1001
ACAD
1000
MTEXTBEGIN
1070
    73
1070
     1
1070
    44
1040
1.0
1070
    74
1070
     0
1000
MTEXTEND
  0
MTEXT
  5
15A8C
330
15A7B
100
AcDbEntity
  8
0
100
AcDbMText
 10
105.9463212275484
 20
16.90112504597953
 30
0.0
 40
2.494547437295385
 41
0.0
 71
     1
 72
     5
  1
%%p 0.1
 73
     1
 44
1.0
1001
ACDBBLOCKREPETAG
1070
     1
1071
       27
1005
0
1001
ACAD
1000
MTEXTBEGIN
1070
    73
1070
     1
1070
    44
1040
1.0
1070
    74
1070
     0
1000
MTEXTEND
  0
MTEXT
  5
15A8D
330
15A7B
100
AcDbEntity
  8
0
100
AcDbMText
 10
84.98914242355727
 20
17.01437400608699
 30
0.0
 40
2.494547437295385
 41
0.0
 71
     1
 72
     5
  1
%%p 0.05
 73
     1
 44
1.0
1001
ACDBBLOCKREPETAG
1070
     1
1071
       28
1005
0
1001
ACAD
1000
MTEXTBEGIN
1070
    73
1070
     1
1070
    44
1040
1.0
1070
    74
1070
     0
1000
MTEXTEND
  0
TEXT
  5
15A8E
330
15A7B
100
AcDbEntity
  8
0
  6
Continuous
100
AcDbText
 10
164.1615107706293
 20
20.37929673764472
 30
0.0
 40
2.494547437295385
  1
400 - 1000
100
AcDbText
1001
ACDBBLOCKREPETAG
1070
     1
1071
       37
1005
0
  0
MTEXT
  5
15A8F
330
15A7B
100
AcDbEntity
  8
0
100
AcDbMText
 10
144.158621869803
 20
22.96803362317041
 30
0.0
 40
2.494547437295385
 41
0.0
 71
     1
 72
     5
  1
120 - 400
 73
     1
 44
1.0
1001
ACDBBLOCKREPETAG
1070
     1
1071
       29
1005
0
1001
ACAD
1000
MTEXTBEGIN
1070
    73
1070
     1
1070
    44
1040
1.0
1070
    74
1070
     0
1000
MTEXTEND
  0
MTEXT
  5
15A90
330
15A7B
100
AcDbEntity
  8
0
100
AcDbMText
 10
124.3756636317091
 20
22.72513565785164
 30
0.0
 40
2.494547437295385
 41
0.0
 71
     1
 72
     5
  1
30 - 120
 73
     1
 44
1.0
1001
ACDBBLOCKREPETAG
1070
     1
1071
       30
1005
0
1001
ACAD
1000
MTEXTBEGIN
1070
    73
1070
     1
1070
    44
1040
1.0
1070
    74
1070
     0
1000
MTEXTEND
  0
MTEXT
  5
15A91
330
15A7B
100
AcDbEntity
  8
0
100
AcDbMText
 10
104.9462539288026
 20
22.75232551006025
 30
0.0
 40
2.494547437295385
 41
0.0
 71
     1
 72
     5
  1
6 - 30
 73
     1
 44
1.0
1001
ACDBBLOCKREPETAG
1070
     1
1071
       31
1005
0
1001
ACAD
1000
MTEXTBEGIN
1070
    73
1070
     1
1070
    44
1040
1.0
1070
    74
1070
     0
1000
MTEXTEND
  0
MTEXT
  5
15A92
330
15A7B
100
AcDbEntity
  8
0
100
AcDbMText
 10
85.07950812762826
 20
22.70556959691623
 30
0.0
 40
2.494547437295385
 41
0.0
 71
     1
 72
     5
  1
3 - 6
 73
     1
 44
1.0
1001
ACDBBLOCKREPETAG
1070
     1
1071
       32
1005
0
1001
ACAD
1000
MTEXTBEGIN
1070
    73
1070
     1
1070
    44
1040
1.0
1070
    74
1070
     0
1000
MTEXTEND
  0
MTEXT
  5
15A93
330
15A7B
100
AcDbEntity
  8
0
100
AcDbMText
 10
63.01858838858901
 20
22.78653418981571
 30
0.0
 40
2.494547437295385
 41
0.0
 71
     1
 72
     5
  1
0.5 - 3
 73
     1
 44
1.0
1001
ACDBBLOCKREPETAG
1070
     1
1071
       33
1005
0
1001
ACAD
1000
MTEXTBEGIN
1070
    73
1070
     1
1070
    44
1040
1.0
1070
    74
1070
     0
1000
MTEXTEND
  0
MTEXT
  5
15A94
330
15A7B
100
AcDbEntity
  8
0
100
AcDbMText
 10
63.43852565896918
 20
16.8478471152647
 30
0.0
 40
2.494547437295385
 41
0.0
 71
     1
 72
     5
  1
%%p 0.05
 73
     1
 44
1.0
1001
ACDBBLOCKREPETAG
1070
     1
1071
       34
1005
0
1001
ACAD
1000
MTEXTBEGIN
1070
    73
1070
     1
1070
    44
1040
1.0
1070
    74
1070
     0
1000
MTEXTEND
  0
LINE
  5
15A95
330
15A7B
100
AcDbEntity
  8
0
  6
Continuous
 62
   255
100
AcDbLine
 10
0.0
 20
18.2600872410037
 30
0.0
 11
182.9999999999897
 21
18.260087241002
 31
0.0
  0
LINE
  5
15A96
330
15A7B
100
AcDbEntity
  8
0
  6
Continuous
 62
   255
100
AcDbLine
 10
0.0
 20
0.0
 30
0.0
 11
182.9999999999895
 21
0.0
 31
0.0
  0
LINE
  5
15A97
330
15A7B
100
AcDbEntity
  8
0
  6
Continuous
 62
   255
100
AcDbLine
 10
0.0
 20
6.086695747002281
 30
0.0
 11
139.4722028839473
 21
6.086695747001003
 31
0.0
  0
MTEXT
  5
15A98
330
15A7B
100
AcDbEntity
  8
0
100
AcDbMText
 10
1.201782440435636
 20
10.72252304166511
 30
0.0
 40
2.494547437295385
 41
0.0
 71
     1
 72
     5
  1
{\fISOCPEUR|b0|i0|c0|p34;\W1;Shorter arm length of angle in mm}
  7
SLDTEXTSTYLE0
 73
     1
 44
1.0
1001
ACDBBLOCKREPETAG
1070
     1
1071
        0
1005
0
1001
ACAD
1000
MTEXTBEGIN
1070
    73
1070
     1
1070
    44
1040
1.0
1070
    74
1070
     0
1000
MTEXTEND
  0
MTEXT
  5
15A99
330
15A7B
100
AcDbEntity
  8
0
100
AcDbMText
 10
61.86525580137935
 20
10.6131426958143
 30
0.0
 40
2.494547437295385
 41
0.0
 71
     1
 72
     5
  1
0 - 10
 73
     1
 44
1.0
1001
ACDBBLOCKREPETAG
1070
     1
1071
       33
1005
0
1001
ACAD
1000
MTEXTBEGIN
1070
    73
1070
     1
1070
    44
1040
1.0
1070
    74
1070
     0
1000
MTEXTEND
  0
MTEXT
  5
15A9A
330
15A7B
100
AcDbEntity
  8
0
100
AcDbMText
 10
64.26181913627715
 20
4.674455621263291
 30
0.0
 40
2.494547437295385
 41
0.0
 71
     1
 72
     5
  1
%%P 1%%D
 73
     1
 44
1.0
1001
ACDBBLOCKREPETAG
1070
     1
1071
       34
1005
0
1001
ACAD
1000
MTEXTBEGIN
1070
    73
1070
     1
1070
    44
1040
1.0
1070
    74
1070
     0
1000
MTEXTEND
  0
MTEXT
  5
15A9B
330
15A7B
100
AcDbEntity
  8
0
100
AcDbMText
 10
77.03151478382712
 20
10.6131426958143
 30
0.0
 40
2.494547437295385
 41
0.0
 71
     1
 72
     5
  1
10 - 50
 73
     1
 44
1.0
1001
ACDBBLOCKREPETAG
1070
     1
1071
       33
1005
0
1001
ACAD
1000
MTEXTBEGIN
1070
    73
1070
     1
1070
    44
1040
1.0
1070
    74
1070
     0
1000
MTEXTEND
  0
MTEXT
  5
15A9C
330
15A7B
100
AcDbEntity
  8
0
100
AcDbMText
 10
78.88210132936956
 20
4.674455621263291
 30
0.0
 40
2.494547437295385
 41
0.0
 71
     1
 72
     5
  1
%%P 0.5%%D
 73
     1
 44
1.0
1001
ACDBBLOCKREPETAG
1070
     1
1071
       34
1005
0
1001
ACAD
1000
MTEXTBEGIN
1070
    73
1070
     1
1070
    44
1040
1.0
1070
    74
1070
     0
1000
MTEXTEND
  0
MTEXT
  5
15A9D
330
15A7B
100
AcDbEntity
  8
0
100
AcDbMText
 10
92.59088918373743
 20
10.6131426958143
 30
0.0
 40
2.494547437295385
 41
0.0
 71
     1
 72
     5
  1
50 - 120
 73
     1
 44
1.0
1001
ACDBBLOCKREPETAG
1070
     1
1071
       33
1005
0
1001
ACAD
1000
MTEXTBEGIN
1070
    73
1070
     1
1070
    44
1040
1.0
1070
    74
1070
     0
1000
MTEXTEND
  0
MTEXT
  5
15A9E
330
15A7B
100
AcDbEntity
  8
0
100
AcDbMText
 10
93.18809940139328
 20
4.674455621263291
 30
0.0
 40
2.494547437295385
 41
0.0
 71
     1
 72
     5
  1
%%P 0.333%%D
 73
     1
 44
1.0
1001
ACDBBLOCKREPETAG
1070
     1
1071
       34
1005
0
1001
ACAD
1000
MTEXTBEGIN
1070
    73
1070
     1
1070
    44
1040
1.0
1070
    74
1070
     0
1000
MTEXTEND
  0
MTEXT
  5
15A9F
330
15A7B
100
AcDbEntity
  8
0
100
AcDbMText
 10
107.5423679565415
 20
10.6131426958143
 30
0.0
 40
2.494547437295385
 41
0.0
 71
     1
 72
     5
  1
120 - 400
 73
     1
 44
1.0
1001
ACDBBLOCKREPETAG
1070
     1
1071
       33
1005
0
1001
ACAD
1000
MTEXTBEGIN
1070
    73
1070
     1
1070
    44
1040
1.0
1070
    74
1070
     0
1000
MTEXTEND
  0
MTEXT
  5
15AA0
330
15A7B
100
AcDbEntity
  8
0
100
AcDbMText
 10
109.7564886466487
 20
4.674455621263291
 30
0.0
 40
2.494547437295385
 41
0.0
 71
     1
 72
     5
  1
%%P 0.166%%D
 73
     1
 44
1.0
1001
ACDBBLOCKREPETAG
1070
     1
1071
       34
1005
0
1001
ACAD
1000
MTEXTBEGIN
1070
    73
1070
     1
1070
    44
1040
1.0
1070
    74
1070
     0
1000
MTEXTEND
  0
MTEXT
  5
15AA1
330
15A7B
100
AcDbEntity
  8
0
100
AcDbMText
 10
123.9025409958209
 20
10.6131426958143
 30
0.0
 40
2.494547437295385
 41
0.0
 71
     1
 72
     5
  1
{\W0.9;400 - 1000}
 73
     1
 44
1.0
1001
ACDBBLOCKREPETAG
1070
     1
1071
       33
1005
0
1001
ACAD
1000
MTEXTBEGIN
1070
    73
1070
     1
1070
    44
1040
1.0
1070
    74
1070
     0
1000
MTEXTEND
  0
MTEXT
  5
15AA2
330
15A7B
100
AcDbEntity
  8
0
100
AcDbMText
 10
125.3174912143491
 20
4.674455621263291
 30
0.0
 40
2.494547437295385
 41
0.0
 71
     1
 72
     5
  1
%%P 0.083%%D
 73
     1
 44
1.0
1001
ACDBBLOCKREPETAG
1070
     1
1071
       34
1005
0
1001
ACAD
1000
MTEXTBEGIN
1070
    73
1070
     1
1070
    44
1040
1.0
1070
    74
1070
     0
1000
MTEXTEND
  0
MTEXT
  5
15AA3
330
15A7B
100
AcDbEntity
  8
0
100
AcDbMText
 10
1.22607700766582
 20
4.82201452720912
 30
0.0
 40
2.494547437295385
 41
0.0
 71
     1
 72
     5
  1
General tolerances ISO 2768-1 (fine)
 73
     1
 44
1.0
1001
ACAD
1000
MTEXTBEGIN
1070
    73
1070
     1
1070
    44
1040
1.0
1070
    74
1070
     0
1000
MTEXTEND
  0
LINE
  5
15AA4
330
15A7B
100
AcDbEntity
  8
0
  6
Continuous
 62
   255
100
AcDbLine
 10
74.57192169700966
 20
12.17339149400141
 30
0.0
 11
74.57192169700966
 21
0.0000000000000142
 31
0.0
1001
ACDBBLOCKREPETAG
1070
     1
1071
        9
1005
0
  0
LINE
  5
15AA5
330
15A7B
100
AcDbEntity
  8
0
  6
Continuous
 62
   255
100
AcDbLine
 10
90.79699199374408
 20
12.17339149400141
 30
0.0
 11
90.79699199374408
 21
0.0000000000000142
 31
0.0
1001
ACDBBLOCKREPETAG
1070
     1
1071
        9
1005
0
  0
LINE
  5
15AA6
330
15A7B
100
AcDbEntity
  8
0
  6
Continuous
 62
   255
100
AcDbLine
 10
107.0220622904785
 20
12.17339149400141
 30
0.0
 11
107.0220622904785
 21
0.0000000000000142
 31
0.0
1001
ACDBBLOCKREPETAG
1070
     1
1071
        9
1005
0
  0
LINE
  5
15AA7
330
15A7B
100
AcDbEntity
  8
0
  6
Continuous
 62
   255
100
AcDbLine
 10
123.2471325872129
 20
12.17339149400141
 30
0.0
 11
123.2471325872129
 21
0.0000000000000142
 31
0.0
1001
ACDBBLOCKREPETAG
1070
     1
1071
        9
1005
0
  0
LINE
  5
15AA8
330
15A7B
100
AcDbEntity
  8
0
  6
Continuous
 62
   255
100
AcDbLine
 10
139.4722028839473
 20
12.17339149400141
 30
0.0
 11
139.4722028839473
 21
0.0000000000000142
 31
0.0
1001
ACDBBLOCKREPETAG
1070
     1
1071
        9
1005
0
  0
TOLERANCE
  5
15AA9
330
15A7B
100
AcDbEntity
  8
0
100
AcDbFcf
  3
STANDARD
 10
140.3018912761555
 20
10.16670485428646
 30
0.0
  1
%%v%%v%%vH1%%v%%v
1001
ACAD
1000
DSTYLE
1002
{
1070
    40
1040
0.5
1070
   140
1040
3.24
1070
   147
1040
1.62
1070
   279
1070
     0
1070
   284
1070
     0
1070
   285
1070
     0
1070
   286
1070
     0
1002
}
  0
MTEXT
  5
15AAA
330
15A7B
100
AcDbEntity
  8
0
100
AcDbMText
 10
144.6501712219154
 20
11.25538089487233
 30
0.0
 40
1.995637949836309
 41
0.0
 71
     1
 72
     5
  1
.....
 73
     1
 44
1.0
1001
ACDBBLOCKREPETAG
1070
     1
1071
       34
1005
0
1001
ACAD
1000
MTEXTBEGIN
1070
    73
1070
     1
1070
    44
1040
1.0
1070
    74
1070
     0
1000
MTEXTEND
  0
MTEXT
  5
15AAB
330
15A7B
100
AcDbEntity
  8
0
100
AcDbMText
 10
148.0466459170135
 20
11.25538089487233
 30
0.0
 40
1.995637949836309
 41
0.0
 71
     1
 72
     5
  1
Horizontal CTQ Dimensions
 73
     1
 44
1.0
1001
ACDBBLOCKREPETAG
1070
     1
1071
       34
1005
0
1001
ACAD
1000
MTEXTBEGIN
1070
    73
1070
     1
1070
    44
1040
1.0
1070
    74
1070
     0
1000
MTEXTEND
  0
TOLERANCE
  5
15AAC
330
15A7B
100
AcDbEntity
  8
0
100
AcDbFcf
  3
STANDARD
 10
140.3018912761555
 20
6.108907689619343
 30
0.0
  1
%%v%%v%%vV1%%v%%v
1001
ACAD
1000
DSTYLE
1002
{
1070
    40
1040
0.5
1070
   140
1040
3.24
1070
   147
1040
1.62
1070
   279
1070
     0
1070
   284
1070
     0
1070
   285
1070
     0
1070
   286
1070
     0
1002
}
  0
MTEXT
  5
15AAD
330
15A7B
100
AcDbEntity
  8
0
100
AcDbMText
 10
144.6501712219154
 20
7.197583730205209
 30
0.0
 40
1.995637949836309
 41
0.0
 71
     1
 72
     5
  1
.....
 73
     1
 44
1.0
1001
ACDBBLOCKREPETAG
1070
     1
1071
       34
1005
0
1001
ACAD
1000
MTEXTBEGIN
1070
    73
1070
     1
1070
    44
1040
1.0
1070
    74
1070
     0
1000
MTEXTEND
  0
MTEXT
  5
15AAE
330
15A7B
100
AcDbEntity
  8
0
100
AcDbMText
 10
148.0466459170135
 20
7.197583730205209
 30
0.0
 40
1.995637949836309
 41
0.0
 71
     1
 72
     5
  1
Vertical CTQ Dimensions
 73
     1
 44
1.0
1001
ACDBBLOCKREPETAG
1070
     1
1071
       34
1005
0
1001
ACAD
1000
MTEXTBEGIN
1070
    73
1070
     1
1070
    44
1040
1.0
1070
    74
1070
     0
1000
MTEXTEND
  0
TOLERANCE
  5
15AAF
330
15A7B
100
AcDbEntity
  8
0
100
AcDbFcf
  3
STANDARD
 10
140.3018912761555
 20
2.05111052495222
 30
0.0
  1
%%v%%v%%vS1%%v%%v
1001
ACAD
1000
DSTYLE
1002
{
1070
    40
1040
0.5
1070
   140
1040
3.24
1070
   147
1040
1.62
1070
   279
1070
     0
1070
   284
1070
     0
1070
   285
1070
     0
1070
   286
1070
     0
1002
}
  0
MTEXT
  5
15AB0
330
15A7B
100
AcDbEntity
  8
0
100
AcDbMText
 10
144.6501712219154
 20
3.139786565538087
 30
0.0
 40
1.995637949836309
 41
0.0
 71
     1
 72
     5
  1
.....
 73
     1
 44
1.0
1001
ACDBBLOCKREPETAG
1070
     1
1071
       34
1005
0
1001
ACAD
1000
MTEXTBEGIN
1070
    73
1070
     1
1070
    44
1040
1.0
1070
    74
1070
     0
1000
MTEXTEND
  0
MTEXT
  5
15AB1
330
15A7B
100
AcDbEntity
  8
0
100
AcDbMText
 10
148.0466459170135
 20
3.139786565538087
 30
0.0
 40
1.995637949836309
 41
0.0
 71
     1
 72
     5
  1
GD&T & Other Features
 73
     1
 44
1.0
1001
ACDBBLOCKREPETAG
1070
     1
1071
       34
1005
0
1001
ACAD
1000
MTEXTBEGIN
1070
    73
1070
     1
1070
    44
1040
1.0
1070
    74
1070
     0
1000
MTEXTEND
  0
LINE
  5
15AB2
330
15A7B
100
AcDbEntity
  8
0
  6
Continuous
 62
   255
100
AcDbLine
 10
120.6734257001324
 20
12.17339149400141
 30
0.0
 11
120.6734257001324
 21
24.34678298800282
 31
0.0
1001
ACDBBLOCKREPETAG
1070
     1
1071
       14
1005
0
  0
LINE
  5
15AB3
330
15A7B
100
AcDbEntity
  8
0
  6
Continuous
 62
   255
100
AcDbLine
 10
141.4489504667515
 20
12.17339149400141
 30
0.0
 11
141.4489504667515
 21
24.34678298800282
 31
0.0
1001
ACDBBLOCKREPETAG
1070
     1
1071
       14
1005
0
  0
LINE
  5
15AB4
330
15A7B
100
AcDbEntity
  8
0
  6
Continuous
 62
   255
100
AcDbLine
 10
162.2244752333704
 20
12.17339149400141
 30
0.0
 11
162.2244752333704
 21
24.34678298800282
 31
0.0
1001
ACDBBLOCKREPETAG
1070
     1
1071
       14
1005
0
  0
ENDBLK
  5
15AB5
330
15A7B
100
AcDbEntity
  8
0
 62
   255
100
AcDbBlockEnd
  0
BLOCK
  5
15AB9
330
15AB6
100
AcDbEntity
  8
0
100
AcDbBlockBegin
  2
A$C058C21FF
 70
     0
 10
0.0
 20
0.0
 30
0.0
  3
A$C058C21FF
  1

  0
LINE
  5
15ABA
330
15AB6
100
AcDbEntity
  8
0
  6
Continuous
 62
   255
100
AcDbLine
 10
392.9999664095999
 20
-277.0
 30
0.0
 11
392.9999664095999
 21
0.0
 31
0.0
  0
LINE
  5
15ABB
330
15AB6
100
AcDbEntity
  8
0
  6
Continuous
 62
   255
100
AcDbLine
 10
10.0
 20
-277.0
 30
0.0
 11
392.9999664095999
 21
-277.0
 31
0.0
  0
LINE
  5
15ABC
330
15AB6
100
AcDbEntity
  8
0
  6
Continuous
 62
   255
100
AcDbLine
 10
0.0
 20
0.0
 30
0.0
 11
0.0
 21
-222.0000000000001
 31
0.0
  0
LINE
  5
15ABD
330
15AB6
100
AcDbEntity
  8
0
  6
Continuous
 62
   255
100
AcDbLine
 10
0.0
 20
0.0
 30
0.0
 11
392.9999664095999
 21
0.0
 31
0.0
  0
LINE
  5
15ABE
330
15AB6
100
AcDbEntity
  8
1
 62
     2
100
AcDbLine
 10
212.9999664095992
 20
-240.7736213082135
 30
0.0
 11
212.9999664095992
 21
-233.1532223398645
 31
0.0
1001
ACDBBLOCKREPETAG
1070
     1
1071
     2034
1005
0
  0
LINE
  5
15ABF
330
15AB6
100
AcDbEntity
  8
1
 62
     2
100
AcDbLine
 10
377.9999664095851
 20
-240.7736213082135
 30
0.0
 11
212.9999664095992
 21
-240.7736213082135
 31
0.0
1001
ACDBBLOCKREPETAG
1070
     1
1071
     2035
1005
0
  0
LINE
  5
15AC0
330
15AB6
100
AcDbEntity
  8
1
 62
     2
100
AcDbLine
 10
377.9999664095851
 20
-233.1532223398645
 30
0.0
 11
377.9999664095851
 21
-240.7736213082135
 31
0.0
1001
ACDBBLOCKREPETAG
1070
     1
1071
     2036
1005
0
  0
LINE
  5
15AC1
330
15AB6
100
AcDbEntity
  8
1
 62
     2
100
AcDbLine
 10
212.9999664095992
 20
-233.1532223398645
 30
0.0
 11
377.9999664095851
 21
-233.1532223398645
 31
0.0
1001
ACDBBLOCKREPETAG
1070
     1
1071
     2037
1005
0
  0
TEXT
  5
15AC2
330
15AB6
100
AcDbEntity
  8
1
 62
     3
100
AcDbText
 10
214.4930914539439
 20
-238.5485951401706
 30
0.0
 40
3.299999999999732
  1
Technology: Description - no. x.xxx.xx.xxxx
100
AcDbText
1001
ACDBBLOCKREPETAG
1070
     1
1071
     2042
1005
0
  0
LINE
  5
15AC3
330
15AB6
100
AcDbEntity
  8
0
  6
Continuous
 62
   255
100
AcDbLine
 10
10.0
 20
-222.0
 30
0.0
 11
10.0
 21
-277.0
 31
0.0
1001
ACDBBLOCKREPETAG
1070
     1
1071
     1946
1005
0
  0
LINE
  5
15AC4
330
15AB6
100
AcDbEntity
  8
0
  6
Continuous
 62
   255
100
AcDbLine
 10
10.0
 20
-222.0
 30
0.0
 11
0.0
 21
-222.0
 31
0.0
  0
TEXT
  5
15AC5
330
15AB6
100
AcDbEntity
  8
1
 62
     4
100
AcDbText
 10
2.500000000000001
 20
-237.5000000000001
 30
0.0
 40
5.0
  1
Drg. No.
 50
270.0
 72
     1
 11
5.0
 21
-249.5000000000001
 31
0.0
100
AcDbText
 73
     2
  0
LINE
  5
15AC6
330
15AB6
100
AcDbEntity
  8
0
  6
CENTER
 62
     2
 48
0.2
370
     9
100
AcDbLine
 10
386.4999681855563
 20
-259.423144560453
 30
0.0
 11
386.4999681855563
 21
-252.4231464730208
 31
0.0
1001
ACDBBLOCKREPETAG
1070
     1
1071
        1
1005
0
  0
LINE
  5
15AC7
330
15AB6
100
AcDbEntity
  8
0
  6
Continuous
 62
   255
100
AcDbLine
 10
383.8712940050734
 20
-262.0000040983596
 30
0.0
 11
383.8712940050734
 21
-273.0000010928959
 31
0.0
1001
ACDBBLOCKREPETAG
1070
     1
1071
        5
1005
0
  0
LINE
  5
15AC8
330
15AB6
100
AcDbEntity
  8
0
  6
CENTER
 62
     2
 48
0.2
370
     9
100
AcDbLine
 10
371.4999722839166
 20
-255.9231455167369
 30
0.0
 11
380.4999698249001
 21
-255.9231455167369
 31
0.0
1001
ACDBBLOCKREPETAG
1070
     1
1071
        9
1005
0
  0
LINE
  5
15AC9
330
15AB6
100
AcDbEntity
  8
0
  6
Continuous
 62
   255
100
AcDbLine
 10
379.9999699615125
 20
-252.8231463637312
 30
0.0
 11
371.9999721473042
 21
-254.4231459265728
 31
0.0
1001
ACDBBLOCKREPETAG
1070
     1
1071
       10
1005
0
  0
LINE
  5
15ACA
330
15AB6
100
AcDbEntity
  8
0
  6
Continuous
 62
   255
100
AcDbLine
 10
379.9999699615125
 20
-259.0231446697427
 30
0.0
 11
379.9999699615125
 21
-252.8231463637312
 31
0.0
1001
ACDBBLOCKREPETAG
1070
     1
1071
       11
1005
0
  0
LINE
  5
15ACB
330
15AB6
100
AcDbEntity
  8
0
  6
Continuous
 62
   255
100
AcDbLine
 10
371.9999721473042
 20
-257.423145106901
 30
0.0
 11
379.9999699615125
 21
-259.0231446697427
 31
0.0
1001
ACDBBLOCKREPETAG
1070
     1
1071
       12
1005
0
  0
LINE
  5
15ACC
330
15AB6
100
AcDbEntity
  8
0
  6
Continuous
 62
   255
100
AcDbLine
 10
371.9999721473042
 20
-254.4231459265728
 30
0.0
 11
371.9999721473042
 21
-257.423145106901
 31
0.0
1001
ACDBBLOCKREPETAG
1070
     1
1071
       13
1005
0
  0
LINE
  5
15ACD
330
15AB6
100
AcDbEntity
  8
0
  6
Continuous
 62
   255
100
AcDbLine
 10
352.9999773385603
 20
-262.0000040983596
 30
0.0
 11
352.9999773385601
 21
-250.0008059763035
 31
0.0
1001
ACDBBLOCKREPETAG
1070
     1
1071
       19
1005
0
  0
LINE
  5
15ACE
330
15AB6
100
AcDbEntity
  8
0
  6
Continuous
 62
   255
100
AcDbLine
 10
318.9999866281746
 20
-262.0000040983596
 30
0.0
 11
318.9999866281746
 21
-273.0000010928959
 31
0.0
1001
ACDBBLOCKREPETAG
1070
     1
1071
       20
1005
0
  0
LINE
  5
15ACF
330
15AB6
100
AcDbEntity
  8
0
  6
Continuous
 62
   255
100
AcDbLine
 10
352.9999773385601
 20
-262.0000040983594
 30
0.0
 11
392.9999664096001
 21
-262.0000040983596
 31
0.0
1001
ACDBBLOCKREPETAG
1070
     1
1071
       21
1005
0
  0
LINE
  5
15AD0
330
15AB6
100
AcDbEntity
  8
0
  6
Continuous
 62
   255
100
AcDbLine
 10
245.0000068467473
 20
-262.0000040983596
 30
0.0
 11
245.0000068467473
 21
-273.0000010928959
 31
0.0
1001
ACDBBLOCKREPETAG
1070
     1
1071
       22
1005
0
  0
LINE
  5
15AD1
330
15AB6
100
AcDbEntity
  8
0
  6
Continuous
 62
   255
100
AcDbLine
 10
257.6666700525782
 20
-256.0008059763035
 30
0.0
 11
257.6666700525779
 21
-273.0000010928959
 31
0.0
1001
ACDBBLOCKREPETAG
1070
     1
1071
       22
1005
0
  0
LINE
  5
15AD2
330
15AB6
100
AcDbEntity
  8
0
  6
Continuous
 62
   255
100
AcDbLine
 10
210.000016409587
 20
-233.1532223398645
 30
0.0
 11
210.000016409587
 21
-277.0
 31
0.0
1001
ACDBBLOCKREPETAG
1070
     1
1071
       26
1005
0
  0
LINE
  5
15AD3
330
15AB6
100
AcDbEntity
  8
0
  6
Continuous
 62
   255
100
AcDbLine
 10
367.9999732401999
 20
-250.0008059763035
 30
0.0
 11
367.9999732401999
 21
-262.0000040983596
 31
0.0
1001
ACDBBLOCKREPETAG
1070
     1
1071
       27
1005
0
  0
LINE
  5
15AD4
330
15AB6
100
AcDbEntity
  8
0
  6
Continuous
 62
   255
100
AcDbLine
 10
185.0000232401867
 20
-257.5000053278675
 30
0.0
 11
185.0000232401869
 21
-277.0
 31
0.0
1001
ACDBBLOCKREPETAG
1070
     1
1071
       29
1005
0
  0
LINE
  5
15AD5
330
15AB6
100
AcDbEntity
  8
0
  6
Continuous
 62
     2
370
     9
100
AcDbLine
 10
27.00001640958703
 20
-266.5000028688518
 30
0.0
 11
210.000016409587
 21
-266.5000028688518
 31
0.0
1001
ACDBBLOCKREPETAG
1070
     1
1071
       30
1005
0
  0
LINE
  5
15AD6
330
15AB6
100
AcDbEntity
  8
0
  6
Continuous
 62
   255
100
AcDbLine
 10
27.00001640958703
 20
-271.0000016393439
 30
0.0
 11
210.000016409587
 21
-271.0000016393439
 31
0.0
1001
ACDBBLOCKREPETAG
1070
     1
1071
       31
1005
0
  0
LINE
  5
15AD7
330
15AB6
100
AcDbEntity
  8
0
  6
Continuous
 62
   255
100
AcDbLine
 10
27.00001640958703
 20
-277.0
 30
0.0
 11
27.00001640958681
 21
-233.1532223398645
 31
0.0
1001
ACDBBLOCKREPETAG
1070
     1
1071
       32
1005
0
  0
LINE
  5
15AD8
330
15AB6
100
AcDbEntity
  8
0
  6
Continuous
 62
     2
370
     9
100
AcDbLine
 10
210.000016409587
 20
-262.0000040983596
 30
0.0
 11
27.00001640958703
 21
-262.0000040983596
 31
0.0
1001
ACDBBLOCKREPETAG
1070
     1
1071
       33
1005
0
  0
LINE
  5
15AD9
330
15AB6
100
AcDbEntity
  8
0
  6
Continuous
 62
   255
100
AcDbLine
 10
160.0000300707861
 20
-257.5000053278675
 30
0.0
 11
160.0000300707863
 21
-277.0
 31
0.0
1001
ACDBBLOCKREPETAG
1070
     1
1071
       34
1005
0
  0
LINE
  5
15ADA
330
15AB6
100
AcDbEntity
  8
0
  6
Continuous
 62
   255
100
AcDbLine
 10
135.0000369013846
 20
-257.5000053278675
 30
0.0
 11
135.0000369013846
 21
-277.0
 31
0.0
1001
ACDBBLOCKREPETAG
1070
     1
1071
       35
1005
0
  0
LINE
  5
15ADB
330
15AB6
100
AcDbEntity
  8
0
  6
Continuous
 62
   255
100
AcDbLine
 10
33.90006452432795
 20
-257.5000053278675
 30
0.0
 11
33.90006452432795
 21
-277.0
 31
0.0
1001
ACDBBLOCKREPETAG
1070
     1
1071
       36
1005
0
  0
LINE
  5
15ADC
330
15AB6
100
AcDbEntity
  8
0
  6
CENTER
 62
     2
 48
0.2
370
     9
100
AcDbLine
 10
382.8999691691633
 20
-255.9231455167369
 30
0.0
 11
389.9999672292731
 21
-255.9231455167369
 31
0.0
1001
ACDBBLOCKREPETAG
1070
     1
1071
       37
1005
0
  0
LINE
  5
15ADD
330
15AB6
100
AcDbEntity
  8
0
  6
Continuous
 62
   255
100
AcDbLine
 10
392.9999664096001
 20
-273.0000010928959
 30
0.0
 11
210.000016409587
 21
-273.0000010928959
 31
0.0
1001
ACDBBLOCKREPETAG
1070
     1
1071
       38
1005
0
  0
CIRCLE
  5
15ADE
330
15AB6
100
AcDbEntity
  8
0
  6
Continuous
 62
   255
100
AcDbCircle
 10
386.4999681855563
 20
-255.9231455167369
 30
0.0
 40
3.099999153005696
1001
ACDBBLOCKREPETAG
1070
     1
1071
       39
1005
0
  0
CIRCLE
  5
15ADF
330
15AB6
100
AcDbEntity
  8
0
  6
Continuous
 62
   255
100
AcDbCircle
 10
386.4999681855563
 20
-255.9231455167369
 30
0.0
 40
1.499999590164045
1001
ACDBBLOCKREPETAG
1070
     1
1071
       40
1005
0
  0
MTEXT
  5
15AE0
330
15AB6
100
AcDbEntity
  8
0
 62
   255
100
AcDbMText
 10
356.8782500675212
 20
-252.7695148487513
 30
0.0
 40
1.999999453552061
 41
0.0
 71
     1
 72
     5
  1
Scale
 73
     1
 44
1.0
1001
ACDBBLOCKREPETAG
1070
     1
1071
       46
1005
0
1001
ACAD
1000
MTEXTBEGIN
1070
    73
1070
     1
1070
    44
1040
1.0
1070
    74
1070
     0
1000
MTEXTEND
  0
MTEXT
  5
15AE1
330
15AB6
100
AcDbEntity
  8
0
 62
   255
100
AcDbMText
 10
384.7939704696303
 20
-264.9195248175762
 30
0.0
 40
4.508695652173911
 41
0.0
 71
     1
 72
     5
  1
{\fISOCPEUR|b0|i0|c0|p34;\W1;A3}
  7
SLDTEXTSTYLE0
 73
     1
 44
1.0
1001
ACDBBLOCKREPETAG
1070
     1
1071
       50
1005
0
1001
ACAD
1000
MTEXTBEGIN
1070
    73
1070
     1
1070
    44
1040
1.0
1070
    74
1070
     0
1000
MTEXTEND
  0
TEXT
  5
15AE2
330
15AB6
100
AcDbEntity
  8
0
  6
Continuous
 62
   255
100
AcDbText
 10
213.5367887974839
 20
-275.600626952933
 30
0.0
 40
1.72391304347826
  1
This drawing remains our property. Without written approval it may not be copied, reproduced or communicated or made available to third parties.
100
AcDbText
1001
ACDBBLOCKREPETAG
1070
     1
1071
       51
1005
0
  0
MTEXT
  5
15AE3
330
15AB6
100
AcDbEntity
  8
0
 62
   255
100
AcDbMText
 10
28.38043281742353
 20
-272.4012695934838
 30
0.0
 40
1.999999453552061
 41
0.0
 71
     1
 72
     5
  1
No.
 73
     1
 44
1.0
1001
ACDBBLOCKREPETAG
1070
     1
1071
       52
1005
0
1001
ACAD
1000
MTEXTBEGIN
1070
    73
1070
     1
1070
    44
1040
1.0
1070
    74
1070
     0
1000
MTEXTEND
  0
MTEXT
  5
15AE4
330
15AB6
100
AcDbEntity
  8
0
 62
   255
100
AcDbMText
 10
62.8916152131303
 20
-272.5568974675624
 30
0.0
 40
1.999999453552061
 41
0.0
 71
     1
 72
     5
  1
Modifications
 73
     1
 44
1.0
1001
ACDBBLOCKREPETAG
1070
     1
1071
       53
1005
0
1001
ACAD
1000
MTEXTBEGIN
1070
    73
1070
     1
1070
    44
1040
1.0
1070
    74
1070
     0
1000
MTEXTEND
  0
MTEXT
  5
15AE5
330
15AB6
100
AcDbEntity
  8
0
 62
   255
100
AcDbMText
 10
113.8766488820463
 20
-272.4090513971577
 30
0.0
 40
1.999999453552061
 41
0.0
 71
     1
 72
     5
  1
Communication
 73
     1
 44
1.0
1001
ACDBBLOCKREPETAG
1070
     1
1071
       54
1005
0
1001
ACAD
1000
MTEXTBEGIN
1070
    73
1070
     1
1070
    44
1040
1.0
1070
    74
1070
     0
1000
MTEXTEND
  0
MTEXT
  5
15AE6
330
15AB6
100
AcDbEntity
  8
0
 62
   255
100
AcDbMText
 10
143.9645104743263
 20
-272.4579818509886
 30
0.0
 40
1.999999453552061
 41
0.0
 71
     1
 72
     5
  1
Drawn
 73
     1
 44
1.0
1001
ACDBBLOCKREPETAG
1070
     1
1071
       55
1005
0
1001
ACAD
1000
MTEXTBEGIN
1070
    73
1070
     1
1070
    44
1040
1.0
1070
    74
1070
     0
1000
MTEXTEND
  0
MTEXT
  5
15AE7
330
15AB6
100
AcDbEntity
  8
0
 62
   255
100
AcDbMText
 10
191.619644925147
 20
-272.537497781863
 30
0.0
 40
1.999999453552061
 41
0.0
 71
     1
 72
     5
  1
Approved
 73
     1
 44
1.0
1001
ACDBBLOCKREPETAG
1070
     1
1071
       56
1005
0
1001
ACAD
1000
MTEXTBEGIN
1070
    73
1070
     1
1070
    44
1040
1.0
1070
    74
1070
     0
1000
MTEXTEND
  0
MTEXT
  5
15AE8
330
15AB6
100
AcDbEntity
  8
0
 62
   255
100
AcDbMText
 10
336.1114445882952
 20
-264.9508328035223
 30
0.0
 40
4.508695652173911
 41
0.0
 71
     1
 72
     5
  1
{\fISOCPEUR|b0|i0|c0|p34;\W1;Drg. No.}
  7
SLDTEXTSTYLE0
 73
     1
 44
1.0
1001
ACDBBLOCKREPETAG
1070
     1
1071
       58
1005
0
1001
ACAD
1000
MTEXTBEGIN
1070
    73
1070
     1
1070
    44
1040
1.0
1070
    74
1070
     0
1000
MTEXTEND
  0
MTEXT
  5
15AE9
330
15AB6
100
AcDbEntity
  8
0
 62
   255
100
AcDbMText
 10
266.8224219787517
 20
-264.9557813549701
 30
0.0
 40
4.508695652173911
 41
0.0
 71
     1
 72
     5
  1
{\fISOCPEUR|b0|i0|c0|p34;\W1;Description}
  7
SLDTEXTSTYLE0
 73
     1
 44
1.0
1001
ACDBBLOCKREPETAG
1070
     1
1071
       59
1005
0
1001
ACAD
1000
MTEXTBEGIN
1070
    73
1070
     1
1070
    44
1040
1.0
1070
    74
1070
     0
1000
MTEXTEND
  0
MTEXT
  5
15AEA
330
15AB6
100
AcDbEntity
  8
0
 62
   255
100
AcDbMText
 10
358.084726654057
 20
-256.6405790150835
 30
0.0
 40
2.499999316940076
 41
0.0
 71
     1
 72
     5
  1
X:1
 73
     1
 44
1.0
1001
ACDBBLOCKREPETAG
1070
     1
1071
       60
1005
0
1001
ACAD
1000
MTEXTBEGIN
1070
    73
1070
     1
1070
    44
1040
1.0
1070
    74
1070
     0
1000
MTEXTEND
  0
MTEXT
  5
15AEB
330
15AB6
100
AcDbEntity
  8
0
 62
     1
100
AcDbMText
 10
214.8544231156891
 20
-262.8294794084584
 30
0.0
 40
3.999998907104123
 41
0.0
 71
     1
 72
     5
  1
{\fISOCPEUR|b0|i0|c0|p34;\W1;Portescap}
  7
SLDTEXTSTYLE0
 73
     1
 44
1.0
1001
ACDBBLOCKREPETAG
1070
     1
1071
       65
1005
0
1001
ACAD
1000
MTEXTBEGIN
1070
    73
1070
     1
1070
    44
1040
1.0
1070
    74
1070
     0
1000
MTEXTEND
  0
LINE
  5
15AEC
330
15AB6
100
AcDbEntity
  8
0
  6
Continuous
 62
   255
100
AcDbLine
 10
110.0000437319843
 20
-257.5000053278675
 30
0.0
 11
110.0000437319845
 21
-277.0
 31
0.0
1001
ACDBBLOCKREPETAG
1070
     1
1071
       66
1005
0
  0
MTEXT
  5
15AED
330
15AB6
100
AcDbEntity
  8
0
 62
   255
100
AcDbMText
 10
167.3053807416859
 20
-272.4579818509886
 30
0.0
 40
1.999999453552061
 41
0.0
 71
     1
 72
     5
  1
Checked
 73
     1
 44
1.0
1001
ACDBBLOCKREPETAG
1070
     1
1071
       67
1005
0
1001
ACAD
1000
MTEXTBEGIN
1070
    73
1070
     1
1070
    44
1040
1.0
1070
    74
1070
     0
1000
MTEXTEND
  0
LINE
  5
15AEE
330
15AB6
100
AcDbEntity
  8
0
  6
Continuous
 62
   255
100
AcDbLine
 10
374.7426216005465
 20
-262.0000040983596
 30
0.0
 11
374.7426216005463
 21
-277.0
 31
0.0
1001
ACDBBLOCKREPETAG
1070
     1
1071
        5
1005
0
  0
MTEXT
  5
15AEF
330
15AB6
100
AcDbEntity
  8
0
 62
   255
100
AcDbMText
 10
376.1389629657327
 20
-264.9195248175762
 30
0.0
 40
4.508695652173911
 41
0.0
 71
     1
 72
     5
  1
{\fISOCPEUR|b0|i0|c0|p34;\W1;00}
  7
SLDTEXTSTYLE0
 73
     1
 44
1.0
1001
ACDBBLOCKREPETAG
1070
     1
1071
       50
1005
0
1001
ACAD
1000
MTEXTBEGIN
1070
    73
1070
     1
1070
    44
1040
1.0
1070
    74
1070
     0
1000
MTEXTEND
  0
TEXT
  5
15AF0
330
15AB6
100
AcDbEntity
  8
0
  6
Continuous
 62
   255
100
AcDbText
 10
377.1554068563314
 20
-275.600626952933
 30
0.0
 40
1.72391304347826
  1
Sheet 1 of 1
100
AcDbText
1001
ACDBBLOCKREPETAG
1070
     1
1071
       51
1005
0
  0
INSERT
  5
15AF1
330
15AB6
100
AcDbEntity
  8
0
 62
   255
100
AcDbBlockReference
  2
A$C08716F59
 10
27.00001640958681
 20
-257.5000053278673
 30
0.0
  0
LINE
  5
15AF2
330
15AB6
100
AcDbEntity
  8
0
  6
Continuous
 62
   255
100
AcDbLine
 10
245.0000068467473
 20
-269.0000021857919
 30
0.0
 11
210.000016409587
 21
-269.0000021857919
 31
0.0
1001
ACDBBLOCKREPETAG
1070
     1
1071
       38
1005
0
  0
TEXT
  5
15AF3
330
15AB6
100
AcDbEntity
  8
0
  6
Continuous
 62
   255
100
AcDbText
 10
213.5367887974839
 20
-271.7908875797558
 30
0.0
 40
1.72391304347826
  1
PI/R&D/F/18 Rev 00
100
AcDbText
1001
ACDBBLOCKREPETAG
1070
     1
1071
       51
1005
0
  0
MTEXT
  5
15AF4
330
15AB6
100
AcDbEntity
  8
0
  6
Continuous
 62
   255
100
AcDbMText
 10
211.8594586296933
 20
-254.9213169641921
 30
0.0
 40
2.499999316940076
 41
122.5201940634145
 71
     7
 72
     1
  1
All dimensions and tolerances are in mm unless & otherwise specified.
  7
style1
 73
     1
 44
1.0
1001
ACDBBLOCKREPETAG
1070
     1
1071
       64
1005
0
1001
ACAD
1000
MTEXTBEGIN
1070
    73
1070
     1
1070
    44
1040
1.0
1070
    74
1070
     0
1000
MTEXTEND
  0
LINE
  5
15AF5
330
15AB6
100
AcDbEntity
  8
0
  6
Continuous
 62
   255
100
AcDbLine
 10
210.000016409587
 20
-262.0008059763035
 30
0.0
 11
257.6666700525782
 21
-262.0008059763035
 31
0.0
1001
ACDBBLOCKREPETAG
1070
     1
1071
        3
1005
0
  0
LINE
  5
15AF6
330
15AB6
100
AcDbEntity
  8
0
  6
Continuous
 62
   255
100
AcDbLine
 10
210.000016409587
 20
-250.0008059763035
 30
0.0
 11
392.9999664096001
 21
-250.0008059763035
 31
0.0
1001
ACDBBLOCKREPETAG
1070
     1
1071
        3
1005
0
  0
LINE
  5
15AF7
330
15AB6
100
AcDbEntity
  8
0
  6
Continuous
 62
   255
100
AcDbLine
 10
210.000016409587
 20
-256.0008059763035
 30
0.0
 11
352.9999773385601
 21
-256.0008059763033
 31
0.0
1001
ACDBBLOCKREPETAG
1070
     1
1071
        3
1005
0
  0
ENDBLK
  5
15AF8
330
15AB6
100
AcDbEntity
  8
0
100
AcDbBlockEnd
  0
BLOCK
  5
15AFA
330
15AF9
100
AcDbEntity
  8
0
 62
   255
100
AcDbBlockBegin
  2
_Dot
 70
     0
 10
0.0
 20
0.0
 30
0.0
  3
_Dot
  1

  0
LWPOLYLINE
  5
15AFB
330
15AF9
100
AcDbEntity
  8
0
  6
ByBlock
 62
     0
100
AcDbPolyline
 90
        2
 70
     1
 43
0.5
 10
-0.25
 20
0.0
 42
1.0
 10
0.25
 20
0.0
 42
1.0
  0
LINE
  5
15AFC
330
15AF9
100
AcDbEntity
  8
0
  6
ByBlock
 62
     0
370
    -2
100
AcDbLine
 10
-0.5
 20
0.0
 30
0.0
 11
-1.0
 21
0.0
 31
0.0
  0
ENDBLK
  5
15AFD
330
15AF9
100
AcDbEntity
  8
0
 62
   255
100
AcDbBlockEnd
  0
BLOCK
  5
15B01
330
15AFE
100
AcDbEntity
  8
0
 62
     1
100
AcDbBlockBegin
  2
A$C53560A2D
 70
     0
 10
0.0
 20
0.0
 30
0.0
  3
A$C53560A2D
  1

  0
HATCH
  5
15B02
330
15AFE
100
AcDbEntity
  8
0
 62
     1
100
AcDbHatch
 10
0.0
 20
0.0
 30
0.0
210
0.0
220
0.0
230
1.0
  2
SOLID
 70
     1
 71
     0
 91
        1
 92
        7
 72
     0
 73
     1
 93
        8
 10
10.40639350736074
 20
-3.429580398453508
 10
9.8090548631219
 20
-3.429580398453494
 10
10.52161847102905
 20
-4.262224049876549
 10
9.562357823425486
 20
-5.017847907603865
 10
-0.1711005509629331
 20
-5.017847907603836
 10
-0.2076899027981653
 20
-5.086662246294196
 10
10.08230402145517
 20
-5.08666224629421
 10
11.12297052199432
 20
-4.266913789282654
 97
        0
 75
     0
 76
     1
 47
0.0237982239116982
 98
        1
 10
10.7687455105808
 20
-4.08916775948434
1001
ACAD
1010
0.0
1020
0.0
1030
0.0
  0
HATCH
  5
15B03
330
15AFE
100
AcDbEntity
  8
0
 62
     3
100
AcDbHatch
 10
0.0
 20
0.0
 30
0.0
210
0.0
220
0.0
230
1.0
  2
SOLID
 70
     1
 71
     0
 91
       11
 92
        7
 72
     0
 73
     1
 93
        7
 10
1.491379020905242
 20
-2.772946682047759
 10
0.995217842298814
 20
-2.772946682047745
 10
-0.0788238170088675
 20
-4.792918690406422
 10
0.3668365951625674
 20
-4.792918690406408
 10
1.182574505556942
 20
-3.200386665146865
 10
1.390757209580953
 20
-4.792918690406394
 10
1.800184269306669
 20
-4.792918690406422
 97
        0
 92
        7
 72
     1
 73
     1
 93
       17
 10
3.143752721671431
 20
-3.446258598447029
 42
0.0
 10
2.816525880617575
 20
-3.446258598447073
 42
0.0
 10
2.903841276975811
 20
-3.028130514204149
 42
0.0
 10
2.485710676876634
 20
-3.168648538737229
 42
0.0
 10
2.427738889498414
 20
-3.446258598447029
 42
0.0
 10
2.156102845410656
 20
-3.446258598447029
 42
0.0
 10
2.108120116639496
 20
-3.699877260551375
 42
0.0
 10
2.374777094201759
 20
-3.699877260551375
 42
0.0
 10
2.197341484950982
 20
-4.54956488114216
 42
0.2314303255157967
 10
2.229132535142695
 20
-4.737573879785599
 42
0.2425677700453667
 10
2.562303738103139
 20
-4.840349188736823
 42
0.0
 10
2.853955581357978
 20
-4.793092213000163
 42
0.0
 10
2.904529503834567
 20
-4.550908380596793
 42
0.0
 10
2.695000291198482
 20
-4.550908380596808
 42
-0.4760549668863254
 10
2.615472085050156
 20
-4.409046856609066
 42
0.0
 10
2.763564085320922
 20
-3.699877260551402
 42
0.0
 10
3.095769992900442
 20
-3.699877260551402
 42
0.0
 97
        0
 92
        7
 72
     1
 73
     1
 93
       15
 10
3.902783104379238
 20
-3.703880319999356
 42
-0.2432435292258966
 10
4.160581046600099
 20
-3.728705991916442
 42
-0.2718544080322752
 10
4.214411423471688
 20
-3.906094591215776
 42
0.0
 10
4.02511501860107
 20
-4.8125801186696
 42
0.0
 10
4.425338595686183
 20
-4.812580118669615
 42
0.0
 10
4.618640162861423
 20
-3.843814600173103
 42
0.1442413094369809
 10
4.566882367577646
 20
-3.577394862249788
 42
0.1968270941560047
 10
4.312159611171806
 20
-3.438006898026016
 42
0.1671955009294615
 10
3.972511122600565
 20
-3.482973954396257
 42
0.0984224330473735
 10
3.770569059989042
 20
-3.640211074021848
 42
0.0
 10
3.934493518721126
 20
-2.855224430784346
 42
0.0
 10
3.538191043081439
 20
-2.855224430784359
 42
0.0
 10
3.129447181708882
 20
-4.812580118669629
 42
0.0
 10
3.525749657348569
 20
-4.812580118669629
 42
0.0
 10
3.717837455778577
 20
-3.892727417841853
 42
-0.1681505465182262
 97
        0
 92
        7
 72
     0
 73
     1
 93
        4
 10
5.609672511040399
 20
-2.855224430784303
 10
5.213370035400828
 20
-2.855224430784332
 10
4.804626174028157
 20
-4.8125801186696
 10
5.200928649667843
 20
-4.812580118669572
 97
        0
 92
        7
 72
     1
 73
     1
 93
       11
 10
6.952147240856731
 20
-3.566721980052093
 42
0.2003410362329726
 10
6.566896274917382
 20
-3.394380580118323
 42
0.1459636918781203
 10
6.221479418630623
 20
-3.437237506523857
 42
0.1329827864341785
 10
5.809957292924592
 20
-3.742009934847046
 42
0.1181218657170001
 10
5.613713825998559
 20
-4.246632228047602
 42
0.1453361361738481
 10
5.69221135937954
 20
-4.650330645507111
 42
0.1097723388638702
 10
5.927703226469532
 20
-4.840965604516455
 42
0.0801939741507773
 10
6.283139453583146
 20
-4.8800657463362
 42
0.1155273130323037
 10
6.714757499090807
 20
-4.716668932821008
 42
0.1356436716811775
 10
6.998631608933407
 20
-4.369984603229582
 42
0.1011385320105559
 10
7.1130128283948
 20
-3.973673703014938
 42
0.236317674944661
 97
        0
 92
       22
 72
     1
 73
     1
 93
       10
 10
6.677527194323886
 20
-4.138839615245061
 42
-0.0759023682782946
 10
6.566982042139159
 20
-4.423877995135413
 42
-0.2200816587143609
 10
6.300965840747893
 20
-4.599996581122823
 42
-0.1552209024106451
 10
6.095458780820705
 20
-4.534235363900407
 42
-0.2297088204471921
 10
6.01924221029344
 20
-4.338318807139089
 42
-0.0336344069359854
 10
6.058402942709959
 20
-4.066696381694796
 42
-0.0476503727704049
 10
6.143663624704514
 20
-3.862071844709261
 42
-0.1164757194866423
 10
6.339107330614125
 20
-3.691551275783935
 42
-0.2102767852864467
 10
6.596864975328571
 20
-3.697069810236698
 42
-0.1775077200810246
 10
6.697202341601665
 20
-3.873877008374406
 42
-0.1210907755229007
 97
        0
 92
        7
 72
     1
 73
     1
 93
       15
 10
7.838830780765817
 20
-3.892727417841783
 42
-0.1681505465179636
 10
8.02377642936608
 20
-3.703880319999441
 42
-0.2432435292261799
 10
8.281574371587225
 20
-3.72870599191637
 42
-0.2718544080325296
 10
8.335404748458811
 20
-3.906094591215861
 42
0.0
 10
8.146108343588196
 20
-4.812580118669559
 42
0.0
 10
8.546331920673251
 20
-4.812580118669585
 42
0.0
 10
8.739633487848607
 20
-3.843814600173075
 42
0.1869559109727573
 10
8.708571975710412
 20
-3.55414738959827
 42
0.2282764169136722
 10
8.434241485182552
 20
-3.416409065064058
 42
0.1548211452724478
 10
8.093504447587747
 20
-3.482973954396228
 42
0.0984224330473456
 10
7.891562384976282
 20
-3.640211074021777
 42
0.0
 10
7.935547234632507
 20
-3.429580398453508
 42
0.0
 10
7.539244758992822
 20
-3.429580398453508
 42
0.0
 10
7.250440506696121
 20
-4.812580118669559
 42
0.0
 10
7.646742982335753
 20
-4.812580118669572
 42
0.0
 97
        0
 92
        7
 72
     0
 73
     1
 93
        4
 10
9.625982522468632
 20
-3.429580398453524
 10
9.229680046829004
 20
-3.429580398453508
 10
8.940875794532303
 20
-4.812580118669559
 10
9.337178270172046
 20
-4.8125801186696
 97
        0
 92
        7
 72
     0
 73
     1
 93
        4
 10
9.745922131544659
 20
-2.855224430784318
 10
9.34961965590503
 20
-2.855224430784332
 10
9.27698869286246
 20
-3.203033026980861
 10
9.673291168502146
 20
-3.203033026980861
 97
        0
 92
        7
 72
     0
 73
     1
 93
        4
 10
12.03240295060681
 20
-3.429580398453508
 10
11.44364835907379
 20
-3.429580398453494
 10
10.87989922911413
 20
-3.888285852559178
 10
11.10949294143216
 20
-4.156570318460707
 97
        0
 92
        7
 72
     0
 73
     1
 93
        4
 10
11.05743489431273
 20
-4.407247884316163
 10
10.70348876138359
 20
-4.686056509542011
 10
11.02721331439767
 20
-5.064334590103313
 10
11.61975957304332
 20
-5.064334590103271
 97
        0
 75
     0
 76
     1
 47
0.0237982239116982
 98
       11
 10
1.427474595215414
 20
-3.466921616530398
 10
2.540276924309465
 20
-3.529962242013326
 10
3.403077140388461
 20
-3.872105201460513
 10
5.128677572546563
 20
-4.050614633904856
 10
6.869154243317836
 20
-3.872105201460513
 10
6.869154243317836
 20
-3.872105201460513
 10
7.657574707896684
 20
-4.184496350024359
 10
9.221850949254132
 20
-4.184360945182801
 10
9.578826617252671
 20
-3.161037064634811
 10
11.41130113635171
 20
-3.803588918816571
 10
11.19711616802232
 20
-4.874509392213795
1001
ACAD
1010
0.0
1020
0.0
1030
0.0
  0
ENDBLK
  5
15B04
330
15AFE
100
AcDbEntity
  8
0
 62
     1
100
AcDbBlockEnd
  0
BLOCK
  5
15B08
330
15B05
100
AcDbEntity
  8
0
 62
     1
100
AcDbBlockBegin
  2
A$C25042B23
 70
     0
 10
0.0
 20
0.0
 30
0.0
  3
A$C25042B23
  1

  0
INSERT
  5
15B09
330
15B05
100
AcDbEntity
  8
0
 62
     1
100
AcDbBlockReference
  2
A$C53560A2D
 10
0.0000000000001137
 20
0.0
 30
0.0
  0
ENDBLK
  5
15B0A
330
15B05
100
AcDbEntity
  8
0
 62
     1
100
AcDbBlockEnd
  0
BLOCK
  5
15B0C
330
15B0B
100
AcDbEntity
  8
0
100
AcDbBlockBegin
  2
_FILLED
 70
     0
 10
0.0
 20
0.0
 30
0.0
  3
_FILLED
  1

  0
SOLID
  5
15B0D
330
15B0B
100
AcDbEntity
  8
0
  6
ByBlock
 62
     0
100
AcDbTrace
 10
0.0
 20
0.0
 30
0.0
 11
-1.0
 21
0.1875
 31
0.0
 12
-1.0
 22
-0.1875
 32
0.0
 13
-1.0
 23
-0.1875
 33
0.0
  0
ENDBLK
  5
15B0E
330
15B0B
100
AcDbEntity
  8
0
  6
ByBlock
 62
     0
100
AcDbBlockEnd
  0
BLOCK
  5
15B10
330
15B0F
100
AcDbEntity
  8
0
100
AcDbBlockBegin
  2
*D35
 70
     1
 10
0.0
 20
0.0
 30
0.0
  3
*D35
  1

  0
LINE
  5
15B11
330
15B0F
100
AcDbEntity
  8
0
  6
Continuous
 62
     0
370
    -2
100
AcDbLine
 10
1802.555021500383
 20
-480.9336425058048
 30
0.0
 11
1802.555021500383
 21
-488.3557146914713
 31
0.0
  0
LINE
  5
15B12
330
15B0F
100
AcDbEntity
  8
0
  6
Continuous
 62
     0
370
    -2
100
AcDbLine
 10
1847.055021181983
 20
-481.2336410539381
 30
0.0
 11
1847.055021181983
 21
-488.3557146914713
 31
0.0
  0
LINE
  5
15B13
330
15B0F
100
AcDbEntity
  8
0
  6
Continuous
 62
     0
370
    -2
100
AcDbLine
 10
1806.555021500383
 20
-488.1757146914714
 30
0.0
 11
1843.055021181983
 21
-488.1757146914714
 31
0.0
  0
INSERT
  5
15B14
330
15B0F
100
AcDbEntity
  8
0
  6
Continuous
 62
     0
370
    -2
100
AcDbBlockReference
  2
_FILLED
 10
1802.555021500383
 20
-488.1757146914714
 30
0.0
 41
4.0
 42
4.0
 43
4.0
 50
180.0
  0
INSERT
  5
15B15
330
15B0F
100
AcDbEntity
  8
0
  6
Continuous
 62
     0
370
    -2
100
AcDbBlockReference
  2
_FILLED
 10
1847.055021181983
 20
-488.1757146914714
 30
0.0
 41
4.0
 42
4.0
 43
4.0
  0
MTEXT
  5
15B16
330
15B0F
100
AcDbEntity
  8
0
  6
Continuous
 62
     5
100
AcDbMText
 10
1824.805021341183
 20
-486.6857146914713
 30
0.0
 40
2.799999999999998
 41
0.0
 71
     5
 72
     1
  1
\A1;29.67±0.3
 73
     1
 44
1.0
1001
ACAD
1000
MTEXTBEGIN
1070
    73
1070
     1
1070
    44
1040
1.0
1070
    74
1070
     0
1000
MTEXTEND
  0
POINT
  5
15B17
330
15B0F
100
AcDbEntity
  8
DEFPOINTS
  6
Continuous
 62
     0
100
AcDbPoint
 10
1802.555021500383
 20
-480.8711425058048
 30
0.0
  0
POINT
  5
15B18
330
15B0F
100
AcDbEntity
  8
DEFPOINTS
  6
Continuous
 62
     0
100
AcDbPoint
 10
1847.055021181983
 20
-481.1711410539381
 30
0.0
  0
POINT
  5
15B19
330
15B0F
100
AcDbEntity
  8
DEFPOINTS
  6
Continuous
 62
     0
100
AcDbPoint
 10
1847.055021181983
 20
-488.1757146914714
 30
0.0
  0
ENDBLK
  5
15B1A
330
15B0F
100
AcDbEntity
  8
0
100
AcDbBlockEnd
  0
BLOCK
  5
15B1E
330
15B1B
100
AcDbEntity
  8
0
100
AcDbBlockBegin
  2
A$C274A2516
 70
     0
 10
0.0
 20
0.0
 30
0.0
  3
A$C274A2516
  1

  0
DIMENSION
  5
15B1F
330
15B1B
100
AcDbEntity
  8
0
  6
Continuous
 62
     2
100
AcDbDimension
  2
*D35
 10
49.41318594722496
 20
1.185548929283584
 30
0.0
 11
27.1631861064252
 21
1.185548929283584
 31
0.0
 12
-1797.641835234758
 22
489.3612636207549
 32
0.0
 70
   128
 71
     0
 72
     0
 41
0.0
 42
29.66666645588333
  3
DIMSTYLE_8
100
AcDbAlignedDimension
 13
4.913186265624971
 23
8.490121114950227
 33
0.0
 14
49.41318594722496
 24
8.19012256681691
 34
0.0
100
AcDbRotatedDimension
  0
LINE
  5
15B20
330
15B1B
100
AcDbEntity
  8
0
  6
Continuous
 62
     7
100
AcDbLine
 10
4.913186265624971
 20
30.62336891321689
 30
0.0
 11
4.913186265624971
 21
9.023539983350245
 31
0.0
  0
LINE
  5
15B21
330
15B1B
100
AcDbEntity
  8
0
  6
Continuous
 62
     7
100
AcDbLine
 10
5.113185485291523
 20
30.82345444728361
 30
0.0
 11
5.113185485291523
 21
8.823454449283588
 31
0.0
  0
LINE
  5
15B22
330
15B1B
100
AcDbEntity
  8
0
  6
Continuous
 62
     7
100
AcDbLine
 10
4.913187226958598
 20
30.62345408315025
 30
0.0
 11
5.113186634958309
 21
30.82345346661691
 31
0.0
  0
LINE
  5
15B23
330
15B1B
100
AcDbEntity
  8
0
  6
Continuous
 62
     7
100
AcDbLine
 10
4.913187226958598
 20
9.023454813416947
 30
0.0
 11
5.113186634958309
 21
8.823455429950229
 31
0.0
  0
LWPOLYLINE
  5
15B24
330
15B1B
100
AcDbEntity
  8
0
  6
Continuous
 62
     7
100
AcDbPolyline
 90
        3
 70
     0
 43
0.0
 10
8.213186495558602
 20
10.47664903488356
 10
8.175811462891486
 20
10.67089466321692
 10
8.163188469091892
 20
10.85374136828358
  0
LINE
  5
15B25
330
15B1B
100
AcDbEntity
  8
0
  6
Continuous
 62
     7
100
AcDbLine
 10
7.713187482491775
 20
30.82345444728361
 30
0.0
 11
7.713187482491775
 21
8.823454449283588
 31
0.0
  0
LINE
  5
15B26
330
15B1B
100
AcDbEntity
  8
0
  6
Continuous
 62
     7
100
AcDbLine
 10
7.913186265624972
 20
30.62337005035028
 30
0.0
 11
7.913186265624972
 21
9.023538846216922
 31
0.0
  0
LINE
  5
15B27
330
15B1B
100
AcDbEntity
  8
0
  6
Continuous
 62
     7
100
AcDbLine
 10
8.213190692692021
 20
8.823454448283596
 30
0.0
 11
8.213188470958357
 21
10.47664542421694
 31
0.0
  0
LINE
  5
15B28
330
15B1B
100
AcDbEntity
  8
0
  6
Continuous
 62
     7
100
AcDbLine
 10
8.213188475758668
 20
29.17026347688358
 30
0.0
 11
8.213190692692021
 21
30.8234544482836
 31
0.0
  0
LINE
  5
15B29
330
15B1B
100
AcDbEntity
  8
0
  6
Continuous
 62
     7
100
AcDbLine
 10
8.213188774424907
 20
11.17667091475027
 30
0.0
 11
8.213186622558621
 21
28.47024295441696
 31
0.0
  0
LINE
  5
15B2A
330
15B1B
100
AcDbEntity
  8
0
  6
Continuous
 62
     7
100
AcDbLine
 10
9.163186265624972
 20
28.92428466195026
 30
0.0
 11
9.163186265624972
 21
28.58013880015028
 31
0.0
  0
LINE
  5
15B2B
330
15B1B
100
AcDbEntity
  8
0
  6
Continuous
 62
     7
100
AcDbLine
 10
9.163186265624972
 20
11.06677009641692
 30
0.0
 11
9.163186265624972
 21
10.72262423461694
 31
0.0
  0
LINE
  5
15B2C
330
15B1B
100
AcDbEntity
  8
0
  6
Continuous
 62
     7
100
AcDbLine
 10
10.11318626562524
 20
29.46918227648359
 30
0.0
 11
10.11318626562524
 21
28.6785390486836
 31
0.0
  0
LINE
  5
15B2D
330
15B1B
100
AcDbEntity
  8
0
  6
Continuous
 62
     7
100
AcDbLine
 10
10.11318626562524
 20
28.58013880015028
 30
0.0
 11
10.11318626562524
 21
28.03524118561695
 31
0.0
  0
LINE
  5
15B2E
330
15B1B
100
AcDbEntity
  8
0
  6
Continuous
 62
     7
100
AcDbLine
 10
10.11318626562524
 20
11.61166771095025
 30
0.0
 11
10.11318626562524
 21
11.06677009641692
 31
0.0
  0
LINE
  5
15B2F
330
15B1B
100
AcDbEntity
  8
0
  6
Continuous
 62
     7
100
AcDbLine
 10
10.11318626562524
 20
10.1777266200836
 30
0.0
 11
10.11318626562524
 21
10.96836984788359
 31
0.0
  0
LINE
  5
15B30
330
15B1B
100
AcDbEntity
  8
0
  6
Continuous
 62
     7
100
AcDbLine
 10
10.71318626562515
 20
10.1777266200836
 30
0.0
 11
10.71318626562515
 21
10.96836984788359
 31
0.0
  0
LINE
  5
15B31
330
15B1B
100
AcDbEntity
  8
0
  6
Continuous
 62
     7
100
AcDbLine
 10
10.71318626562515
 20
11.06677009641692
 30
0.0
 11
10.71318626562515
 21
11.61166771095025
 31
0.0
  0
LINE
  5
15B32
330
15B1B
100
AcDbEntity
  8
0
  6
Continuous
 62
     7
100
AcDbLine
 10
10.71318626562515
 20
28.03524118561695
 30
0.0
 11
10.71318626562515
 21
28.58013880015028
 31
0.0
  0
LINE
  5
15B33
330
15B1B
100
AcDbEntity
  8
0
  6
Continuous
 62
     7
100
AcDbLine
 10
10.71318626562515
 20
28.6785390486836
 30
0.0
 11
10.71318626562515
 21
29.46918227648359
 31
0.0
  0
LWPOLYLINE
  5
15B34
330
15B1B
100
AcDbEntity
  8
0
  6
Continuous
 62
     7
100
AcDbPolyline
 90
        3
 70
     0
 43
0.0
 10
8.163188469091892
 20
28.79316752828362
 10
8.17583730295837
 20
28.9762081701503
 10
8.213186495224816
 20
29.17025986061691
  0
LWPOLYLINE
  5
15B35
330
15B1B
100
AcDbEntity
  8
0
  6
Continuous
 62
     7
100
AcDbPolyline
 90
        3
 70
     0
 43
0.0
 10
8.163188469091892
 20
10.85374136828358
 10
8.175650471758217
 20
11.02190699701691
 10
8.213186521692021
 20
11.17666580955023
  0
LWPOLYLINE
  5
15B36
330
15B1B
100
AcDbEntity
  8
0
  6
Continuous
 62
     7
100
AcDbPolyline
 90
        4
 70
     0
 43
0.0
 10
8.213188475758668
 20
29.17026347688358
 10
8.377277491491895
 20
29.35729460461693
 10
8.610037768691652
 20
29.51662803501694
 10
8.764919697225195
 20
29.58531678115026
  0
LINE
  5
15B37
330
15B1B
100
AcDbEntity
  8
0
  6
Continuous
 62
     7
100
AcDbLine
 10
7.913186265624972
 20
30.52345381181692
 30
0.0
 11
8.213190692692021
 21
30.82345822101689
 31
0.0
  0
LINE
  5
15B38
330
15B1B
100
AcDbEntity
  8
0
  6
Continuous
 62
     7
100
AcDbLine
 10
7.913186265624972
 20
9.123458754616931
 30
0.0
 11
8.213190692692021
 21
8.823454448283596
 31
0.0
  0
LWPOLYLINE
  5
15B39
330
15B1B
100
AcDbEntity
  8
0
  6
Continuous
 62
     7
100
AcDbPolyline
 90
        3
 70
     0
 43
0.0
 10
8.213186301024961
 20
28.4702436676169
 10
8.175676291091804
 20
28.62482283895025
 10
8.163188469091892
 20
28.79316752828362
  0
LINE
  5
15B3A
330
15B1B
100
AcDbEntity
  8
0
  6
Continuous
 62
     7
100
AcDbLine
 10
11.66318626562497
 20
10.72262423461694
 30
0.0
 11
11.66318626562497
 21
11.06677009641692
 31
0.0
  0
LINE
  5
15B3B
330
15B1B
100
AcDbEntity
  8
0
  6
Continuous
 62
     7
100
AcDbLine
 10
11.66318626562497
 20
28.58013880015028
 30
0.0
 11
11.66318626562497
 21
28.92428466195026
 31
0.0
  0
LWPOLYLINE
  5
15B3C
330
15B1B
100
AcDbEntity
  8
0
  6
Continuous
 62
     7
100
AcDbPolyline
 90
        6
 70
     0
 43
0.0
 10
12.71318626562515
 20
10.8127819610836
 10
12.67443109789155
 20
10.5988917218836
 10
12.5559666740919
 20
10.39820804301695
 10
12.36716347122501
 20
10.22491104148361
 10
12.12976482955855
 20
10.08585990861689
 10
12.05166921982481
 20
10.05490441075022
  0
LWPOLYLINE
  5
15B3D
330
15B1B
100
AcDbEntity
  8
0
  6
Continuous
 62
     7
100
AcDbPolyline
 90
        4
 70
     0
 43
0.0
 10
12.71318626562515
 20
28.8341269354836
 10
12.66649113462517
 20
28.58702137181694
 10
12.53107403609192
 20
28.3411981496169
 10
12.31666526162507
 20
28.10848064181693
  0
LINE
  5
15B3E
330
15B1B
100
AcDbEntity
  8
0
  6
Continuous
 62
     7
100
AcDbLine
 10
12.31666526162507
 20
28.10848064181693
 30
0.0
 11
12.03189305542537
 21
27.89767473495027
 31
0.0
  0
LWPOLYLINE
  5
15B3F
330
15B1B
100
AcDbEntity
  8
0
  6
Continuous
 62
     7
100
AcDbPolyline
 90
       21
 70
     0
 43
0.0
 10
12.01340827709191
 20
27.88626525815022
 10
12.17785728969193
 20
27.99867631768359
 10
12.31844215395858
 20
28.1212776510169
 10
12.43326170075852
 20
28.25241128548356
 10
12.52076319275829
 20
28.39030386348355
 10
12.57976332229191
 20
28.53309062461693
 10
12.60946421382505
 20
28.67884062275022
 10
12.60946421382505
 20
28.82558283928359
 10
12.57976332229191
 20
28.97133283748355
 10
12.52076319275829
 20
29.1141195985503
 10
12.43326170075852
 20
29.25201217661692
 10
12.31844215395858
 20
29.3831458110169
 10
12.17785728969193
 20
29.50574714435021
 10
12.01340827709191
 20
29.61815820388358
 10
11.82731900695853
 20
29.71885882295027
 10
11.62210601735842
 20
29.80648719828361
 10
11.40054446209205
 20
29.87985830655026
 10
11.16563058095835
 20
29.93797992935026
 10
10.92054118129181
 20
29.98006607141696
 10
10.66859067669202
 20
30.00554758995026
 10
10.41318626562497
 20
30.01407989101693
  0
LINE
  5
15B40
330
15B1B
100
AcDbEntity
  8
0
  6
Continuous
 62
     7
100
AcDbLine
 10
12.03189305542537
 20
27.89767473495027
 30
0.0
 11
11.97977812602539
 21
27.86622437968361
 31
0.0
  0
LINE
  5
15B41
330
15B1B
100
AcDbEntity
  8
0
  6
Continuous
 62
     7
100
AcDbLine
 10
11.98388822782499
 20
27.86866520768359
 30
0.0
 11
12.01340827709191
 21
27.88626525815022
 31
0.0
  0
LWPOLYLINE
  5
15B42
330
15B1B
100
AcDbEntity
  8
0
  6
Continuous
 62
     7
100
AcDbPolyline
 90
        4
 70
     0
 43
0.0
 10
8.769914140758372
 20
10.05817810475025
 10
8.601865428958717
 20
10.13479476535025
 10
8.377584375958576
 20
10.28934797315026
 10
8.213188470958357
 20
10.47664542421694
  0
LINE
  5
15B43
330
15B1B
100
AcDbEntity
  8
0
  6
Continuous
 62
     7
100
AcDbLine
 10
11.98388822782499
 20
11.7782436888836
 30
0.0
 11
11.82731900695853
 21
11.86134425741693
 31
0.0
  0
LINE
  5
15B44
330
15B1B
100
AcDbEntity
  8
0
  6
Continuous
 62
     7
100
AcDbLine
 10
12.01340827709191
 20
11.76064363841692
 30
0.0
 11
11.98388822782499
 21
11.7782436888836
 31
0.0
  0
LINE
  5
15B45
330
15B1B
100
AcDbEntity
  8
0
  6
Continuous
 62
     7
100
AcDbLine
 10
11.98019621955836
 20
11.78028050148356
 30
0.0
 11
12.0739060570254
 21
11.72254413188358
 31
0.0
  0
LWPOLYLINE
  5
15B46
330
15B1B
100
AcDbEntity
  8
0
  6
Continuous
 62
     7
100
AcDbPolyline
 90
        5
 70
     0
 43
0.0
 10
12.0739060570254
 20
11.72254413188358
 10
12.34085617735855
 20
11.51650455168357
 10
12.53970442229183
 20
11.29378797568358
 10
12.6674515269583
 20
11.05729195595023
 10
12.71318626562515
 20
10.8127819610836
  0
LWPOLYLINE
  5
15B47
330
15B1B
100
AcDbEntity
  8
0
  6
Continuous
 62
     7
100
AcDbPolyline
 90
        3
 70
     0
 43
0.0
 10
8.213188774424907
 20
11.17667091475027
 10
8.378099694958564
 20
11.40762558268358
 10
8.611091128691896
 20
11.62239074941692
  0
LINE
  5
15B48
330
15B1B
100
AcDbEntity
  8
0
  6
Continuous
 62
     7
100
AcDbLine
 10
11.82731900695853
 20
27.78556463915021
 30
0.0
 11
11.98388822782499
 21
27.86866520768359
 31
0.0
  0
LWPOLYLINE
  5
15B49
330
15B1B
100
AcDbEntity
  8
0
  6
Continuous
 62
     7
100
AcDbPolyline
 90
        8
 70
     0
 43
0.0
 10
11.97977812602539
 20
27.86622437968361
 10
11.68366860235846
 20
27.71753302475025
 10
11.26093544162495
 20
27.57328605748359
 10
10.77782911862505
 20
27.48484447441689
 10
10.27437961162513
 20
27.46812908748359
 10
9.778741541358158
 20
27.52504237128363
 10
9.329011910491772
 20
27.64532754215025
 10
8.951168479492025
 20
27.80833628295028
  0
LINE
  5
15B4A
330
15B1B
100
AcDbEntity
  8
0
  6
Continuous
 62
     7
100
AcDbLine
 10
11.62210601735842
 20
27.69793626375025
 30
0.0
 11
11.82731900695853
 21
27.78556463915021
 31
0.0
  0
LWPOLYLINE
  5
15B4B
330
15B1B
100
AcDbEntity
  8
0
  6
Continuous
 62
     7
100
AcDbPolyline
 90
        6
 70
     0
 43
0.0
 10
11.62210601735842
 20
11.94897263281694
 10
11.40054446209205
 20
12.0223437410836
 10
11.16563058095835
 20
12.0804653638836
 10
10.92054118129181
 20
12.12255150595024
 10
10.66859067669202
 20
12.14803302441692
 10
10.41318626562497
 20
12.1565653254836
  0
LINE
  5
15B4C
330
15B1B
100
AcDbEntity
  8
0
  6
Continuous
 62
     7
100
AcDbLine
 10
11.82731900695853
 20
11.86134425741693
 30
0.0
 11
11.62210601735842
 21
11.94897263281694
 31
0.0
  0
LINE
  5
15B4D
330
15B1B
100
AcDbEntity
  8
0
  6
Continuous
 62
     7
100
AcDbLine
 10
7.913185039758444
 20
9.023454759816956
 30
0.0
 11
7.713185951958166
 21
8.8234557004169
 31
0.0
  0
LWPOLYLINE
  5
15B4E
330
15B1B
100
AcDbEntity
  8
0
  6
Continuous
 62
     7
100
AcDbPolyline
 90
       21
 70
     0
 43
0.0
 10
41.41318626562497
 20
9.632829005550263
 10
41.66859067669202
 20
9.641361306616943
 10
41.92054118129179
 20
9.66684282515024
 10
42.16563058095835
 20
9.708928967216934
 10
42.40054446209206
 20
9.767050590016935
 10
42.62210601735842
 20
9.840421698283591
 10
42.82731900695853
 20
9.92805007361693
 10
43.0134082770919
 20
10.02875069268361
 10
43.17785728969193
 20
10.14116175221693
 10
43.31844215395857
 20
10.26376308555024
 10
43.43326170075852
 20
10.39489671995028
 10
43.5207631927583
 20
10.53278929801695
 10
43.57976332229191
 20
10.67557605908359
 10
43.60946421382504
 20
10.82132605728361
 10
43.60946421382504
 20
10.96806827381692
 10
43.57976332229191
 20
11.11381827195026
 10
43.5207631927583
 20
11.25660503308359
 10
43.43326170075852
 20
11.39449761108358
 10
43.31844215395857
 20
11.5256312455503
 10
43.17785728969193
 20
11.64823257888361
 10
43.0134082770919
 20
11.76064363841692
  0
LWPOLYLINE
  5
15B4F
330
15B1B
100
AcDbEntity
  8
0
  6
Continuous
 62
     7
100
AcDbPolyline
 90
       21
 70
     0
 43
0.0
 10
10.41318626562497
 20
9.632829005550263
 10
10.66859067669202
 20
9.641361306616943
 10
10.92054118129181
 20
9.66684282515024
 10
11.16563058095835
 20
9.708928967216934
 10
11.40054446209205
 20
9.767050590016935
 10
11.62210601735842
 20
9.840421698283591
 10
11.82731900695853
 20
9.92805007361693
 10
12.01340827709191
 20
10.02875069268361
 10
12.17785728969193
 20
10.14116175221693
 10
12.31844215395858
 20
10.26376308555024
 10
12.43326170075852
 20
10.39489671995028
 10
12.52076319275829
 20
10.53278929801695
 10
12.57976332229191
 20
10.67557605908359
 10
12.60946421382505
 20
10.82132605728361
 10
12.60946421382505
 20
10.96806827381692
 10
12.57976332229191
 20
11.11381827195026
 10
12.52076319275829
 20
11.25660503308359
 10
12.43326170075852
 20
11.39449761108358
 10
12.31844215395858
 20
11.5256312455503
 10
12.17785728969193
 20
11.64823257888361
 10
12.01340827709191
 20
11.76064363841692
  0
LINE
  5
15B50
330
15B1B
100
AcDbEntity
  8
02___PRT_ALL_AXES
  6
Continuous
 62
     7
100
AcDbLine
 10
49.21318626562515
 20
8.323454448283596
 30
0.0
 11
44.11318626562525
 21
8.323454448283596
 31
0.0
  0
LINE
  5
15B51
330
15B1B
100
AcDbEntity
  8
02___PRT_ALL_AXES
  6
Continuous
 62
     7
100
AcDbLine
 10
43.61319140775822
 20
8.823454448283596
 30
0.0
 11
8.213190692692021
 21
8.823454448283596
 31
0.0
  0
LINE
  5
15B52
330
15B1B
100
AcDbEntity
  8
02___PRT_ALL_AXES
  6
Continuous
 62
     7
100
AcDbLine
 10
5.113185653358414
 20
8.823454448283596
 30
0.0
 11
7.713187204091808
 21
8.823454448283596
 31
0.0
  0
LINE
  5
15B53
330
15B1B
100
AcDbEntity
  8
0
  6
Continuous
 62
     7
100
AcDbLine
 10
10.11318626562524
 20
10.1777266200836
 30
0.0
 11
10.71318626562515
 21
10.1777266200836
 31
0.0
  0
LINE
  5
15B54
330
15B1B
100
AcDbEntity
  8
0
  6
Continuous
 62
     7
100
AcDbLine
 10
41.11318626562524
 20
10.1777266200836
 30
0.0
 11
41.71318626562515
 21
10.1777266200836
 31
0.0
  0
LINE
  5
15B55
330
15B1B
100
AcDbEntity
  8
0
  6
Continuous
 62
     7
100
AcDbLine
 10
10.11318626562524
 20
10.42347223335025
 30
0.0
 11
10.71318626562515
 21
10.42347223335025
 31
0.0
  0
LINE
  5
15B56
330
15B1B
100
AcDbEntity
  8
0
  6
Continuous
 62
     7
100
AcDbLine
 10
41.11318626562524
 20
10.42347223335025
 30
0.0
 11
41.71318626562515
 21
10.42347223335025
 31
0.0
  0
LINE
  5
15B57
330
15B1B
100
AcDbEntity
  8
0
  6
Continuous
 62
     7
100
AcDbLine
 10
9.163186265624972
 20
10.72262423461694
 30
0.0
 11
10.11318626562524
 21
10.72262423461694
 31
0.0
  0
LINE
  5
15B58
330
15B1B
100
AcDbEntity
  8
0
  6
Continuous
 62
     7
100
AcDbLine
 10
10.71318626562515
 20
10.72262423461694
 30
0.0
 11
11.66318626562497
 21
10.72262423461694
 31
0.0
  0
LINE
  5
15B59
330
15B1B
100
AcDbEntity
  8
0
  6
Continuous
 62
     7
100
AcDbLine
 10
40.16318626562497
 20
10.72262423461694
 30
0.0
 11
41.11318626562524
 21
10.72262423461694
 31
0.0
  0
LINE
  5
15B5A
330
15B1B
100
AcDbEntity
  8
0
  6
Continuous
 62
     7
100
AcDbLine
 10
41.71318626562515
 20
10.72262423461694
 30
0.0
 11
42.66318626562497
 21
10.72262423461694
 31
0.0
  0
LINE
  5
15B5B
330
15B1B
100
AcDbEntity
  8
0
  6
Continuous
 62
     7
100
AcDbLine
 10
9.163186265624972
 20
10.96836984788359
 30
0.0
 11
10.11318626562524
 21
10.96836984788359
 31
0.0
  0
LINE
  5
15B5C
330
15B1B
100
AcDbEntity
  8
0
  6
Continuous
 62
     7
100
AcDbLine
 10
10.71318626562515
 20
10.96836984788359
 30
0.0
 11
11.66318626562497
 21
10.96836984788359
 31
0.0
  0
LINE
  5
15B5D
330
15B1B
100
AcDbEntity
  8
0
  6
Continuous
 62
     7
100
AcDbLine
 10
40.16318626562497
 20
10.96836984788359
 30
0.0
 11
41.11318626562524
 21
10.96836984788359
 31
0.0
  0
LINE
  5
15B5E
330
15B1B
100
AcDbEntity
  8
0
  6
Continuous
 62
     7
100
AcDbLine
 10
41.71318626562515
 20
10.96836984788359
 30
0.0
 11
42.66318626562497
 21
10.96836984788359
 31
0.0
  0
LINE
  5
15B5F
330
15B1B
100
AcDbEntity
  8
0
  6
Continuous
 62
     7
100
AcDbLine
 10
42.66318626562497
 20
11.06677009641692
 30
0.0
 11
41.71318626562515
 21
11.06677009641692
 31
0.0
  0
LINE
  5
15B60
330
15B1B
100
AcDbEntity
  8
0
  6
Continuous
 62
     7
100
AcDbLine
 10
41.11318626562524
 20
11.06677009641692
 30
0.0
 11
40.16318626562497
 21
11.06677009641692
 31
0.0
  0
LINE
  5
15B61
330
15B1B
100
AcDbEntity
  8
0
  6
Continuous
 62
     7
100
AcDbLine
 10
11.66318626562497
 20
11.06677009641692
 30
0.0
 11
10.71318626562515
 21
11.06677009641692
 31
0.0
  0
LINE
  5
15B62
330
15B1B
100
AcDbEntity
  8
0
  6
Continuous
 62
     7
100
AcDbLine
 10
10.11318626562524
 20
11.06677009641692
 30
0.0
 11
9.163186265624972
 21
11.06677009641692
 31
0.0
  0
LINE
  5
15B63
330
15B1B
100
AcDbEntity
  8
0
  6
Continuous
 62
     7
100
AcDbLine
 10
41.71318626562515
 20
11.61166771095025
 30
0.0
 11
41.11318626562524
 21
11.61166771095025
 31
0.0
  0
LINE
  5
15B64
330
15B1B
100
AcDbEntity
  8
0
  6
Continuous
 62
     7
100
AcDbLine
 10
10.71318626562515
 20
11.61166771095025
 30
0.0
 11
10.11318626562524
 21
11.61166771095025
 31
0.0
  0
LWPOLYLINE
  5
15B65
330
15B1B
100
AcDbEntity
  8
0
  6
Continuous
 62
     7
100
AcDbPolyline
 90
       21
 70
     0
 43
0.0
 10
10.41318626562497
 20
9.632829005550263
 10
10.15778185455838
 20
9.641361306616943
 10
9.905831350024982
 20
9.66684282515024
 10
9.660741950292047
 20
9.708928967216934
 10
9.42582806922519
 20
9.767050590016935
 10
9.20426651389198
 20
9.840421698283591
 10
8.999053524291866
 20
9.92805007361693
 10
8.812964254158488
 20
10.02875069268361
 10
8.648515241558468
 20
10.14116175221693
 10
8.507930377291813
 20
10.26376308555024
 10
8.393110830491878
 20
10.39489671995028
 10
8.305609338558497
 20
10.53278929801695
 10
8.246609209024882
 20
10.67557605908359
 10
8.21690831742535
 20
10.82132605728361
 10
8.21690831742535
 20
10.96806827381692
 10
8.246609209024882
 20
11.11381827195026
 10
8.305609338558497
 20
11.25660503308359
 10
8.393110830491878
 20
11.39449761108358
 10
8.507930377291813
 20
11.5256312455503
 10
8.648515241558468
 20
11.64823257888361
 10
8.812964254158488
 20
11.76064363841692
  0
LWPOLYLINE
  5
15B66
330
15B1B
100
AcDbEntity
  8
0
  6
Continuous
 62
     7
100
AcDbPolyline
 90
       10
 70
     0
 43
0.0
 10
41.41318626562497
 20
9.632829005550263
 10
41.15778185455837
 20
9.641361306616943
 10
40.90583135002497
 20
9.66684282515024
 10
40.66074195029204
 20
9.708928967216934
 10
40.42582806922519
 20
9.767050590016935
 10
40.20426651389198
 20
9.840421698283591
 10
39.99905352429187
 20
9.92805007361693
 10
39.8129642541585
 20
10.02875069268361
 10
39.64851524155847
 20
10.14116175221693
 10
39.50793037729182
 20
10.26376308555024
  0
LINE
  5
15B67
330
15B1B
100
AcDbEntity
  8
0
  6
Continuous
 62
     7
100
AcDbLine
 10
7.913185039758444
 20
30.62345413675024
 30
0.0
 11
7.713185951958166
 21
30.82345319615024
 31
0.0
  0
LINE
  5
15B68
330
15B1B
100
AcDbEntity
  8
0
  6
Continuous
 62
     7
100
AcDbLine
 10
8.611091128691896
 20
11.62239074941692
 30
0.0
 11
8.846855555958427
 21
11.78085906961695
 31
0.0
  0
LINE
  5
15B69
330
15B1B
100
AcDbEntity
  8
0
  6
Continuous
 62
     7
100
AcDbLine
 10
8.812964254158488
 20
11.76064363841692
 30
0.0
 11
8.842484303424953
 21
11.7782436888836
 31
0.0
  0
LWPOLYLINE
  5
15B6A
330
15B1B
100
AcDbEntity
  8
0
  6
Continuous
 62
     7
100
AcDbPolyline
 90
       10
 70
     0
 43
0.0
 10
8.846855555958427
 20
11.78085906961695
 10
8.909865266558425
 20
11.81646682221691
 10
9.268224909958462
 20
11.9796173426169
 10
9.669420999091926
 20
12.09903001928359
 10
10.09046133275842
 20
12.16631348475022
 10
10.51934873755863
 20
12.17995032475028
 10
10.94555498662521
 20
12.13972932795025
 10
11.35820502309161
 20
12.04646390721694
 10
11.74243219462505
 20
11.90343902028354
 10
11.98019621955836
 20
11.78028050148356
  0
LINE
  5
15B6B
330
15B1B
100
AcDbEntity
  8
0
  6
Continuous
 62
     7
100
AcDbLine
 10
42.40054446209206
 20
27.62456515548361
 30
0.0
 11
42.62210601735842
 21
27.69793626375025
 31
0.0
  0
LINE
  5
15B6C
330
15B1B
100
AcDbEntity
  8
02___PRT_ALL_AXES
  6
Continuous
 62
     7
100
AcDbLine
 10
59.21318626562515
 20
12.8234544482836
 30
0.0
 11
49.41318626562497
 21
12.8234544482836
 31
0.0
  0
LINE
  5
15B6D
330
15B1B
100
AcDbEntity
  8
0
  6
Continuous
 62
     7
100
AcDbLine
 10
75.81325582075852
 20
13.55505757315023
 30
0.0
 11
76.26410046122508
 21
13.55505757315023
 31
0.0
  0
LINE
  5
15B6E
330
15B1B
100
AcDbEntity
  8
02___PRT_ALL_AXES
  6
Continuous
 62
     7
100
AcDbLine
 10
62.71318626562515
 20
15.3234544482836
 30
0.0
 11
59.61318626562523
 21
15.3234544482836
 31
0.0
  0
LINE
  5
15B6F
330
15B1B
100
AcDbEntity
  8
02___PRT_ALL_AXES
  6
Continuous
 62
     7
100
AcDbLine
 10
64.84464883915871
 20
15.3234544482836
 30
0.0
 11
72.54464883915851
 21
15.3234544482836
 31
0.0
  0
LWPOLYLINE
  5
15B70
330
15B1B
100
AcDbEntity
  8
02___PRT_ALL_AXES
  6
Continuous
 62
     7
100
AcDbPolyline
 90
        6
 70
     0
 43
0.0
 10
39.77301669529197
 20
10.05605731708357
 10
39.64442661809199
 20
10.11192043455025
 10
39.42551643995829
 20
10.25008211135025
 10
39.2544540539584
 20
10.41807823615028
 10
39.14794905195821
 20
10.60985040681692
 10
39.11318626562525
 20
10.8127819610836
  0
LINE
  5
15B71
330
15B1B
100
AcDbEntity
  8
0
  6
Continuous
 62
     7
100
AcDbLine
 10
8.999053524291866
 20
27.78556463915021
 30
0.0
 11
8.842484303424953
 21
27.86866520768359
 31
0.0
  0
LINE
  5
15B72
330
15B1B
100
AcDbEntity
  8
0
  6
Continuous
 62
     7
100
AcDbLine
 10
8.951168479492025
 20
27.80833628295028
 30
0.0
 11
8.846290845491692
 21
27.86628302555028
 31
0.0
  0
LINE
  5
15B73
330
15B1B
100
AcDbEntity
  8
0
  6
Continuous
 62
     7
100
AcDbLine
 10
8.842484303424953
 20
27.86866520768359
 30
0.0
 11
8.812964254158488
 21
27.88626525815022
 31
0.0
  0
LWPOLYLINE
  5
15B74
330
15B1B
100
AcDbEntity
  8
0
  6
Continuous
 62
     7
100
AcDbPolyline
 90
        4
 70
     0
 43
0.0
 10
8.846290845491692
 20
27.86628302555028
 10
8.637064237225331
 20
28.0047897214169
 10
8.387900010158316
 20
28.22842845488361
 10
8.213186622558621
 20
28.47024295441696
  0
LWPOLYLINE
  5
15B75
330
15B1B
100
AcDbEntity
  8
0
  6
Continuous
 62
     7
100
AcDbPolyline
 90
       21
 70
     0
 43
0.0
 10
8.812964254158488
 20
27.88626525815022
 10
8.648515241558468
 20
27.99867631768359
 10
8.507930377291813
 20
28.1212776510169
 10
8.393110830491878
 20
28.25241128548356
 10
8.305609338558497
 20
28.39030386348355
 10
8.246609209024882
 20
28.53309062461693
 10
8.21690831742535
 20
28.67884062275022
 10
8.21690831742535
 20
28.82558283928359
 10
8.246609209024882
 20
28.97133283748355
 10
8.305609338558497
 20
29.1141195985503
 10
8.393110830491878
 20
29.25201217661692
 10
8.507930377291813
 20
29.3831458110169
 10
8.648515241558468
 20
29.50574714435021
 10
8.812964254158488
 20
29.61815820388358
 10
8.999053524291866
 20
29.71885882295027
 10
9.20426651389198
 20
29.80648719828361
 10
9.42582806922519
 20
29.87985830655026
 10
9.660741950292047
 20
29.93797992935026
 10
9.905831350024982
 20
29.98006607141696
 10
10.15778185455838
 20
30.00554758995026
 10
10.41318626562497
 20
30.01407989101693
  0
LWPOLYLINE
  5
15B76
330
15B1B
100
AcDbEntity
  8
0
  6
Continuous
 62
     7
100
AcDbPolyline
 90
       11
 70
     0
 43
0.0
 10
39.39311083049188
 20
29.25201217661692
 10
39.50793037729182
 20
29.3831458110169
 10
39.64851524155847
 20
29.50574714435021
 10
39.8129642541585
 20
29.61815820388358
 10
39.99905352429187
 20
29.71885882295027
 10
40.20426651389198
 20
29.80648719828361
 10
40.42582806922519
 20
29.87985830655026
 10
40.66074195029204
 20
29.93797992935026
 10
40.90583135002497
 20
29.98006607141696
 10
41.15778185455837
 20
30.00554758995026
 10
41.41318626562497
 20
30.01407989101693
  0
LINE
  5
15B77
330
15B1B
100
AcDbEntity
  8
0
  6
Continuous
 62
     7
100
AcDbLine
 10
43.91318702595845
 20
31.12345368788357
 30
0.0
 11
44.11318703935831
 21
31.3234536744169
 31
0.0
  0
LWPOLYLINE
  5
15B78
330
15B1B
100
AcDbEntity
  8
0
  6
Continuous
 62
     7
100
AcDbPolyline
 90
       21
 70
     0
 43
0.0
 10
43.0134082770919
 20
27.88626525815022
 10
43.17785728969193
 20
27.99867631768359
 10
43.31844215395857
 20
28.1212776510169
 10
43.43326170075852
 20
28.25241128548356
 10
43.5207631927583
 20
28.39030386348355
 10
43.57976332229191
 20
28.53309062461693
 10
43.60946421382504
 20
28.67884062275022
 10
43.60946421382504
 20
28.82558283928359
 10
43.57976332229191
 20
28.97133283748355
 10
43.5207631927583
 20
29.1141195985503
 10
43.43326170075852
 20
29.25201217661692
 10
43.31844215395857
 20
29.3831458110169
 10
43.17785728969193
 20
29.50574714435021
 10
43.0134082770919
 20
29.61815820388358
 10
42.82731900695853
 20
29.71885882295027
 10
42.62210601735842
 20
29.80648719828361
 10
42.40054446209206
 20
29.87985830655026
 10
42.16563058095835
 20
29.93797992935026
 10
41.92054118129179
 20
29.98006607141696
 10
41.66859067669202
 20
30.00554758995026
 10
41.41318626562497
 20
30.01407989101693
  0
LINE
  5
15B79
330
15B1B
100
AcDbEntity
  8
02___PRT_ALL_AXES
  6
Continuous
 62
     7
100
AcDbLine
 10
43.15921761275831
 20
27.98272772895024
 30
0.0
 11
42.98023344755846
 21
27.86655554935027
 31
0.0
  0
LINE
  5
15B7A
330
15B1B
100
AcDbEntity
  8
0
  6
Continuous
 62
     7
100
AcDbLine
 10
42.98388822782499
 20
27.86866520768359
 30
0.0
 11
43.0134082770919
 21
27.88626525815022
 31
0.0
  0
LWPOLYLINE
  5
15B7B
330
15B1B
100
AcDbEntity
  8
02___PRT_ALL_AXES
  6
Continuous
 62
     7
100
AcDbPolyline
 90
        9
 70
     0
 43
0.0
 10
42.98023344755846
 20
27.86655554935027
 10
42.80901453729165
 20
27.77486596028359
 10
42.39429650742521
 20
27.61138776188358
 10
41.928421784492
 20
27.50450175335027
 10
41.43819929842493
 20
27.46540149768362
 10
40.95061893615866
 20
27.49683860835029
 10
40.48882221582515
 20
27.59439606895029
 10
40.08916822289164
 20
27.74109663588359
 10
39.8460619485586
 20
27.86641231781692
  0
LINE
  5
15B7C
330
15B1B
100
AcDbEntity
  8
0
  6
Continuous
 62
     7
100
AcDbLine
 10
8.842484303424953
 20
11.7782436888836
 30
0.0
 11
8.999053524291866
 21
11.86134425741693
 31
0.0
  0
LINE
  5
15B7D
330
15B1B
100
AcDbEntity
  8
0
  6
Continuous
 62
     7
100
AcDbLine
 10
42.82731900695853
 20
27.78556463915021
 30
0.0
 11
42.98388822782499
 21
27.86866520768359
 31
0.0
  0
LINE
  5
15B7E
330
15B1B
100
AcDbEntity
  8
0
  6
Continuous
 62
     7
100
AcDbLine
 10
42.62210601735842
 20
27.69793626375025
 30
0.0
 11
42.82731900695853
 21
27.78556463915021
 31
0.0
  0
LWPOLYLINE
  5
15B7F
330
15B1B
100
AcDbEntity
  8
0
  6
Continuous
 62
     7
100
AcDbPolyline
 90
        7
 70
     0
 43
0.0
 10
8.999053524291866
 20
11.86134425741693
 10
9.20426651389198
 20
11.94897263281694
 10
9.42582806922519
 20
12.0223437410836
 10
9.660741950292047
 20
12.0804653638836
 10
9.905831350024982
 20
12.12255150595024
 10
10.15778185455838
 20
12.14803302441692
 10
10.41318626562497
 20
12.1565653254836
  0
LINE
  5
15B80
330
15B1B
100
AcDbEntity
  8
02___PRT_ALL_AXES
  6
Continuous
 62
     7
100
AcDbLine
 10
63.96318626562515
 20
17.3234544482836
 30
0.0
 11
62.91318626562542
 21
17.3234544482836
 31
0.0
  0
LINE
  5
15B81
330
15B1B
100
AcDbEntity
  8
0
  6
Continuous
 62
     7
100
AcDbLine
 10
63.96318626562515
 20
17.34845444828357
 30
0.0
 11
64.54464883915854
 21
17.34845444828357
 31
0.0
  0
LINE
  5
15B82
330
15B1B
100
AcDbEntity
  8
DEFAULT_1
  6
CENTER
 62
     7
100
AcDbLine
 10
-0.0000000000004547
 20
19.8234544482836
 30
0.0
 11
76.70446733482505
 21
19.8234544482836
 31
0.0
  0
LINE
  5
15B83
330
15B1B
100
AcDbEntity
  8
DEFAULT_1
  6
CENTER
 62
     7
100
AcDbLine
 10
78.11318626562524
 20
19.8234544482836
 30
0.0
 11
78.32265226969184
 21
19.8234544482836
 31
0.0
  0
LWPOLYLINE
  5
15B84
330
15B1B
100
AcDbEntity
  8
0
  6
Continuous
 62
     7
100
AcDbPolyline
 90
        3
 70
     0
 43
0.0
 10
9.42582806922519
 20
27.62456515548361
 10
9.20426651389198
 20
27.69793626375025
 10
8.999053524291866
 20
27.78556463915021
  0
LWPOLYLINE
  5
15B85
330
15B1B
100
AcDbEntity
  8
0
  6
Continuous
 62
     7
100
AcDbPolyline
 90
        7
 70
     0
 43
0.0
 10
42.82731900695853
 20
11.86134425741693
 10
42.62210601735842
 20
11.94897263281694
 10
42.40054446209206
 20
12.0223437410836
 10
42.16563058095835
 20
12.0804653638836
 10
41.92054118129179
 20
12.12255150595024
 10
41.66859067669202
 20
12.14803302441692
 10
41.41318626562497
 20
12.1565653254836
  0
LINE
  5
15B86
330
15B1B
100
AcDbEntity
  8
0
  6
Continuous
 62
     7
100
AcDbLine
 10
42.98388822782499
 20
11.7782436888836
 30
0.0
 11
42.82731900695853
 21
11.86134425741693
 31
0.0
  0
LINE
  5
15B87
330
15B1B
100
AcDbEntity
  8
0
  6
Continuous
 62
     7
100
AcDbLine
 10
43.0134082770919
 20
11.76064363841692
 30
0.0
 11
42.98388822782499
 21
11.7782436888836
 31
0.0
  0
LWPOLYLINE
  5
15B88
330
15B1B
100
AcDbEntity
  8
02___PRT_ALL_AXES
  6
Continuous
 62
     7
100
AcDbPolyline
 90
        4
 70
     0
 43
0.0
 10
42.97853385902499
 20
11.78138856748359
 10
43.2490280533584
 20
11.59573806175028
 10
43.46120142175869
 20
11.39296609455027
 10
43.61319140775822
 20
11.17665563381689
  0
LINE
  5
15B89
330
15B1B
100
AcDbEntity
  8
0
  6
Continuous
 62
     7
100
AcDbLine
 10
43.91318702589205
 20
8.523455208683571
 30
0.0
 11
44.11318703935831
 21
8.323455222150244
 31
0.0
  0
LWPOLYLINE
  5
15B8A
330
15B1B
100
AcDbEntity
  8
0
  6
Continuous
 62
     7
100
AcDbPolyline
 90
       12
 70
     0
 43
0.0
 10
39.50793037729182
 20
10.26376308555024
 10
39.39311083049188
 20
10.39489671995028
 10
39.30560933855851
 20
10.53278929801695
 10
39.24660920902488
 20
10.67557605908359
 10
39.21690831742535
 20
10.82132605728361
 10
39.21690831742535
 20
10.96806827381692
 10
39.24660920902488
 20
11.11381827195026
 10
39.30560933855851
 20
11.25660503308359
 10
39.39311083049188
 20
11.39449761108358
 10
39.50793037729182
 20
11.5256312455503
 10
39.64851524155847
 20
11.64823257888361
 10
39.8129642541585
 20
11.76064363841692
  0
LWPOLYLINE
  5
15B8B
330
15B1B
100
AcDbEntity
  8
02___PRT_ALL_AXES
  6
Continuous
 62
     7
100
AcDbPolyline
 90
        6
 70
     0
 43
0.0
 10
39.11318626562525
 20
28.8341269354836
 10
39.16044855149176
 20
29.06949238961693
 10
39.29227063082499
 20
29.27403493368359
 10
39.49641674062514
 20
29.44784101315025
 10
39.76867322069166
 20
29.59390772641695
 10
39.78672640802507
 20
29.60022301515028
  0
LINE
  5
15B8C
330
15B1B
100
AcDbEntity
  8
02___PRT_ALL_AXES
  6
Continuous
 62
     7
100
AcDbLine
 10
43.61319140775822
 20
28.47025326275025
 30
0.0
 11
43.43241391342507
 21
28.22182367648361
 31
0.0
  0
LINE
  5
15B8D
330
15B1B
100
AcDbEntity
  8
02___PRT_ALL_AXES
  6
Continuous
 62
     7
100
AcDbLine
 10
43.43241391342507
 20
28.22182367648361
 30
0.0
 11
43.15921761275831
 21
27.98272772895024
 31
0.0
  0
LINE
  5
15B8E
330
15B1B
100
AcDbEntity
  8
0
  6
Continuous
 62
     7
100
AcDbLine
 10
63.96318626562515
 20
22.29845444828356
 30
0.0
 11
64.54464883915854
 21
22.29845444828356
 31
0.0
  0
LINE
  5
15B8F
330
15B1B
100
AcDbEntity
  8
02___PRT_ALL_AXES
  6
Continuous
 62
     7
100
AcDbLine
 10
63.96318626562515
 20
22.3234544482836
 30
0.0
 11
62.91318626562542
 21
22.3234544482836
 31
0.0
  0
LINE
  5
15B90
330
15B1B
100
AcDbEntity
  8
02___PRT_ALL_AXES
  6
Continuous
 62
     7
100
AcDbLine
 10
62.71318626562515
 20
24.32345444828361
 30
0.0
 11
59.61318626562523
 21
24.32345444828361
 31
0.0
  0
LINE
  5
15B91
330
15B1B
100
AcDbEntity
  8
02___PRT_ALL_AXES
  6
Continuous
 62
     7
100
AcDbLine
 10
64.84464883915871
 20
24.32345444828361
 30
0.0
 11
72.54464883915851
 21
24.32345444828361
 31
0.0
  0
LWPOLYLINE
  5
15B92
330
15B1B
100
AcDbEntity
  8
0
  6
Continuous
 62
     7
100
AcDbPolyline
 90
        6
 70
     0
 43
0.0
 10
12.04259319489165
 20
29.59820850961688
 10
12.07146388182491
 20
29.58788928708356
 10
12.3382100314252
 20
29.44227035141694
 10
12.53790027635841
 20
29.26977614608359
 10
12.66688022749167
 20
29.06718919615025
 10
12.71318626562515
 20
28.8341269354836
  0
LINE
  5
15B93
330
15B1B
100
AcDbEntity
  8
0
  6
Continuous
 62
     7
100
AcDbLine
 10
40.16318626562497
 20
28.92428466195026
 30
0.0
 11
40.16318626562497
 21
28.58013880015028
 31
0.0
  0
LINE
  5
15B94
330
15B1B
100
AcDbEntity
  8
0
  6
Continuous
 62
     7
100
AcDbLine
 10
40.16318626562497
 20
11.06677009641692
 30
0.0
 11
40.16318626562497
 21
10.72262423461694
 31
0.0
  0
LINE
  5
15B95
330
15B1B
100
AcDbEntity
  8
0
  6
Continuous
 62
     7
100
AcDbLine
 10
41.11318626562524
 20
29.46918227648359
 30
0.0
 11
41.11318626562524
 21
28.6785390486836
 31
0.0
  0
LINE
  5
15B96
330
15B1B
100
AcDbEntity
  8
0
  6
Continuous
 62
     7
100
AcDbLine
 10
41.11318626562524
 20
28.58013880015028
 30
0.0
 11
41.11318626562524
 21
28.03524118561695
 31
0.0
  0
LINE
  5
15B97
330
15B1B
100
AcDbEntity
  8
0
  6
Continuous
 62
     7
100
AcDbLine
 10
41.11318626562524
 20
11.61166771095025
 30
0.0
 11
41.11318626562524
 21
11.06677009641692
 31
0.0
  0
LINE
  5
15B98
330
15B1B
100
AcDbEntity
  8
0
  6
Continuous
 62
     7
100
AcDbLine
 10
41.11318626562524
 20
10.1777266200836
 30
0.0
 11
41.11318626562524
 21
10.96836984788359
 31
0.0
  0
LINE
  5
15B99
330
15B1B
100
AcDbEntity
  8
0
  6
Continuous
 62
     7
100
AcDbLine
 10
41.71318626562515
 20
10.1777266200836
 30
0.0
 11
41.71318626562515
 21
10.96836984788359
 31
0.0
  0
LINE
  5
15B9A
330
15B1B
100
AcDbEntity
  8
0
  6
Continuous
 62
     7
100
AcDbLine
 10
41.71318626562515
 20
11.06677009641692
 30
0.0
 11
41.71318626562515
 21
11.61166771095025
 31
0.0
  0
LINE
  5
15B9B
330
15B1B
100
AcDbEntity
  8
0
  6
Continuous
 62
     7
100
AcDbLine
 10
41.71318626562515
 20
28.03524118561695
 30
0.0
 11
41.71318626562515
 21
28.58013880015028
 31
0.0
  0
LINE
  5
15B9C
330
15B1B
100
AcDbEntity
  8
0
  6
Continuous
 62
     7
100
AcDbLine
 10
41.71318626562515
 20
28.6785390486836
 30
0.0
 11
41.71318626562515
 21
29.46918227648359
 31
0.0
  0
LWPOLYLINE
  5
15B9D
330
15B1B
100
AcDbEntity
  8
02___PRT_ALL_AXES
  6
Continuous
 62
     7
100
AcDbPolyline
 90
        4
 70
     0
 43
0.0
 10
39.11318626562525
 20
10.8127819610836
 10
39.16499459789202
 20
11.07328668095027
 10
39.30931667415871
 20
11.32446876541689
 10
39.53384360609152
 20
11.55951985668361
  0
LWPOLYLINE
  5
15B9E
330
15B1B
100
AcDbEntity
  8
0
  6
Continuous
 62
     7
100
AcDbPolyline
 90
        5
 70
     0
 43
0.0
 10
41.41318626562497
 20
27.49034357108354
 10
41.66859067669202
 20
27.49887587215023
 10
41.92054118129179
 20
27.5243573906169
 10
42.16563058095835
 20
27.56644353268359
 10
42.40054446209206
 20
27.62456515548361
  0
LWPOLYLINE
  5
15B9F
330
15B1B
100
AcDbEntity
  8
0
  6
Continuous
 62
     7
100
AcDbPolyline
 90
        6
 70
     0
 43
0.0
 10
10.41318626562497
 20
27.49034357108354
 10
10.66859067669202
 20
27.49887587215023
 10
10.92054118129181
 20
27.5243573906169
 10
11.16563058095835
 20
27.56644353268359
 10
11.40054446209205
 20
27.62456515548361
 10
11.62210601735842
 20
27.69793626375025
  0
LINE
  5
15BA0
330
15B1B
100
AcDbEntity
  8
0
  6
Continuous
 62
     7
100
AcDbLine
 10
75.81325582075852
 20
26.09185132341691
 30
0.0
 11
76.26410046122508
 21
26.09185132341691
 31
0.0
  0
LINE
  5
15BA1
330
15B1B
100
AcDbEntity
  8
02___PRT_ALL_AXES
  6
Continuous
 62
     7
100
AcDbLine
 10
59.21318626562515
 20
26.82345444828361
 30
0.0
 11
49.41318626562497
 21
26.82345444828361
 31
0.0
  0
LINE
  5
15BA2
330
15B1B
100
AcDbEntity
  8
0
  6
Continuous
 62
     7
100
AcDbLine
 10
10.11318626562524
 20
28.03524118561695
 30
0.0
 11
10.71318626562515
 21
28.03524118561695
 31
0.0
  0
LINE
  5
15BA3
330
15B1B
100
AcDbEntity
  8
0
  6
Continuous
 62
     7
100
AcDbLine
 10
41.11318626562524
 20
28.03524118561695
 30
0.0
 11
41.71318626562515
 21
28.03524118561695
 31
0.0
  0
LINE
  5
15BA4
330
15B1B
100
AcDbEntity
  8
0
  6
Continuous
 62
     7
100
AcDbLine
 10
9.163186265624972
 20
28.58013880015028
 30
0.0
 11
10.11318626562524
 21
28.58013880015028
 31
0.0
  0
LINE
  5
15BA5
330
15B1B
100
AcDbEntity
  8
0
  6
Continuous
 62
     7
100
AcDbLine
 10
10.71318626562515
 20
28.58013880015028
 30
0.0
 11
11.66318626562497
 21
28.58013880015028
 31
0.0
  0
LINE
  5
15BA6
330
15B1B
100
AcDbEntity
  8
0
  6
Continuous
 62
     7
100
AcDbLine
 10
40.16318626562497
 20
28.58013880015028
 30
0.0
 11
41.11318626562524
 21
28.58013880015028
 31
0.0
  0
LINE
  5
15BA7
330
15B1B
100
AcDbEntity
  8
0
  6
Continuous
 62
     7
100
AcDbLine
 10
41.71318626562515
 20
28.58013880015028
 30
0.0
 11
42.66318626562497
 21
28.58013880015028
 31
0.0
  0
LINE
  5
15BA8
330
15B1B
100
AcDbEntity
  8
0
  6
Continuous
 62
     7
100
AcDbLine
 10
42.66318626562497
 20
28.6785390486836
 30
0.0
 11
41.71318626562515
 21
28.6785390486836
 31
0.0
  0
LINE
  5
15BA9
330
15B1B
100
AcDbEntity
  8
0
  6
Continuous
 62
     7
100
AcDbLine
 10
41.11318626562524
 20
28.6785390486836
 30
0.0
 11
40.16318626562497
 21
28.6785390486836
 31
0.0
  0
LINE
  5
15BAA
330
15B1B
100
AcDbEntity
  8
0
  6
Continuous
 62
     7
100
AcDbLine
 10
11.66318626562497
 20
28.6785390486836
 30
0.0
 11
10.71318626562515
 21
28.6785390486836
 31
0.0
  0
LINE
  5
15BAB
330
15B1B
100
AcDbEntity
  8
0
  6
Continuous
 62
     7
100
AcDbLine
 10
10.11318626562524
 20
28.6785390486836
 30
0.0
 11
9.163186265624972
 21
28.6785390486836
 31
0.0
  0
LINE
  5
15BAC
330
15B1B
100
AcDbEntity
  8
0
  6
Continuous
 62
     7
100
AcDbLine
 10
42.66318626562497
 20
28.92428466195026
 30
0.0
 11
41.71318626562515
 21
28.92428466195026
 31
0.0
  0
LINE
  5
15BAD
330
15B1B
100
AcDbEntity
  8
0
  6
Continuous
 62
     7
100
AcDbLine
 10
41.11318626562524
 20
28.92428466195026
 30
0.0
 11
40.16318626562497
 21
28.92428466195026
 31
0.0
  0
LINE
  5
15BAE
330
15B1B
100
AcDbEntity
  8
0
  6
Continuous
 62
     7
100
AcDbLine
 10
11.66318626562497
 20
28.92428466195026
 30
0.0
 11
10.71318626562515
 21
28.92428466195026
 31
0.0
  0
LINE
  5
15BAF
330
15B1B
100
AcDbEntity
  8
0
  6
Continuous
 62
     7
100
AcDbLine
 10
10.11318626562524
 20
28.92428466195026
 30
0.0
 11
9.163186265624972
 21
28.92428466195026
 31
0.0
  0
LINE
  5
15BB0
330
15B1B
100
AcDbEntity
  8
0
  6
Continuous
 62
     7
100
AcDbLine
 10
41.71318626562515
 20
29.22343666321694
 30
0.0
 11
41.11318626562524
 21
29.22343666321694
 31
0.0
  0
LINE
  5
15BB1
330
15B1B
100
AcDbEntity
  8
0
  6
Continuous
 62
     7
100
AcDbLine
 10
10.71318626562515
 20
29.22343666321694
 30
0.0
 11
10.11318626562524
 21
29.22343666321694
 31
0.0
  0
LINE
  5
15BB2
330
15B1B
100
AcDbEntity
  8
0
  6
Continuous
 62
     7
100
AcDbLine
 10
41.71318626562515
 20
29.46918227648359
 30
0.0
 11
41.11318626562524
 21
29.46918227648359
 31
0.0
  0
LINE
  5
15BB3
330
15B1B
100
AcDbEntity
  8
0
  6
Continuous
 62
     7
100
AcDbLine
 10
10.71318626562515
 20
29.46918227648359
 30
0.0
 11
10.11318626562524
 21
29.46918227648359
 31
0.0
  0
LWPOLYLINE
  5
15BB4
330
15B1B
100
AcDbEntity
  8
0
  6
Continuous
 62
     7
100
AcDbPolyline
 90
        5
 70
     0
 43
0.0
 10
10.41318626562497
 20
27.49034357108354
 10
10.15778185455838
 20
27.49887587215023
 10
9.905831350024982
 20
27.5243573906169
 10
9.660741950292047
 20
27.56644353268359
 10
9.42582806922519
 20
27.62456515548361
  0
LWPOLYLINE
  5
15BB5
330
15B1B
100
AcDbEntity
  8
0
  6
Continuous
 62
     7
100
AcDbPolyline
 90
        5
 70
     0
 43
0.0
 10
41.41318626562497
 20
27.49034357108354
 10
41.15778185455837
 20
27.49887587215023
 10
40.90583135002497
 20
27.5243573906169
 10
40.66074195029204
 20
27.56644353268359
 10
40.42582806922519
 20
27.62456515548361
  0
LINE
  5
15BB6
330
15B1B
100
AcDbEntity
  8
0
  6
Continuous
 62
     7
100
AcDbLine
 10
59.41318652195832
 20
15.43892494615028
 30
0.0
 11
59.61318652869203
 21
15.32345490395028
 31
0.0
  0
LWPOLYLINE
  5
15BB7
330
15B1B
100
AcDbEntity
  8
02___PRT_ALL_AXES
  6
Continuous
 62
     7
100
AcDbPolyline
 90
        3
 70
     0
 43
0.0
 10
43.61319140775822
 20
11.17665563381689
 10
43.65074690562504
 20
11.02177461821696
 10
43.66318882502536
 20
10.85373746681693
  0
LINE
  5
15BB8
330
15B1B
100
AcDbEntity
  8
0
  6
Continuous
 62
     7
100
AcDbLine
 10
42.66318626562497
 20
10.72262423461694
 30
0.0
 11
42.66318626562497
 21
11.06677009641692
 31
0.0
  0
LINE
  5
15BB9
330
15B1B
100
AcDbEntity
  8
0
  6
Continuous
 62
     7
100
AcDbLine
 10
42.66318626562497
 20
28.58013880015028
 30
0.0
 11
42.66318626562497
 21
28.92428466195026
 31
0.0
  0
LINE
  5
15BBA
330
15B1B
100
AcDbEntity
  8
02___PRT_ALL_AXES
  6
Continuous
 62
     7
100
AcDbLine
 10
43.61319140775822
 20
28.47025326275025
 30
0.0
 11
43.61319140775822
 21
11.17665563381689
 31
0.0
  0
LINE
  5
15BBB
330
15B1B
100
AcDbEntity
  8
02___PRT_ALL_AXES
  6
Continuous
 62
     7
100
AcDbLine
 10
43.61319140775822
 20
30.8234544482836
 30
0.0
 11
43.61319140775822
 21
29.17025099088363
 31
0.0
  0
LINE
  5
15BBC
330
15B1B
100
AcDbEntity
  8
02___PRT_ALL_AXES
  6
Continuous
 62
     7
100
AcDbLine
 10
43.61319140775822
 20
10.47665790568356
 30
0.0
 11
43.61319140775822
 21
8.823454448283596
 31
0.0
  0
LINE
  5
15BBD
330
15B1B
100
AcDbEntity
  8
0
  6
Continuous
 62
     7
100
AcDbLine
 10
43.91318626562497
 20
31.12345444828361
 30
0.0
 11
43.91318626562497
 21
8.523454448283587
 31
0.0
  0
LINE
  5
15BBE
330
15B1B
100
AcDbEntity
  8
0
  6
Continuous
 62
     7
100
AcDbLine
 10
44.11318626562525
 20
31.3234544482836
 30
0.0
 11
44.11318626562525
 21
8.323454448283596
 31
0.0
  0
LWPOLYLINE
  5
15BBF
330
15B1B
100
AcDbEntity
  8
02___PRT_ALL_AXES
  6
Continuous
 62
     7
100
AcDbPolyline
 90
        3
 70
     0
 43
0.0
 10
43.66318882502536
 20
10.85373746681693
 10
43.6507402092252
 20
10.67220416781691
 10
43.61319140775822
 20
10.47665790568356
  0
LWPOLYLINE
  5
15BC0
330
15B1B
100
AcDbEntity
  8
02___PRT_ALL_AXES
  6
Continuous
 62
     7
100
AcDbPolyline
 90
        3
 70
     0
 43
0.0
 10
43.66318882502536
 20
28.79317142975026
 10
43.65074688849153
 20
28.62513416755025
 10
43.61319140775822
 20
28.47025326275025
  0
LINE
  5
15BC1
330
15B1B
100
AcDbEntity
  8
02___PRT_ALL_AXES
  6
Continuous
 62
     7
100
AcDbLine
 10
39.53384360609152
 20
11.55951985668361
 30
0.0
 11
39.8475691519584
 21
11.78118883388356
 31
0.0
  0
LINE
  5
15BC2
330
15B1B
100
AcDbEntity
  8
0
  6
Continuous
 62
     7
100
AcDbLine
 10
39.8129642541585
 20
11.76064363841692
 30
0.0
 11
39.84248430342495
 21
11.7782436888836
 31
0.0
  0
LINE
  5
15BC3
330
15B1B
100
AcDbEntity
  8
0
  6
Continuous
 62
     7
100
AcDbLine
 10
59.41318652195832
 20
24.20798395041693
 30
0.0
 11
59.61318652869203
 21
24.32345399261692
 31
0.0
  0
LINE
  5
15BC4
330
15B1B
100
AcDbEntity
  8
0
  6
Continuous
 62
     7
100
AcDbLine
 10
64.54464808415831
 20
24.15025067495026
 30
0.0
 11
64.84464805395828
 21
24.32345580808358
 31
0.0
  0
LINE
  5
15BC5
330
15B1B
100
AcDbEntity
  8
0
  6
Continuous
 62
     7
100
AcDbLine
 10
39.84248430342495
 20
11.7782436888836
 30
0.0
 11
39.99905352429187
 21
11.86134425741693
 31
0.0
  0
LWPOLYLINE
  5
15BC6
330
15B1B
100
AcDbEntity
  8
02___PRT_ALL_AXES
  6
Continuous
 62
     7
100
AcDbPolyline
 90
        9
 70
     0
 43
0.0
 10
39.8475691519584
 20
11.78118883388356
 10
40.20635389162499
 20
11.95570138255021
 10
40.63169842215847
 20
12.09023600781694
 10
41.0822266723585
 20
12.16552035155024
 10
41.53168914069192
 20
12.17954458795026
 10
41.95729988995846
 20
12.13784087781692
 10
42.34391442109198
 20
12.05066546201692
 10
42.686284191092
 20
11.92825538915025
 10
42.97853385902499
 20
11.78138856748359
  0
LWPOLYLINE
  5
15BC7
330
15B1B
100
AcDbEntity
  8
0
  6
Continuous
 62
     7
100
AcDbPolyline
 90
        7
 70
     0
 43
0.0
 10
39.99905352429187
 20
11.86134425741693
 10
40.20426651389198
 20
11.94897263281694
 10
40.42582806922519
 20
12.0223437410836
 10
40.66074195029204
 20
12.0804653638836
 10
40.90583135002497
 20
12.12255150595024
 10
41.15778185455837
 20
12.14803302441692
 10
41.41318626562497
 20
12.1565653254836
  0
LINE
  5
15BC8
330
15B1B
100
AcDbEntity
  8
02___PRT_ALL_AXES
  6
Continuous
 62
     7
100
AcDbLine
 10
73.77248473789177
 20
25.30813938808359
 30
0.0
 11
72.54464883915851
 21
24.79955310641691
 31
0.0
  0
LINE
  5
15BC9
330
15B1B
100
AcDbEntity
  8
0
  6
Continuous
 62
     7
100
AcDbLine
 10
72.54464883915851
 20
24.79955310641691
 30
0.0
 11
76.2275286377585
 21
26.32505186761688
 31
0.0
  0
LINE
  5
15BCA
330
15B1B
100
AcDbEntity
  8
0
  6
Continuous
 62
     7
100
AcDbLine
 10
76.70446733482505
 20
24.08722389368359
 30
0.0
 11
76.69626779875851
 21
24.08382753468363
 31
0.0
  0
LINE
  5
15BCB
330
15B1B
100
AcDbEntity
  8
0
  6
Continuous
 62
     7
100
AcDbLine
 10
75.81325582075852
 20
26.09185132341691
 30
0.0
 11
73.77248473789177
 21
25.25476281128357
 31
0.0
  0
LINE
  5
15BCC
330
15B1B
100
AcDbEntity
  8
02___PRT_ALL_AXES
  6
Continuous
 62
     7
100
AcDbLine
 10
43.61319140775822
 20
30.8234544482836
 30
0.0
 11
8.213190692692021
 21
30.8234544482836
 31
0.0
  0
LINE
  5
15BCD
330
15B1B
100
AcDbEntity
  8
02___PRT_ALL_AXES
  6
Continuous
 62
     7
100
AcDbLine
 10
5.113185653358414
 20
30.8234544482836
 30
0.0
 11
7.713187204091808
 21
30.8234544482836
 31
0.0
  0
LINE
  5
15BCE
330
15B1B
100
AcDbEntity
  8
02___PRT_ALL_AXES
  6
Continuous
 62
     7
100
AcDbLine
 10
49.21318626562515
 20
31.3234544482836
 30
0.0
 11
44.11318626562525
 21
31.3234544482836
 31
0.0
  0
LINE
  5
15BCF
330
15B1B
100
AcDbEntity
  8
0
  6
Continuous
 62
     7
100
AcDbLine
 10
40.42582806922519
 20
27.62456515548361
 30
0.0
 11
40.20426651389198
 21
27.69793626375025
 31
0.0
  0
LWPOLYLINE
  5
15BD0
330
15B1B
100
AcDbEntity
  8
02___PRT_ALL_AXES
  6
Continuous
 62
     7
100
AcDbPolyline
 90
        5
 70
     0
 43
0.0
 10
43.03860304122507
 20
29.60093602615024
 10
43.05660348575838
 20
29.59438191215026
 10
43.28751771022506
 20
29.47515727575023
 10
43.4760371846919
 20
29.33306799728359
 10
43.61319140775822
 20
29.17025099088363
  0
LINE
  5
15BD1
330
15B1B
100
AcDbEntity
  8
0
  6
Continuous
 62
     7
100
AcDbLine
 10
75.81325582075852
 20
13.55505757315023
 30
0.0
 11
73.77248473789177
 21
14.39214608528363
 31
0.0
  0
LINE
  5
15BD2
330
15B1B
100
AcDbEntity
  8
02___PRT_ALL_AXES
  6
Continuous
 62
     7
100
AcDbLine
 10
73.77248473789177
 20
14.33876950848361
 30
0.0
 11
72.54464883915851
 21
14.84735579015023
 31
0.0
  0
LINE
  5
15BD3
330
15B1B
100
AcDbEntity
  8
0
  6
Continuous
 62
     7
100
AcDbLine
 10
76.2275286377585
 20
13.32185702895026
 30
0.0
 11
72.54464883915851
 21
14.84735579015023
 31
0.0
  0
LINE
  5
15BD4
330
15B1B
100
AcDbEntity
  8
0
  6
Continuous
 62
     7
100
AcDbLine
 10
76.69626779875851
 20
15.56308136188357
 30
0.0
 11
76.70446733482505
 21
15.55968500288355
 31
0.0
  0
LINE
  5
15BD5
330
15B1B
100
AcDbEntity
  8
0
  6
Continuous
 62
     7
100
AcDbLine
 10
40.20426651389198
 20
27.69793626375025
 30
0.0
 11
39.99905352429187
 21
27.78556463915021
 31
0.0
  0
LINE
  5
15BD6
330
15B1B
100
AcDbEntity
  8
0
  6
Continuous
 62
     7
100
AcDbLine
 10
39.99905352429187
 20
27.78556463915021
 30
0.0
 11
39.84248430342495
 21
27.86866520768359
 31
0.0
  0
LINE
  5
15BD7
330
15B1B
100
AcDbEntity
  8
0
  6
Continuous
 62
     7
100
AcDbLine
 10
64.54464808409193
 20
15.49665822161688
 30
0.0
 11
64.84464805382504
 21
15.32345308855025
 31
0.0
  0
LINE
  5
15BD8
330
15B1B
100
AcDbEntity
  8
0
  6
Continuous
 62
     7
100
AcDbLine
 10
39.84248430342495
 20
27.86866520768359
 30
0.0
 11
39.8129642541585
 21
27.88626525815022
 31
0.0
  0
LINE
  5
15BD9
330
15B1B
100
AcDbEntity
  8
02___PRT_ALL_AXES
  6
Continuous
 62
     7
100
AcDbLine
 10
39.8460619485586
 20
27.86641231781692
 30
0.0
 11
39.75954476629204
 21
27.91977853595023
 31
0.0
  0
LWPOLYLINE
  5
15BDA
330
15B1B
100
AcDbEntity
  8
0
  6
Continuous
 62
     7
100
AcDbPolyline
 90
       11
 70
     0
 43
0.0
 10
39.8129642541585
 20
27.88626525815022
 10
39.64851524155847
 20
27.99867631768359
 10
39.50793037729182
 20
28.1212776510169
 10
39.39311083049188
 20
28.25241128548356
 10
39.30560933855851
 20
28.39030386348355
 10
39.24660920902488
 20
28.53309062461693
 10
39.21690831742535
 20
28.67884062275022
 10
39.21690831742535
 20
28.82558283928359
 10
39.24660920902488
 20
28.97133283748355
 10
39.30560933855851
 20
29.1141195985503
 10
39.39311083049188
 20
29.25201217661692
  0
LWPOLYLINE
  5
15BDB
330
15B1B
100
AcDbEntity
  8
02___PRT_ALL_AXES
  6
Continuous
 62
     7
100
AcDbPolyline
 90
        5
 70
     0
 43
0.0
 10
39.75954476629204
 20
27.91977853595023
 10
39.48865860949172
 20
28.12750994781692
 10
39.28553069702502
 20
28.35471486661692
 10
39.15730953762523
 20
28.59403280715027
 10
39.11318626562525
 20
28.8341269354836
  0
LWPOLYLINE
  5
15BDC
330
15B1B
100
AcDbEntity
  8
02___PRT_ALL_AXES
  6
Continuous
 62
     7
100
AcDbPolyline
 90
        3
 70
     0
 43
0.0
 10
43.61319140775822
 20
29.17025099088363
 10
43.65074019022495
 20
28.97470487241691
 10
43.66318882502536
 20
28.79317142975026
  0
LINE
  5
15BDD
330
15B1B
100
AcDbEntity
  8
0
  6
Continuous
 62
     7
100
AcDbLine
 10
49.21318626562515
 20
31.3234544482836
 30
0.0
 11
49.21318626562515
 21
8.323454448283596
 31
0.0
  0
LINE
  5
15BDE
330
15B1B
100
AcDbEntity
  8
0
  6
Continuous
 62
     7
100
AcDbLine
 10
49.41318626562497
 20
31.12345444828361
 30
0.0
 11
49.41318626562497
 21
8.523454448283587
 31
0.0
  0
LWPOLYLINE
  5
15BDF
330
15B1B
100
AcDbEntity
  8
02___PRT_ALL_AXES
  6
Continuous
 62
     7
100
AcDbPolyline
 90
        4
 70
     0
 43
0.0
 10
43.61319140775822
 20
10.47665790568356
 10
43.43828767595868
 20
10.28035732901691
 10
43.17980454762483
 20
10.11080966541692
 10
43.06335927129157
 20
10.0628952830836
  0
LINE
  5
15BE0
330
15B1B
100
AcDbEntity
  8
0
  6
Continuous
 62
     7
100
AcDbLine
 10
43.91318877169168
 20
9.123451952416928
 30
0.0
 11
43.61319140775822
 21
8.823454448283596
 31
0.0
  0
LINE
  5
15BE1
330
15B1B
100
AcDbEntity
  8
0
  6
Continuous
 62
     7
100
AcDbLine
 10
43.91318877169168
 20
30.52345694415028
 30
0.0
 11
43.61319140775822
 21
30.8234544482836
 31
0.0
  0
LINE
  5
15BE2
330
15B1B
100
AcDbEntity
  8
0
  6
Continuous
 62
     7
100
AcDbLine
 10
49.41318538062524
 20
8.523455333483582
 30
0.0
 11
49.21318536495846
 21
8.323455349150263
 31
0.0
  0
LINE
  5
15BE3
330
15B1B
100
AcDbEntity
  8
0
  6
Continuous
 62
     7
100
AcDbLine
 10
62.91318597202508
 20
15.43892501075021
 30
0.0
 11
62.71318596429182
 21
15.32345497028359
 31
0.0
  0
LINE
  5
15BE4
330
15B1B
100
AcDbEntity
  8
0
  6
Continuous
 62
     7
100
AcDbLine
 10
62.91318597202508
 20
24.20798388581693
 30
0.0
 11
62.71318596429182
 21
24.32345392628355
 31
0.0
  0
LINE
  5
15BE5
330
15B1B
100
AcDbEntity
  8
0
  6
Continuous
 62
     7
100
AcDbLine
 10
49.41318538055838
 20
31.12345356315024
 30
0.0
 11
49.21318536489207
 21
31.32345354748355
 31
0.0
  0
LINE
  5
15BE6
330
15B1B
100
AcDbEntity
  8
0
  6
Continuous
 62
     7
100
AcDbLine
 10
59.21318626562515
 20
26.82345444828361
 30
0.0
 11
59.21318626562515
 21
12.8234544482836
 31
0.0
  0
LINE
  5
15BE7
330
15B1B
100
AcDbEntity
  8
0
  6
Continuous
 62
     7
100
AcDbLine
 10
59.41318772909153
 20
13.02345298548357
 30
0.0
 11
59.21318777209171
 21
12.82345294241691
 31
0.0
  0
LINE
  5
15BE8
330
15B1B
100
AcDbEntity
  8
0
  6
Continuous
 62
     7
100
AcDbLine
 10
59.41318772889188
 20
26.62345591121692
 30
0.0
 11
59.21318777195846
 21
26.82345595428359
 31
0.0
  0
LINE
  5
15BE9
330
15B1B
100
AcDbEntity
  8
0
  6
Continuous
 62
     7
100
AcDbLine
 10
59.41318626562497
 20
26.62345444835023
 30
0.0
 11
59.41318626562497
 21
13.02345444821691
 31
0.0
  0
LINE
  5
15BEA
330
15B1B
100
AcDbEntity
  8
0
  6
Continuous
 62
     7
100
AcDbLine
 10
59.61318626562523
 20
24.32345444828361
 30
0.0
 11
59.61318626562523
 21
15.3234544482836
 31
0.0
  0
LINE
  5
15BEB
330
15B1B
100
AcDbEntity
  8
0
  6
Continuous
 62
     7
100
AcDbLine
 10
62.71318626562515
 20
24.32345444828361
 30
0.0
 11
62.71318626562515
 21
15.3234544482836
 31
0.0
  0
LINE
  5
15BEC
330
15B1B
100
AcDbEntity
  8
0
  6
Continuous
 62
     7
100
AcDbLine
 10
62.91318626562542
 20
24.20798439448362
 30
0.0
 11
62.91318626562542
 21
15.43892450208358
 31
0.0
  0
LINE
  5
15BED
330
15B1B
100
AcDbEntity
  8
0
  6
Continuous
 62
     7
100
AcDbLine
 10
63.96318626562515
 20
17.3234544482836
 30
0.0
 11
63.96318626562515
 21
22.3234544482836
 31
0.0
  0
LINE
  5
15BEE
330
15B1B
100
AcDbEntity
  8
0
  6
Continuous
 62
     7
100
AcDbLine
 10
64.54464883915854
 20
15.49665952895026
 30
0.0
 11
64.54464883915854
 21
24.15024936755026
 31
0.0
  0
LINE
  5
15BEF
330
15B1B
100
AcDbEntity
  8
0
  6
Continuous
 62
     7
100
AcDbLine
 10
64.84464883915871
 20
15.3234544482836
 30
0.0
 11
64.84464883915871
 21
24.32345444828361
 31
0.0
  0
LINE
  5
15BF0
330
15B1B
100
AcDbEntity
  8
0
  6
Continuous
100
AcDbLine
 10
77.61318626562524
 20
19.8234544482836
 30
0.0
 11
76.70446733482505
 21
18.52576521148359
 31
0.0
  0
LINE
  5
15BF1
330
15B1B
100
AcDbEntity
  8
0
  6
Continuous
 62
     7
100
AcDbLine
 10
73.77248473789177
 20
14.33876950848361
 30
0.0
 11
73.80152175915873
 21
14.38023560835023
 31
0.0
  0
LINE
  5
15BF2
330
15B1B
100
AcDbEntity
  8
0
  6
Continuous
100
AcDbLine
 10
77.61318626562524
 20
19.8234544482836
 30
0.0
 11
76.70446733482505
 21
21.12114368508361
 31
0.0
  0
LINE
  5
15BF3
330
15B1B
100
AcDbEntity
  8
0
  6
Continuous
 62
     7
100
AcDbLine
 10
73.80152175915873
 20
25.26667328821691
 30
0.0
 11
73.77248473789177
 21
25.30813938808359
 31
0.0
  0
LINE
  5
15BF4
330
15B1B
100
AcDbEntity
  8
02___PRT_ALL_AXES
  6
Continuous
 62
     7
100
AcDbLine
 10
72.54464883915851
 20
14.84735579015023
 30
0.0
 11
72.54464883915851
 21
24.79955310641691
 31
0.0
  0
LINE
  5
15BF5
330
15B1B
100
AcDbEntity
  8
0
  6
Continuous
 62
     7
100
AcDbLine
 10
73.77248473789177
 20
14.33876950848361
 30
0.0
 11
73.77248473789177
 21
14.39214608528363
 31
0.0
  0
LINE
  5
15BF6
330
15B1B
100
AcDbEntity
  8
0
  6
Continuous
 62
     7
100
AcDbLine
 10
73.77248473789177
 20
25.25476281128357
 30
0.0
 11
73.77248473789177
 21
25.30813938808359
 31
0.0
  0
LINE
  5
15BF7
330
15B1B
100
AcDbEntity
  8
0
  6
Continuous
 62
     7
100
AcDbLine
 10
75.81325582075852
 20
26.09185132341691
 30
0.0
 11
75.81325582075852
 21
13.55505757315023
 31
0.0
  0
LINE
  5
15BF8
330
15B1B
100
AcDbEntity
  8
0
  6
Continuous
 62
     7
100
AcDbLine
 10
76.26410046122508
 20
26.09185132341691
 30
0.0
 11
76.26410046122508
 21
13.55505757315023
 31
0.0
  0
LINE
  5
15BF9
330
15B1B
100
AcDbEntity
  8
0
  6
Continuous
 62
     7
100
AcDbLine
 10
76.70446733482505
 20
24.04572918255025
 30
0.0
 11
76.70446733482505
 21
15.60117971401695
 31
0.0
  0
LINE
  5
15BFA
330
15B1B
100
AcDbEntity
  8
0
  6
Continuous
 62
     7
100
AcDbLine
 10
76.70446733482505
 20
15.55968500288355
 30
0.0
 11
76.2275286377585
 21
13.32185702895026
 31
0.0
  0
LINE
  5
15BFB
330
15B1B
100
AcDbEntity
  8
0
  6
Continuous
100
AcDbLine
 10
76.70446733482505
 20
15.55968500288355
 30
0.0
 11
77.61318626562524
 21
19.8234544482836
 31
0.0
  0
LINE
  5
15BFC
330
15B1B
100
AcDbEntity
  8
0
  6
Continuous
 62
     7
100
AcDbLine
 10
76.70446733482505
 20
15.60117971401695
 30
0.0
 11
76.26410046122508
 21
13.55505757315023
 31
0.0
  0
LINE
  5
15BFD
330
15B1B
100
AcDbEntity
  8
0
  6
Continuous
 62
     7
100
AcDbLine
 10
76.70446733482505
 20
24.04572918255025
 30
0.0
 11
76.26410046122508
 21
26.09185132341691
 31
0.0
  0
LINE
  5
15BFE
330
15B1B
100
AcDbEntity
  8
0
  6
Continuous
 62
     7
100
AcDbLine
 10
76.2275286377585
 20
26.32505186761688
 30
0.0
 11
76.70446733482505
 21
24.08722389368359
 31
0.0
  0
LINE
  5
15BFF
330
15B1B
100
AcDbEntity
  8
0
  6
Continuous
100
AcDbLine
 10
76.70446733482505
 20
24.08722389368359
 30
0.0
 11
77.61318626562524
 21
19.8234544482836
 31
0.0
  0
ENDBLK
  5
15C00
330
15B1B
100
AcDbEntity
  8
0
100
AcDbBlockEnd
  0
BLOCK
  5
15C04
330
15C01
100
AcDbEntity
  8
0
100
AcDbBlockBegin
  2
A$C217E344C
 70
     0
 10
0.0
 20
0.0
 30
0.0
  3
A$C217E344C
  1

  0
LINE
  5
15C05
330
15C01
100
AcDbEntity
  8
0
  6
Continuous
 62
     7
100
AcDbLine
 10
10.61903407103273
 20
5.231602809099398
 30
0.0
 11
10.99941157729927
 21
7.938129400232696
 31
0.0
  0
LINE
  5
15C06
330
15C01
100
AcDbEntity
  8
0
  6
Continuous
 62
     7
100
AcDbLine
 10
12.00058802289914
 20
15.06186996823271
 30
0.0
 11
12.38096552916613
 21
17.76839655936601
 31
0.0
  0
LINE
  5
15C07
330
15C01
100
AcDbEntity
  8
0
  6
Continuous
 62
     7
100
AcDbLine
 10
12.38096552916613
 20
5.231602809099398
 30
0.0
 11
12.00058802289914
 21
7.938129400232696
 31
0.0
  0
LINE
  5
15C08
330
15C01
100
AcDbEntity
  8
0
  6
Continuous
 62
     7
100
AcDbLine
 10
10.99941157729927
 20
15.06186996823271
 30
0.0
 11
10.61903407103273
 21
17.76839655936601
 31
0.0
  0
CIRCLE
  5
15C09
330
15C01
100
AcDbEntity
  8
0
  6
Continuous
 62
     7
100
AcDbCircle
 10
3.056252113232403
 20
6.624999684232647
 30
0.0
 40
1.349968612533333
  0
ARC
  5
15C0A
330
15C01
100
AcDbEntity
  8
0
  6
Continuous
 62
     2
100
AcDbCircle
 10
3.056252113232403
 20
6.624999684232647
 30
0.0
 40
1.25
100
AcDbArc
 50
255.0000000000056
 51
195.0000000000007
  0
CIRCLE
  5
15C0B
330
15C01
100
AcDbEntity
  8
0
  6
Continuous
 62
     7
100
AcDbCircle
 10
3.056252113232403
 20
6.624999684232647
 30
0.0
 40
1.049999999999998
  0
CIRCLE
  5
15C0C
330
15C01
100
AcDbEntity
  8
0
  6
Continuous
 62
     7
100
AcDbCircle
 10
11.49999980009943
 20
11.49999968423265
 30
0.0
 40
11.5
  0
CIRCLE
  5
15C0D
330
15C01
100
AcDbEntity
  8
0
  6
Continuous
 62
     7
100
AcDbCircle
 10
11.49999980009943
 20
11.49999968423265
 30
0.0
 40
11.29999854813333
  0
CIRCLE
  5
15C0E
330
15C01
100
AcDbEntity
  8
0
  6
Continuous
 62
     7
100
AcDbCircle
 10
11.49999980009943
 20
11.49999968423265
 30
0.0
 40
7.0
  0
CIRCLE
  5
15C0F
330
15C01
100
AcDbEntity
  8
0
  6
Continuous
 62
     7
100
AcDbCircle
 10
11.49999980009943
 20
11.49999968423265
 30
0.0
 40
6.800000496733331
  0
CIRCLE
  5
15C10
330
15C01
100
AcDbEntity
  8
0
  6
Continuous
 62
     7
100
AcDbCircle
 10
11.49999980009943
 20
11.49999968423265
 30
0.0
 40
6.700000782333332
  0
CIRCLE
  5
15C11
330
15C01
100
AcDbEntity
  8
0
  6
Continuous
 62
     7
100
AcDbCircle
 10
11.49999980009943
 20
11.49999968423265
 30
0.0
 40
6.5
  0
ARC
  5
15C12
330
15C01
100
AcDbEntity
  8
0
  6
Continuous
 62
     7
100
AcDbCircle
 10
11.49999980009943
 20
11.49999968423265
 30
0.0
 40
6.329999999999999
100
AcDbArc
 50
278.0000000000137
 51
81.99999999998622
  0
ARC
  5
15C13
330
15C01
100
AcDbEntity
  8
0
  6
Continuous
 62
     7
100
AcDbCircle
 10
11.49999980009943
 20
11.49999968423265
 30
0.0
 40
6.329999999999999
100
AcDbArc
 50
98.00000000001377
 51
261.9999999999862
  0
ARC
  5
15C14
330
15C01
100
AcDbEntity
  8
0
  6
Continuous
 62
     7
100
AcDbCircle
 10
11.49999980009943
 20
11.49999968423265
 30
0.0
 40
6.299999210733331
100
AcDbArc
 50
262.0201162354896
 51
277.9798732255151
  0
ARC
  5
15C15
330
15C01
100
AcDbEntity
  8
0
  6
Continuous
 62
     7
100
AcDbCircle
 10
11.49999980009943
 20
11.49999968423265
 30
0.0
 40
6.299999210733331
100
AcDbArc
 50
82.02011623548955
 51
97.97987322551508
  0
ARC
  5
15C16
330
15C01
100
AcDbEntity
  8
0
  6
Continuous
 62
     7
100
AcDbCircle
 10
11.49999980009943
 20
11.49999968423265
 30
0.0
 40
5.484684939799999
100
AcDbArc
 50
81.99999999998622
 51
98.00000000001377
  0
ARC
  5
15C17
330
15C01
100
AcDbEntity
  8
0
  6
Continuous
 62
     7
100
AcDbCircle
 10
11.49999980009943
 20
11.49999968423265
 30
0.0
 40
5.484684939799999
100
AcDbArc
 50
261.9999999999862
 51
278.0000000000137
  0
ARC
  5
15C18
330
15C01
100
AcDbEntity
  8
0
  6
Continuous
 62
     7
100
AcDbCircle
 10
11.49999980009943
 20
11.49999968423265
 30
0.0
 40
4.263769445399998
100
AcDbArc
 50
98.00000000001377
 51
261.9999999999862
  0
ARC
  5
15C19
330
15C01
100
AcDbEntity
  8
0
  6
Continuous
 62
     7
100
AcDbCircle
 10
11.49999980009943
 20
11.49999968423265
 30
0.0
 40
4.263769445399998
100
AcDbArc
 50
278.0000000000137
 51
81.99999999998622
  0
ARC
  5
15C1A
330
15C01
100
AcDbEntity
  8
0
  6
Continuous
 62
     7
100
AcDbCircle
 10
11.49999980009943
 20
11.49999968423265
 30
0.0
 40
3.596874822533333
100
AcDbArc
 50
81.99999999998622
 51
98.00000000001377
  0
ARC
  5
15C1B
330
15C01
100
AcDbEntity
  8
0
  6
Continuous
 62
     7
100
AcDbCircle
 10
11.49999980009943
 20
11.49999968423265
 30
0.0
 40
3.596874822533333
100
AcDbArc
 50
261.9999999999862
 51
278.0000000000137
  0
CIRCLE
  5
15C1C
330
15C01
100
AcDbEntity
  8
02___PRT_ALL_AXES
  6
Continuous
 62
     7
100
AcDbCircle
 10
11.49999980009943
 20
11.49999968423265
 30
0.0
 40
3.342773023466665
  0
CIRCLE
  5
15C1D
330
15C01
100
AcDbEntity
  8
0
  6
Continuous
 62
     7
100
AcDbCircle
 10
11.49999980009943
 20
11.49999968423265
 30
0.0
 40
2.673196196599998
  0
CIRCLE
  5
15C1E
330
15C01
100
AcDbEntity
  8
0
  6
Continuous
 62
     7
100
AcDbCircle
 10
11.49999980009943
 20
11.49999968423265
 30
0.0
 40
2.5
  0
CIRCLE
  5
15C1F
330
15C01
100
AcDbEntity
  8
0
  6
Continuous
 62
     7
100
AcDbCircle
 10
11.49999980009943
 20
11.49999968423265
 30
0.0
 40
2.474999999999999
  0
CIRCLE
  5
15C20
330
15C01
100
AcDbEntity
  8
0
  6
Continuous
 62
     7
100
AcDbCircle
 10
11.49999980009943
 20
11.49999968423265
 30
0.0
 40
2.199972844133332
  0
CIRCLE
  5
15C21
330
15C01
100
AcDbEntity
  8
0
  6
Continuous
 62
     7
100
AcDbCircle
 10
19.9437474870324
 20
6.624999684232647
 30
0.0
 40
1.349968612533333
  0
ARC
  5
15C22
330
15C01
100
AcDbEntity
  8
0
  6
Continuous
 62
     2
100
AcDbCircle
 10
19.9437474870324
 20
6.624999684232647
 30
0.0
 40
1.25
100
AcDbArc
 50
255.0000000000056
 51
195.0000000000007
  0
CIRCLE
  5
15C23
330
15C01
100
AcDbEntity
  8
0
  6
Continuous
 62
     7
100
AcDbCircle
 10
19.9437474870324
 20
6.624999684232647
 30
0.0
 40
1.049999999999998
  0
CIRCLE
  5
15C24
330
15C01
100
AcDbEntity
  8
0
  6
Continuous
 62
     7
100
AcDbCircle
 10
11.49999980009943
 20
21.24999968423265
 30
0.0
 40
1.349968612533333
  0
ARC
  5
15C25
330
15C01
100
AcDbEntity
  8
0
  6
Continuous
 62
     2
100
AcDbCircle
 10
11.49999980009943
 20
21.24999968423265
 30
0.0
 40
1.25
100
AcDbArc
 50
255.0000000000056
 51
195.0000000000007
  0
CIRCLE
  5
15C26
330
15C01
100
AcDbEntity
  8
0
  6
Continuous
 62
     7
100
AcDbCircle
 10
11.49999980009943
 20
21.24999968423265
 30
0.0
 40
1.049999999999998
  0
ENDBLK
  5
15C27
330
15C01
100
AcDbEntity
  8
0
100
AcDbBlockEnd
  0
BLOCK
  5
15C89
330
15C45
100
AcDbEntity
  8
0
100
AcDbBlockBegin
  2
new A3-S11
 70
     0
 10
0.0
 20
0.0
 30
0.0
  3
new A3-S11
  1

  0
LINE
  5
15C46
330
15C45
100
AcDbEntity
  8
0
  6
Continuous
 62
   255
100
AcDbLine
 10
795.462730356111
 20
-277.0
 30
0.0
 11
795.462730356111
 21
0.0
 31
0.0
  0
LINE
  5
15C47
330
15C45
100
AcDbEntity
  8
0
  6
Continuous
 62
   255
100
AcDbLine
 10
412.4627639465111
 20
-277.0
 30
0.0
 11
795.462730356111
 21
-277.0
 31
0.0
  0
LINE
  5
15C48
330
15C45
100
AcDbEntity
  8
0
  6
Continuous
 62
   255
100
AcDbLine
 10
402.4627639465111
 20
0.0
 30
0.0
 11
402.4627639465111
 21
-222.0000000000001
 31
0.0
  0
LINE
  5
15C49
330
15C45
100
AcDbEntity
  8
0
  6
Continuous
 62
   255
100
AcDbLine
 10
402.4627639465111
 20
0.0
 30
0.0
 11
795.462730356111
 21
0.0
 31
0.0
  0
LINE
  5
15C4A
330
15C45
100
AcDbEntity
  8
1
 62
     2
100
AcDbLine
 10
615.4627303561102
 20
-240.7736213082135
 30
0.0
 11
615.4627303561102
 21
-233.1532223398645
 31
0.0
1001
ACDBBLOCKREPETAG
1070
     1
1071
     2034
1005
0
  0
LINE
  5
15C4B
330
15C45
100
AcDbEntity
  8
1
 62
     2
100
AcDbLine
 10
755.4627303560963
 20
-240.7736213082135
 30
0.0
 11
615.4627303561102
 21
-240.7736213082135
 31
0.0
1001
ACDBBLOCKREPETAG
1070
     1
1071
     2035
1005
0
  0
LINE
  5
15C4C
330
15C45
100
AcDbEntity
  8
1
 62
     2
100
AcDbLine
 10
755.4627303560963
 20
-233.1532223398645
 30
0.0
 11
755.4627303560963
 21
-240.7736213082135
 31
0.0
1001
ACDBBLOCKREPETAG
1070
     1
1071
     2036
1005
0
  0
LINE
  5
15C4D
330
15C45
100
AcDbEntity
  8
1
 62
     2
100
AcDbLine
 10
615.4627303561102
 20
-233.1532223398645
 30
0.0
 11
755.4627303560963
 21
-233.1532223398645
 31
0.0
1001
ACDBBLOCKREPETAG
1070
     1
1071
     2037
1005
0
  0
LINE
  5
15C4E
330
15C45
100
AcDbEntity
  8
0
  6
Continuous
 62
   255
100
AcDbLine
 10
412.4627639465111
 20
-222.0
 30
0.0
 11
412.4627639465111
 21
-277.0
 31
0.0
1001
ACDBBLOCKREPETAG
1070
     1
1071
     1946
1005
0
  0
LINE
  5
15C4F
330
15C45
100
AcDbEntity
  8
0
  6
Continuous
 62
   255
100
AcDbLine
 10
412.4627639465111
 20
-222.0
 30
0.0
 11
402.4627639465111
 21
-222.0
 31
0.0
  0
LINE
  5
15C50
330
15C45
100
AcDbEntity
  8
0
  6
CENTER
 62
     2
 48
0.2
370
     9
100
AcDbLine
 10
790.0016616277157
 20
-260.4561080562671
 30
0.0
 11
790.0016616277157
 21
-253.4561099688349
 31
0.0
1001
ACDBBLOCKREPETAG
1070
     1
1071
        1
1005
0
  0
LINE
  5
15C51
330
15C45
100
AcDbEntity
  8
0
  6
CENTER
 62
     2
 48
0.2
370
     9
100
AcDbLine
 10
775.643845024092
 20
-256.956109012551
 30
0.0
 11
784.6438425650752
 21
-256.956109012551
 31
0.0
1001
ACDBBLOCKREPETAG
1070
     1
1071
        9
1005
0
  0
LINE
  5
15C52
330
15C45
100
AcDbEntity
  8
0
  6
Continuous
 62
   255
100
AcDbLine
 10
784.1438427016877
 20
-253.8561098595453
 30
0.0
 11
776.1438448874794
 21
-255.4561094223869
 31
0.0
1001
ACDBBLOCKREPETAG
1070
     1
1071
       10
1005
0
  0
LINE
  5
15C53
330
15C45
100
AcDbEntity
  8
0
  6
Continuous
 62
   255
100
AcDbLine
 10
784.1438427016877
 20
-260.0561081655568
 30
0.0
 11
784.1438427016877
 21
-253.8561098595453
 31
0.0
1001
ACDBBLOCKREPETAG
1070
     1
1071
       11
1005
0
  0
LINE
  5
15C54
330
15C45
100
AcDbEntity
  8
0
  6
Continuous
 62
   255
100
AcDbLine
 10
776.1438448874794
 20
-258.4561086027151
 30
0.0
 11
784.1438427016877
 21
-260.0561081655568
 31
0.0
1001
ACDBBLOCKREPETAG
1070
     1
1071
       12
1005
0
  0
LINE
  5
15C55
330
15C45
100
AcDbEntity
  8
0
  6
Continuous
 62
   255
100
AcDbLine
 10
776.1438448874794
 20
-255.4561094223869
 30
0.0
 11
776.1438448874794
 21
-258.4561086027151
 31
0.0
1001
ACDBBLOCKREPETAG
1070
     1
1071
       13
1005
0
  0
LINE
  5
15C56
330
15C45
100
AcDbEntity
  8
0
  6
Continuous
 62
   255
100
AcDbLine
 10
732.4627505746859
 20
-255.0000010928959
 30
0.0
 11
732.4627505746859
 21
-273.0000010928959
 31
0.0
1001
ACDBBLOCKREPETAG
1070
     1
1071
       20
1005
0
  0
LINE
  5
15C57
330
15C45
100
AcDbEntity
  8
0
  6
Continuous
 62
   255
100
AcDbLine
 10
647.4627707932584
 20
-255.0000010928961
 30
0.0
 11
647.4627707932584
 21
-273.0000010928959
 31
0.0
1001
ACDBBLOCKREPETAG
1070
     1
1071
       22
1005
0
  0
LINE
  5
15C58
330
15C45
100
AcDbEntity
  8
0
  6
Continuous
 62
   255
100
AcDbLine
 10
612.462780356098
 20
-233.1532223398645
 30
0.0
 11
612.462780356098
 21
-277.0
 31
0.0
1001
ACDBBLOCKREPETAG
1070
     1
1071
       26
1005
0
  0
LINE
  5
15C59
330
15C45
100
AcDbEntity
  8
0
  6
Continuous
 62
   255
100
AcDbLine
 10
587.4627871866977
 20
-257.5000053278675
 30
0.0
 11
587.462787186698
 21
-277.0
 31
0.0
1001
ACDBBLOCKREPETAG
1070
     1
1071
       29
1005
0
  0
LINE
  5
15C5A
330
15C45
100
AcDbEntity
  8
0
  6
Continuous
 62
     2
370
     9
100
AcDbLine
 10
429.4627803560981
 20
-266.5000028688518
 30
0.0
 11
612.462780356098
 21
-266.5000028688518
 31
0.0
1001
ACDBBLOCKREPETAG
1070
     1
1071
       30
1005
0
  0
LINE
  5
15C5B
330
15C45
100
AcDbEntity
  8
0
  6
Continuous
 62
   255
100
AcDbLine
 10
429.4627803560981
 20
-271.0000016393439
 30
0.0
 11
612.462780356098
 21
-271.0000016393439
 31
0.0
1001
ACDBBLOCKREPETAG
1070
     1
1071
       31
1005
0
  0
LINE
  5
15C5C
330
15C45
100
AcDbEntity
  8
0
  6
Continuous
 62
   255
100
AcDbLine
 10
429.4627803560981
 20
-277.0
 30
0.0
 11
429.4627803560978
 21
-233.1532223398645
 31
0.0
1001
ACDBBLOCKREPETAG
1070
     1
1071
       32
1005
0
  0
LINE
  5
15C5D
330
15C45
100
AcDbEntity
  8
0
  6
Continuous
 62
     2
370
     9
100
AcDbLine
 10
612.462780356098
 20
-262.0000040983596
 30
0.0
 11
429.4627803560981
 21
-262.0000040983596
 31
0.0
1001
ACDBBLOCKREPETAG
1070
     1
1071
       33
1005
0
  0
LINE
  5
15C5E
330
15C45
100
AcDbEntity
  8
0
  6
Continuous
 62
   255
100
AcDbLine
 10
562.4627940172972
 20
-257.5000053278675
 30
0.0
 11
562.4627940172975
 21
-277.0
 31
0.0
1001
ACDBBLOCKREPETAG
1070
     1
1071
       34
1005
0
  0
LINE
  5
15C5F
330
15C45
100
AcDbEntity
  8
0
  6
Continuous
 62
   255
100
AcDbLine
 10
537.4628008478956
 20
-257.5000053278675
 30
0.0
 11
537.4628008478956
 21
-277.0
 31
0.0
1001
ACDBBLOCKREPETAG
1070
     1
1071
       35
1005
0
  0
LINE
  5
15C60
330
15C45
100
AcDbEntity
  8
0
  6
Continuous
 62
   255
100
AcDbLine
 10
436.362828470839
 20
-257.5000053278675
 30
0.0
 11
436.362828470839
 21
-277.0
 31
0.0
1001
ACDBBLOCKREPETAG
1070
     1
1071
       36
1005
0
  0
LINE
  5
15C61
330
15C45
100
AcDbEntity
  8
0
  6
CENTER
 62
     2
 48
0.2
370
     9
100
AcDbLine
 10
786.4016626113227
 20
-256.956109012551
 30
0.0
 11
793.5016606714325
 21
-256.956109012551
 31
0.0
1001
ACDBBLOCKREPETAG
1070
     1
1071
       37
1005
0
  0
LINE
  5
15C62
330
15C45
100
AcDbEntity
  8
0
  6
Continuous
 62
   255
100
AcDbLine
 10
795.4627303561112
 20
-273.0000010928959
 30
0.0
 11
612.462780356098
 21
-273.0000010928959
 31
0.0
1001
ACDBBLOCKREPETAG
1070
     1
1071
       38
1005
0
  0
CIRCLE
  5
15C63
330
15C45
100
AcDbEntity
  8
0
  6
Continuous
 62
   255
100
AcDbCircle
 10
790.0016616277157
 20
-256.956109012551
 30
0.0
 40
3.099999153005696
1001
ACDBBLOCKREPETAG
1070
     1
1071
       39
1005
0
  0
CIRCLE
  5
15C64
330
15C45
100
AcDbEntity
  8
0
  6
Continuous
 62
   255
100
AcDbCircle
 10
790.0016616277157
 20
-256.956109012551
 30
0.0
 40
1.499999590164045
1001
ACDBBLOCKREPETAG
1070
     1
1071
       40
1005
0
  0
MTEXT
  5
15C65
330
15C45
100
AcDbEntity
  8
0
 62
   255
100
AcDbMText
 10
742.4886817458279
 20
-258.0961633175244
 30
0.0
 40
3.0
 41
0.0
 71
     1
 72
     5
  1
Scale: X:1
 73
     1
 44
1.0
1001
ACDBBLOCKREPETAG
1070
     1
1071
       46
1005
0
1001
ACAD
1000
MTEXTBEGIN
1070
    73
1070
     1
1070
    44
1040
1.0
1070
    74
1070
     0
1000
MTEXTEND
  0
MTEXT
  5
15C66
330
15C45
100
AcDbEntity
  8
0
 62
   255
100
AcDbMText
 10
785.9761987320681
 20
-266.1776207634082
 30
0.0
 40
4.5
 41
0.0
 71
     1
 72
     5
  1
{\fISOCPEUR|b0|i0|c0|p34;\W1;A3}
  7
SLDTEXTSTYLE0
 73
     1
 44
1.0
1001
ACDBBLOCKREPETAG
1070
     1
1071
       50
1005
0
1001
ACAD
1000
MTEXTBEGIN
1070
    73
1070
     1
1070
    44
1040
1.0
1070
    74
1070
     0
1000
MTEXTEND
  0
TEXT
  5
15C67
330
15C45
100
AcDbEntity
  8
0
  6
Continuous
 62
   255
100
AcDbText
 10
615.9995527439949
 20
-275.600626952933
 30
0.0
 40
1.72391304347826
  1
This drawing remains our property. Without written approval it may not be copied, reproduced, communicated or made available to third parties.
100
AcDbText
1001
ACDBBLOCKREPETAG
1070
     1
1071
       51
1005
0
  0
MTEXT
  5
15C68
330
15C45
100
AcDbEntity
  8
0
 62
   255
100
AcDbMText
 10
430.8431967639346
 20
-272.4012695934838
 30
0.0
 40
1.999999453552061
 41
0.0
 71
     1
 72
     5
  1
No.
 73
     1
 44
1.0
1001
ACDBBLOCKREPETAG
1070
     1
1071
       52
1005
0
1001
ACAD
1000
MTEXTBEGIN
1070
    73
1070
     1
1070
    44
1040
1.0
1070
    74
1070
     0
1000
MTEXTEND
  0
MTEXT
  5
15C69
330
15C45
100
AcDbEntity
  8
0
 62
   255
100
AcDbMText
 10
465.3543791596413
 20
-272.5568974675624
 30
0.0
 40
1.999999453552061
 41
0.0
 71
     1
 72
     5
  1
Modifications
 73
     1
 44
1.0
1001
ACDBBLOCKREPETAG
1070
     1
1071
       53
1005
0
1001
ACAD
1000
MTEXTBEGIN
1070
    73
1070
     1
1070
    44
1040
1.0
1070
    74
1070
     0
1000
MTEXTEND
  0
MTEXT
  5
15C6A
330
15C45
100
AcDbEntity
  8
0
 62
   255
100
AcDbMText
 10
516.3394128285573
 20
-272.4090513971577
 30
0.0
 40
1.999999453552061
 41
0.0
 71
     1
 72
     5
  1
Communication
 73
     1
 44
1.0
1001
ACDBBLOCKREPETAG
1070
     1
1071
       54
1005
0
1001
ACAD
1000
MTEXTBEGIN
1070
    73
1070
     1
1070
    44
1040
1.0
1070
    74
1070
     0
1000
MTEXTEND
  0
MTEXT
  5
15C6B
330
15C45
100
AcDbEntity
  8
0
 62
   255
100
AcDbMText
 10
546.4272744208374
 20
-272.4579818509886
 30
0.0
 40
1.999999453552061
 41
0.0
 71
     1
 72
     5
  1
Drawn
 73
     1
 44
1.0
1001
ACDBBLOCKREPETAG
1070
     1
1071
       55
1005
0
1001
ACAD
1000
MTEXTBEGIN
1070
    73
1070
     1
1070
    44
1040
1.0
1070
    74
1070
     0
1000
MTEXTEND
  0
MTEXT
  5
15C6C
330
15C45
100
AcDbEntity
  8
0
 62
   255
100
AcDbMText
 10
594.0824088716579
 20
-272.537497781863
 30
0.0
 40
1.999999453552061
 41
0.0
 71
     1
 72
     5
  1
Approved
 73
     1
 44
1.0
1001
ACDBBLOCKREPETAG
1070
     1
1071
       56
1005
0
1001
ACAD
1000
MTEXTBEGIN
1070
    73
1070
     1
1070
    44
1040
1.0
1070
    74
1070
     0
1000
MTEXTEND
  0
MTEXT
  5
15C6D
330
15C45
100
AcDbEntity
  8
0
 62
   255
100
AcDbMText
 10
747.2395558258272
 20
-266.23226977527
 30
0.0
 40
4.5
 41
0.0
 71
     1
 72
     5
  1
{\fISOCPEUR|b0|i0|c0|p34;\W1;\C256;Drg. No.}
  7
SLDTEXTSTYLE0
 73
     1
 44
1.0
1001
ACDBBLOCKREPETAG
1070
     1
1071
       58
1005
0
1001
ACAD
1000
MTEXTBEGIN
1070
    73
1070
     1
1070
    44
1040
1.0
1070
    74
1070
     0
1000
MTEXTEND
  0
MTEXT
  5
15C6E
102
{ACAD_XDICTIONARY
360
15DF1
102
}
330
15C45
100
AcDbEntity
  8
0
 62
   255
100
AcDbMText
 10
690.4446702144996
 20
-257.668031930731
 30
0.0
 40
4.5
 41
0.0
 71
     1
 72
     5
  1
{\fISOCPEUR|b0|i0|c0|p34;\W1;Description\POutline drawing}
  7
SLDTEXTSTYLE0
 73
     1
 44
1.0
1001
ACDBBLOCKREPETAG
1070
     1
1071
       59
1005
0
1001
ACAD
1000
MTEXTBEGIN
1070
    73
1070
     1
1070
    44
1040
1.0
1070
    74
1070
     0
1000
MTEXTEND
  0
MTEXT
  5
15C6F
330
15C45
100
AcDbEntity
  8
0
 62
     1
100
AcDbMText
 10
614.8696824671969
 20
-259.2996853159084
 30
0.0
 40
5.0
 41
0.0
 71
     1
 72
     5
  1
{\fISOCPEUR|b0|i0|c0|p34;\W1;Portescap}
  7
SLDTEXTSTYLE0
 73
     1
 44
1.0
1001
ACDBBLOCKREPETAG
1070
     1
1071
       65
1005
0
1001
ACAD
1000
MTEXTBEGIN
1070
    73
1070
     1
1070
    44
1040
1.0
1070
    74
1070
     0
1000
MTEXTEND
  0
LINE
  5
15C70
330
15C45
100
AcDbEntity
  8
0
  6
Continuous
 62
   255
100
AcDbLine
 10
512.4628076784954
 20
-257.5000053278675
 30
0.0
 11
512.4628076784956
 21
-277.0
 31
0.0
1001
ACDBBLOCKREPETAG
1070
     1
1071
       66
1005
0
  0
MTEXT
  5
15C71
330
15C45
100
AcDbEntity
  8
0
 62
   255
100
AcDbMText
 10
569.768144688197
 20
-272.4579818509886
 30
0.0
 40
1.999999453552061
 41
0.0
 71
     1
 72
     5
  1
Checked
 73
     1
 44
1.0
1001
ACDBBLOCKREPETAG
1070
     1
1071
       67
1005
0
1001
ACAD
1000
MTEXTBEGIN
1070
    73
1070
     1
1070
    44
1040
1.0
1070
    74
1070
     0
1000
MTEXTEND
  0
LINE
  5
15C72
330
15C45
100
AcDbEntity
  8
0
  6
Continuous
 62
   255
100
AcDbLine
 10
773.534358534004
 20
-250.0008059763035
 30
0.0
 11
773.534358534003
 21
-264.0000010928961
 31
0.0
1001
ACDBBLOCKREPETAG
1070
     1
1071
        5
1005
0
  0
TEXT
  5
15C73
330
15C45
100
AcDbEntity
  8
0
  6
Continuous
 62
   255
100
AcDbText
 10
779.6181708028425
 20
-275.600626952933
 30
0.0
 40
1.72391304347826
  1
Sheet 1 of 1
100
AcDbText
1001
ACDBBLOCKREPETAG
1070
     1
1071
       51
1005
0
  0
INSERT
  5
15C74
330
15C45
100
AcDbEntity
  8
0
 62
   255
100
AcDbBlockReference
  2
A$C08716F59
 10
429.4627803560978
 20
-257.5000053278673
 30
0.0
  0
LINE
  5
15C75
330
15C45
100
AcDbEntity
  8
0
  6
Continuous
 62
   255
100
AcDbLine
 10
647.4627707932584
 20
-269.0000021857919
 30
0.0
 11
612.462780356098
 21
-269.0000021857919
 31
0.0
1001
ACDBBLOCKREPETAG
1070
     1
1071
       38
1005
0
  0
TEXT
  5
15C76
330
15C45
100
AcDbEntity
  8
0
  6
Continuous
 62
   255
100
AcDbText
 10
615.9995527439949
 20
-271.7908875797558
 30
0.0
 40
1.72391304347826
  1
PI/R&D/F/18 Rev 00
100
AcDbText
1001
ACDBBLOCKREPETAG
1070
     1
1071
       51
1005
0
  0
MTEXT
  5
15C77
330
15C45
100
AcDbEntity
  8
0
  6
Continuous
 62
   255
100
AcDbMText
 10
614.3222225762046
 20
-248.3998440810558
 30
0.0
 40
2.1
 41
122.5201940634145
 71
     7
 72
     1
  1
Unless & otherwise specified, all dimensions and tolerances are in mm.
  7
style1
 73
     1
 44
1.0
1001
ACDBBLOCKREPETAG
1070
     1
1071
       64
1005
0
1001
ACAD
1000
MTEXTBEGIN
1070
    73
1070
     1
1070
    44
1040
1.0
1070
    74
1070
     0
1000
MTEXTEND
  0
LINE
  5
15C78
330
15C45
100
AcDbEntity
  8
0
  6
Continuous
 62
   255
100
AcDbLine
 10
612.462780356098
 20
-250.0008059763035
 30
0.0
 11
795.4627303561112
 21
-250.0008059763035
 31
0.0
1001
ACDBBLOCKREPETAG
1070
     1
1071
        3
1005
0
  0
LINE
  5
15C79
330
15C45
100
AcDbEntity
  8
0
  6
Continuous
 62
   255
100
AcDbLine
 10
773.5343585340038
 20
-255.000001092896
 30
0.0
 11
747.7434997134061
 21
-255.0000010928961
 31
0.0
1001
ACDBBLOCKREPETAG
1070
     1
1071
       38
1005
0
  0
LINE
  5
15C7A
330
15C45
100
AcDbEntity
  8
0
  6
Continuous
 62
   255
100
AcDbLine
 10
795.4627303561112
 20
-264.0000010928959
 30
0.0
 11
732.4627505746859
 21
-264.0000010928962
 31
0.0
1001
ACDBBLOCKREPETAG
1070
     1
1071
       38
1005
0
  0
MTEXT
  5
15C7B
330
15C45
100
AcDbEntity
  8
1
 62
     4
100
AcDbMText
 10
408.137763946511
 20
-249.4153946635623
 30
0.0
 40
4.5
 41
49.18666449634293
 71
     2
 72
     5
  1
{\C256;Drg. No.}
 11
-0.0000000000000002
 21
-1.0
 31
0.0
 73
     1
 44
1.0
1001
ACAD
1000
MTEXTBEGIN
1070
    73
1070
     1
1070
    44
1040
1.0
1070
    74
1070
     0
1000
MTEXTEND
  0
LINE
  5
15C7C
330
15C45
100
AcDbEntity
  8
0
  6
Continuous
 62
   255
100
AcDbLine
 10
783.462730356111
 20
-273.0000010928959
 30
0.0
 11
783.4627303561107
 21
-264.000001092896
 31
0.0
  0
MTEXT
  5
15C7D
330
15C45
100
AcDbEntity
  8
1
 62
     3
100
AcDbMText
 10
616.955855400455
 20
-235.2485951401709
 30
0.0
 40
3.5
 41
134.8361601943441
 71
     1
 72
     5
  1
Technology: Description - no. x.xxx.xx.xxxx
 73
     1
 44
1.0
1001
ACAD
1000
MTEXTBEGIN
1070
    73
1070
     1
1070
    44
1040
1.0
1070
    74
1070
     0
1000
MTEXTEND
  0
LINE
  5
15C7E
330
15C45
100
AcDbEntity
  8
0
  6
Continuous
 62
   255
100
AcDbLine
 10
657.5563534752002
 20
-250.0008059763033
 30
0.0
 11
657.5563534752006
 21
-255.000001092896
 31
0.0
1001
ACDBBLOCKREPETAG
1070
     1
1071
       22
1005
0
  0
LINE
  5
15C7F
330
15C45
100
AcDbEntity
  8
0
  6
Continuous
 62
   255
100
AcDbLine
 10
747.7434997134054
 20
-250.0008059763033
 30
0.0
 11
747.7434997134061
 21
-255.000001092896
 31
0.0
1001
ACDBBLOCKREPETAG
1070
     1
1071
       22
1005
0
  0
LINE
  5
15C80
330
15C45
100
AcDbEntity
  8
0
  6
Continuous
 62
   255
100
AcDbLine
 10
777.1060302804662
 20
-277.0
 30
0.0
 11
777.106030280466
 21
-273.0000010928959
 31
0.0
  0
MTEXT
  5
15C81
330
15C45
100
AcDbEntity
  8
0
 62
   255
100
AcDbMText
 10
614.2184337595852
 20
-251.1665621572582
 30
0.0
 40
2.5
 41
0.0
 71
     1
 72
     5
  1
Drawn:
 73
     1
 44
1.0
1001
ACDBBLOCKREPETAG
1070
     1
1071
       46
1005
0
1001
ACAD
1000
MTEXTBEGIN
1070
    73
1070
     1
1070
    44
1040
1.0
1070
    74
1070
     0
1000
MTEXTEND
  0
MTEXT
  5
15C82
330
15C45
100
AcDbEntity
  8
0
 62
   255
100
AcDbMText
 10
659.83802214341
 20
-251.1665621572539
 30
0.0
 40
2.5
 41
0.0
 71
     1
 72
     5
  1
Checked:
 73
     1
 44
1.0
1001
ACDBBLOCKREPETAG
1070
     1
1071
       46
1005
0
1001
ACAD
1000
MTEXTBEGIN
1070
    73
1070
     1
1070
    44
1040
1.0
1070
    74
1070
     0
1000
MTEXTEND
  0
MTEXT
  5
15C83
330
15C45
100
AcDbEntity
  8
0
 62
   255
100
AcDbMText
 10
705.588009643413
 20
-251.1665621572539
 30
0.0
 40
2.5
 41
0.0
 71
     1
 72
     5
  1
Approved:
 73
     1
 44
1.0
1001
ACDBBLOCKREPETAG
1070
     1
1071
       46
1005
0
1001
ACAD
1000
MTEXTBEGIN
1070
    73
1070
     1
1070
    44
1040
1.0
1070
    74
1070
     0
1000
MTEXTEND
  0
MTEXT
  5
15C84
330
15C45
100
AcDbEntity
  8
0
 62
   255
100
AcDbMText
 10
749.3687540007138
 20
-251.1665621572497
 30
0.0
 40
2.5
 41
0.0
 71
     1
 72
     5
  1
Revision No: 00
 73
     1
 44
1.0
1001
ACDBBLOCKREPETAG
1070
     1
1071
       46
1005
0
1001
ACAD
1000
MTEXTBEGIN
1070
    73
1070
     1
1070
    44
1040
1.0
1070
    74
1070
     0
1000
MTEXTEND
  0
LINE
  5
15C85
330
15C45
100
AcDbEntity
  8
0
  6
Continuous
 62
   255
100
AcDbLine
 10
747.7434997134057
 20
-255.0000010928962
 30
0.0
 11
612.462780356098
 21
-255.0000010928959
 31
0.0
1001
ACDBBLOCKREPETAG
1070
     1
1071
       38
1005
0
  0
LINE
  5
15C86
330
15C45
100
AcDbEntity
  8
0
  6
Continuous
 62
   255
100
AcDbLine
 10
702.6499265943025
 20
-250.0008059762993
 30
0.0
 11
702.649926594303
 21
-255.0000010928919
 31
0.0
1001
ACDBBLOCKREPETAG
1070
     1
1071
       22
1005
0
  0
ENDBLK
  5
15C8A
330
15C45
100
AcDbEntity
  8
0
100
AcDbBlockEnd
  0
ENDSEC
  0
SECTION
  2
ENTITIES
  0
INSERT
  5
2CD
330
1388B
100
AcDbEntity
  8
0
100
AcDbBlockReference
  2
COUVERCLE_35N_TOP_
 10
0.0
 20
0.0
 30
0.0
 41
2.0
 42
2.0
 43
2.0
  0
LWPOLYLINE
  5
144BA
330
1388B
100
AcDbEntity
  8
0
 62
   255
100
AcDbPolyline
 90
        4
 70
     0
 43
0.0
 10
1326.499606461486
 20
274.4827410637216
 10
1324.518216846286
 20
274.4854329787215
 10
1322.537100393986
 20
274.4916933471216
 10
1321.799606461486
 20
274.4950901648215
1001
ACDBBLOCKREPETAG
1070
     1
1071
      369
1005
E4F3
  0
LWPOLYLINE
  5
144BB
330
1388B
100
AcDbEntity
  8
0
 62
   255
100
AcDbPolyline
 90
        4
 70
     0
 43
0.0
 38
1.921518015105080E+99
 10
1321.799606461486
 20
264.5441430978215
 10
1323.366547037285
 20
264.5392804249215
 10
1324.933694768786
 20
264.5320729038215
 10
1326.499606461486
 20
264.5228669885215
1001
ACDBBLOCKREPETAG
1070
     1
1071
      370
1005
E4F4
  0
LINE
  5
144BC
330
1388B
100
AcDbEntity
  8
1
 62
     2
100
AcDbLine
 10
1386.199606461485
 20
252.3231535415216
 30
0.0
 11
1386.199606461485
 21
287.3231535415216
 31
0.0
1001
ACDBBLOCKREPETAG
1070
     1
1071
      371
1005
E4F5
  0
LINE
  5
144BD
330
1388B
100
AcDbEntity
  8
1
 62
   255
100
AcDbLine
 10
1386.48828159608
 20
286.8231535415216
 30
0.0
 11
1386.48828159608
 21
252.8231535415216
 31
0.0
1001
ACDBBLOCKREPETAG
1070
     1
1071
      372
1005
E4F6
  0
LINE
  5
144BE
330
1388B
100
AcDbEntity
  8
1
 62
   255
100
AcDbLine
 10
1386.199606461485
 20
287.3231535415216
 30
0.0
 11
1386.48828159608
 21
286.8231535415216
 31
0.0
1001
ACDBBLOCKREPETAG
1070
     1
1071
      373
1005
E4F7
  0
LINE
  5
144BF
330
1388B
100
AcDbEntity
  8
1
 62
   255
100
AcDbLine
 10
1386.48828159608
 20
286.8231535415216
 30
0.0
 11
1392.699606461486
 21
286.8231535415216
 31
0.0
1001
ACDBBLOCKREPETAG
1070
     1
1071
      374
1005
E4F8
  0
LINE
  5
144C0
330
1388B
100
AcDbEntity
  8
1
 62
   255
100
AcDbLine
 10
1386.199606461485
 20
252.3231535415216
 30
0.0
 11
1337.632619163379
 21
252.3286787005452
 31
0.0
1001
ACDBBLOCKREPETAG
1070
     1
1071
      375
1005
E4F9
  0
LINE
  5
144C1
330
1388B
100
AcDbEntity
  8
1
 62
   255
100
AcDbLine
 10
1386.48828159608
 20
252.8231535415216
 30
0.0
 11
1386.199606461485
 21
252.3231535415216
 31
0.0
1001
ACDBBLOCKREPETAG
1070
     1
1071
      376
1005
E4FA
  0
LINE
  5
144C2
330
1388B
100
AcDbEntity
  8
1
 62
   255
100
AcDbLine
 10
1329.699606461486
 20
253.4231535415214
 30
0.0
 11
1329.699606461486
 21
286.2231535415216
 31
0.0
1001
ACDBBLOCKREPETAG
1070
     1
1071
      377
1005
E4FB
  0
LINE
  5
144C3
330
1388B
100
AcDbEntity
  8
1
 62
   255
100
AcDbLine
 10
1337.199606461487
 20
286.5786787005452
 30
0.0
 11
1337.199606461487
 21
253.0786787005452
 31
0.0
1001
ACDBBLOCKREPETAG
1070
     1
1071
      378
1005
E4FC
  0
LINE
  5
144C4
330
1388B
100
AcDbEntity
  8
1
 62
   255
100
AcDbLine
 10
1337.199606461487
 20
286.5786787005452
 30
0.0
 11
1337.632619163379
 21
287.3286787005452
 31
0.0
1001
ACDBBLOCKREPETAG
1070
     1
1071
      379
1005
E4FD
  0
LINE
  5
144C5
330
1388B
100
AcDbEntity
  8
1
 62
   255
100
AcDbLine
 10
1329.699606461486
 20
286.2231535415216
 30
0.0
 11
1330.305824244135
 21
286.5731535415216
 31
0.0
1001
ACDBBLOCKREPETAG
1070
     1
1071
      380
1005
E4FE
  0
LINE
  5
144C6
330
1388B
100
AcDbEntity
  8
1
 62
   255
100
AcDbLine
 10
1337.199606461487
 20
253.0786787005452
 30
0.0
 11
1330.305824244135
 21
253.0731535415216
 31
0.0
1001
ACDBBLOCKREPETAG
1070
     1
1071
      381
1005
E4FF
  0
LINE
  5
144C7
330
1388B
100
AcDbEntity
  8
1
 62
   255
100
AcDbLine
 10
1337.632619163379
 20
252.3286787005452
 30
0.0
 11
1337.199606461487
 21
253.0786787005452
 31
0.0
1001
ACDBBLOCKREPETAG
1070
     1
1071
      382
1005
E500
  0
LINE
  5
144C8
330
1388B
100
AcDbEntity
  8
1
 62
   255
100
AcDbLine
 10
1330.305824244135
 20
286.5731535415216
 30
0.0
 11
1337.199606461487
 21
286.5786787005452
 31
0.0
1001
ACDBBLOCKREPETAG
1070
     1
1071
      383
1005
E501
  0
LINE
  5
144C9
330
1388B
100
AcDbEntity
  8
1
 62
   255
100
AcDbLine
 10
1330.305824244135
 20
253.0731535415216
 30
0.0
 11
1329.699606461486
 21
253.4231535415214
 31
0.0
1001
ACDBBLOCKREPETAG
1070
     1
1071
      384
1005
E502
  0
LINE
  5
144CA
330
1388B
100
AcDbEntity
  8
1
 62
     2
100
AcDbLine
 10
1330.305824244135
 20
286.5731535415216
 30
0.0
 11
1330.305824244135
 21
253.0731535415216
 31
0.0
1001
ACDBBLOCKREPETAG
1070
     1
1071
      385
1005
E503
  0
LINE
  5
144CB
330
1388B
100
AcDbEntity
  8
1
 62
     2
100
AcDbLine
 10
1337.632619163379
 20
287.3286787005452
 30
0.0
 11
1337.632619163379
 21
252.3286787005452
 31
0.0
1001
ACDBBLOCKREPETAG
1070
     1
1071
      386
1005
E504
  0
LINE
  5
144CC
330
1388B
100
AcDbEntity
  8
1
 62
   255
100
AcDbLine
 10
1337.632619163379
 20
287.3286787005452
 30
0.0
 11
1386.199606461485
 21
287.3231535415216
 31
0.0
1001
ACDBBLOCKREPETAG
1070
     1
1071
      387
1005
E505
  0
LINE
  5
144CD
330
1388B
100
AcDbEntity
  8
1
 62
   255
100
AcDbLine
 10
1405.999606461486
 20
272.3231535415215
 30
0.0
 11
1398.099606461485
 21
272.3231535415215
 31
0.0
1001
ACDBBLOCKREPETAG
1070
     1
1071
      394
1005
E506
  0
LINE
  5
144CE
330
1388B
100
AcDbEntity
  8
1
 62
   255
100
AcDbLine
 10
1405.999606461486
 20
267.3231535415214
 30
0.0
 11
1395.099606461486
 21
267.3231535415214
 31
0.0
1001
ACDBBLOCKREPETAG
1070
     1
1071
      422
1005
E507
  0
LINE
  5
144CF
330
1388B
100
AcDbEntity
  8
1
 62
   255
100
AcDbLine
 10
1395.099606461486
 20
272.3231535415215
 30
0.0
 11
1405.999606461486
 21
272.3231535415215
 31
0.0
1001
ACDBBLOCKREPETAG
1070
     1
1071
      423
1005
E508
  0
LINE
  5
144D0
330
1388B
100
AcDbEntity
  8
1
 62
   255
100
AcDbLine
 10
1470.7682474734
 20
278.0731535415214
 30
0.0
 11
1470.7682474734
 21
278.5731535415215
 31
0.0
1001
ACDBBLOCKREPETAG
1070
     1
1071
      426
1005
E509
  0
LINE
  5
144D1
330
1388B
100
AcDbEntity
  8
1
 62
   255
100
AcDbLine
 10
1473.7682474734
 20
278.0731535415214
 30
0.0
 11
1473.7682474734
 21
278.5731535415215
 31
0.0
1001
ACDBBLOCKREPETAG
1070
     1
1071
      428
1005
E50A
  0
LINE
  5
144D2
330
1388B
100
AcDbEntity
  8
1
  6
CENTER
370
     9
100
AcDbLine
 10
1474.054759970915
 20
278.3231535415215
 30
0.0
 11
1470.328772053798
 21
278.3231535415215
 31
0.0
1001
ACDBBLOCKREPETAG
1070
     1
1071
      429
1005
E50B
  0
LINE
  5
144D3
330
1388B
100
AcDbEntity
  8
1
 62
   255
100
AcDbLine
 10
1485.258628530166
 20
270.3231535415214
 30
0.0
 11
1487.259911823965
 21
270.3231535415214
 31
0.0
1001
ACDBBLOCKREPETAG
1070
     1
1071
      431
1005
E50C
  0
LINE
  5
144D4
330
1388B
100
AcDbEntity
  8
1
 62
   255
100
AcDbLine
 10
1480.197092350574
 20
282.5563157141203
 30
0.0
 11
1479.196450703675
 21
280.8231535415215
 31
0.0
1001
ACDBBLOCKREPETAG
1070
     1
1071
      432
1005
E50D
  0
LINE
  5
144D5
330
1388B
100
AcDbEntity
  8
1
 62
   255
100
AcDbLine
 10
1478.330425299891
 20
281.3231535415214
 30
0.0
 11
1479.33106694679
 21
283.0563157141203
 31
0.0
1001
ACDBBLOCKREPETAG
1070
     1
1071
      452
1005
E50E
  0
LINE
  5
144D6
330
1388B
100
AcDbEntity
  8
1
 62
   255
100
AcDbLine
 10
1465.340044243124
 20
280.8231535415215
 30
0.0
 11
1464.339402596225
 21
282.5563157141203
 31
0.0
1001
ACDBBLOCKREPETAG
1070
     1
1071
      453
1005
E50F
  0
LINE
  5
144D7
330
1388B
100
AcDbEntity
  8
1
 62
   255
100
AcDbLine
 10
1459.277866416633
 20
269.3231535415216
 30
0.0
 11
1457.276583122835
 21
269.3231535415216
 31
0.0
1001
ACDBBLOCKREPETAG
1070
     1
1071
      454
1005
E510
  0
LINE
  5
144D8
330
1388B
100
AcDbEntity
  8
1
 62
   255
100
AcDbLine
 10
1466.206069646909
 20
258.3231535415214
 30
0.0
 11
1465.205428000009
 21
256.5899913689228
 31
0.0
1001
ACDBBLOCKREPETAG
1070
     1
1071
      455
1005
E511
  0
LINE
  5
144D9
330
1388B
100
AcDbEntity
  8
1
 62
   255
100
AcDbLine
 10
1479.196450703675
 20
258.8231535415216
 30
0.0
 11
1480.197092350574
 21
257.0899913689228
 31
0.0
1001
ACDBBLOCKREPETAG
1070
     1
1071
      456
1005
E512
  0
LINE
  5
144DA
330
1388B
100
AcDbEntity
  8
1
 62
   255
100
AcDbLine
 10
1465.205428000009
 20
283.0563157141203
 30
0.0
 11
1466.206069646909
 21
281.3231535415216
 31
0.0
1001
ACDBBLOCKREPETAG
1070
     1
1071
      457
1005
E513
  0
LINE
  5
144DB
330
1388B
100
AcDbEntity
  8
1
 62
   255
100
AcDbLine
 10
1457.276583122835
 20
270.3231535415214
 30
0.0
 11
1459.277866416633
 21
270.3231535415214
 31
0.0
1001
ACDBBLOCKREPETAG
1070
     1
1071
      458
1005
E514
  0
LINE
  5
144DC
330
1388B
100
AcDbEntity
  8
1
 62
   255
100
AcDbLine
 10
1464.339402596225
 20
257.0899913689228
 30
0.0
 11
1465.340044243124
 21
258.8231535415214
 31
0.0
1001
ACDBBLOCKREPETAG
1070
     1
1071
      459
1005
E515
  0
LINE
  5
144DD
330
1388B
100
AcDbEntity
  8
1
 62
   255
100
AcDbLine
 10
1479.33106694679
 20
256.5899913689228
 30
0.0
 11
1478.330425299891
 21
258.3231535415214
 31
0.0
1001
ACDBBLOCKREPETAG
1070
     1
1071
      460
1005
E516
  0
LINE
  5
144DE
330
1388B
100
AcDbEntity
  8
1
 62
   255
100
AcDbLine
 10
1487.259911823965
 20
269.3231535415214
 30
0.0
 11
1485.258628530166
 21
269.3231535415214
 31
0.0
1001
ACDBBLOCKREPETAG
1070
     1
1071
      461
1005
E517
  0
LINE
  5
144DF
330
1388B
100
AcDbEntity
  8
1
 62
   255
100
AcDbLine
 10
1467.260216061832
 20
264.5065222169817
 30
0.0
 11
1467.05613966804
 21
264.322771008558
 31
0.0
1001
ACDBBLOCKREPETAG
1070
     1
1071
      462
1005
E518
  0
LINE
  5
144E0
330
1388B
100
AcDbEntity
  8
1
 62
   255
100
AcDbLine
 10
1466.457248671287
 20
265.3982864066232
 30
0.0
 11
1466.253182920078
 21
265.2145447808247
 31
0.0
1001
ACDBBLOCKREPETAG
1070
     1
1071
      463
1005
E519
  0
LINE
  5
144E1
330
1388B
100
AcDbEntity
  8
1
 62
   255
100
AcDbLine
 10
1466.163529485096
 20
273.8323900772831
 30
0.0
 11
1465.949882680226
 21
273.9993790762432
 31
0.0
1001
ACDBBLOCKREPETAG
1070
     1
1071
      464
1005
E51A
  0
LINE
  5
144E2
330
1388B
100
AcDbEntity
  8
1
 62
   255
100
AcDbLine
 10
1466.902515106937
 20
274.7778530594829
 30
0.0
 11
1466.688868526316
 21
274.9448418831677
 31
0.0
1001
ACDBBLOCKREPETAG
1070
     1
1071
      465
1005
E51B
  0
LINE
  5
144E3
330
1388B
100
AcDbEntity
  8
1
 62
   255
100
AcDbLine
 10
1477.846589048307
 20
264.7007654670301
 30
0.0
 11
1477.632942467685
 21
264.8677542907149
 31
0.0
1001
ACDBBLOCKREPETAG
1070
     1
1071
      466
1005
E51C
  0
LINE
  5
144E4
330
1388B
100
AcDbEntity
  8
1
 62
   255
100
AcDbLine
 10
1478.585574894397
 20
265.6462282739545
 30
0.0
 11
1478.371928089528
 21
265.8132172729147
 31
0.0
1001
ACDBBLOCKREPETAG
1070
     1
1071
      467
1005
E51D
  0
LINE
  5
144E5
330
1388B
100
AcDbEntity
  8
1
 62
   255
100
AcDbLine
 10
1477.479388680492
 20
275.3226657455045
 30
0.0
 11
1477.275368699078
 21
275.1389653310149
 31
0.0
1001
ACDBBLOCKREPETAG
1070
     1
1071
      468
1005
E51E
  0
LINE
  5
144E6
330
1388B
100
AcDbEntity
  8
1
 62
   255
100
AcDbLine
 10
1478.282436933195
 20
274.430974364476
 30
0.0
 11
1478.078314754659
 21
274.2471819312853
 31
0.0
1001
ACDBBLOCKREPETAG
1070
     1
1071
      469
1005
E51F
  0
LINE
  5
144E7
330
1388B
100
AcDbEntity
  8
1
  6
CENTER
 62
     2
370
     9
100
AcDbLine
 10
1472.2682474734
 20
288.2667153663592
 30
0.0
 11
1472.2682474734
 21
251.628915429394
 31
0.0
1001
ACDBBLOCKREPETAG
1070
     1
1071
      470
1005
E520
  0
LINE
  5
144E8
330
1388B
100
AcDbEntity
  8
1
  6
CENTER
 62
     2
370
     9
100
AcDbLine
 10
1490.661221910964
 20
269.8231535415214
 30
0.0
 11
1453.885334994651
 21
269.8231535415214
 31
0.0
1001
ACDBBLOCKREPETAG
1070
     1
1071
      471
1005
E521
  0
LINE
  5
144E9
330
1388B
100
AcDbEntity
  8
1
  6
CENTER
 62
     2
 48
0.5
370
     9
100
AcDbLine
 10
1467.425945061612
 20
273.606949021956
 30
0.0
 11
1462.832723216457
 21
277.1975448567817
 31
0.0
1001
ACDBBLOCKREPETAG
1070
     1
1071
      472
1005
E522
  0
LINE
  5
144EA
330
1388B
100
AcDbEntity
  8
1
  6
CENTER
 62
     2
 48
0.5
370
     9
100
AcDbLine
 10
1467.767826118371
 20
265.770955994148
 30
0.0
 11
1463.439106048504
 21
261.8733589767519
 31
0.0
1001
ACDBBLOCKREPETAG
1070
     1
1071
      474
1005
E523
  0
LINE
  5
144EB
330
1388B
100
AcDbEntity
  8
1
  6
CENTER
 62
     2
 48
0.5
370
     9
100
AcDbLine
 10
1477.04911907491
 20
266.0843581925133
 30
0.0
 11
1481.631452415033
 21
262.5022740782468
 31
0.0
1001
ACDBBLOCKREPETAG
1070
     1
1071
      477
1005
E524
  0
LINE
  5
144EC
330
1388B
100
AcDbEntity
  8
1
  6
CENTER
 62
     2
 48
0.5
370
     9
100
AcDbLine
 10
1476.776146016823
 20
273.882083579496
 30
0.0
 11
1481.170219230769
 21
277.8385248315215
 31
0.0
1001
ACDBBLOCKREPETAG
1070
     1
1071
      478
1005
E525
  0
LINE
  5
144ED
330
1388B
100
AcDbEntity
  8
1
  6
CENTER
 62
     2
370
     9
100
AcDbLine
 10
1461.672472928994
 20
263.7056011537661
 30
0.0
 11
1458.835406874403
 21
262.0675991234526
 31
0.0
1001
ACDBBLOCKREPETAG
1070
     1
1071
      480
1005
E526
  0
LINE
  5
144EE
330
1388B
100
AcDbEntity
  8
1
  6
CENTER
 62
     2
370
     9
100
AcDbLine
 10
1485.508286425334
 20
277.4673924374066
 30
0.0
 11
1482.726152054941
 21
275.8611056398421
 31
0.0
1001
ACDBBLOCKREPETAG
1070
     1
1071
      481
1005
E527
  0
LINE
  5
144EF
330
1388B
100
AcDbEntity
  8
1
  6
CENTER
 62
     2
370
     9
100
AcDbLine
 10
1465.255576001534
 20
282.0090506979174
 30
0.0
 11
1463.983820309962
 21
284.2189765625085
 31
0.0
1001
ACDBBLOCKREPETAG
1070
     1
1071
      482
1005
E528
  0
LINE
  5
144F0
330
1388B
100
AcDbEntity
  8
1
  6
CENTER
 62
     2
370
     9
100
AcDbLine
 10
1479.31520824281
 20
281.9892537627493
 30
0.0
 11
1480.593182336241
 21
284.1955894313537
 31
0.0
1001
ACDBBLOCKREPETAG
1070
     1
1071
      483
1005
E529
  0
LINE
  5
144F1
330
1388B
100
AcDbEntity
  8
1
  6
CENTER
 62
     2
370
     9
100
AcDbLine
 10
1479.280918945265
 20
257.6372563851256
 30
0.0
 11
1480.552674636837
 21
255.4273305205344
 31
0.0
1001
ACDBBLOCKREPETAG
1070
     1
1071
      484
1005
E52A
  0
LINE
  5
144F2
330
1388B
100
AcDbEntity
  8
1
  6
CENTER
 62
     2
370
     9
100
AcDbLine
 10
1465.221286703989
 20
257.6570533202936
 30
0.0
 11
1463.943312610559
 21
255.4507176516892
 31
0.0
1001
ACDBBLOCKREPETAG
1070
     1
1071
      485
1005
E52B
  0
LINE
  5
144F3
330
1388B
100
AcDbEntity
  8
1
 62
     2
100
AcDbLine
 10
1392.699606461486
 20
252.8231535415216
 30
0.0
 11
1392.699606461486
 21
286.8231535415216
 31
0.0
1001
ACDBBLOCKREPETAG
1070
     1
1071
      486
1005
E52C
  0
LINE
  5
144F4
330
1388B
100
AcDbEntity
  8
1
  6
CENTER
 62
     2
370
     9
100
AcDbLine
 10
1307.274967192824
 20
269.8231535415214
 30
0.0
 11
1408.042972383276
 21
269.8231535415214
 31
0.0
1001
ACDBBLOCKREPETAG
1070
     1
1071
      487
1005
E52D
  0
LINE
  5
144F5
330
1388B
100
AcDbEntity
  8
1
 62
   255
100
AcDbLine
 10
1392.699606461486
 20
252.8231535415216
 30
0.0
 11
1386.48828159608
 21
252.8231535415216
 31
0.0
1001
ACDBBLOCKREPETAG
1070
     1
1071
      488
1005
E52E
  0
LINE
  5
144F6
330
1388B
100
AcDbEntity
  8
1
 62
   255
100
AcDbLine
 10
1393.699606461486
 20
253.8231535415216
 30
0.0
 11
1392.699606461486
 21
252.8231535415216
 31
0.0
1001
ACDBBLOCKREPETAG
1070
     1
1071
      489
1005
E52F
  0
LINE
  5
144F7
330
1388B
100
AcDbEntity
  8
1
 62
   255
100
AcDbLine
 10
1326.999606461485
 20
253.4231535415214
 30
0.0
 11
1326.999606461485
 21
286.2231535415216
 31
0.0
1001
ACDBBLOCKREPETAG
1070
     1
1071
      490
1005
E530
  0
LINE
  5
144F8
330
1388B
100
AcDbEntity
  8
1
 62
   255
100
AcDbLine
 10
1326.999606461485
 20
286.2231535415216
 30
0.0
 11
1329.699606461486
 21
286.2231535415216
 31
0.0
1001
ACDBBLOCKREPETAG
1070
     1
1071
      491
1005
E531
  0
LINE
  5
144F9
330
1388B
100
AcDbEntity
  8
1
 62
   255
100
AcDbLine
 10
1392.699606461486
 20
286.8231535415216
 30
0.0
 11
1393.699606461486
 21
285.8231535415216
 31
0.0
1001
ACDBBLOCKREPETAG
1070
     1
1071
      492
1005
E532
  0
LINE
  5
144FA
330
1388B
100
AcDbEntity
  8
1
 62
   255
100
AcDbLine
 10
1393.699606461486
 20
285.8231535415216
 30
0.0
 11
1393.699606461486
 21
253.8231535415216
 31
0.0
1001
ACDBBLOCKREPETAG
1070
     1
1071
      493
1005
E533
  0
LINE
  5
144FB
330
1388B
100
AcDbEntity
  8
1
 62
   255
100
AcDbLine
 10
1326.999606461485
 20
253.4231535415214
 30
0.0
 11
1329.699606461486
 21
253.4231535415214
 31
0.0
1001
ACDBBLOCKREPETAG
1070
     1
1071
      494
1005
E534
  0
LINE
  5
144FC
330
1388B
100
AcDbEntity
  8
1
 62
   255
100
AcDbLine
 10
1326.499606461486
 20
285.6414294861529
 30
0.0
 11
1326.499606461486
 21
254.00487759689
 31
0.0
1001
ACDBBLOCKREPETAG
1070
     1
1071
      495
1005
E535
  0
LINE
  5
144FD
330
1388B
100
AcDbEntity
  8
1
 62
   255
100
AcDbLine
 10
1326.999606461485
 20
285.6414294861529
 30
0.0
 11
1326.499606461486
 21
285.6414294861529
 31
0.0
1001
ACDBBLOCKREPETAG
1070
     1
1071
      496
1005
E536
  0
LINE
  5
144FE
330
1388B
100
AcDbEntity
  8
1
 62
   255
100
AcDbLine
 10
1326.499606461486
 20
254.00487759689
 30
0.0
 11
1326.999606461485
 21
254.00487759689
 31
0.0
1001
ACDBBLOCKREPETAG
1070
     1
1071
      497
1005
E537
  0
LINE
  5
144FF
330
1388B
100
AcDbEntity
  8
1
 62
   255
100
AcDbLine
 10
1395.099606461486
 20
277.8231535415214
 30
0.0
 11
1395.099606461486
 21
261.8231535415215
 31
0.0
1001
ACDBBLOCKREPETAG
1070
     1
1071
      501
1005
E538
  0
LINE
  5
14500
330
1388B
100
AcDbEntity
  8
1
 62
   255
100
AcDbLine
 10
1395.099606461486
 20
261.8231535415215
 30
0.0
 11
1393.699606461486
 21
261.8231535415215
 31
0.0
1001
ACDBBLOCKREPETAG
1070
     1
1071
      502
1005
E539
  0
LINE
  5
14501
330
1388B
100
AcDbEntity
  8
1
 62
   255
100
AcDbLine
 10
1393.699606461486
 20
277.8231535415214
 30
0.0
 11
1395.099606461486
 21
277.8231535415214
 31
0.0
1001
ACDBBLOCKREPETAG
1070
     1
1071
      503
1005
E53A
  0
LINE
  5
14502
330
1388B
100
AcDbEntity
  8
1
  6
CENTER
 62
     2
370
     9
100
AcDbLine
 10
1257.389055908631
 20
269.8231535415214
 30
0.0
 11
1219.414790863009
 21
269.8231535415214
 31
0.0
1001
ACDBBLOCKREPETAG
1070
     1
1071
      506
1005
E53B
  0
LINE
  5
14503
330
1388B
100
AcDbEntity
  8
1
  6
CENTER
 62
     2
370
     9
100
AcDbLine
 10
1238.418569638991
 20
288.6954934709248
 30
0.0
 11
1238.418569638991
 21
250.9163017046471
 31
0.0
1001
ACDBBLOCKREPETAG
1070
     1
1071
      507
1005
E53C
  0
LINE
  5
14504
330
1388B
100
AcDbEntity
  8
0
 62
   255
100
AcDbLine
 10
1321.799606461486
 20
273.6619114770215
 30
0.0
 11
1321.099606461486
 21
273.7231535415216
 31
0.0
1001
ACDBBLOCKREPETAG
1070
     1
1071
      509
1005
E53D
  0
LINE
  5
14505
330
1388B
100
AcDbEntity
  8
0
 62
   255
100
AcDbLine
 10
1321.099606461486
 20
277.3231535415214
 30
0.0
 11
1326.499606461486
 21
277.7955923246216
 31
0.0
1001
ACDBBLOCKREPETAG
1070
     1
1071
      510
1005
E53E
  0
LINE
  5
14506
330
1388B
100
AcDbEntity
  8
0
 62
   255
100
AcDbLine
 10
1326.499606461486
 20
261.3607147585215
 30
0.0
 11
1321.099606461486
 21
261.8331535415214
 31
0.0
1001
ACDBBLOCKREPETAG
1070
     1
1071
      511
1005
E53F
  0
LINE
  5
14507
330
1388B
100
AcDbEntity
  8
0
 62
   255
100
AcDbLine
 10
1321.099606461486
 20
265.4331535415215
 30
0.0
 11
1321.799606461486
 21
265.4943956060215
 31
0.0
1001
ACDBBLOCKREPETAG
1070
     1
1071
      512
1005
E540
  0
LINE
  5
14508
330
1388B
100
AcDbEntity
  8
0
 62
   255
100
AcDbLine
 10
1321.099606461486
 20
262.4756013937215
 30
0.0
 11
1320.699606461486
 21
262.5105968591215
 31
0.0
1001
ACDBBLOCKREPETAG
1070
     1
1071
      513
1005
E541
  0
LINE
  5
14509
330
1388B
100
AcDbEntity
  8
0
 62
   255
100
AcDbLine
 10
1320.699606461486
 20
277.1357102239215
 30
0.0
 11
1321.099606461486
 21
277.1707056893215
 31
0.0
1001
ACDBBLOCKREPETAG
1070
     1
1071
      514
1005
E542
  0
LINE
  5
1450A
330
1388B
100
AcDbEntity
  8
0
 62
   255
100
AcDbLine
 10
1326.497736069386
 20
260.6513854760215
 30
0.0
 11
1325.309548954334
 21
260.7553383787446
 31
0.0
1001
ACDBBLOCKREPETAG
1070
     1
1071
      515
1005
E543
  0
LINE
  5
1450B
330
1388B
100
AcDbEntity
  8
0
 62
   255
100
AcDbLine
 10
1321.799606461486
 20
278.5838885265214
 30
0.0
 11
1326.499047323586
 21
278.9950363269215
 31
0.0
1001
ACDBBLOCKREPETAG
1070
     1
1071
      516
1005
E544
  0
LINE
  5
1450C
330
1388B
100
AcDbEntity
  8
0
 62
   255
100
AcDbLine
 10
1326.499606461486
 20
259.8612733262215
 30
0.0
 11
1325.699606461486
 21
260.3231535415214
 31
0.0
1001
ACDBBLOCKREPETAG
1070
     1
1071
      517
1005
E545
  0
LINE
  5
1450D
330
1388B
100
AcDbEntity
  8
0
 62
   255
100
AcDbLine
 10
1325.699606461486
 20
279.3231535415214
 30
0.0
 11
1326.499606461486
 21
279.7850337569216
 31
0.0
1001
ACDBBLOCKREPETAG
1070
     1
1071
      518
1005
E546
  0
LINE
  5
1450E
330
1388B
100
AcDbEntity
  8
0
 62
   255
100
AcDbLine
 10
1321.099606461486
 20
277.8131535415215
 30
0.0
 11
1321.799606461486
 21
277.8743956060214
 31
0.0
1001
ACDBBLOCKREPETAG
1070
     1
1071
      519
1005
E547
  0
LINE
  5
1450F
330
1388B
100
AcDbEntity
  8
0
 62
   255
100
AcDbLine
 10
1321.799606461486
 20
264.5441430978215
 30
0.0
 11
1321.799606461486
 21
274.4950901648215
 31
0.0
1001
ACDBBLOCKREPETAG
1070
     1
1071
      520
1005
E548
  0
LINE
  5
14510
330
1388B
100
AcDbEntity
  8
0
 62
   255
100
AcDbLine
 10
1321.099606461486
 20
273.7231535415216
 30
0.0
 11
1321.099606461486
 21
277.3231535415214
 31
0.0
1001
ACDBBLOCKREPETAG
1070
     1
1071
      521
1005
E549
  0
LINE
  5
14511
330
1388B
100
AcDbEntity
  8
0
 62
   255
100
AcDbLine
 10
1321.099606461486
 20
261.8331535415214
 30
0.0
 11
1321.099606461486
 21
265.4331535415215
 31
0.0
1001
ACDBBLOCKREPETAG
1070
     1
1071
      522
1005
E54A
  0
LINE
  5
14512
330
1388B
100
AcDbEntity
  8
0
 62
   255
100
AcDbLine
 10
1320.699606461486
 20
262.5105968591215
 30
0.0
 11
1320.699606461486
 21
277.1357102239215
 31
0.0
1001
ACDBBLOCKREPETAG
1070
     1
1071
      523
1005
E54B
  0
LINE
  5
14513
330
1388B
100
AcDbEntity
  8
0
 62
   255
100
AcDbLine
 10
1321.799606461486
 20
277.3882635830215
 30
0.0
 11
1321.799606461486
 21
278.4834075794216
 31
0.0
1001
ACDBBLOCKREPETAG
1070
     1
1071
      524
1005
E54C
  0
LINE
  5
14514
330
1388B
100
AcDbEntity
  8
0
 62
   255
100
AcDbLine
 10
1321.799606461486
 20
261.0624185565214
 30
0.0
 11
1321.799606461486
 21
261.7719114770586
 31
0.0
1001
ACDBBLOCKREPETAG
1070
     1
1071
      525
1005
E54D
  0
LINE
  5
14515
330
1388B
100
AcDbEntity
  8
0
 62
   255
100
AcDbLine
 10
1321.799606461486
 20
278.4726725944218
 30
0.0
 11
1321.799606461486
 21
278.5731535415219
 31
0.0
1001
ACDBBLOCKREPETAG
1070
     1
1071
      527
1005
E54E
  0
LINE
  5
14516
330
1388B
100
AcDbEntity
  8
0
 62
   255
100
AcDbLine
 10
1325.699606461486
 20
260.3231535415214
 30
0.0
 11
1325.699606461486
 21
260.7212127688215
 31
0.0
1001
ACDBBLOCKREPETAG
1070
     1
1071
      528
1005
E54F
  0
LINE
  5
14517
330
1388B
100
AcDbEntity
  8
0
 62
   255
100
AcDbLine
 10
1325.699606461486
 20
278.9250943143215
 30
0.0
 11
1325.699606461486
 21
279.3231535415214
 31
0.0
1001
ACDBBLOCKREPETAG
1070
     1
1071
      529
1005
E550
  0
LINE
  5
14518
330
1388B
100
AcDbEntity
  8
0
 62
   255
100
AcDbLine
 10
1321.099606461486
 20
277.3231535415214
 30
0.0
 11
1321.099606461486
 21
277.8131535415215
 31
0.0
1001
ACDBBLOCKREPETAG
1070
     1
1071
      530
1005
E551
  0
LINE
  5
14519
330
1388B
100
AcDbEntity
  8
0
 62
   255
100
AcDbLine
 10
1325.699606461486
 20
278.9250943143215
 30
0.0
 11
1325.699606461486
 21
279.2039781822619
 31
0.0
1001
ACDBBLOCKREPETAG
1070
     1
1071
      547
1005
E552
  0
LINE
  5
1451A
330
1388B
100
AcDbEntity
  8
0
 62
   255
100
AcDbLine
 10
1325.699606461486
 20
279.2039781822619
 30
0.0
 11
1325.699606461486
 21
279.3231535415214
 31
0.0
1001
ACDBBLOCKREPETAG
1070
     1
1071
      565
1005
E553
  0
LINE
  5
1451B
330
1388B
100
AcDbEntity
  8
0
 62
   255
100
AcDbLine
 10
1325.309548954334
 20
260.7553383787446
 30
0.0
 11
1321.799606461486
 21
261.0624185565214
 31
0.0
1001
ACDBBLOCKREPETAG
1070
     1
1071
      566
1005
E554
  0
ARC
  5
1451C
330
1388B
100
AcDbEntity
  8
1
 62
   255
100
AcDbCircle
 10
1472.2682474734
 20
269.8231535415214
 30
0.0
 40
13.00000000000007
100
AcDbArc
 50
270.0
 51
297.7957724960301
1001
ACDBBLOCKREPETAG
1070
     1
1071
      569
1005
E555
  0
ARC
  5
1451D
330
1388B
100
AcDbEntity
  8
1
 62
   255
100
AcDbCircle
 10
1472.2682474734
 20
269.8231535415214
 30
0.0
 40
12.99999999999997
100
AcDbArc
 50
90.0
 51
117.7957724960299
1001
ACDBBLOCKREPETAG
1070
     1
1071
      570
1005
E556
  0
ARC
  5
1451E
330
1388B
100
AcDbEntity
  8
1
 62
   255
100
AcDbCircle
 10
1463.922952341722
 20
255.4155670272852
 30
0.0
 40
1.050000000000007
100
AcDbArc
 50
356.1010074495755
 51
123.737639811846
1001
ACDBBLOCKREPETAG
1070
     1
1071
      571
1005
E557
  0
ARC
  5
1451F
330
1388B
100
AcDbEntity
  8
1
 62
   255
100
AcDbCircle
 10
1455.61826397901
 20
269.8465978705144
 30
0.0
 40
1.050000000000161
100
AcDbArc
 50
296.1010074495771
 51
63.73763981184205
1001
ACDBBLOCKREPETAG
1070
     1
1071
      572
1005
E558
  0
ARC
  5
14520
330
1388B
100
AcDbEntity
  8
1
 62
   255
100
AcDbCircle
 10
1463.963559110688
 20
284.2541843847508
 30
0.0
 40
1.050000000000141
100
AcDbArc
 50
236.1010074495725
 51
3.737639811843216
1001
ACDBBLOCKREPETAG
1070
     1
1071
      573
1005
E559
  0
ARC
  5
14521
330
1388B
100
AcDbEntity
  8
1
 62
   255
100
AcDbCircle
 10
1480.613542605077
 20
284.2307400557577
 30
0.0
 40
1.050000000000054
100
AcDbArc
 50
176.101007449574
 51
303.7376398118464
1001
ACDBBLOCKREPETAG
1070
     1
1071
      574
1005
E55A
  0
ARC
  5
14522
330
1388B
100
AcDbEntity
  8
1
 62
   255
100
AcDbCircle
 10
1480.572935836112
 20
255.3921226982921
 30
0.0
 40
1.050000000000054
100
AcDbArc
 50
56.1010074495725
 51
183.7376398118432
1001
ACDBBLOCKREPETAG
1070
     1
1071
      576
1005
E55C
  0
ARC
  5
14523
330
1388B
100
AcDbEntity
  8
1
 62
   255
100
AcDbCircle
 10
1466.266639583722
 20
270.5600583309669
 30
0.0
 40
0.7999999999999956
100
AcDbArc
 50
114.4490623969917
 51
231.5509376030231
1001
ACDBBLOCKREPETAG
1070
     1
1071
      577
1005
E55D
  0
ARC
  5
14524
330
1388B
100
AcDbEntity
  8
1
 62
   255
100
AcDbCircle
 10
1478.269855363078
 20
269.0862487520759
 30
0.0
 40
0.8000000000000106
100
AcDbArc
 50
294.4490623969776
 51
51.55093760301471
1001
ACDBBLOCKREPETAG
1070
     1
1071
      578
1005
E55E
  0
ARC
  5
14525
330
1388B
100
AcDbEntity
  8
1
 62
   255
100
AcDbCircle
 10
1463.922952341722
 20
255.4155670272852
 30
0.0
 40
1.499999999999953
100
AcDbArc
 50
4.401816276369633
 51
115.4368309850434
1001
ACDBBLOCKREPETAG
1070
     1
1071
      579
1005
E55F
  0
ARC
  5
14526
330
1388B
100
AcDbEntity
  8
1
 62
   255
100
AcDbCircle
 10
1455.61826397901
 20
269.8465978705144
 30
0.0
 40
1.500000000000049
100
AcDbArc
 50
304.401816276368
 51
55.4368309850491
1001
ACDBBLOCKREPETAG
1070
     1
1071
      580
1005
E560
  0
ARC
  5
14527
330
1388B
100
AcDbEntity
  8
1
 62
   255
100
AcDbCircle
 10
1463.963559110688
 20
284.2541843847508
 30
0.0
 40
1.500000000000034
100
AcDbArc
 50
244.4018162763732
 51
355.4368309850476
1001
ACDBBLOCKREPETAG
1070
     1
1071
      581
1005
E561
  0
ARC
  5
14528
330
1388B
100
AcDbEntity
  8
1
 62
   255
100
AcDbCircle
 10
1480.613542605077
 20
284.2307400557577
 30
0.0
 40
1.500000000000046
100
AcDbArc
 50
184.401816276368
 51
295.4368309850505
1001
ACDBBLOCKREPETAG
1070
     1
1071
      582
1005
E562
  0
ARC
  5
14529
330
1388B
100
AcDbEntity
  8
1
 62
   255
100
AcDbCircle
 10
1472.2682474734
 20
269.8231535415214
 30
0.0
 40
12.99999999999998
100
AcDbArc
 50
242.2042275039698
 51
270.0
1001
ACDBBLOCKREPETAG
1070
     1
1071
      584
1005
E564
  0
ARC
  5
1452A
330
1388B
100
AcDbEntity
  8
1
 62
   255
100
AcDbCircle
 10
1472.2682474734
 20
269.8231535415214
 30
0.0
 40
14.9999999999999
100
AcDbArc
 50
1.910213171709785
 51
22.8899422995783
1001
ACDBBLOCKREPETAG
1070
     1
1071
      585
1005
E565
  0
ARC
  5
1452B
330
1388B
100
AcDbEntity
  8
1
 62
   255
100
AcDbCircle
 10
1472.2682474734
 20
269.8231535415214
 30
0.0
 40
13.00000000000004
100
AcDbArc
 50
2.204227503972357
 51
21.45698627900516
1001
ACDBBLOCKREPETAG
1070
     1
1071
      586
1005
E566
  0
ARC
  5
1452C
330
1388B
100
AcDbEntity
  8
1
 62
   255
100
AcDbCircle
 10
1484.219899921412
 20
276.7235325241569
 30
0.0
 40
2.15000000000015
100
AcDbArc
 50
89.72240361292248
 51
146.0708175926732
1001
ACDBBLOCKREPETAG
1070
     1
1071
      587
1005
E567
  0
ARC
  5
1452D
330
1388B
100
AcDbEntity
  8
1
 62
   255
100
AcDbCircle
 10
1484.219899921412
 20
276.7235325241569
 30
0.0
 40
2.149999999999763
100
AcDbArc
 50
273.9298240137812
 51
330.2782379935338
1001
ACDBBLOCKREPETAG
1070
     1
1071
      588
1005
E568
  0
ARC
  5
1452E
330
1388B
100
AcDbEntity
  8
1
 62
   255
100
AcDbCircle
 10
1472.2682474734
 20
269.8231535415214
 30
0.0
 40
12.99999999999992
100
AcDbArc
 50
182.2042275039722
 51
201.4569862790052
1001
ACDBBLOCKREPETAG
1070
     1
1071
      589
1005
E569
  0
ARC
  5
1452F
330
1388B
100
AcDbEntity
  8
1
 62
   255
100
AcDbCircle
 10
1472.2682474734
 20
269.8231535415214
 30
0.0
 40
14.99999999999997
100
AcDbArc
 50
181.9102131717098
 51
202.8899422995769
1001
ACDBBLOCKREPETAG
1070
     1
1071
      590
1005
E56A
  0
ARC
  5
14530
330
1388B
100
AcDbEntity
  8
1
 62
   255
100
AcDbCircle
 10
1460.316595025387
 20
262.9227745588862
 30
0.0
 40
2.149999999999983
100
AcDbArc
 50
269.722403612916
 51
326.0708175926705
1001
ACDBBLOCKREPETAG
1070
     1
1071
      591
1005
E56B
  0
ARC
  5
14531
330
1388B
100
AcDbEntity
  8
1
 62
   255
100
AcDbCircle
 10
1460.316595025387
 20
262.9227745588862
 30
0.0
 40
2.149999999999939
100
AcDbArc
 50
93.9298240137812
 51
150.2782379935364
1001
ACDBBLOCKREPETAG
1070
     1
1071
      592
1005
E56C
  0
ARC
  5
14532
330
1388B
100
AcDbEntity
  8
1
 62
   255
100
AcDbCircle
 10
1472.2682474734
 20
269.8231535415214
 30
0.0
 40
15.00000000000003
100
AcDbArc
 50
37.11069930687882
 51
58.08978682829287
1001
ACDBBLOCKREPETAG
1070
     1
1071
      593
1005
E56D
  0
ARC
  5
14533
330
1388B
100
AcDbEntity
  8
1
 62
   255
100
AcDbCircle
 10
1472.2682474734
 20
269.8231535415214
 30
0.0
 40
12.99999999999999
100
AcDbArc
 50
38.54365532745294
 51
57.79577249602755
1001
ACDBBLOCKREPETAG
1070
     1
1071
      594
1005
E56E
  0
ARC
  5
14534
330
1388B
100
AcDbEntity
  8
1
 62
   255
100
AcDbCircle
 10
1472.2682474734
 20
269.8231535415214
 30
0.0
 40
12.99999999999997
100
AcDbArc
 50
62.20422750397005
 51
90.0
1001
ACDBBLOCKREPETAG
1070
     1
1071
      595
1005
E56F
  0
ARC
  5
14535
330
1388B
100
AcDbEntity
  8
1
 62
   255
100
AcDbCircle
 10
1472.2682474734
 20
269.8231535415214
 30
0.0
 40
13.0
100
AcDbArc
 50
122.2042275039723
 51
177.7957724960275
1001
ACDBBLOCKREPETAG
1070
     1
1071
      596
1005
E570
  0
ARC
  5
14536
330
1388B
100
AcDbEntity
  8
1
 62
   255
100
AcDbCircle
 10
1472.2682474734
 20
269.8231535415214
 30
0.0
 40
13.00000000000009
100
AcDbArc
 50
218.543655327453
 51
237.7957724960276
1001
ACDBBLOCKREPETAG
1070
     1
1071
      597
1005
E571
  0
ARC
  5
14537
330
1388B
100
AcDbEntity
  8
1
 62
   255
100
AcDbCircle
 10
1472.2682474734
 20
269.8231535415214
 30
0.0
 40
12.99999999999994
100
AcDbArc
 50
302.2042275039725
 51
357.7957724960276
1001
ACDBBLOCKREPETAG
1070
     1
1071
      598
1005
E572
  0
ARC
  5
14538
330
1388B
100
AcDbEntity
  8
1
 62
   255
100
AcDbCircle
 10
1472.2682474734
 20
269.8231535415214
 30
0.0
 40
15.00000000000003
100
AcDbArc
 50
121.9102131717071
 51
178.0897868282902
1001
ACDBBLOCKREPETAG
1070
     1
1071
      599
1005
E573
  0
ARC
  5
14539
330
1388B
100
AcDbEntity
  8
1
 62
   255
100
AcDbCircle
 10
1472.2682474734
 20
269.8231535415214
 30
0.0
 40
14.99999999999993
100
AcDbArc
 50
241.9102131717066
 51
298.0897868282934
1001
ACDBBLOCKREPETAG
1070
     1
1071
      600
1005
E574
  0
ARC
  5
1453A
330
1388B
100
AcDbEntity
  8
1
 62
   255
100
AcDbCircle
 10
1472.2682474734
 20
269.8231535415214
 30
0.0
 40
15.00000000000005
100
AcDbArc
 50
301.9102131717072
 51
358.0897868282902
1001
ACDBBLOCKREPETAG
1070
     1
1071
      601
1005
E575
  0
ARC
  5
1453B
330
1388B
100
AcDbEntity
  8
1
 62
   255
100
AcDbCircle
 10
1472.2682474734
 20
269.8231535415214
 30
0.0
 40
15.0
100
AcDbArc
 50
61.91021317170655
 51
118.0897868282934
1001
ACDBBLOCKREPETAG
1070
     1
1071
      602
1005
E576
  0
ARC
  5
1453C
330
1388B
100
AcDbEntity
  8
1
 62
   255
100
AcDbCircle
 10
1472.2682474734
 20
269.8231535415214
 30
0.0
 40
14.99999999999993
100
AcDbArc
 50
217.1106993068788
 51
238.0897868282929
1001
ACDBBLOCKREPETAG
1070
     1
1071
      603
1005
E577
  0
ARC
  5
1453D
330
1388B
100
AcDbEntity
  8
1
 62
   255
100
AcDbCircle
 10
1480.572935836112
 20
255.3921226982921
 30
0.0
 40
1.499999999999919
100
AcDbArc
 50
64.40181627637314
 51
175.4368309850491
1001
ACDBBLOCKREPETAG
1070
     1
1071
      604
1005
E578
  0
ARC
  5
1453E
330
1388B
100
AcDbEntity
  8
1
  6
CENTER
370
     9
100
AcDbCircle
 10
1472.267728787312
 20
269.8228036750988
 30
0.0
 40
9.25
100
AcDbArc
 50
109.5363206631346
 51
250.8330172013148
1001
ACDBBLOCKREPETAG
1070
     1
1071
      605
1005
E579
  0
ARC
  5
1453F
330
1388B
100
AcDbEntity
  8
1
  6
CENTER
370
     9
100
AcDbCircle
 10
1472.267728787312
 20
269.8228036750988
 30
0.0
 40
9.25
100
AcDbArc
 50
288.3515586435931
 51
71.6751719949578
1001
ACDBBLOCKREPETAG
1070
     1
1071
      606
1005
E57A
  0
ARC
  5
14540
330
1388B
100
AcDbEntity
  8
1
  6
CENTER
 62
     2
370
     9
100
AcDbCircle
 10
1472.2682474734
 20
269.8231535415214
 30
0.0
 40
13.80062412871557
100
AcDbArc
 50
23.27855927586326
 51
36.65427646948276
1001
ACDBBLOCKREPETAG
1070
     1
1071
      607
1005
E57B
  0
ARC
  5
14541
330
1388B
100
AcDbEntity
  8
1
  6
CENTER
 62
     2
370
     9
100
AcDbCircle
 10
1472.2682474734
 20
269.8231535415214
 30
0.0
 40
13.80062412871564
100
AcDbArc
 50
203.3697661631572
 51
216.7856590256106
1001
ACDBBLOCKREPETAG
1070
     1
1071
      608
1005
E57C
  0
ARC
  5
14542
330
1388B
100
AcDbEntity
  8
1
 62
   255
100
AcDbCircle
 10
1479.142337109065
 20
276.012611650341
 30
0.0
 40
1.80000000000003
100
AcDbArc
 50
161.8064781684609
 51
282.1935218315415
1001
ACDBBLOCKREPETAG
1070
     1
1071
      609
1005
E57D
  0
ARC
  5
14543
330
1388B
100
AcDbEntity
  8
1
 62
   255
100
AcDbCircle
 10
1479.142337109065
 20
276.012611650341
 30
0.0
 40
1.799999999999912
100
AcDbArc
 50
331.6492528488543
 51
112.3507471511432
1001
ACDBBLOCKREPETAG
1070
     1
1071
      610
1005
E57E
  0
ARC
  5
14544
330
1388B
100
AcDbEntity
  8
1
 62
   255
100
AcDbCircle
 10
1479.557346944262
 20
264.1282848947592
 30
0.0
 40
1.8
100
AcDbArc
 50
81.80647816845656
 51
202.1935218315388
1001
ACDBBLOCKREPETAG
1070
     1
1071
      611
1005
E57F
  0
ARC
  5
14545
330
1388B
100
AcDbEntity
  8
1
 62
   255
100
AcDbCircle
 10
1479.557346944262
 20
264.1282848947592
 30
0.0
 40
1.800000000000022
100
AcDbArc
 50
251.6492528488605
 51
32.35074715114317
1001
ACDBBLOCKREPETAG
1070
     1
1071
      612
1005
E580
  0
ARC
  5
14546
330
1388B
100
AcDbEntity
  8
1
 62
   255
100
AcDbCircle
 10
1472.2682474734
 20
269.8231535415214
 30
0.0
 40
10.00000000000004
100
AcDbArc
 50
299.9999999999999
 51
312.2401825286133
1001
ACDBBLOCKREPETAG
1070
     1
1071
      613
1005
E581
  0
ARC
  5
14547
330
1388B
100
AcDbEntity
  8
1
 62
   255
100
AcDbCircle
 10
1476.8932474734
 20
261.8124185565154
 30
0.0
 40
0.7499999999999633
100
AcDbArc
 50
119.9999999999999
 51
299.9999999999999
1001
ACDBBLOCKREPETAG
1070
     1
1071
      614
1005
E582
  0
ARC
  5
14548
330
1388B
100
AcDbEntity
  8
1
 62
   255
100
AcDbCircle
 10
1472.2682474734
 20
269.8231535415214
 30
0.0
 40
8.499999999999987
100
AcDbArc
 50
299.9999999999999
 51
311.4117251956416
1001
ACDBBLOCKREPETAG
1070
     1
1071
      615
1005
E583
  0
ARC
  5
14549
330
1388B
100
AcDbEntity
  8
1
 62
   255
100
AcDbCircle
 10
1472.2682474734
 20
269.8231535415214
 30
0.0
 40
8.499999999999953
100
AcDbArc
 50
52.58827480435982
 51
60.00000000000006
1001
ACDBBLOCKREPETAG
1070
     1
1071
      616
1005
E584
  0
ARC
  5
1454A
330
1388B
100
AcDbEntity
  8
1
 62
   255
100
AcDbCircle
 10
1476.8932474734
 20
277.8338885265275
 30
0.0
 40
0.7500000000000308
100
AcDbArc
 50
60.00000000000006
 51
240.0000000000001
1001
ACDBBLOCKREPETAG
1070
     1
1071
      617
1005
E585
  0
ARC
  5
1454B
330
1388B
100
AcDbEntity
  8
1
 62
   255
100
AcDbCircle
 10
1472.2682474734
 20
269.8231535415214
 30
0.0
 40
9.999999999999953
100
AcDbArc
 50
51.759817471389
 51
60.00000000000006
1001
ACDBBLOCKREPETAG
1070
     1
1071
      618
1005
E586
  0
ARC
  5
1454C
330
1388B
100
AcDbEntity
  8
1
 62
   255
100
AcDbCircle
 10
1472.2682474734
 20
269.8231535415214
 30
0.0
 40
8.500000000000012
100
AcDbArc
 50
332.5882748043601
 51
31.41172519564066
1001
ACDBBLOCKREPETAG
1070
     1
1071
      619
1005
E587
  0
ARC
  5
1454D
330
1388B
100
AcDbEntity
  8
1
 62
   255
100
AcDbCircle
 10
1472.2682474734
 20
269.8231535415214
 30
0.0
 40
9.999999999999991
100
AcDbArc
 50
331.7598174713895
 51
32.24018252861109
1001
ACDBBLOCKREPETAG
1070
     1
1071
      620
1005
E588
  0
ARC
  5
1454E
330
1388B
100
AcDbEntity
  8
1
 62
   255
100
AcDbCircle
 10
1465.394157837734
 20
263.633695432702
 30
0.0
 40
1.80000000000005
100
AcDbArc
 50
341.806478168461
 51
102.1935218315415
1001
ACDBBLOCKREPETAG
1070
     1
1071
      621
1005
E589
  0
ARC
  5
1454F
330
1388B
100
AcDbEntity
  8
1
 62
   255
100
AcDbCircle
 10
1465.394157837734
 20
263.633695432702
 30
0.0
 40
1.799999999999971
100
AcDbArc
 50
151.6492528488542
 51
292.3507471511432
1001
ACDBBLOCKREPETAG
1070
     1
1071
      622
1005
E58A
  0
ARC
  5
14550
330
1388B
100
AcDbEntity
  8
1
 62
   255
100
AcDbCircle
 10
1464.979148002537
 20
275.5180221882838
 30
0.0
 40
1.799999999999929
100
AcDbArc
 50
261.8064781684632
 51
22.19352183154007
1001
ACDBBLOCKREPETAG
1070
     1
1071
      623
1005
E58B
  0
ARC
  5
14551
330
1388B
100
AcDbEntity
  8
1
 62
   255
100
AcDbCircle
 10
1464.979148002537
 20
275.5180221882838
 30
0.0
 40
1.800000000000011
100
AcDbArc
 50
71.64925284884678
 51
212.3507471511441
1001
ACDBBLOCKREPETAG
1070
     1
1071
      624
1005
E58C
  0
ARC
  5
14552
330
1388B
100
AcDbEntity
  8
1
 62
   255
100
AcDbCircle
 10
1472.2682474734
 20
269.8231535415214
 30
0.0
 40
9.99999999999984
100
AcDbArc
 50
119.9999999999999
 51
132.2401825286126
1001
ACDBBLOCKREPETAG
1070
     1
1071
      625
1005
E58D
  0
ARC
  5
14553
330
1388B
100
AcDbEntity
  8
1
 62
   255
100
AcDbCircle
 10
1467.6432474734
 20
277.8338885265276
 30
0.0
 40
0.7499999999999878
100
AcDbArc
 50
299.9999999999925
 51
119.9999999999999
1001
ACDBBLOCKREPETAG
1070
     1
1071
      626
1005
E58E
  0
ARC
  5
14554
330
1388B
100
AcDbEntity
  8
1
 62
   255
100
AcDbCircle
 10
1472.2682474734
 20
269.8231535415214
 30
0.0
 40
8.500000000000067
100
AcDbArc
 50
119.9999999999999
 51
131.4117251956416
1001
ACDBBLOCKREPETAG
1070
     1
1071
      627
1005
E58F
  0
ARC
  5
14555
330
1388B
100
AcDbEntity
  8
1
 62
   255
100
AcDbCircle
 10
1472.2682474734
 20
269.8231535415214
 30
0.0
 40
8.500000000000023
100
AcDbArc
 50
232.5882748043598
 51
240.0000000000001
1001
ACDBBLOCKREPETAG
1070
     1
1071
      628
1005
E590
  0
ARC
  5
14556
330
1388B
100
AcDbEntity
  8
1
 62
   255
100
AcDbCircle
 10
1467.6432474734
 20
261.8124185565154
 30
0.0
 40
0.750000000000037
100
AcDbArc
 50
240.0000000000001
 51
60.00000000000006
1001
ACDBBLOCKREPETAG
1070
     1
1071
      629
1005
E591
  0
ARC
  5
14557
330
1388B
100
AcDbEntity
  8
1
 62
   255
100
AcDbCircle
 10
1472.2682474734
 20
269.8231535415214
 30
0.0
 40
10.00000000000003
100
AcDbArc
 50
231.759817471389
 51
240.0000000000001
1001
ACDBBLOCKREPETAG
1070
     1
1071
      630
1005
E592
  0
ARC
  5
14558
330
1388B
100
AcDbEntity
  8
1
 62
   255
100
AcDbCircle
 10
1472.2682474734
 20
269.8231535415214
 30
0.0
 40
8.500000000000012
100
AcDbArc
 50
152.5882748043601
 51
211.4117251956407
1001
ACDBBLOCKREPETAG
1070
     1
1071
      631
1005
E593
  0
ARC
  5
14559
330
1388B
100
AcDbEntity
  8
1
 62
   255
100
AcDbCircle
 10
1472.2682474734
 20
269.8231535415214
 30
0.0
 40
10.00000000000005
100
AcDbArc
 50
151.7598174713894
 51
212.2401825286091
1001
ACDBBLOCKREPETAG
1070
     1
1071
      632
1005
E594
  0
ARC
  5
1455A
330
1388B
100
AcDbEntity
  8
1
 62
   255
100
AcDbCircle
 10
1472.2682474734
 20
269.8231535415214
 30
0.0
 40
15.95000000000006
100
AcDbArc
 50
65.02379222381202
 51
114.8148550376125
1001
ACDBBLOCKREPETAG
1070
     1
1071
      633
1005
E595
  0
ARC
  5
1455B
330
1388B
100
AcDbEntity
  8
1
 62
   255
100
AcDbCircle
 10
1472.2682474734
 20
269.8231535415214
 30
0.0
 40
15.95000000000011
100
AcDbArc
 50
5.023792223811113
 51
54.81485503761025
1001
ACDBBLOCKREPETAG
1070
     1
1071
      634
1005
E596
  0
ARC
  5
1455C
330
1388B
100
AcDbEntity
  8
1
 62
   255
100
AcDbCircle
 10
1472.2682474734
 20
269.8231535415214
 30
0.0
 40
15.95000000000014
100
AcDbArc
 50
305.0237922238125
 51
354.8148550376075
1001
ACDBBLOCKREPETAG
1070
     1
1071
      635
1005
E597
  0
ARC
  5
1455D
330
1388B
100
AcDbEntity
  8
1
 62
   255
100
AcDbCircle
 10
1472.2682474734
 20
269.8231535415214
 30
0.0
 40
15.95000000000007
100
AcDbArc
 50
245.023792223812
 51
294.8148550376055
1001
ACDBBLOCKREPETAG
1070
     1
1071
      636
1005
E598
  0
ARC
  5
1455E
330
1388B
100
AcDbEntity
  8
1
 62
   255
100
AcDbCircle
 10
1472.2682474734
 20
269.8231535415214
 30
0.0
 40
15.95000000000005
100
AcDbArc
 50
185.0237922238127
 51
234.8148550376102
1001
ACDBBLOCKREPETAG
1070
     1
1071
      637
1005
E599
  0
ARC
  5
1455F
330
1388B
100
AcDbEntity
  8
1
 62
   255
100
AcDbCircle
 10
1472.2682474734
 20
269.8231535415214
 30
0.0
 40
15.9500000000001
100
AcDbArc
 50
125.0237922238127
 51
174.8148550376076
1001
ACDBBLOCKREPETAG
1070
     1
1071
      638
1005
E59A
  0
ARC
  5
14560
330
1388B
100
AcDbEntity
  8
1
 62
     2
100
AcDbCircle
 10
1238.418569638991
 20
280.8231535415215
 30
0.0
 40
1.5
100
AcDbArc
 50
0.0
 51
180.0
1001
ACDBBLOCKREPETAG
1070
     1
1071
      639
1005
E59B
  0
ARC
  5
14561
330
1388B
100
AcDbEntity
  8
1
 62
     2
100
AcDbCircle
 10
1238.418569638991
 20
280.8231535415215
 30
0.0
 40
1.499999999999975
100
AcDbArc
 50
180.0
 51
284.2012041456967
1001
ACDBBLOCKREPETAG
1070
     1
1071
      640
1005
E59C
  0
ARC
  5
14562
330
1388B
100
AcDbEntity
  8
1
 62
     2
100
AcDbCircle
 10
1249.418569638991
 20
269.8231535415214
 30
0.0
 40
1.500000000000087
100
AcDbArc
 50
270.0
 51
194.2012041456969
1001
ACDBBLOCKREPETAG
1070
     1
1071
      641
1005
E59D
  0
ARC
  5
14563
330
1388B
100
AcDbEntity
  8
1
 62
     2
100
AcDbCircle
 10
1238.418569638991
 20
258.8231535415214
 30
0.0
 40
1.500000000000013
100
AcDbArc
 50
180.0
 51
104.2012041456967
1001
ACDBBLOCKREPETAG
1070
     1
1071
      642
1005
E59E
  0
ARC
  5
14564
330
1388B
100
AcDbEntity
  8
1
 62
     2
100
AcDbCircle
 10
1227.418569638991
 20
269.8231535415214
 30
0.0
 40
1.499999999999864
100
AcDbArc
 50
90.0
 51
14.20120414570149
1001
ACDBBLOCKREPETAG
1070
     1
1071
      643
1005
E59F
  0
ARC
  5
14565
330
1388B
100
AcDbEntity
  8
1
 62
   255
100
AcDbCircle
 10
1472.2682474734
 20
269.8231535415214
 30
0.0
 40
9.500021378556283
100
AcDbArc
 50
244.3228766938139
 51
270.0
1001
ACDBBLOCKREPETAG
1070
     1
1071
      644
1005
E5A0
  0
ARC
  5
14566
330
1388B
100
AcDbEntity
  8
1
 62
   255
100
AcDbCircle
 10
1472.2682474734
 20
269.8231535415214
 30
0.0
 40
9.499744880848693
100
AcDbArc
 50
270.0
 51
295.6760498219408
1001
ACDBBLOCKREPETAG
1070
     1
1071
      645
1005
E5A1
  0
ARC
  5
14567
330
1388B
100
AcDbEntity
  8
1
 62
   255
100
AcDbCircle
 10
1472.2682474734
 20
269.8231535415214
 30
0.0
 40
9.498941265853023
100
AcDbArc
 50
64.32545299275385
 51
90.0
1001
ACDBBLOCKREPETAG
1070
     1
1071
      646
1005
E5A2
  0
ARC
  5
14568
330
1388B
100
AcDbEntity
  8
1
 62
   255
100
AcDbCircle
 10
1472.2682474734
 20
269.8231535415214
 30
0.0
 40
9.499217731002659
100
AcDbArc
 50
90.0
 51
115.6756176941131
1001
ACDBBLOCKREPETAG
1070
     1
1071
      647
1005
E5A3
  0
CIRCLE
  5
14569
330
1388B
100
AcDbEntity
  8
1
 62
   255
100
AcDbCircle
 10
1238.418569638991
 20
269.8231535415214
 30
0.0
 40
17.5
1001
ACDBBLOCKREPETAG
1070
     1
1071
      648
1005
E5A4
  0
CIRCLE
  5
1456A
330
1388B
100
AcDbEntity
  8
1
 62
   255
100
AcDbCircle
 10
1238.418569638991
 20
269.8231535415214
 30
0.0
 40
16.99999999999989
1001
ACDBBLOCKREPETAG
1070
     1
1071
      649
1005
E5A5
  0
CIRCLE
  5
1456B
330
1388B
100
AcDbEntity
  8
1
 62
     2
100
AcDbCircle
 10
1238.418569638991
 20
269.8231535415214
 30
0.0
 40
15.99999999999989
1001
ACDBBLOCKREPETAG
1070
     1
1071
      650
1005
E5A6
  0
CIRCLE
  5
1456C
330
1388B
100
AcDbEntity
  8
1
 62
   255
100
AcDbCircle
 10
1472.2682474734
 20
269.8231535415214
 30
0.0
 40
16.74999999999989
1001
ACDBBLOCKREPETAG
1070
     1
1071
      651
1005
E5A7
  0
CIRCLE
  5
1456D
330
1388B
100
AcDbEntity
  8
1
 62
   255
100
AcDbCircle
 10
1238.418569638991
 20
269.8231535415214
 30
0.0
 40
5.75
1001
ACDBBLOCKREPETAG
1070
     1
1071
      652
1005
E5A8
  0
CIRCLE
  5
1456E
330
1388B
100
AcDbEntity
  8
1
 62
     2
100
AcDbCircle
 10
1238.418569638991
 20
269.8231535415214
 30
0.0
 40
3.0
1001
ACDBBLOCKREPETAG
1070
     1
1071
      653
1005
E5A9
  0
CIRCLE
  5
1456F
330
1388B
100
AcDbEntity
  8
1
 62
   255
100
AcDbCircle
 10
1472.2682474734
 20
269.8231535415214
 30
0.0
 40
17.5
1001
ACDBBLOCKREPETAG
1070
     1
1071
      654
1005
E5AA
  0
CIRCLE
  5
14570
330
1388B
100
AcDbEntity
  8
1
 62
   255
100
AcDbCircle
 10
1472.2682474734
 20
269.8231535415214
 30
0.0
 40
2.499999999999915
1001
ACDBBLOCKREPETAG
1070
     1
1071
      655
1005
E5AB
  0
CIRCLE
  5
14571
330
1388B
100
AcDbEntity
  8
1
 62
   255
100
AcDbCircle
 10
1472.2682474734
 20
269.8231535415214
 30
0.0
 40
5.249999999999912
1001
ACDBBLOCKREPETAG
1070
     1
1071
      657
1005
E5AC
  0
CIRCLE
  5
14572
330
1388B
100
AcDbEntity
  8
1
 62
   255
100
AcDbCircle
 10
1472.2682474734
 20
269.8231535415214
 30
0.0
 40
5.749999999999913
1001
ACDBBLOCKREPETAG
1070
     1
1071
      658
1005
E5AD
  0
CIRCLE
  5
14573
330
1388B
100
AcDbEntity
  8
1
 62
   255
100
AcDbCircle
 10
1472.2682474734
 20
269.8231535415214
 30
0.0
 40
6.500000000000026
1001
ACDBBLOCKREPETAG
1070
     1
1071
      659
1005
E5AE
  0
CIRCLE
  5
14574
330
1388B
100
AcDbEntity
  8
1
 62
   255
100
AcDbCircle
 10
1460.316595025387
 20
262.9227745588862
 30
0.0
 40
0.9999999999999856
1001
ACDBBLOCKREPETAG
1070
     1
1071
      660
1005
E5AF
  0
CIRCLE
  5
14575
330
1388B
100
AcDbEntity
  8
1
 62
   255
100
AcDbCircle
 10
1484.219899921412
 20
276.7235325241569
 30
0.0
 40
1.000000000000035
1001
ACDBBLOCKREPETAG
1070
     1
1071
      661
1005
E5B0
  0
CIRCLE
  5
14576
330
1388B
100
AcDbEntity
  8
1
 62
   255
100
AcDbCircle
 10
1472.267728787312
 20
269.8228036750988
 30
0.0
 40
7.303289138309912
1001
ACDBBLOCKREPETAG
1070
     1
1071
      663
1005
E5B1
  0
CIRCLE
  5
14577
330
1388B
100
AcDbEntity
  8
1
 62
   255
100
AcDbCircle
 10
1472.2682474734
 20
269.8231535415214
 30
0.0
 40
16.40000000000003
1001
ACDBBLOCKREPETAG
1070
     1
1071
      664
1005
E5B2
  0
CIRCLE
  5
14578
330
1388B
100
AcDbEntity
  8
1
 62
     2
100
AcDbCircle
 10
1238.418569638991
 20
269.8231535415214
 30
0.0
 40
2.384529946162103
1001
ACDBBLOCKREPETAG
1070
     1
1071
      665
1005
E5B3
  0
CIRCLE
  5
14579
330
1388B
100
AcDbEntity
  8
1
 62
   255
100
AcDbCircle
 10
1238.418569638991
 20
269.8231535415214
 30
0.0
 40
2.5
1001
ACDBBLOCKREPETAG
1070
     1
1071
      666
1005
E5B4
  0
CIRCLE
  5
1457A
330
1388B
100
AcDbEntity
  8
1
 62
   255
100
AcDbCircle
 10
1238.418569638991
 20
269.8231535415214
 30
0.0
 40
8.0
1001
ACDBBLOCKREPETAG
1070
     1
1071
      667
1005
E5B5
  0
CIRCLE
  5
1457B
330
1388B
100
AcDbEntity
  8
1
 62
   255
100
AcDbCircle
 10
1238.418569638991
 20
280.8231535415215
 30
0.0
 40
1.1
1001
ACDBBLOCKREPETAG
1070
     1
1071
      668
1005
E5B6
  0
CIRCLE
  5
1457C
330
1388B
100
AcDbEntity
  8
1
 62
   255
100
AcDbCircle
 10
1249.418569638991
 20
269.8231535415214
 30
0.0
 40
1.099999999999879
1001
ACDBBLOCKREPETAG
1070
     1
1071
      669
1005
E5B7
  0
CIRCLE
  5
1457D
330
1388B
100
AcDbEntity
  8
1
 62
   255
100
AcDbCircle
 10
1238.418569638991
 20
258.8231535415214
 30
0.0
 40
1.099999999999994
1001
ACDBBLOCKREPETAG
1070
     1
1071
      670
1005
E5B8
  0
CIRCLE
  5
1457E
330
1388B
100
AcDbEntity
  8
1
 62
   255
100
AcDbCircle
 10
1227.418569638991
 20
269.8231535415214
 30
0.0
 40
1.100000000000106
1001
ACDBBLOCKREPETAG
1070
     1
1071
      671
1005
E5B9
  0
CIRCLE
  5
14580
330
1388B
100
AcDbEntity
  8
1
  6
CENTER
 62
     2
370
     9
100
AcDbCircle
 10
1238.418569638991
 20
269.8231535415214
 30
0.0
 40
11.0
1001
ACDBBLOCKREPETAG
1070
     1
1071
      673
1005
E5BB
  0
ARC
  5
14581
330
1388B
100
AcDbEntity
  8
1
 62
   255
100
AcDbCircle
 10
1463.229061937853
 20
282.7210458055294
 30
0.0
 40
0.2000000000000079
100
AcDbArc
 50
64.40181627636589
 51
125.0237922238204
1001
ACDBBLOCKREPETAG
1070
     1
1071
      674
1005
E5BC
  0
ARC
  5
14582
330
1388B
100
AcDbEntity
  8
1
 62
   255
100
AcDbCircle
 10
1465.658170495121
 20
284.1189355187775
 30
0.0
 40
0.1999999999999773
100
AcDbArc
 50
114.814855037584
 51
175.4368309850441
1001
ACDBBLOCKREPETAG
1070
     1
1071
      675
1005
E5BD
  0
ARC
  5
14583
330
1388B
100
AcDbEntity
  8
1
 62
   255
100
AcDbCircle
 10
1465.310687673072
 20
284.3421880006328
 30
0.0
 40
0.3000000000000363
100
AcDbArc
 50
115.6038642843048
 51
183.7376398118432
1001
ACDBBLOCKREPETAG
1070
     1
1071
      676
1005
E5BE
  0
ARC
  5
14584
330
1388B
100
AcDbEntity
  8
1
 62
   255
100
AcDbCircle
 10
1463.210622916074
 20
283.1336545605865
 30
0.0
 40
0.2999999999999756
100
AcDbArc
 50
56.10100744958002
 51
124.2347829771049
1001
ACDBBLOCKREPETAG
1070
     1
1071
      677
1005
E5BF
  0
ARC
  5
14585
330
1388B
100
AcDbEntity
  8
1
 62
   255
100
AcDbCircle
 10
1481.343719343528
 20
282.6955391143091
 30
0.0
 40
0.2
100
AcDbArc
 50
54.81485503758663
 51
115.436830985036
1001
ACDBBLOCKREPETAG
1070
     1
1071
      678
1005
E5C0
  0
ARC
  5
14586
330
1388B
100
AcDbEntity
  8
1
 62
   255
100
AcDbCircle
 10
1478.918557061532
 20
284.1002639768303
 30
0.0
 40
0.2000000000000465
100
AcDbArc
 50
4.401816276366402
 51
65.02379222378327
1001
ACDBBLOCKREPETAG
1070
     1
1071
      679
1005
E5C1
  0
ARC
  5
14587
330
1388B
100
AcDbEntity
  8
1
 62
   255
100
AcDbCircle
 10
1481.363320253248
 20
283.1080943065104
 30
0.0
 40
0.3000000000000133
100
AcDbArc
 50
55.60386428430895
 51
123.7376398118464
1001
ACDBBLOCKREPETAG
1070
     1
1071
      680
1005
E5C2
  0
ARC
  5
14588
330
1388B
100
AcDbEntity
  8
1
 62
   255
100
AcDbCircle
 10
1479.266667214346
 20
284.3225370156397
 30
0.0
 40
0.300000000000048
100
AcDbArc
 50
356.101007449574
 51
64.23478297710537
1001
ACDBBLOCKREPETAG
1070
     1
1071
      681
1005
E5C3
  0
ARC
  5
14589
330
1388B
100
AcDbEntity
  8
1
 62
   255
100
AcDbCircle
 10
1481.325872030725
 20
256.5126525224563
 30
0.0
 40
0.3000000000000515
100
AcDbArc
 50
236.1010074495722
 51
304.2347829771278
1001
ACDBBLOCKREPETAG
1070
     1
1071
      686
1005
E5C8
  0
ARC
  5
1458A
330
1388B
100
AcDbEntity
  8
1
 62
   255
100
AcDbCircle
 10
1479.225807273728
 20
255.3041190824101
 30
0.0
 40
0.300000000000007
100
AcDbArc
 50
295.6038642843048
 51
3.737639811839978
1001
ACDBBLOCKREPETAG
1070
     1
1071
      687
1005
E5C9
  0
ARC
  5
1458B
330
1388B
100
AcDbEntity
  8
1
 62
   255
100
AcDbCircle
 10
1481.307433008947
 20
256.9252612775136
 30
0.0
 40
0.1999999999999916
100
AcDbArc
 50
244.4018162763659
 51
305.0237922238125
1001
ACDBBLOCKREPETAG
1070
     1
1071
      688
1005
E5CA
  0
ARC
  5
1458C
330
1388B
100
AcDbEntity
  8
1
 62
   255
100
AcDbCircle
 10
1478.878324451678
 20
255.5273715642654
 30
0.0
 40
0.2000000000002029
100
AcDbArc
 50
294.8148550376199
 51
355.436830985054
1001
ACDBBLOCKREPETAG
1070
     1
1071
      689
1005
E5CB
  0
ARC
  5
1458D
330
1388B
100
AcDbEntity
  8
1
 62
   255
100
AcDbCircle
 10
1465.617937885268
 20
255.5460431062127
 30
0.0
 40
0.1999999999999633
100
AcDbArc
 50
184.4018162763728
 51
245.0237922238478
1001
ACDBBLOCKREPETAG
1070
     1
1071
      690
1005
E5CC
  0
ARC
  5
1458E
330
1388B
100
AcDbEntity
  8
1
 62
   255
100
AcDbCircle
 10
1463.19277560327
 20
256.9507679687339
 30
0.0
 40
0.2000000000000425
100
AcDbArc
 50
234.8148550376102
 51
295.4368309850721
1001
ACDBBLOCKREPETAG
1070
     1
1071
      691
1005
E5CD
  0
ARC
  5
1458F
330
1388B
100
AcDbEntity
  8
1
 62
   255
100
AcDbCircle
 10
1465.269827732453
 20
255.3237700674033
 30
0.0
 40
0.2999999999999922
100
AcDbArc
 50
176.101007449574
 51
244.23478297712
1001
ACDBBLOCKREPETAG
1070
     1
1071
      692
1005
E5CE
  0
ARC
  5
14590
330
1388B
100
AcDbEntity
  8
1
 62
   255
100
AcDbCircle
 10
1463.173174693552
 20
256.5382127765325
 30
0.0
 40
0.2999999999999501
100
AcDbArc
 50
235.6038642842857
 51
303.7376398118232
1001
ACDBBLOCKREPETAG
1070
     1
1071
      693
1005
E5CF
  0
ARC
  5
14591
330
1388B
100
AcDbEntity
  8
1
 62
   255
100
AcDbCircle
 10
1456.212203175128
 20
268.6342710864683
 30
0.0
 40
0.2999999999999599
100
AcDbArc
 50
116.1010074495698
 51
184.2347829771138
1001
ACDBBLOCKREPETAG
1070
     1
1071
      694
1005
E5D0
  0
ARC
  5
14592
330
1388B
100
AcDbEntity
  8
1
 62
   255
100
AcDbCircle
 10
1456.215614893224
 20
271.057247235644
 30
0.0
 40
0.2999999999999977
100
AcDbArc
 50
175.6038642843087
 51
243.7376398118349
1001
ACDBBLOCKREPETAG
1070
     1
1071
      695
1005
E5D1
  0
ARC
  5
14593
330
1388B
100
AcDbEntity
  8
1
 62
   255
100
AcDbCircle
 10
1456.57875234972
 20
268.4439353702205
 30
0.0
 40
0.1999999999999912
100
AcDbArc
 50
124.4018162763834
 51
185.0237922238142
1001
ACDBBLOCKREPETAG
1070
     1
1071
      696
1005
E5D2
  0
ARC
  5
14594
330
1388B
100
AcDbEntity
  8
1
 62
   255
100
AcDbCircle
 10
1456.582698624993
 20
271.2465499459899
 30
0.0
 40
0.2000000000000023
100
AcDbArc
 50
174.8148550376107
 51
235.4368309850416
1001
ACDBBLOCKREPETAG
1070
     1
1071
      697
1005
E5D3
  0
LINE
  5
14595
330
1388B
100
AcDbEntity
  8
0
370
     5
100
AcDbLine
 10
1406.199606461486
 20
267.3767433800075
 30
0.0
 11
1406.199606461486
 21
236.0160432278576
 31
0.0
  0
LINE
  5
14596
330
1388B
100
AcDbEntity
  8
0
370
     5
100
AcDbLine
 10
1403.574606461486
 20
236.7660432278577
 30
0.0
 11
1397.724606461485
 21
236.7660432278577
 31
0.0
  0
TEXT
  5
14597
330
1388B
100
AcDbEntity
  8
0
100
AcDbText
 10
1396.962963022392
 20
238.40844038248
 30
0.0
 40
2.625
  1
(11.1)
100
AcDbText
  0
SOLID
  5
14598
330
1388B
100
AcDbEntity
  8
0
370
     5
100
AcDbTrace
 10
1403.574606461486
 20
237.2035432278577
 30
0.0
 11
1403.574606461486
 21
236.3285432278577
 31
0.0
 12
1406.199606461486
 22
236.7660432278577
 32
0.0
 13
1406.199606461486
 23
236.7660432278577
 33
0.0
  0
SOLID
  5
14599
330
1388B
100
AcDbEntity
  8
0
370
     5
100
AcDbTrace
 10
1397.724606461485
 20
237.2035432278577
 30
0.0
 11
1397.724606461485
 21
236.3285432278577
 31
0.0
 12
1395.099606461486
 22
236.7660432278577
 32
0.0
 13
1395.099606461486
 23
236.7660432278577
 33
0.0
  0
TEXT
  5
1459A
330
1388B
100
AcDbEntity
  8
1
 62
     2
100
AcDbText
 10
1258.027102784036
 20
284.7500136249787
 30
0.0
 40
2.625
  1
M3x3.2 max.
100
AcDbText
1001
ACDBBLOCKREPETAG
1070
     1
1071
      741
1005
E5D8
  0
LINE
  5
1459B
330
1388B
100
AcDbEntity
  8
1
 62
   255
100
AcDbLine
 10
1406.199606461486
 20
272.2695637030355
 30
0.0
 11
1406.199606461486
 21
267.3767433800075
 31
0.0
1001
ACDBBLOCKREPETAG
1070
     1
1071
      784
1005
E5DE
  0
LINE
  5
1459C
330
1388B
100
AcDbEntity
  8
0
370
     5
100
AcDbLine
 10
1313.22840296504
 20
244.0279368466338
 30
0.0
 11
1335.969048779234
 21
244.0279368466338
 31
0.0
1001
ACDBBLOCKREPETAG
1070
     1
1071
      789
1005
E5E2
  0
LINE
  5
1459D
330
1388B
100
AcDbEntity
  8
1
 62
     2
100
AcDbLine
 10
1405.999606461486
 20
272.3231535415215
 30
0.0
 11
1405.999606461486
 21
267.3231535415214
 31
0.0
1001
ACDBBLOCKREPETAG
1070
     1
1071
      796
1005
E5E3
  0
LINE
  5
1459E
330
1388B
100
AcDbEntity
  8
0
100
AcDbLine
 10
1405.999606461486
 20
272.3231535415216
 30
0.0
 11
1406.199606461486
 21
272.2695637030355
 31
0.0
1001
ACDBBLOCKREPETAG
1070
     1
1071
      797
1005
E5E4
  0
LINE
  5
1459F
330
1388B
100
AcDbEntity
  8
0
100
AcDbLine
 10
1405.999606461486
 20
267.3231535415214
 30
0.0
 11
1406.199606461486
 21
267.3767433800075
 31
0.0
1001
ACDBBLOCKREPETAG
1070
     1
1071
      798
1005
E5E5
  0
INSERT
  5
145A0
330
1388B
100
AcDbEntity
  8
0
100
AcDbBlockReference
  2
*U4
 10
533.3169667952022
 20
-5.500471841544366
 30
0.0
  0
INSERT
  5
145A1
330
1388B
100
AcDbEntity
  8
0
100
AcDbBlockReference
  2
*U5
 10
532.9000147387103
 20
0.0
 30
0.0
  0
INSERT
  5
145A2
330
1388B
100
AcDbEntity
  8
0
 62
     2
100
AcDbBlockReference
  2
*U6
 10
532.9000147387103
 20
-3.082058972755476
 30
0.0
  0
DIMENSION
  5
145A3
330
1388B
100
AcDbEntity
  8
0
100
AcDbDimension
  2
*D19
 10
1473.7682474734
 20
244.43802447495
 30
0.0
 11
1472.352667887866
 21
246.3564629170837
 31
0.0
 70
   160
 71
     5
 42
3.000000000000226
  3
DMST_3
100
AcDbAlignedDimension
 13
1470.7682474734
 23
261.0731535415214
 33
0.0
 14
1473.7682474734
 24
261.0731535415214
 34
0.0
100
AcDbRotatedDimension
1001
ACDBBLOCKREPETAG
1070
     1
1071
      812
1005
E5EE
1001
ACAD
1000
DSTYLE
1002
{
1070
    40
1040
1.5
1070
   176
1070
   256
1070
   177
1070
   256
1070
   178
1070
   256
1070
   284
1070
     0
1070
   285
1070
     0
1070
   286
1070
     0
1070
   371
1070
     5
1070
   372
1070
     5
1002
}
  0
CIRCLE
  5
145A4
330
1388B
100
AcDbEntity
  8
0
100
AcDbCircle
 10
1479.143728783833
 20
276.0138646561641
 30
0.0
 40
0.6
1001
ACDBBLOCKREPETAG
1070
     1
1071
      815
1005
E5F1
  0
CIRCLE
  5
145A5
330
1388B
100
AcDbEntity
  8
0
100
AcDbCircle
 10
1479.557346944262
 20
264.1282848947592
 30
0.0
 40
0.6
1001
ACDBBLOCKREPETAG
1070
     1
1071
      816
1005
E5F2
  0
CIRCLE
  5
145A6
330
1388B
100
AcDbEntity
  8
0
100
AcDbCircle
 10
1465.394157837734
 20
263.633695432702
 30
0.0
 40
0.6
1001
ACDBBLOCKREPETAG
1070
     1
1071
      817
1005
E5F3
  0
CIRCLE
  5
145A7
330
1388B
100
AcDbEntity
  8
0
100
AcDbCircle
 10
1464.979148002537
 20
275.5180221882838
 30
0.0
 40
0.6
1001
ACDBBLOCKREPETAG
1070
     1
1071
      818
1005
E5F4
  0
DIMENSION
  5
145A8
330
1388B
100
AcDbEntity
  8
0
100
AcDbDimension
  2
*D20
 10
1478.543730453089
 20
297.3644502789298
 30
0.0
 11
1466.859189433725
 21
299.2404925578057
 31
0.0
 70
   160
  1
4x %%C<>x5
 71
     5
 42
1.199996661487602
  3
DMST_3
100
AcDbAlignedDimension
 13
1479.743727114577
 23
276.0152799670215
 33
0.0
 14
1478.543730453089
 24
276.0152799670215
 34
0.0
100
AcDbRotatedDimension
1001
ACDBBLOCKREPETAG
1070
     1
1071
      819
1005
E5F5
1001
ACAD
1000
DSTYLE
1002
{
1070
    40
1040
1.5
1070
   176
1070
   256
1070
   177
1070
   256
1070
   178
1070
   256
1070
   284
1070
     0
1070
   285
1070
     0
1070
   286
1070
     0
1070
   371
1070
     5
1070
   372
1070
     5
1002
}
  0
LINE
  5
145A9
330
1388B
100
AcDbEntity
  8
1
 62
   255
100
AcDbLine
 10
1474.3782474734
 20
258.7131535415215
 30
0.0
 11
1475.1582474734
 21
258.7131535415215
 31
0.0
1001
ACDBBLOCKREPETAG
1070
     1
1071
      871
1005
E5F6
  0
LINE
  5
145AA
330
1388B
100
AcDbEntity
  8
1
 62
   255
100
AcDbLine
 10
1475.3782474734
 20
258.7131535415216
 30
0.0
 11
1476.1582474734
 21
258.7131535415216
 31
0.0
1001
ACDBBLOCKREPETAG
1070
     1
1071
      872
1005
E5F7
  0
LINE
  5
145AB
330
1388B
100
AcDbEntity
  8
1
 62
   255
100
AcDbLine
 10
1474.3782474734
 20
258.9331535415215
 30
0.0
 11
1475.1582474734
 21
258.9331535415215
 31
0.0
1001
ACDBBLOCKREPETAG
1070
     1
1071
      873
1005
E5F8
  0
LINE
  5
145AC
330
1388B
100
AcDbEntity
  8
1
 62
   255
100
AcDbLine
 10
1475.3782474734
 20
258.9331535415215
 30
0.0
 11
1476.1582474734
 21
258.9331535415215
 31
0.0
1001
ACDBBLOCKREPETAG
1070
     1
1071
      874
1005
E5F9
  0
LINE
  5
145AD
330
1388B
100
AcDbEntity
  8
1
 62
   255
100
AcDbLine
 10
1475.1582474734
 20
257.9331535415215
 30
0.0
 11
1475.1582474734
 21
258.7131535415215
 31
0.0
1001
ACDBBLOCKREPETAG
1070
     1
1071
      875
1005
E5FA
  0
LINE
  5
145AE
330
1388B
100
AcDbEntity
  8
1
 62
   255
100
AcDbLine
 10
1475.1582474734
 20
258.9331535415215
 30
0.0
 11
1475.1582474734
 21
259.7131535415215
 31
0.0
1001
ACDBBLOCKREPETAG
1070
     1
1071
      876
1005
E5FB
  0
LINE
  5
145AF
330
1388B
100
AcDbEntity
  8
1
 62
   255
100
AcDbLine
 10
1475.3782474734
 20
257.9331535415215
 30
0.0
 11
1475.3782474734
 21
258.7131535415216
 31
0.0
1001
ACDBBLOCKREPETAG
1070
     1
1071
      877
1005
E5FC
  0
LINE
  5
145B0
330
1388B
100
AcDbEntity
  8
1
 62
   255
100
AcDbLine
 10
1475.3782474734
 20
258.9331535415215
 30
0.0
 11
1475.3782474734
 21
259.7131535415215
 31
0.0
1001
ACDBBLOCKREPETAG
1070
     1
1071
      878
1005
E5FD
  0
LINE
  5
145B1
330
1388B
100
AcDbEntity
  8
1
 62
   255
100
AcDbLine
 10
1475.3782474734
 20
259.7131535415215
 30
0.0
 11
1475.2682474734
 21
259.8231535415215
 31
0.0
1001
ACDBBLOCKREPETAG
1070
     1
1071
      879
1005
E5FE
  0
LINE
  5
145B2
330
1388B
100
AcDbEntity
  8
1
 62
   255
100
AcDbLine
 10
1475.1582474734
 20
259.7131535415215
 30
0.0
 11
1475.2682474734
 21
259.8231535415215
 31
0.0
1001
ACDBBLOCKREPETAG
1070
     1
1071
      880
1005
E5FF
  0
LINE
  5
145B3
330
1388B
100
AcDbEntity
  8
1
 62
   255
100
AcDbLine
 10
1474.3782474734
 20
258.9331535415215
 30
0.0
 11
1474.2682474734
 21
258.8231535415214
 31
0.0
1001
ACDBBLOCKREPETAG
1070
     1
1071
      881
1005
E600
  0
LINE
  5
145B4
330
1388B
100
AcDbEntity
  8
1
 62
   255
100
AcDbLine
 10
1474.3782474734
 20
258.7131535415215
 30
0.0
 11
1474.2682474734
 21
258.8231535415214
 31
0.0
1001
ACDBBLOCKREPETAG
1070
     1
1071
      882
1005
E601
  0
LINE
  5
145B5
330
1388B
100
AcDbEntity
  8
1
 62
   255
100
AcDbLine
 10
1476.1582474734
 20
258.7131535415216
 30
0.0
 11
1476.2682474734
 21
258.8231535415214
 31
0.0
1001
ACDBBLOCKREPETAG
1070
     1
1071
      883
1005
E602
  0
LINE
  5
145B6
330
1388B
100
AcDbEntity
  8
1
 62
   255
100
AcDbLine
 10
1476.2682474734
 20
258.8231535415214
 30
0.0
 11
1476.1582474734
 21
258.9331535415215
 31
0.0
1001
ACDBBLOCKREPETAG
1070
     1
1071
      884
1005
E603
  0
CIRCLE
  5
145B7
330
1388B
100
AcDbEntity
  8
1
 62
   255
100
AcDbCircle
 10
1475.2682474734
 20
258.8231535415214
 30
0.0
 40
1.249999999999874
1001
ACDBBLOCKREPETAG
1070
     1
1071
      885
1005
E604
  0
LINE
  5
145B8
330
1388B
100
AcDbEntity
  8
1
 62
   255
100
AcDbLine
 10
1475.3782474734
 20
257.9331535415215
 30
0.0
 11
1475.2682474734
 21
257.8231535415214
 31
0.0
1001
ACDBBLOCKREPETAG
1070
     1
1071
      820
1005
E605
  0
LINE
  5
145B9
330
1388B
100
AcDbEntity
  8
1
 62
   255
100
AcDbLine
 10
1475.1582474734
 20
257.9331535415215
 30
0.0
 11
1475.2682474734
 21
257.8231535415214
 31
0.0
1001
ACDBBLOCKREPETAG
1070
     1
1071
      821
1005
E606
  0
CIRCLE
  5
145BA
330
1388B
100
AcDbEntity
  8
0
100
AcDbCircle
 10
1246.55674401146
 20
261.684979169052
 30
0.0
 40
0.75
1001
ACDBBLOCKREPETAG
1070
     1
1071
      822
1005
E607
  0
INSERT
  5
145BB
330
1388B
100
AcDbEntity
  8
0
100
AcDbBlockReference
  2
*U7
 10
532.9000147387103
 20
0.4143280499065442
 30
0.0
  0
INSERT
  5
145BC
330
1388B
100
AcDbEntity
  8
0
100
AcDbBlockReference
  2
*U8
 10
532.9000147387103
 20
0.4143280499065442
 30
0.0
  0
INSERT
  5
145BD
330
1388B
100
AcDbEntity
  8
0
100
AcDbBlockReference
  2
*U9
 10
532.9000147387103
 20
0.0
 30
0.0
  0
INSERT
  5
145BE
330
1388B
100
AcDbEntity
  8
0
100
AcDbBlockReference
  2
*U10
 10
532.9000147387103
 20
0.0
 30
0.0
  0
INSERT
  5
145BF
330
1388B
100
AcDbEntity
  8
0
100
AcDbBlockReference
  2
*U11
 10
532.9000147387103
 20
0.0
 30
0.0
  0
INSERT
  5
145C0
330
1388B
100
AcDbEntity
  8
0
100
AcDbBlockReference
  2
*U12
 10
532.9000147387103
 20
0.0
 30
0.0
  0
TEXT
  5
145C1
330
1388B
100
AcDbEntity
  8
1
100
AcDbText
 10
1451.793048264951
 20
284.5793716025597
 30
0.0
 40
1.75
  1
\U+220518.5
100
AcDbText
1001
ACDBBLOCKREPETAG
1070
     1
1071
      835
1005
E610
  0
LINE
  5
145C2
330
1388B
100
AcDbEntity
  8
1
370
     5
100
AcDbLine
 10
1473.293730453089
 20
297.3644502789298
 30
0.0
 11
1457.385866818617
 21
297.3644502789298
 31
0.0
1001
ACDBBLOCKREPETAG
1070
     1
1071
      837
1005
E611
  0
TEXT
  5
145C3
330
1388B
100
AcDbEntity
  8
1
 62
     3
100
AcDbText
 10
1457.818193845742
 20
294.6478548377826
 30
0.0
 40
1.875
  1
For auto-forming
100
AcDbText
1001
ACDBBLOCKREPETAG
1070
     1
1071
      838
1005
E612
  0
TEXT
  5
145C4
330
1388B
100
AcDbEntity
  8
1
 62
     3
100
AcDbText
 10
1457.90300220557
 20
292.1584387123352
 30
0.0
 40
1.875
  1
screw K14
100
AcDbText
1001
ACDBBLOCKREPETAG
1070
     1
1071
      839
1005
E613
  0
LINE
  5
145C5
330
1388B
100
AcDbEntity
  8
0
  6
CENTER
 62
     2
 48
0.2
370
     9
100
AcDbLine
 10
1477.057348091818
 20
264.1305799894095
 30
0.0
 11
1482.0573469214
 21
264.1281892658034
 31
0.0
1001
ACDBBLOCKREPETAG
1070
     1
1071
      859
1005
E614
  0
LINE
  5
145C6
330
1388B
100
AcDbEntity
  8
0
  6
CENTER
 62
     2
 48
0.2
370
     9
100
AcDbLine
 10
1479.555273463657
 20
261.6243229087238
 30
0.0
 11
1479.557664187263
 21
266.624321738304
 31
0.0
1001
ACDBBLOCKREPETAG
1070
     1
1071
      860
1005
E615
  0
LINE
  5
145C7
330
1388B
100
AcDbEntity
  8
0
  6
CENTER
 62
     2
 48
0.2
370
     9
100
AcDbLine
 10
1476.651088436453
 20
276.015056499267
 30
0.0
 11
1481.651087266033
 21
276.012665775661
 31
0.0
1001
ACDBBLOCKREPETAG
1070
     1
1071
      861
1005
E616
  0
LINE
  5
145C8
330
1388B
100
AcDbEntity
  8
0
  6
CENTER
 62
     2
370
     9
100
AcDbLine
 10
1479.149013808291
 20
273.5087994185813
 30
0.0
 11
1479.151404531896
 21
278.5087982481615
 31
0.0
1001
ACDBBLOCKREPETAG
1070
     1
1071
      862
1005
E617
  0
LINE
  5
145C9
330
1388B
100
AcDbEntity
  8
0
  6
CENTER
 62
     2
 48
0.2
370
     9
100
AcDbLine
 10
1462.486507655158
 20
275.5192140313868
 30
0.0
 11
1467.486506484738
 21
275.5168233077808
 31
0.0
1001
ACDBBLOCKREPETAG
1070
     1
1071
      863
1005
E618
  0
LINE
  5
145CA
330
1388B
100
AcDbEntity
  8
0
  6
CENTER
 62
     2
 48
0.2
370
     9
100
AcDbLine
 10
1464.984433026995
 20
273.0129569507011
 30
0.0
 11
1464.986823750601
 21
278.0129557802812
 31
0.0
1001
ACDBBLOCKREPETAG
1070
     1
1071
      864
1005
E619
  0
LINE
  5
145CB
330
1388B
100
AcDbEntity
  8
0
  6
CENTER
 62
     2
 48
0.2
370
     9
100
AcDbLine
 10
1462.901517490354
 20
263.6348872758049
 30
0.0
 11
1467.901516319934
 21
263.6324965521989
 31
0.0
1001
ACDBBLOCKREPETAG
1070
     1
1071
      865
1005
E61A
  0
LINE
  5
145CC
330
1388B
100
AcDbEntity
  8
0
  6
CENTER
 62
     2
 48
0.2
370
     9
100
AcDbLine
 10
1465.399442862191
 20
261.1286301951194
 30
0.0
 11
1465.401833585797
 21
266.1286290246994
 31
0.0
1001
ACDBBLOCKREPETAG
1070
     1
1071
      866
1005
E61B
  0
LINE
  5
145CE
330
1388B
100
AcDbEntity
  8
0
370
     5
100
AcDbLine
 10
1473.7682474734
 20
244.43802447495
 30
0.0
 11
1470.7682474734
 21
244.43802447495
 31
0.0
1001
ACDBBLOCKREPETAG
1070
     1
1071
      888
1005
E61E
  0
ARC
  5
145CF
330
1388B
100
AcDbEntity
  8
1
  6
CENTER
370
     9
100
AcDbCircle
 10
1238.418569638991
 20
269.8231535415214
 30
0.0
 40
11.5091165705035
100
AcDbArc
 50
307.0700003349164
 51
323.7562520300922
1001
ACDBBLOCKREPETAG
1070
     1
1071
      891
1005
E61F
  0
LINE
  5
145D0
330
1388B
100
AcDbEntity
  8
1
  6
CENTER
 62
     2
370
     9
100
AcDbLine
 10
1238.418569638991
 20
269.8231535415214
 30
0.0
 11
1247.544296569468
 21
260.6974266110443
 31
0.0
1001
ACDBBLOCKREPETAG
1070
     1
1071
      893
1005
E620
  0
LINE
  5
145D1
330
1388B
100
AcDbEntity
  8
0
370
     5
100
AcDbLine
 10
1479.743727114577
 20
297.3644502789298
 30
0.0
 11
1478.543730453089
 21
297.3644502789298
 31
0.0
1001
ACDBBLOCKREPETAG
1070
     1
1071
      896
1005
E621
  0
LINE
  5
145D2
330
1388B
100
AcDbEntity
  8
1
 62
   255
100
AcDbLine
 10
1317.91111236307
 20
278.5731535415207
 30
0.0
 11
1321.799606461486
 21
278.5731535415219
 31
0.0
1001
ACDBBLOCKREPETAG
1070
     1
1071
      913
1005
E622
  0
LINE
  5
145D3
330
1388B
100
AcDbEntity
  8
1
 62
   255
100
AcDbLine
 10
1317.91111236307
 20
278.0731535415216
 30
0.0
 11
1321.799606461486
 21
278.0731535415214
 31
0.0
1001
ACDBBLOCKREPETAG
1070
     1
1071
      914
1005
E623
  0
LINE
  5
145D4
330
1388B
100
AcDbEntity
  8
0
100
AcDbLine
 10
1317.91111236307
 20
278.5731535415215
 30
0.0
 11
1317.91111236307
 21
278.0731535415216
 31
0.0
1001
ACDBBLOCKREPETAG
1070
     1
1071
      897
1005
E624
  0
LINE
  5
145D5
330
1388B
100
AcDbEntity
  8
1
 62
   255
100
AcDbLine
 10
1473.7682474734
 20
278.5731535415215
 30
0.0
 11
1470.7682474734
 21
278.5731535415215
 31
0.0
1001
ACDBBLOCKREPETAG
1070
     1
1071
      898
1005
E625
  0
LINE
  5
145D6
330
1388B
100
AcDbEntity
  8
1
 62
   255
100
AcDbLine
 10
1473.7682474734
 20
278.0731535415214
 30
0.0
 11
1470.7682474734
 21
278.0731535415214
 31
0.0
1001
ACDBBLOCKREPETAG
1070
     1
1071
      899
1005
E626
  0
CIRCLE
  5
145D7
330
1388B
100
AcDbEntity
  8
0
100
AcDbCircle
 10
1472.2682474734
 20
281.5731535415215
 30
0.0
 40
1.25
1001
ACDBBLOCKREPETAG
1070
     1
1071
      900
1005
E627
  0
LINE
  5
145D8
330
1388B
100
AcDbEntity
  8
1
 62
   255
100
AcDbLine
 10
1473.7682474734
 20
261.5731535415214
 30
0.0
 11
1473.7682474734
 21
261.0731535415214
 31
0.0
1001
ACDBBLOCKREPETAG
1070
     1
1071
      901
1005
E628
  0
LINE
  5
145D9
330
1388B
100
AcDbEntity
  8
1
  6
CENTER
370
     9
100
AcDbLine
 10
1474.054759970915
 20
261.3231535415214
 30
0.0
 11
1470.328772053798
 21
261.3231535415214
 31
0.0
1001
ACDBBLOCKREPETAG
1070
     1
1071
      902
1005
E629
  0
LINE
  5
145DA
330
1388B
100
AcDbEntity
  8
1
 62
   255
100
AcDbLine
 10
1473.7682474734
 20
261.5731535415214
 30
0.0
 11
1470.7682474734
 21
261.5731535415214
 31
0.0
1001
ACDBBLOCKREPETAG
1070
     1
1071
      903
1005
E62A
  0
LINE
  5
145DB
330
1388B
100
AcDbEntity
  8
1
 62
   255
100
AcDbLine
 10
1473.7682474734
 20
261.0731535415214
 30
0.0
 11
1470.7682474734
 21
261.0731535415214
 31
0.0
1001
ACDBBLOCKREPETAG
1070
     1
1071
      904
1005
E62B
  0
LINE
  5
145DC
330
1388B
100
AcDbEntity
  8
0
100
AcDbLine
 10
1470.7682474734
 20
261.5731535415214
 30
0.0
 11
1470.7682474734
 21
261.0731535415214
 31
0.0
1001
ACDBBLOCKREPETAG
1070
     1
1071
      905
1005
E62C
  0
CIRCLE
  5
145DD
330
1388B
100
AcDbEntity
  8
0
100
AcDbCircle
 10
1472.2682474734
 20
258.0731535415214
 30
0.0
 40
1.25
1001
ACDBBLOCKREPETAG
1070
     1
1071
      906
1005
E62D
  0
CIRCLE
  5
145DE
330
1388B
100
AcDbEntity
  8
0
100
AcDbCircle
 10
1472.2682474734
 20
258.0731535415214
 30
0.0
 40
0.25
1001
ACDBBLOCKREPETAG
1070
     1
1071
      907
1005
E62E
  0
CIRCLE
  5
145DF
330
1388B
100
AcDbEntity
  8
0
100
AcDbCircle
 10
1472.2682474734
 20
281.5731535415215
 30
0.0
 40
0.25
1001
ACDBBLOCKREPETAG
1070
     1
1071
      908
1005
E62F
  0
LINE
  5
145E0
330
1388B
100
AcDbEntity
  8
0
 62
   255
100
AcDbLine
 10
1321.799606461486
 20
261.1736344886211
 30
0.0
 11
1321.799606461486
 21
261.073153541521
 31
0.0
1001
ACDBBLOCKREPETAG
1070
     1
1071
      909
1005
E630
  0
LINE
  5
145E1
330
1388B
100
AcDbEntity
  8
1
 62
   255
100
AcDbLine
 10
1317.91111236307
 20
261.0731535415221
 30
0.0
 11
1321.799606461486
 21
261.0731535415212
 31
0.0
1001
ACDBBLOCKREPETAG
1070
     1
1071
      910
1005
E631
  0
LINE
  5
145E2
330
1388B
100
AcDbEntity
  8
1
 62
   255
100
AcDbLine
 10
1317.91111236307
 20
261.5731535415214
 30
0.0
 11
1321.799606461486
 21
261.5731535415214
 31
0.0
1001
ACDBBLOCKREPETAG
1070
     1
1071
      911
1005
E632
  0
LINE
  5
145E3
330
1388B
100
AcDbEntity
  8
0
100
AcDbLine
 10
1317.91111236307
 20
261.5731535415214
 30
0.0
 11
1317.91111236307
 21
261.0731535415221
 31
0.0
1001
ACDBBLOCKREPETAG
1070
     1
1071
      912
1005
E633
  0
LINE
  5
145E4
330
1388B
100
AcDbEntity
  8
1
370
     5
100
AcDbLine
 10
1395.099606461486
 20
277.8231535415214
 30
0.0
 11
1406.410778489549
 21
277.8231535415214
 31
0.0
1001
ACDBBLOCKREPETAG
1070
     1
1071
      915
1005
E634
  0
LINE
  5
145E5
330
1388B
100
AcDbEntity
  8
1
370
     5
100
AcDbLine
 10
1409.989119866563
 20
277.8231535415214
 30
0.0
 11
1417.784723240334
 21
277.8231535415214
 31
0.0
1001
ACDBBLOCKREPETAG
1070
     1
1071
      921
1005
E635
  0
LINE
  5
145E6
330
1388B
100
AcDbEntity
  8
1
370
     5
100
AcDbLine
 10
1395.099606461486
 20
261.8231535415215
 30
0.0
 11
1417.784723240334
 21
261.8231535415215
 31
0.0
1001
ACDBBLOCKREPETAG
1070
     1
1071
      916
1005
E636
  0
LINE
  5
145E7
330
1388B
100
AcDbEntity
  8
1
370
     5
100
AcDbLine
 10
1417.284723240334
 20
276.0731535415214
 30
0.0
 11
1417.284723240334
 21
263.5731535415214
 31
0.0
1001
ACDBBLOCKREPETAG
1070
     1
1071
      917
1005
E637
  0
INSERT
  5
145E8
330
1388B
100
AcDbEntity
  8
0
100
AcDbBlockReference
  2
*U13
 10
532.9000147387103
 20
0.0
 30
0.0
  0
SOLID
  5
145E9
330
1388B
100
AcDbEntity
  8
1
100
AcDbTrace
 10
1416.847223240334
 20
275.1981535415215
 30
0.0
 11
1417.722223240335
 21
275.1981535415215
 31
0.0
 12
1417.284723240334
 22
277.8231535415214
 32
0.0
 13
1417.284723240334
 23
277.8231535415214
 33
0.0
1001
ACDBBLOCKREPETAG
1070
     1
1071
      919
1005
E639
  0
SOLID
  5
145EA
330
1388B
100
AcDbEntity
  8
1
100
AcDbTrace
 10
1416.847223240334
 20
264.4481535415214
 30
0.0
 11
1417.722223240335
 21
264.4481535415214
 31
0.0
 12
1417.284723240334
 22
261.8231535415215
 32
0.0
 13
1417.284723240334
 23
261.8231535415215
 33
0.0
1001
ACDBBLOCKREPETAG
1070
     1
1071
      920
1005
E63A
  0
LINE
  5
145EB
330
1388B
100
AcDbEntity
  8
1
370
     5
100
AcDbLine
 10
1395.099606461486
 20
236.7660432278577
 30
0.0
 11
1393.699606461486
 21
236.7660432278577
 31
0.0
1001
ACDBBLOCKREPETAG
1070
     1
1071
      922
1005
E63B
  0
LINE
  5
14622
330
1388B
100
AcDbEntity
  8
0
370
     5
100
AcDbLine
 10
1321.099606461486
 20
261.8331535415214
 30
0.0
 11
1321.099606461486
 21
243.2779368466338
 31
0.0
  0
INSERT
  5
14623
330
1388B
100
AcDbEntity
  8
0
100
AcDbBlockReference
  2
*U14
 10
532.9000147387103
 20
0.0
 30
0.0
  0
SOLID
  5
14624
330
1388B
100
AcDbEntity
  8
0
370
     5
100
AcDbTrace
 10
1318.474606461486
 20
244.4654368466338
 30
0.0
 11
1318.474606461486
 21
243.5904368466338
 31
0.0
 12
1321.099606461486
 22
244.0279368466338
 32
0.0
 13
1321.099606461486
 23
244.0279368466338
 33
0.0
  0
LINE
  5
14626
330
1388B
100
AcDbEntity
  8
0
370
     5
100
AcDbLine
 10
1329.699606461486
 20
253.4231535415214
 30
0.0
 11
1329.699606461486
 21
243.2779368466338
 31
0.0
  0
INSERT
  5
14628
330
1388B
100
AcDbEntity
  8
0
100
AcDbBlockReference
  2
*U15
 10
532.9000147387103
 20
0.0
 30
0.0
  0
SOLID
  5
1462A
330
1388B
100
AcDbEntity
  8
0
370
     5
100
AcDbTrace
 10
1332.324606461485
 20
244.4654368466338
 30
0.0
 11
1332.324606461485
 21
243.5904368466338
 31
0.0
 12
1329.699606461486
 22
244.0279368466338
 32
0.0
 13
1329.699606461486
 23
244.0279368466338
 33
0.0
  0
LINE
  5
1462B
330
1388B
100
AcDbEntity
  8
0
370
     5
100
AcDbLine
 10
1405.999606461486
 20
272.3231535415215
 30
0.0
 11
1410.037998698778
 21
272.3231535415215
 31
0.0
  0
LINE
  5
1462C
330
1388B
100
AcDbEntity
  8
0
370
     5
100
AcDbLine
 10
1405.999606461486
 20
267.3231535415212
 30
0.0
 11
1410.037998698778
 21
267.3231535415212
 31
0.0
  0
LINE
  5
1462D
330
1388B
100
AcDbEntity
  8
0
370
     5
100
AcDbLine
 10
1409.287998698778
 20
274.9481535415214
 30
0.0
 11
1409.287998698778
 21
277.5731535415214
 31
0.0
  0
LINE
  5
1462E
330
1388B
100
AcDbEntity
  8
0
370
     5
100
AcDbLine
 10
1409.287998698778
 20
264.6981535415213
 30
0.0
 11
1409.287998698778
 21
262.0731535415213
 31
0.0
  0
LINE
  5
1462F
330
1388B
100
AcDbEntity
  8
0
370
     5
100
AcDbLine
 10
1409.287998698778
 20
289.125453244911
 30
0.0
 11
1409.287998698778
 21
272.3231535415215
 31
0.0
  0
INSERT
  5
14630
330
1388B
100
AcDbEntity
  8
0
100
AcDbBlockReference
  2
*U16
 10
532.9000147387103
 20
0.0
 30
0.0
  0
LINE
  5
14631
330
1388B
100
AcDbEntity
  8
0
370
     5
100
AcDbLine
 10
1409.287998698778
 20
272.3231535415215
 30
0.0
 11
1409.287998698778
 21
267.3231535415212
 31
0.0
  0
SOLID
  5
14632
330
1388B
100
AcDbEntity
  8
0
370
     5
100
AcDbTrace
 10
1408.850498698777
 20
274.9481535415214
 30
0.0
 11
1409.725498698778
 21
274.9481535415214
 31
0.0
 12
1409.287998698778
 22
272.3231535415215
 32
0.0
 13
1409.287998698778
 23
272.3231535415215
 33
0.0
  0
SOLID
  5
14633
330
1388B
100
AcDbEntity
  8
0
100
AcDbTrace
 10
1408.850498698777
 20
264.6981535415213
 30
0.0
 11
1409.725498698778
 21
264.6981535415213
 31
0.0
 12
1409.287998698778
 22
267.3231535415212
 32
0.0
 13
1409.287998698778
 23
267.3231535415212
 33
0.0
  0
LINE
  5
14634
330
1388B
100
AcDbEntity
  8
0
370
     5
100
AcDbLine
 10
1481.631452415033
 20
262.5022740782468
 30
0.0
 11
1492.890077843552
 21
253.7012244158727
 31
0.0
  0
LINE
  5
14635
330
1388B
100
AcDbEntity
  8
0
370
     5
100
AcDbLine
 10
1490.661221910964
 20
269.8231535415214
 30
0.0
 11
1498.443713501522
 21
269.8231535415214
 31
0.0
  0
ARC
  5
14636
330
1388B
100
AcDbEntity
  8
0
370
     5
100
AcDbCircle
 10
1472.266314977312
 20
269.8231535415214
 30
0.0
 40
25.42739852421098
100
AcDbArc
 50
327.9022499891553
 51
354.0824347869112
  0
SOLID
  5
14637
330
1388B
100
AcDbEntity
  8
0
100
AcDbTrace
 10
1494.165083517718
 20
256.0606227950509
 30
0.0
 11
1493.448821022284
 21
256.5632091434867
 31
0.0
 12
1492.299193224694
 22
254.1631284829652
 32
0.0
 13
1492.299193224694
 23
254.1631284829652
 33
0.0
  0
SOLID
  5
14638
330
1388B
100
AcDbEntity
  8
0
100
AcDbTrace
 10
1497.121300654273
 20
267.2242355392937
 30
0.0
 11
1497.995134214306
 21
267.1790701835493
 31
0.0
 12
1497.693713501523
 22
269.8231535415214
 32
0.0
 13
1497.693713501523
 23
269.8231535415214
 33
0.0
  0
INSERT
  5
14639
330
1388B
100
AcDbEntity
  8
0
100
AcDbBlockReference
  2
*U17
 10
532.9000147387103
 20
0.0
 30
0.0
  0
LINE
  5
1463A
330
1388B
100
AcDbEntity
  8
0
370
     5
100
AcDbLine
 10
1481.170219230769
 20
277.8385248315216
 30
0.0
 11
1491.654541246967
 21
287.2786506793913
 31
0.0
  0
ARC
  5
1463B
330
1388B
100
AcDbEntity
  8
0
370
     5
100
AcDbCircle
 10
1472.2682474734
 20
269.8231535415214
 30
0.0
 40
25.33683128716873
100
AcDbArc
 50
5.938736645321219
 51
36.06126306121601
  0
SOLID
  5
1463C
330
1388B
100
AcDbEntity
  8
0
100
AcDbTrace
 10
1497.906010959004
 20
272.4672925435305
 30
0.0
 11
1497.032185758437
 21
272.4219657429143
 31
0.0
 12
1497.605078760568
 22
269.8231535415214
 32
0.0
 13
1497.605078760568
 23
269.8231535415214
 33
0.0
  0
SOLID
  5
1463D
330
1388B
100
AcDbEntity
  8
0
100
AcDbTrace
 10
1492.410384927477
 20
284.4621686390029
 30
0.0
 11
1493.090093156053
 21
285.013187444495
 31
0.0
 12
1491.097182625288
 22
286.7768027274769
 32
0.0
 13
1491.097182625288
 23
286.7768027274769
 33
0.0
  0
INSERT
  5
1463E
330
1388B
100
AcDbEntity
  8
0
100
AcDbBlockReference
  2
*U18
 10
532.9000147387103
 20
0.0
 30
0.0
  0
DIMENSION
  5
1463F
330
1388B
100
AcDbEntity
  8
0
100
AcDbDimension
  2
*D28
 10
1219.414790863009
 20
269.8231535415214
 30
0.0
 11
1222.569075525964
 21
254.7296865819047
 31
0.0
 70
   162
  1
4x90%%D
 71
     5
 42
1.570796326794888
  3
DMST_3
100
AcDb2LineAngularDimension
 13
1238.418569638991
 23
288.6954934709248
 33
0.0
 14
1238.418569638991
 24
250.9163017046471
 34
0.0
 15
1257.389055908631
 25
269.8231535415214
 35
0.0
 16
1226.358843067377
 26
248.935094394097
 36
0.0
1001
ACAD
1000
DSTYLE
1002
{
1070
    40
1040
1.5
1070
   176
1070
   256
1070
   177
1070
   256
1070
   178
1070
   256
1070
   284
1070
     0
1070
   285
1070
     0
1070
   286
1070
     0
1070
   371
1070
     5
1070
   372
1070
     5
1002
}
  0
LEADER
  5
14645
330
1388B
100
AcDbEntity
  8
0
 62
     2
100
AcDbLeader
  3
DMST_3
 76
     2
 10
1333.752715352811
 20
286.5759161210334
 30
0.0
 10
1333.752715352811
 20
300.7550577666334
 30
0.0
1001
ACAD
1000
DSTYLE
1002
{
1070
   147
1040
0.09
1070
    77
1070
     0
1070
    40
1040
1.5
1070
   176
1070
   256
1070
   177
1070
   256
1070
   178
1070
   256
1070
   279
1070
     0
1070
   284
1070
     0
1070
   285
1070
     0
1070
   286
1070
     0
1070
   371
1070
     5
1070
   372
1070
     5
1002
}
  0
LEADER
  5
14646
330
1388B
100
AcDbEntity
  8
0
100
AcDbLeader
  3
DMST_3
 76
     2
 10
1363.201415937949
 20
287.3257699002247
 30
0.0
 10
1363.201415937949
 20
302.4632115304162
 30
0.0
1001
ACAD
1000
DSTYLE
1002
{
1070
   147
1040
0.09
1070
    77
1070
     0
1070
    40
1040
1.5
1070
   176
1070
   256
1070
   177
1070
   256
1070
   178
1070
   256
1070
   279
1070
     0
1070
   284
1070
     0
1070
   285
1070
     0
1070
   286
1070
     0
1070
   371
1070
     5
1070
   372
1070
     5
1002
}
  0
LEADER
  5
14647
330
1388B
100
AcDbEntity
  8
0
100
AcDbLeader
  3
DMST_3
 76
     2
 10
1390.15635131709
 20
286.8231535415216
 30
0.0
 10
1390.15635131709
 20
297.4691129874291
 30
0.0
1001
ACAD
1000
DSTYLE
1002
{
1070
   147
1040
0.09
1070
    77
1070
     0
1070
    40
1040
1.5
1070
   176
1070
   256
1070
   177
1070
   256
1070
   178
1070
   256
1070
   279
1070
     0
1070
   284
1070
     0
1070
   285
1070
     0
1070
   286
1070
     0
1070
   371
1070
     5
1070
   372
1070
     5
1002
}
  0
DIMENSION
  5
14648
330
1388B
100
AcDbEntity
  8
0
 62
     2
100
AcDbDimension
  2
*D24
 10
1393.699606461486
 20
228.9900783332902
 30
0.0
 11
1400.053259399577
 21
231.5275249141589
 31
0.0
 70
   160
 71
     5
 42
12.49999999999977
  3
DMST_3
100
AcDbAlignedDimension
 13
1406.199606461486
 23
267.3767433800075
 33
0.0
 14
1393.699606461486
 24
253.8231535415216
 34
0.0
100
AcDbRotatedDimension
1001
ACAD
1000
DSTYLE
1002
{
1070
    40
1040
1.5
1070
   176
1070
   256
1070
   177
1070
   256
1070
   178
1070
   256
1070
   284
1070
     0
1070
   285
1070
     0
1070
   286
1070
     0
1070
   371
1070
     5
1070
   372
1070
     5
1002
}
  0
DIMENSION
  5
14649
330
1388B
100
AcDbEntity
  8
0
100
AcDbDimension
  2
*D27
 10
1450.282276982616
 20
261.3231535415214
 30
0.0
 11
1448.135965613283
 21
269.984964502474
 31
0.0
 70
   160
 71
     5
 42
17.0
  3
DMST_3
100
AcDbAlignedDimension
 13
1470.328772053798
 23
278.3231535415215
 33
0.0
 14
1470.328772053798
 24
261.3231535415214
 34
0.0
 50
90.0
100
AcDbRotatedDimension
1001
ACAD
1000
DSTYLE
1002
{
1070
    40
1040
1.5
1070
   176
1070
   256
1070
   177
1070
   256
1070
   178
1070
   256
1070
   284
1070
     0
1070
   285
1070
     0
1070
   286
1070
     0
1070
   371
1070
     5
1070
   372
1070
     5
1002
}
  0
LEADER
  5
1464A
330
1388B
100
AcDbEntity
  8
0
100
AcDbLeader
  3
DMST_3
 76
     3
 10
1466.410541298885
 20
276.9821231068199
 30
0.0
 10
1458.059227872751
 20
284.1516511438974
 30
0.0
 10
1451.926017596405
 20
284.1516511438974
 30
0.0
1001
ACAD
1000
DSTYLE
1002
{
1070
   147
1040
0.09
1070
    77
1070
     0
1070
    40
1040
1.5
1070
   176
1070
   256
1070
   177
1070
   256
1070
   178
1070
   256
1070
   279
1070
     0
1070
   284
1070
     0
1070
   285
1070
     0
1070
   286
1070
     0
1070
   371
1070
     5
1070
   372
1070
     5
1002
}
  0
ARC
  5
1464C
330
1388B
100
AcDbEntity
  8
1
 62
   255
100
AcDbCircle
 10
1488.918230967789
 20
269.8465978705144
 30
0.0
 40
1.050000000000161
100
AcDbArc
 50
116.2623601881649
 51
243.8989925504229
1001
ACDBBLOCKREPETAG
1070
     1
1071
      572
1005
E558
  0
ARC
  5
1464D
330
1388B
100
AcDbEntity
  8
1
 62
   255
100
AcDbCircle
 10
1488.918230967789
 20
269.8465978705144
 30
0.0
 40
1.500000000000049
100
AcDbArc
 50
124.5631690149509
 51
235.5981837236252
1001
ACDBBLOCKREPETAG
1070
     1
1071
      580
1005
E560
  0
ARC
  5
1464E
330
1388B
100
AcDbEntity
  8
1
 62
   255
100
AcDbCircle
 10
1488.324291771672
 20
268.6342710864683
 30
0.0
 40
0.2999999999999599
100
AcDbArc
 50
355.7652170228861
 51
63.89899255043708
1001
ACDBBLOCKREPETAG
1070
     1
1071
      694
1005
E5D0
  0
ARC
  5
1464F
330
1388B
100
AcDbEntity
  8
1
 62
   255
100
AcDbCircle
 10
1488.320880053576
 20
271.057247235644
 30
0.0
 40
0.2999999999999977
100
AcDbArc
 50
296.2623601881652
 51
4.396135715691518
1001
ACDBBLOCKREPETAG
1070
     1
1071
      695
1005
E5D1
  0
ARC
  5
14650
330
1388B
100
AcDbEntity
  8
1
 62
   255
100
AcDbCircle
 10
1487.957742597079
 20
268.4439353702205
 30
0.0
 40
0.1999999999999912
100
AcDbArc
 50
354.9762077761851
 51
55.5981837236095
1001
ACDBBLOCKREPETAG
1070
     1
1071
      696
1005
E5D2
  0
ARC
  5
14651
330
1388B
100
AcDbEntity
  8
1
 62
   255
100
AcDbCircle
 10
1487.953796321806
 20
271.2465499459899
 30
0.0
 40
0.2000000000000023
100
AcDbArc
 50
304.5631690149516
 51
5.185144962389657
1001
ACDBBLOCKREPETAG
1070
     1
1071
      697
1005
E5D3
  0
DIMENSION
  5
14652
330
1388B
100
AcDbEntity
  8
0
 62
     2
100
AcDbDimension
  2
*D21
 10
1393.699606461486
 20
228.9900783332902
 30
0.0
 11
1359.468913472175
 21
230.9661417648083
 31
0.0
 70
   160
 71
     5
 42
67.19999999999936
  3
DMST_3
100
AcDbAlignedDimension
 13
1326.499606461486
 23
254.00487759689
 33
0.0
 14
1393.699606461486
 24
253.8231535415216
 34
0.0
100
AcDbRotatedDimension
1001
ACAD
1000
DSTYLE
1002
{
1070
    40
1040
1.5
1070
   176
1070
   256
1070
   177
1070
   256
1070
   178
1070
   256
1070
   284
1070
     0
1070
   285
1070
     0
1070
   286
1070
     0
1070
   371
1070
     5
1070
   372
1070
     5
1002
}
  0
DIMENSION
  5
14653
330
1388B
100
AcDbEntity
  8
0
370
     5
100
AcDbDimension
  2
*D22
 10
1337.199606461487
 20
236.7660432278577
 30
0.0
 11
1332.035423269079
 21
239.1602707777381
 31
0.0
 70
   160
 71
     5
 42
10.70000000000027
  3
DMST_3
100
AcDbAlignedDimension
 13
1326.499606461486
 23
254.00487759689
 33
0.0
 14
1337.199606461487
 24
253.0786787005452
 34
0.0
100
AcDbRotatedDimension
1001
ACAD
1000
DSTYLE
1002
{
1070
    40
1040
1.5
1070
   176
1070
   256
1070
   177
1070
   256
1070
   178
1070
   256
1070
   284
1070
     0
1070
   285
1070
     0
1070
   286
1070
     0
1070
   371
1070
     5
1070
   372
1070
     5
1002
}
  0
DIMENSION
  5
14654
330
1388B
100
AcDbEntity
  8
0
100
AcDbDimension
  2
*D23
 10
1395.099606461486
 20
236.7660432278577
 30
0.0
 11
1390.336562976166
 21
239.4346594366218
 31
0.0
 70
   160
 71
     5
 42
1.40000000000009
  3
DMST_3
100
AcDbAlignedDimension
 13
1393.699606461486
 23
253.8231535415216
 33
0.0
 14
1395.099606461486
 24
261.8231535415215
 34
0.0
100
AcDbRotatedDimension
1001
ACAD
1000
DSTYLE
1002
{
1070
    40
1040
1.5
1070
   176
1070
   256
1070
   177
1070
   256
1070
   178
1070
   256
1070
   284
1070
     0
1070
   285
1070
     0
1070
   286
1070
     0
1070
   371
1070
     5
1070
   372
1070
     5
1002
}
  0
DIMENSION
  5
14655
330
1388B
100
AcDbEntity
  8
0
100
AcDbDimension
  2
*D25
 10
1386.199606461485
 20
244.0279368466338
 30
0.0
 11
1389.815038014865
 21
247.0159384947365
 31
0.0
 70
   160
 71
     5
 42
7.500000000000683
  3
DMST_3
100
AcDbAlignedDimension
 13
1393.699606461486
 23
253.8231535415216
 33
0.0
 14
1386.199606461485
 24
252.3231535415216
 34
0.0
100
AcDbRotatedDimension
1001
ACAD
1000
DSTYLE
1002
{
1070
    40
1040
1.5
1070
   176
1070
   256
1070
   177
1070
   256
1070
   178
1070
   256
1070
   284
1070
     0
1070
   285
1070
     0
1070
   286
1070
     0
1070
   371
1070
     5
1070
   372
1070
     5
1002
}
  0
LEADER
  5
14656
330
1388B
100
AcDbEntity
  8
0
 62
     2
100
AcDbLeader
  3
DMST_3
 76
     3
 10
1249.938561143742
 20
271.230139268168
 30
0.0
 10
1254.063895355661
 20
286.1335920731066
 30
0.0
 10
1257.262348272071
 20
286.1335920731066
 30
0.0
1001
ACAD
1000
DSTYLE
1002
{
1070
   147
1040
0.09
1070
    77
1070
     0
1070
    40
1040
1.5
1070
   176
1070
   256
1070
   177
1070
   256
1070
   178
1070
   256
1070
   279
1070
     0
1070
   284
1070
     0
1070
   285
1070
     0
1070
   286
1070
     0
1070
   371
1070
     5
1070
   372
1070
     5
1002
}
  0
DIMENSION
  5
14657
330
1388B
100
AcDbEntity
  8
0
100
AcDbDimension
  2
*D26
 10
1249.418569638991
 20
293.2945139709978
 30
0.0
 11
1238.350116154989
 21
296.0652033130833
 31
0.0
 70
   160
  1
%%C22
 71
     5
 42
22.0
  3
DMST_3
100
AcDbAlignedDimension
 13
1227.418569638991
 23
269.8231535415214
 33
0.0
 14
1249.418569638991
 24
269.8231535415214
 34
0.0
100
AcDbRotatedDimension
1001
ACAD
1000
DSTYLE
1002
{
1070
    40
1040
1.5
1070
   176
1070
   256
1070
   177
1070
   256
1070
   178
1070
   256
1070
   284
1070
     0
1070
   285
1070
     0
1070
   286
1070
     0
1070
   371
1070
     5
1070
   372
1070
     5
1002
}
  0
LINE
  5
15428
330
1388B
100
AcDbEntity
  8
0
370
     5
100
AcDbLine
 10
1325.187106461486
 20
242.7154368466338
 30
0.0
 11
1327.812106461486
 21
245.3404368466338
 31
0.0
  0
LINE
  5
15C98
330
1388B
100
AcDbEntity
  8
0
  6
Continuous
 62
   255
100
AcDbLine
 10
1551.204346660079
 20
92.25473534857838
 30
0.0
 11
1551.204346660079
 21
369.2547353485783
 31
0.0
  0
LINE
  5
15C99
330
1388B
100
AcDbEntity
  8
0
  6
Continuous
 62
   255
100
AcDbLine
 10
1532.847646584434
 20
92.25473534857838
 30
0.0
 11
1532.847646584434
 21
96.2547342556825
 31
0.0
  0
LINE
  5
15C9A
330
1388B
100
AcDbEntity
  8
0
  6
Continuous
 62
   255
100
AcDbLine
 10
1539.204346660079
 20
96.2547342556825
 30
0.0
 11
1539.204346660079
 21
105.2547342556823
 31
0.0
  0
LINE
  5
15C9B
330
1388B
100
AcDbEntity
  8
0
  6
Continuous
 62
   255
100
AcDbLine
 10
1158.204380250479
 20
92.25473534857838
 30
0.0
 11
1551.204346660079
 21
92.25473534857838
 31
0.0
  0
LINE
  5
15C9C
330
1388B
100
AcDbEntity
  8
0
  6
Continuous
 62
   255
100
AcDbLine
 10
1158.204380250479
 20
369.2547353485783
 30
0.0
 11
1158.204380250479
 21
92.25473534857838
 31
0.0
  0
LINE
  5
15C9D
330
1388B
100
AcDbEntity
  8
0
  6
Continuous
 62
   255
100
AcDbLine
 10
1158.204380250479
 20
369.2547353485783
 30
0.0
 11
1551.204346660079
 21
369.2547353485783
 31
0.0
  0
LINE
  5
15CA4
330
1388B
100
AcDbEntity
  8
0
  6
CENTER
 62
     2
 48
0.3
370
     9
100
AcDbLine
 10
1545.743277931684
 20
108.7986272923112
 30
0.0
 11
1545.743277931684
 21
115.7986253797435
 31
0.0
1001
ACDBBLOCKREPETAG
1070
     1
1071
        1
1005
0
  0
LINE
  5
15CA5
330
1388B
100
AcDbEntity
  8
0
  6
CENTER
 62
     2
 48
0.3
370
     9
100
AcDbLine
 10
1531.38546132806
 20
112.2986263360274
 30
0.0
 11
1540.385458869043
 21
112.2986263360274
 31
0.0
1001
ACDBBLOCKREPETAG
1070
     1
1071
        9
1005
0
  0
LINE
  5
15CA6
330
1388B
100
AcDbEntity
  8
0
  6
Continuous
 62
   255
100
AcDbLine
 10
1539.885459005656
 20
115.398625489033
 30
0.0
 11
1531.885461191448
 21
113.7986259261914
 31
0.0
1001
ACDBBLOCKREPETAG
1070
     1
1071
       10
1005
0
  0
LINE
  5
15CA7
330
1388B
100
AcDbEntity
  8
0
  6
Continuous
 62
   255
100
AcDbLine
 10
1539.885459005656
 20
109.1986271830216
 30
0.0
 11
1539.885459005656
 21
115.398625489033
 31
0.0
1001
ACDBBLOCKREPETAG
1070
     1
1071
       11
1005
0
  0
LINE
  5
15CA8
330
1388B
100
AcDbEntity
  8
0
  6
Continuous
 62
   255
100
AcDbLine
 10
1531.885461191448
 20
110.7986267458633
 30
0.0
 11
1539.885459005656
 21
109.1986271830216
 31
0.0
1001
ACDBBLOCKREPETAG
1070
     1
1071
       12
1005
0
  0
LINE
  5
15CA9
330
1388B
100
AcDbEntity
  8
0
  6
Continuous
 62
   255
100
AcDbLine
 10
1531.885461191448
 20
113.7986259261914
 30
0.0
 11
1531.885461191448
 21
110.7986267458633
 31
0.0
1001
ACDBBLOCKREPETAG
1070
     1
1071
       13
1005
0
  0
LINE
  5
15CAA
330
1388B
100
AcDbEntity
  8
0
  6
Continuous
 62
   255
100
AcDbLine
 10
1488.204366878654
 20
114.2547342556825
 30
0.0
 11
1488.204366878654
 21
96.2547342556825
 31
0.0
1001
ACDBBLOCKREPETAG
1070
     1
1071
       20
1005
0
  0
LINE
  5
15CAB
330
1388B
100
AcDbEntity
  8
0
  6
Continuous
 62
   255
100
AcDbLine
 10
1403.204387097227
 20
114.2547342556822
 30
0.0
 11
1403.204387097227
 21
96.2547342556825
 31
0.0
1001
ACDBBLOCKREPETAG
1070
     1
1071
       22
1005
0
  0
LINE
  5
15CAC
330
1388B
100
AcDbEntity
  8
0
  6
Continuous
 62
   255
100
AcDbLine
 10
1413.297969779168
 20
119.253929372275
 30
0.0
 11
1413.297969779169
 21
114.2547342556823
 31
0.0
1001
ACDBBLOCKREPETAG
1070
     1
1071
       22
1005
0
  0
LINE
  5
15CAD
330
1388B
100
AcDbEntity
  8
0
  6
Continuous
 62
   255
100
AcDbLine
 10
1503.485116017374
 20
119.253929372275
 30
0.0
 11
1503.485116017374
 21
114.2547342556823
 31
0.0
1001
ACDBBLOCKREPETAG
1070
     1
1071
       22
1005
0
  0
LINE
  5
15CAE
330
1388B
100
AcDbEntity
  8
0
  6
Continuous
 62
   255
100
AcDbLine
 10
1368.204396660066
 20
119.2539293722749
 30
0.0
 11
1368.204396660066
 21
92.25473534857838
 31
0.0
1001
ACDBBLOCKREPETAG
1070
     1
1071
       26
1005
0
  0
LINE
  5
15CB7
330
1388B
100
AcDbEntity
  8
0
  6
CENTER
 62
     2
 48
0.3
370
     9
100
AcDbLine
 10
1542.143278915291
 20
112.2986263360274
 30
0.0
 11
1549.243276975401
 21
112.2986263360274
 31
0.0
1001
ACDBBLOCKREPETAG
1070
     1
1071
       37
1005
0
  0
LINE
  5
15CB8
330
1388B
100
AcDbEntity
  8
0
  6
Continuous
 62
   255
100
AcDbLine
 10
1551.20434666008
 20
96.2547342556825
 30
0.0
 11
1368.204396660066
 21
96.2547342556825
 31
0.0
1001
ACDBBLOCKREPETAG
1070
     1
1071
       38
1005
0
  0
LINE
  5
15CB9
330
1388B
100
AcDbEntity
  8
0
  6
Continuous
 62
   255
100
AcDbLine
 10
1529.275974837972
 20
114.2547342556823
 30
0.0
 11
1503.485116017374
 21
114.2547342556822
 31
0.0
1001
ACDBBLOCKREPETAG
1070
     1
1071
       38
1005
0
  0
LINE
  5
15CBA
330
1388B
100
AcDbEntity
  8
0
  6
Continuous
 62
   255
100
AcDbLine
 10
1503.485116017374
 20
114.2547342556821
 30
0.0
 11
1368.204396660066
 21
114.2547342556825
 31
0.0
1001
ACDBBLOCKREPETAG
1070
     1
1071
       38
1005
0
  0
LINE
  5
15CBB
330
1388B
100
AcDbEntity
  8
0
  6
Continuous
 62
   255
100
AcDbLine
 10
1551.20434666008
 20
105.2547342556825
 30
0.0
 11
1488.204366878654
 21
105.2547342556821
 31
0.0
1001
ACDBBLOCKREPETAG
1070
     1
1071
       38
1005
0
  0
CIRCLE
  5
15CBC
330
1388B
100
AcDbEntity
  8
0
  6
Continuous
 62
   255
100
AcDbCircle
 10
1545.743277931684
 20
112.2986263360274
 30
0.0
 40
3.099999153005696
1001
ACDBBLOCKREPETAG
1070
     1
1071
       39
1005
0
  0
CIRCLE
  5
15CBD
330
1388B
100
AcDbEntity
  8
0
  6
Continuous
 62
   255
100
AcDbCircle
 10
1545.743277931684
 20
112.2986263360274
 30
0.0
 40
1.499999590164045
1001
ACDBBLOCKREPETAG
1070
     1
1071
       40
1005
0
  0
MTEXT
  5
15CBE
330
1388B
100
AcDbEntity
  8
0
 62
   255
100
AcDbMText
 10
1498.230298049796
 20
111.1585720310539
 30
0.0
 40
3.0
 41
0.0
 71
     1
 72
     5
  1
Scale: 1:1
 73
     1
 44
1.0
1001
ACDBBLOCKREPETAG
1070
     1
1071
       46
1005
0
1001
ACAD
1000
MTEXTBEGIN
1070
    73
1070
     1
1070
    44
1040
1.0
1070
    74
1070
     0
1000
MTEXTEND
  0
MTEXT
  5
15CBF
330
1388B
100
AcDbEntity
  8
0
 62
   255
100
AcDbMText
 10
1541.717815036037
 20
103.0771145851702
 30
0.0
 40
4.5
 41
0.0
 71
     1
 72
     5
  1
{\fISOCPEUR|b0|i0|c0|p34;\W1;A3}
  7
SLDTEXTSTYLE0
 73
     1
 44
1.0
1001
ACDBBLOCKREPETAG
1070
     1
1071
       50
1005
0
1001
ACAD
1000
MTEXTBEGIN
1070
    73
1070
     1
1070
    44
1040
1.0
1070
    74
1070
     0
1000
MTEXTEND
  0
TEXT
  5
15CC0
330
1388B
100
AcDbEntity
  8
0
  6
Continuous
 62
   255
100
AcDbText
 10
1371.741169047963
 20
93.65410839564535
 30
0.0
 40
1.72391304347826
  1
This drawing remains our property. Without written approval it may not be copied, reproduced, communicated or made available to third parties.
100
AcDbText
1001
ACDBBLOCKREPETAG
1070
     1
1071
       51
1005
0
  0
MTEXT
  5
15CC6
330
1388B
100
AcDbEntity
  8
0
 62
   255
100
AcDbMText
 10
1494.970196828888
 20
103.0224655733084
 30
0.0
 40
4.5
 41
0.0
 71
     1
 72
     5
  1
{\fISOCPEUR|b0|i0|c0|p34;\W1;1.011.35GLT.S25}
  7
SLDTEXTSTYLE0
 73
     1
 44
1.0
1001
ACDBBLOCKREPETAG
1070
     1
1071
       58
1005
0
1001
ACAD
1000
MTEXTBEGIN
1070
    73
1070
     1
1070
    44
1040
1.0
1070
    74
1070
     0
1000
MTEXTEND
  0
MTEXT
  5
15CC7
102
{ACAD_XDICTIONARY
360
15DF3
102
}
330
1388B
100
AcDbEntity
  8
0
 62
   255
100
AcDbMText
 10
1446.186286518468
 20
111.5867034178474
 30
0.0
 40
4.5
 41
0.0
 71
     1
 72
     5
  1
{\fISOCPEUR|b0|i0|c0|p34;\W1;35 GLT 2R  82   .1 \POutline drawing}
  7
SLDTEXTSTYLE0
 73
     1
 44
1.0
1001
ACDBBLOCKREPETAG
1070
     1
1071
       59
1005
0
1001
ACAD
1000
MTEXTBEGIN
1070
    73
1070
     1
1070
    44
1040
1.0
1070
    74
1070
     0
1000
MTEXTEND
  0
MTEXT
  5
15CC8
330
1388B
100
AcDbEntity
  8
0
 62
     1
100
AcDbMText
 10
1370.611298771165
 20
109.95505003267
 30
0.0
 40
5.0
 41
0.0
 71
     1
 72
     5
  1
{\fISOCPEUR|b0|i0|c0|p34;\W1;Portescap}
  7
SLDTEXTSTYLE0
 73
     1
 44
1.0
1001
ACDBBLOCKREPETAG
1070
     1
1071
       65
1005
0
1001
ACAD
1000
MTEXTBEGIN
1070
    73
1070
     1
1070
    44
1040
1.0
1070
    74
1070
     0
1000
MTEXTEND
  0
LINE
  5
15CCB
330
1388B
100
AcDbEntity
  8
0
  6
Continuous
 62
   255
100
AcDbLine
 10
1529.275974837972
 20
119.2539293722749
 30
0.0
 11
1529.275974837971
 21
105.2547342556822
 31
0.0
1001
ACDBBLOCKREPETAG
1070
     1
1071
        5
1005
0
  0
TEXT
  5
15CCC
330
1388B
100
AcDbEntity
  8
0
  6
Continuous
 62
   255
100
AcDbText
 10
1535.359787106811
 20
93.65410839564535
 30
0.0
 40
1.72391304347826
  1
Sheet 1 of 1
100
AcDbText
1001
ACDBBLOCKREPETAG
1070
     1
1071
       51
1005
0
  0
LINE
  5
15CCE
330
1388B
100
AcDbEntity
  8
0
  6
Continuous
 62
   255
100
AcDbLine
 10
1403.204387097227
 20
100.2547331627864
 30
0.0
 11
1368.204396660066
 21
100.2547331627864
 31
0.0
1001
ACDBBLOCKREPETAG
1070
     1
1071
       38
1005
0
  0
TEXT
  5
15CCF
330
1388B
100
AcDbEntity
  8
0
  6
Continuous
 62
   255
100
AcDbText
 10
1371.741169047963
 20
97.46384776882258
 30
0.0
 40
1.72391304347826
  1
PI/R&D/F/18 Rev 00
100
AcDbText
1001
ACDBBLOCKREPETAG
1070
     1
1071
       51
1005
0
  0
MTEXT
  5
15CD0
330
1388B
100
AcDbEntity
  8
0
  6
Continuous
 62
   255
100
AcDbMText
 10
1370.063838880173
 20
120.8548912675226
 30
0.0
 40
2.1
 41
122.5201940634145
 71
     7
 72
     1
  1
Unless & otherwise specified, all dimensions and tolerances are in mm.
  7
style1
 73
     1
 44
1.0
1001
ACDBBLOCKREPETAG
1070
     1
1071
       64
1005
0
1001
ACAD
1000
MTEXTBEGIN
1070
    73
1070
     1
1070
    44
1040
1.0
1070
    74
1070
     0
1000
MTEXTEND
  0
LINE
  5
15CD1
330
1388B
100
AcDbEntity
  8
0
  6
Continuous
 62
   255
100
AcDbLine
 10
1368.204396660066
 20
119.2539293722749
 30
0.0
 11
1551.20434666008
 21
119.2539293722749
 31
0.0
1001
ACDBBLOCKREPETAG
1070
     1
1071
        3
1005
0
  0
MTEXT
  5
15CD4
330
1388B
100
AcDbEntity
  8
0
 62
   255
100
AcDbMText
 10
1369.960050063554
 20
118.0881731913201
 30
0.0
 40
2.5
 41
0.0
 71
     1
 72
     5
  1
Drawn: 30.07.13 NB
 73
     1
 44
1.0
1001
ACDBBLOCKREPETAG
1070
     1
1071
       46
1005
0
1001
ACAD
1000
MTEXTBEGIN
1070
    73
1070
     1
1070
    44
1040
1.0
1070
    74
1070
     0
1000
MTEXTEND
  0
MTEXT
  5
15CD5
330
1388B
100
AcDbEntity
  8
0
 62
   255
100
AcDbMText
 10
1415.579638447378
 20
118.0881731913244
 30
0.0
 40
2.5
 41
0.0
 71
     1
 72
     5
  1
Checked:
 73
     1
 44
1.0
1001
ACDBBLOCKREPETAG
1070
     1
1071
       46
1005
0
1001
ACAD
1000
MTEXTBEGIN
1070
    73
1070
     1
1070
    44
1040
1.0
1070
    74
1070
     0
1000
MTEXTEND
  0
MTEXT
  5
15CD6
330
1388B
100
AcDbEntity
  8
0
 62
   255
100
AcDbMText
 10
1461.329625947381
 20
118.0881731913244
 30
0.0
 40
2.5
 41
0.0
 71
     1
 72
     5
  1
Approved:
 73
     1
 44
1.0
1001
ACDBBLOCKREPETAG
1070
     1
1071
       46
1005
0
1001
ACAD
1000
MTEXTBEGIN
1070
    73
1070
     1
1070
    44
1040
1.0
1070
    74
1070
     0
1000
MTEXTEND
  0
MTEXT
  5
15CD7
330
1388B
100
AcDbEntity
  8
0
 62
   255
100
AcDbMText
 10
1505.110370304682
 20
118.0881731913286
 30
0.0
 40
2.5
 41
0.0
 71
     1
 72
     5
  1
Revision No: 00
 73
     1
 44
1.0
1001
ACDBBLOCKREPETAG
1070
     1
1071
       46
1005
0
1001
ACAD
1000
MTEXTBEGIN
1070
    73
1070
     1
1070
    44
1040
1.0
1070
    74
1070
     0
1000
MTEXTEND
  0
LINE
  5
15CD8
330
1388B
100
AcDbEntity
  8
0
  6
Continuous
 62
   255
100
AcDbLine
 10
1458.391542898271
 20
119.2539293722791
 30
0.0
 11
1458.391542898271
 21
114.2547342556864
 31
0.0
1001
ACDBBLOCKREPETAG
1070
     1
1071
       22
1005
0
  0
ENDSEC
  0
SECTION
  2
OBJECTS
  0
DICTIONARY
  5
13823
330
0
100
AcDbDictionary
281
     1
  3
ACAD_BACKGROUND
350
15642
  3
ACAD_COLOR
350
13881
  3
ACAD_GROUP
350
13824
  3
ACAD_LAYOUT
350
13880
  3
ACAD_MATERIAL
350
13827
  3
ACAD_MLEADERSTYLE
350
13884
  3
ACAD_MLINESTYLE
350
1387D
  3
ACAD_PLOTSETTINGS
350
1387F
  3
ACAD_PLOTSTYLENAME
350
13825
  3
ACAD_SCALELIST
350
13851
  3
ACAD_TABLESTYLE
350
13882
  3
ACAD_VISUALSTYLE
350
13840
  3
AcadDim
350
13F68
  3
ACDB_RECOMPOSE_DATA
350
15A6D
  3
AcDbVariableDictionary
350
13C73
  3
ASE_INDEX_DICTIONARY
350
15DB1
  3
DWGPROPS
350
15DF5
  0
DICTIONARY
  5
15C43
330
13819
100
AcDbDictionary
280
     1
281
     1
  3
ACAD_LAYERSTATES
360
15C44
  0
DICTIONARY
  5
13C39
330
13873
100
AcDbDictionary
280
     1
281
     1
  3
ADSK_XREC_LAYER_RECONCILED
360
13C3A
  0
DICTIONARY
  5
13C3B
330
13891
100
AcDbDictionary
280
     1
281
     1
  3
ADSK_XREC_LAYER_RECONCILED
360
13C3C
  0
DICTIONARY
  5
13C33
330
1388B
100
AcDbDictionary
280
     1
281
     1
  3
ACAD_SORTENTS
360
13C34
  0
DICTIONARY
  5
15A7C
330
15A7B
100
AcDbDictionary
280
     1
281
     1
  3
ACAD_SORTENTS
360
15A7D
  0
DICTIONARY
  5
15AB7
330
15AB6
100
AcDbDictionary
280
     1
281
     1
  3
ACAD_SORTENTS
360
15AB8
  0
DICTIONARY
  5
15AFF
330
15AFE
100
AcDbDictionary
280
     1
281
     1
  3
ACAD_SORTENTS
360
15B00
  0
DICTIONARY
  5
15B06
330
15B05
100
AcDbDictionary
280
     1
281
     1
  3
ACAD_SORTENTS
360
15B07
  0
DICTIONARY
  5
15B1C
330
15B1B
100
AcDbDictionary
280
     1
281
     1
  3
ACAD_SORTENTS
360
15B1D
  0
DICTIONARY
  5
15C02
330
15C01
100
AcDbDictionary
280
     1
281
     1
  3
ACAD_SORTENTS
360
15C03
  0
DICTIONARY
  5
15C87
330
15C45
100
AcDbDictionary
280
     1
281
     1
  3
ACAD_SORTENTS
360
15C88
  0
DICTIONARY
  5
15DF1
330
15C6E
100
AcDbDictionary
280
     1
281
     1
  3
ACAD_MTEXT_2008_RT
360
15DF2
  3
ACAD_MTEXT_RT
360
15DFE
  0
DICTIONARY
  5
15DF3
330
15CC7
100
AcDbDictionary
280
     1
281
     1
  3
ACAD_MTEXT_2008_RT
360
15DF4
  3
ACAD_MTEXT_RT
360
15DFF
  0
DICTIONARY
  5
15642
102
{ACAD_REACTORS
330
13823
102
}
330
13823
100
AcDbDictionary
281
     1
  0
DICTIONARY
  5
13881
102
{ACAD_REACTORS
330
13823
102
}
330
13823
100
AcDbDictionary
281
     1
  0
DICTIONARY
  5
13824
102
{ACAD_REACTORS
330
13823
102
}
330
13823
100
AcDbDictionary
281
     1
  0
DICTIONARY
  5
13880
102
{ACAD_REACTORS
330
13823
102
}
330
13823
100
AcDbDictionary
281
     1
  3
Layout1
350
1388A
  3
Model
350
1388E
  0
DICTIONARY
  5
13827
102
{ACAD_REACTORS
330
13823
102
}
330
13823
100
AcDbDictionary
281
     1
  3
ByBlock
350
13830
  3
ByLayer
350
13828
  3
Global
350
13838
  0
DICTIONARY
  5
13884
102
{ACAD_REACTORS
330
13823
102
}
330
13823
100
AcDbDictionary
281
     1
  3
Standard
350
13885
  0
DICTIONARY
  5
1387D
102
{ACAD_REACTORS
330
13823
102
}
330
13823
100
AcDbDictionary
281
     1
  3
Standard
350
1387E
  0
DICTIONARY
  5
1387F
102
{ACAD_REACTORS
330
13823
102
}
330
13823
100
AcDbDictionary
281
     1
  0
ACDBDICTIONARYWDFLT
  5
13825
102
{ACAD_REACTORS
330
13823
102
}
330
13823
100
AcDbDictionary
281
     1
  3
Normal
350
13826
100
AcDbDictionaryWithDefault
340
13826
  0
DICTIONARY
  5
13851
102
{ACAD_REACTORS
330
13823
102
}
330
13823
100
AcDbDictionary
281
     1
  3
A0
350
13852
  3
A1
350
13853
  3
A2
350
13854
  3
A3
350
13855
  3
A4
350
13856
  3
A5
350
13857
  3
A6
350
13858
  3
A7
350
13859
  3
A8
350
1385A
  3
A9
350
1385B
  3
B0
350
1385C
  3
B1
350
1385D
  3
B2
350
1385E
  3
B3
350
1385F
  3
B4
350
13860
  3
B5
350
13861
  3
B6
350
13862
  3
B7
350
13863
  3
B8
350
13864
  3
B9
350
13865
  3
C0
350
13866
  3
C1
350
13867
  3
C2
350
13868
  3
C3
350
13869
  3
C4
350
1386A
  3
C5
350
1386B
  3
C6
350
1386C
  3
C7
350
1386D
  3
C8
350
1386E
  3
C9
350
1386F
  3
D0
350
13870
  3
D1
350
13871
  3
D2
350
13872
  0
DICTIONARY
  5
13882
102
{ACAD_REACTORS
330
13823
102
}
330
13823
100
AcDbDictionary
281
     1
  3
Standard
350
13883
  0
DICTIONARY
  5
13840
102
{ACAD_REACTORS
330
13823
102
}
330
13823
100
AcDbDictionary
281
     1
  3
2dWireframe
350
13846
  3
3D Hidden
350
13848
  3
3dWireframe
350
13847
  3
Basic
350
13845
  3
Brighten
350
1384C
  3
ColorChange
350
13850
  3
Conceptual
350
13849
  3
Dim
350
1384B
  3
EdgeColorOff
350
15C3A
  3
Facepattern
350
1384F
  3
Flat
350
13841
  3
FlatWithEdges
350
13842
  3
Gouraud
350
13843
  3
GouraudWithEdges
350
13844
  3
JitterOff
350
15C3D
  3
Linepattern
350
1384E
  3
OverhangOff
350
15C40
  3
Realistic
350
1384A
  3
Thicken
350
1384D
  0
XRECORD
  5
13F68
102
{ACAD_REACTORS
330
13823
102
}
330
13823
100
AcDbXrecord
280
     1
 90
   990106
  3

 60
     0
 61
     0
 62
     1
 63
     3
 64
     0
 65
     0
 66
     0
 67
     3
 68
     1
 69
     0
 70
     0
 71
     0
 72
     0
 40
0.0
170
     0
  0
XRECORD
  5
15A6D
102
{ACAD_REACTORS
330
13823
102
}
330
13823
100
AcDbXrecord
280
     1
 90
        1
330
13883
330
15C6E
330
15CC7
  0
DICTIONARY
  5
13C73
102
{ACAD_REACTORS
330
13823
102
}
330
13823
100
AcDbDictionary
281
     1
  3
CANNOSCALE
350
13C76
  3
CMLEADERSTYLE
350
13C75
  3
CTABLESTYLE
350
13C74
  3
DIMASSOC
350
13C79
  3
INDEXCTL
350
13C78
  3
LIGHTINGUNITS
350
15A6F
  3
LOFTANG1
350
15DDD
  3
LOFTANG2
350
15DDE
  3
LONGITUDE
350
15DDF
  3
MSLTSCALE
350
15A6E
  3
SORTENTS
350
13C77
  0
DICTIONARY
  5
15DB1
102
{ACAD_REACTORS
330
13823
102
}
330
13823
100
AcDbDictionary
281
     1
  3
ASEBlockHierarchyIndexRecord
350
15DB2
1001
DCO15
1040
1789196514.699
  0
XRECORD
  5
15DF5
102
{ACAD_REACTORS
330
13823
102
}
330
13823
100
AcDbXrecord
280
     1
  1
DWGPROPS COOKIE
  2

  3

  4

  6

  7

  8
sandesh.gangan
  9

300
=
301
=
302
=
303
=
304
=
305
=
306
=
307
=
308
=
309
=
 40
0.4591697685185185
 41
2454559.411855
 42
2456512.750487928
  1

 90
        0
  0
DICTIONARY
  5
15C44
102
{ACAD_REACTORS
330
15C43
102
}
330
15C43
100
AcDbDictionary
281
     1
  0
XRECORD
  5
13C3A
102
{ACAD_REACTORS
330
13C39
102
}
330
13C39
100
AcDbXrecord
280
     1
290
     1
  0
XRECORD
  5
13C3C
102
{ACAD_REACTORS
330
13C3B
102
}
330
13C3B
100
AcDbXrecord
280
     1
290
     1
  0
SORTENTSTABLE
  5
13C34
102
{ACAD_REACTORS
330
13C33
102
}
330
13C33
100
AcDbSortentsTable
330
1388B
331
1451B
  5
1451C
331
144DC
  5
144DD
331
14523
  5
14524
331
144E4
  5
144E5
331
144EC
  5
144ED
331
1452B
  5
1452C
331
144F4
  5
144F5
331
14576
  5
14577
331
14537
  5
14538
331
15CAC
  5
15CAC
331
1457E
  5
1457F
331
145D5
  5
145D6
331
1453F
  5
14540
331
15CBC
  5
15CBC
331
14547
  5
14548
331
14586
  5
14587
331
145DD
  5
145DE
331
145E5
  5
145E6
331
1454F
  5
14550
331
1458E
  5
1458F
331
145C7
  5
145C8
331
145AD
  5
145AE
331
144BD
  5
144BE
331
144FC
  5
144FD
331
144C5
  5
144C6
331
14504
  5
14505
331
1450C
  5
1450D
331
144CD
  5
144CE
331
144D5
  5
144D6
331
14514
  5
14515
331
14645
  5
14646
331
15CCC
  5
15CCC
331
14557
  5
14558
331
14596
  5
14597
331
1459E
  5
1459F
331
1455F
  5
14560
331
15CD4
  5
15CD4
331
14567
  5
14568
331
145B6
  5
145B7
331
15C9D
  5
15C9D
331
15CA5
  5
15CA5
331
1456F
  5
14570
331
1462F
  5
14630
331
14637
  5
14638
331
14655
  5
14656
331
1464D
  5
1464E
331
145BC
  5
145BD
331
1463D
  5
1463E
331
145A2
  5
145A3
331
144DD
  5
144DE
331
1451C
  5
1451D
331
144E5
  5
144E6
331
14524
  5
14525
331
1452C
  5
1452D
331
144ED
  5
144EE
331
144F5
  5
144F6
331
14530
  5
14531
331
15CAD
  5
15CAD
331
14538
  5
14539
331
14577
  5
14578
331
145CE
  5
145CF
331
145D6
  5
145D7
331
14540
  5
14541
331
14587
  5
14588
331
145DE
  5
145DF
331
14548
  5
14549
331
15CBD
  5
15CBD
331
1458F
  5
14590
331
145E6
  5
145E7
331
145C0
  5
145C1
331
145E8
  5
145E9
331
145AE
  5
145AF
331
144FD
  5
144FE
331
144BE
  5
144BF
331
144C6
  5
144C7
331
14505
  5
14506
331
144CE
  5
144CF
331
1450D
  5
1450E
331
144D6
  5
144D7
331
14515
  5
14516
331
14550
  5
14551
331
14558
  5
14559
331
14597
  5
14598
331
14646
  5
14647
331
15CD5
  5
15CD5
331
14560
  5
14561
331
1459F
  5
145A0
331
14568
  5
14569
331
145B7
  5
145B8
331
15CA6
  5
15CA6
331
14628
  5
14629
331
14630
  5
14631
331
14656
  5
14657
331
1464E
  5
1464F
331
145BD
  5
145BE
331
1463E
  5
1463F
331
145A3
  5
145A4
331
1451D
  5
1451E
331
144DE
  5
144DF
331
144E6
  5
144E7
331
14525
  5
14526
331
144EE
  5
144EF
331
1452D
  5
1452E
331
144F6
  5
144F7
331
14531
  5
14532
331
14570
  5
14571
331
14578
  5
14579
331
145CF
  5
145D0
331
14539
  5
1453A
331
15CAE
  5
15CAE
331
14580
  5
14581
331
145D7
  5
145D8
331
14541
  5
14542
331
15CBE
  5
15CBE
331
14549
  5
1454A
331
14588
  5
14589
331
145DF
  5
145E0
331
145E7
  5
145E8
331
15CC6
  5
15CC6
331
145C1
  5
145C2
331
145E9
  5
145EA
331
145AF
  5
145B0
331
144BF
  5
144C0
331
144FE
  5
144FF
331
144C7
  5
144C8
331
14506
  5
14507
331
1450E
  5
1450F
331
144CF
  5
144D0
331
144D7
  5
144D8
331
14516
  5
14517
331
14551
  5
14552
331
14590
  5
14591
331
14598
  5
14599
331
14647
  5
14648
331
14559
  5
1455A
331
15CCE
  5
15CCE
331
145B0
  5
145B1
331
14561
  5
14562
331
15CD6
  5
15CD6
331
14569
  5
1456A
331
15CA7
  5
15CA7
331
14631
  5
14632
331
14657
  5
14734
331
1464F
  5
14650
331
145BE
  5
145BF
331
1463F
  5
14640
331
145A4
  5
145A5
331
144DF
  5
144E0
331
1451E
  5
1451F
331
144E7
  5
144E8
331
14526
  5
14527
331
1452E
  5
1452F
331
144EF
  5
144F0
331
144F7
  5
144F8
331
14532
  5
14533
331
14571
  5
14572
331
145C8
  5
145C9
331
1453A
  5
1453B
331
14579
  5
1457A
331
145D0
  5
145D1
331
145D8
  5
145D9
331
15CB7
  5
15CB7
331
14542
  5
14543
331
14581
  5
14582
331
14589
  5
1458A
331
145E0
  5
145E1
331
1454A
  5
1454B
331
15CBF
  5
15CBF
331
15CC7
  5
15CC7
331
145C2
  5
145C3
331
145EA
  5
145EB
331
14622
  5
14623
331
145A8
  5
145A9
331
144FF
  5
14500
331
144C0
  5
144C1
331
144C8
  5
144C9
331
14507
  5
14508
331
144D0
  5
144D1
331
1450F
  5
14510
331
14517
  5
14518
331
14591
  5
14592
331
14552
  5
14553
331
15CCF
  5
15CCF
331
1455A
  5
1455B
331
14599
  5
1459A
331
15428
  5
15428
331
15C98
  5
15C98
331
15CD7
  5
15CD7
331
14562
  5
14563
331
145B1
  5
145B2
331
1456A
  5
1456B
331
1462A
  5
1462B
331
14632
  5
14633
331
14650
  5
14651
331
14648
  5
14649
331
14638
  5
14639
331
145BF
  5
145C0
331
145A5
  5
145A6
331
144D8
  5
144D9
331
1451F
  5
14520
331
144E0
  5
144E1
331
144E8
  5
144E9
331
14527
  5
14528
331
144F0
  5
144F1
331
1452F
  5
14530
331
145C9
  5
145CA
331
15CA8
  5
15CA8
331
14533
  5
14534
331
14572
  5
14573
331
1457A
  5
1457B
331
145D1
  5
145D2
331
1453B
  5
1453C
331
15CB8
  5
15CB8
331
14543
  5
14544
331
14582
  5
14583
331
145D9
  5
145DA
331
15CC0
  5
15CC0
331
1454B
  5
1454C
331
1458A
  5
1458B
331
145E1
  5
145E2
331
145C3
  5
145C4
331
145EB
  5
145EC
331
14623
  5
14624
331
145A9
  5
145AA
331
144F8
  5
144F9
331
144C1
  5
144C2
331
14500
  5
14501
331
14508
  5
14509
331
144C9
  5
144CA
331
14510
  5
14511
331
144D1
  5
144D2
331
15CC8
  5
15CC8
331
14553
  5
14554
331
14592
  5
14593
331
1459A
  5
1459B
331
1455B
  5
1455C
331
15CD0
  5
15CD0
331
15CD8
  5
15CD8
331
145B2
  5
145B3
331
15C99
  5
15C99
331
14563
  5
14564
331
1456B
  5
1456C
331
1462B
  5
1462C
331
14633
  5
14634
331
14651
  5
14652
331
14649
  5
1464A
331
145B8
  5
145B9
331
14639
  5
1463A
331
145A6
  5
145A7
331
144D9
  5
144DA
331
14518
  5
14519
331
144E1
  5
144E2
331
14520
  5
14521
331
144E9
  5
144EA
331
14528
  5
14529
331
144F1
  5
144F2
331
15CA9
  5
15CA9
331
14534
  5
14535
331
14573
  5
14574
331
145CA
  5
145CB
331
145D2
  5
145D3
331
1453C
  5
1453D
331
1457B
  5
1457C
331
145DA
  5
145DB
331
15CB9
  5
15CB9
331
14544
  5
14545
331
14583
  5
14584
331
1458B
  5
1458C
331
145E2
  5
145E3
331
1454C
  5
1454D
331
145C4
  5
145C5
331
14624
  5
14625
331
145AA
  5
145AB
331
144F9
  5
144FA
331
144BA
  5
144BB
331
14501
  5
14502
331
144C2
  5
144C3
331
144CA
  5
144CB
331
14509
  5
1450A
331
144D2
  5
144D3
331
14511
  5
14512
331
14554
  5
14555
331
14593
  5
14594
331
15CD1
  5
15CD1
331
1455C
  5
1455D
331
1459B
  5
1459C
331
15C9A
  5
15C9A
331
14564
  5
14565
331
145B3
  5
145B4
331
1456C
  5
1456D
331
1462C
  5
1462D
331
14634
  5
14635
331
14652
  5
14653
331
145B9
  5
145BA
331
1464A
  5
1464B
331
1463A
  5
1463B
331
145A7
  5
145A8
331
14519
  5
1451A
331
144DA
  5
144DB
331
14521
  5
14522
331
144E2
  5
144E3
331
144EA
  5
144EB
331
14529
  5
1452A
331
144F2
  5
144F3
331
145CB
  5
145CC
331
15CAA
  5
15CAA
331
14535
  5
14536
331
14574
  5
14575
331
1457C
  5
1457D
331
145D3
  5
145D4
331
1453D
  5
1453E
331
15CBA
  5
15CBA
331
14545
  5
14546
331
14584
  5
14585
331
145DB
  5
145DC
331
145E3
  5
145E4
331
1454D
  5
1454E
331
1458C
  5
1458D
331
145C5
  5
145C6
331
2CD
  5
2CD
331
145AB
  5
145AC
331
144BB
  5
144BC
331
144FA
  5
144FB
331
144C3
  5
144C4
331
14502
  5
14503
331
1450A
  5
1450B
331
144CB
  5
144CC
331
14512
  5
14513
331
144D3
  5
144D4
331
14555
  5
14556
331
14594
  5
14595
331
1459C
  5
1459D
331
1455D
  5
1455E
331
14565
  5
14566
331
145B4
  5
145B5
331
15C9B
  5
15C9B
331
1456D
  5
1456E
331
1462D
  5
1462E
331
14635
  5
14636
331
14653
  5
14654
331
145BA
  5
145BB
331
1463B
  5
1463C
331
145A0
  5
145A1
331
144DB
  5
144DC
331
1451A
  5
1451B
331
144E3
  5
144E4
331
14522
  5
14523
331
1452A
  5
1452B
331
144EB
  5
144EC
331
144F3
  5
144F4
331
15CAB
  5
15CAB
331
14536
  5
14537
331
14575
  5
14576
331
145CC
  5
145CD
331
145D4
  5
145D5
331
1453E
  5
1453F
331
1457D
  5
1457E
331
145DC
  5
145DD
331
15CBB
  5
15CBB
331
14546
  5
14547
331
14585
  5
14586
331
1458D
  5
1458E
331
145E4
  5
145E5
331
1454E
  5
1454F
331
145C6
  5
145C7
331
14626
  5
14627
331
145AC
  5
145AD
331
144FB
  5
144FC
331
144BC
  5
144BD
331
144C4
  5
144C5
331
14503
  5
14504
331
144CC
  5
144CD
331
1450B
  5
1450C
331
144D4
  5
144D5
331
14513
  5
14514
331
15CCB
  5
15CCB
331
14556
  5
14557
331
14595
  5
14596
331
1455E
  5
1455F
331
1459D
  5
1459E
331
15C9C
  5
15C9C
331
14566
  5
14567
331
145B5
  5
145B6
331
15CA4
  5
15CA4
331
1456E
  5
1456F
331
1462E
  5
1462F
331
14636
  5
14637
331
14654
  5
14655
331
145BB
  5
145BC
331
1464C
  5
1464D
331
1463C
  5
1463D
331
145A1
  5
145A2
  0
SORTENTSTABLE
  5
15A7D
102
{ACAD_REACTORS
330
15A7C
102
}
330
15A7C
100
AcDbSortentsTable
330
15A7B
  0
SORTENTSTABLE
  5
15AB8
102
{ACAD_REACTORS
330
15AB7
102
}
330
15AB7
100
AcDbSortentsTable
330
15AB6
  0
SORTENTSTABLE
  5
15B00
102
{ACAD_REACTORS
330
15AFF
102
}
330
15AFF
100
AcDbSortentsTable
330
15AFE
  0
SORTENTSTABLE
  5
15B07
102
{ACAD_REACTORS
330
15B06
102
}
330
15B06
100
AcDbSortentsTable
330
15B05
  0
SORTENTSTABLE
  5
15B1D
102
{ACAD_REACTORS
330
15B1C
102
}
330
15B1C
100
AcDbSortentsTable
330
15B1B
  0
SORTENTSTABLE
  5
15C03
102
{ACAD_REACTORS
330
15C02
102
}
330
15C02
100
AcDbSortentsTable
330
15C01
  0
SORTENTSTABLE
  5
15C88
102
{ACAD_REACTORS
330
15C87
102
}
330
15C87
100
AcDbSortentsTable
330
15C45
331
15C5A
  5
15C5E
331
15C62
  5
15C66
331
15C6A
  5
15C71
331
15C4C
  5
15C4E
331
15C82
  5
15C83
331
15C76
  5
15C7D
331
15C79
  5
15C67
331
15C53
  5
15C55
331
15C5B
  5
15C5F
331
15C63
  5
15C6A
331
15C6B
  5
15C72
331
15C4D
  5
15C4F
331
15C83
  5
15C84
331
15C77
  5
15C7E
331
15C7A
  5
15C69
331
15C47
  5
15C49
331
15C54
  5
15C56
331
15C5C
  5
15C60
331
15C64
  5
15C6B
331
15C6C
  5
15C73
331
15C4E
  5
15C50
331
15C84
  5
15C85
331
15C70
  5
15C77
331
15C7B
  5
15C80
331
15C55
  5
15C57
331
15C5D
  5
15C61
331
15C65
  5
15C6C
331
15C6D
  5
15C74
331
15C4F
  5
15C51
331
15C71
  5
15C78
331
15C85
  5
15C68
331
15C56
  5
15C58
331
15C7C
  5
15C48
331
15C5E
  5
15C62
331
15C66
  5
15C6D
331
15C48
  5
15C4A
331
15C6E
  5
15C75
331
15C72
  5
15C79
331
15C7D
  5
15C81
331
15C57
  5
15C59
331
15C5F
  5
15C63
331
15C67
  5
15C6E
331
15C49
  5
15C4B
331
15C6F
  5
15C76
331
15C73
  5
15C7A
331
15C50
  5
15C52
331
15C58
  5
15C5C
331
15C7E
  5
15C5A
331
15C60
  5
15C64
331
15C68
  5
15C6F
331
15C4A
  5
15C4C
331
15C80
  5
15C47
331
15C74
  5
15C7B
331
15C51
  5
15C53
331
15C7F
  5
15C5B
331
15C59
  5
15C5D
331
15C61
  5
15C65
331
15C69
  5
15C70
331
15C4B
  5
15C4D
331
15C81
  5
15C82
331
15C75
  5
15C7C
331
15C78
  5
15C7F
331
15C52
  5
15C54
  0
XRECORD
  5
15DF2
102
{ACAD_REACTORS
330
15DF1
102
}
330
15DF1
100
AcDbXrecord
280
     1
 40
283676.0
  1
\pxsm1,qc;{\fISOCPEUR|b0|i0|c0|p34;\W1;Description\POutline drawing}
  0
XRECORD
  5
15DFE
102
{ACAD_REACTORS
330
15DF1
102
}
330
15DF1
100
AcDbXrecord
280
     1
 40
165919.0
  1
\pxsm1,qc;{\fISOCPEUR|b0|i0|c0|p34;\W1;Description\POutline drawing}
  0
XRECORD
  5
15DF4
102
{ACAD_REACTORS
330
15DF3
102
}
330
15DF3
100
AcDbXrecord
280
     1
 40
282687.0
  1
\pxsm1,qc;{\fISOCPEUR|b0|i0|c0|p34;\W1;35 GLT 2R  82   .1 \POutline drawing}
  0
XRECORD
  5
15DFF
102
{ACAD_REACTORS
330
15DF3
102
}
330
15DF3
100
AcDbXrecord
280
     1
 40
174996.0
  1
\pxsm1,qc;{\fISOCPEUR|b0|i0|c0|p34;\W1;35 GLT 2R  82   .1 \POutline drawing}
  0
LAYOUT
  5
1388A
102
{ACAD_XDICTIONARY
360
15DFA
102
}
102
{ACAD_REACTORS
330
13880
102
}
330
13880
100
AcDbPlotSettings
  1

  2
Microsoft Office Document Image Writer
  4

  6

 40
0.0
 41
0.0
 42
0.0
 43
0.0
 44
0.0
 45
0.0
 46
0.0
 47
0.0
 48
0.0
 49
0.0
140
0.0
141
0.0
142
1.0
143
1.0
 70
   688
 72
     0
 73
     0
 74
     5
  7
monochrome.ctb
 75
    16
147
1.0
148
0.0
149
0.0
100
AcDbLayout
  1
Layout1
 70
     1
 71
     1
 10
0.0
 20
0.0
 11
12.0
 21
9.0
 12
0.0
 22
0.0
 32
0.0
 14
1.000000000000000E+20
 24
1.000000000000000E+20
 34
1.000000000000000E+20
 15
-1.000000000000000E+20
 25
-1.000000000000000E+20
 35
-1.000000000000000E+20
146
0.0
 13
0.0
 23
0.0
 33
0.0
 16
1.0
 26
0.0
 36
0.0
 17
0.0
 27
1.0
 37
0.0
 76
     0
330
13887
  0
LAYOUT
  5
1388E
102
{ACAD_XDICTIONARY
360
15DFC
102
}
102
{ACAD_REACTORS
330
13880
102
}
330
13880
100
AcDbPlotSettings
  1

  2
Microsoft Office Document Image Writer
  4
Letter
  6

 40
3.174999952316283
 41
3.174999952316283
 42
3.175003051757812
 43
3.17498779296875
 44
215.8999938964844
 45
279.3999938964844
 46
0.0
 47
0.0
 48
0.0
 49
0.0
140
0.0
141
0.0
142
1.0
143
128.3563339828948
 70
 11952
 72
     0
 73
     1
 74
     0
  7
monochrome.ctb
 75
     0
147
0.0077908114774707
148
-9026.735843704384
149
4124.159541916343
100
AcDbLayout
  1
Model
 70
     1
 71
     0
 10
0.0
 20
0.0
 11
12.0
 21
9.0
 12
0.0
 22
0.0
 32
0.0
 14
0.0
 24
0.0
 34
0.0
 15
0.0
 25
0.0
 35
0.0
146
0.0
 13
0.0
 23
0.0
 33
0.0
 16
1.0
 26
0.0
 36
0.0
 17
0.0
 27
1.0
 37
0.0
 76
     0
330
1388B
331
1388F
1001
ACAD_PSEXT
1000
Microsoft Office Document Image Writer
1000
Microsoft Office Document Image Writer Driver
1000
Microsoft Document Imaging Writer Port:
1000

1070
     0
  0
MATERIAL
  5
13830
102
{ACAD_XDICTIONARY
360
13831
102
}
102
{ACAD_REACTORS
330
13827
102
}
330
13827
100
AcDbMaterial
  1
ByBlock
 72
     0
 43
0.0208333333333333
 43
0.0
 43
0.0
 43
0.0
 43
0.0
 43
0.0208333333333333
 43
0.0
 43
0.0
 43
0.0
 43
0.0
 43
1.0
 43
0.0
 43
0.0
 43
0.0
 43
0.0
 43
1.0
 77
     0
 47
0.0208333333333333
 47
0.0
 47
0.0
 47
0.0
 47
0.0
 47
0.0208333333333333
 47
0.0
 47
0.0
 47
0.0
 47
0.0
 47
1.0
 47
0.0
 47
0.0
 47
0.0
 47
0.0
 47
1.0
171
     0
 49
0.0208333333333333
 49
0.0
 49
0.0
 49
0.0
 49
0.0
 49
0.0208333333333333
 49
0.0
 49
0.0
 49
0.0
 49
0.0
 49
1.0
 49
0.0
 49
0.0
 49
0.0
 49
0.0
 49
1.0
175
     0
142
0.0208333333333333
142
0.0
142
0.0
142
0.0
142
0.0
142
0.0208333333333333
142
0.0
142
0.0
142
0.0
142
0.0
142
1.0
142
0.0
142
0.0
142
0.0
142
0.0
142
1.0
179
     0
144
0.0208333333333333
144
0.0
144
0.0
144
0.0
144
0.0
144
0.0208333333333333
144
0.0
144
0.0
144
0.0
144
0.0
144
1.0
144
0.0
144
0.0
144
0.0
144
0.0
144
1.0
147
0.0208333333333333
147
0.0
147
0.0
147
0.0
147
0.0
147
0.0208333333333333
147
0.0
147
0.0
147
0.0
147
0.0
147
1.0
147
0.0
147
0.0
147
0.0
147
0.0
147
1.0
  0
MATERIAL
  5
13828
102
{ACAD_XDICTIONARY
360
13829
102
}
102
{ACAD_REACTORS
330
13827
102
}
330
13827
100
AcDbMaterial
  1
ByLayer
 72
     0
 43
0.0208333333333333
 43
0.0
 43
0.0
 43
0.0
 43
0.0
 43
0.0208333333333333
 43
0.0
 43
0.0
 43
0.0
 43
0.0
 43
1.0
 43
0.0
 43
0.0
 43
0.0
 43
0.0
 43
1.0
 77
     0
 47
0.0208333333333333
 47
0.0
 47
0.0
 47
0.0
 47
0.0
 47
0.0208333333333333
 47
0.0
 47
0.0
 47
0.0
 47
0.0
 47
1.0
 47
0.0
 47
0.0
 47
0.0
 47
0.0
 47
1.0
171
     0
 49
0.0208333333333333
 49
0.0
 49
0.0
 49
0.0
 49
0.0
 49
0.0208333333333333
 49
0.0
 49
0.0
 49
0.0
 49
0.0
 49
1.0
 49
0.0
 49
0.0
 49
0.0
 49
0.0
 49
1.0
175
     0
142
0.0208333333333333
142
0.0
142
0.0
142
0.0
142
0.0
142
0.0208333333333333
142
0.0
142
0.0
142
0.0
142
0.0
142
1.0
142
0.0
142
0.0
142
0.0
142
0.0
142
1.0
179
     0
144
0.0208333333333333
144
0.0
144
0.0
144
0.0
144
0.0
144
0.0208333333333333
144
0.0
144
0.0
144
0.0
144
0.0
144
1.0
144
0.0
144
0.0
144
0.0
144
0.0
144
1.0
147
0.0208333333333333
147
0.0
147
0.0
147
0.0
147
0.0
147
0.0208333333333333
147
0.0
147
0.0
147
0.0
147
0.0
147
1.0
147
0.0
147
0.0
147
0.0
147
0.0
147
1.0
  0
MATERIAL
  5
13838
102
{ACAD_XDICTIONARY
360
13839
102
}
102
{ACAD_REACTORS
330
13827
102
}
330
13827
100
AcDbMaterial
  1
Global
 72
     0
 43
0.0208333333333333
 43
0.0
 43
0.0
 43
0.0
 43
0.0
 43
0.0208333333333333
 43
0.0
 43
0.0
 43
0.0
 43
0.0
 43
1.0
 43
0.0
 43
0.0
 43
0.0
 43
0.0
 43
1.0
 77
     0
 47
0.0208333333333333
 47
0.0
 47
0.0
 47
0.0
 47
0.0
 47
0.0208333333333333
 47
0.0
 47
0.0
 47
0.0
 47
0.0
 47
1.0
 47
0.0
 47
0.0
 47
0.0
 47
0.0
 47
1.0
171
     0
 49
0.0208333333333333
 49
0.0
 49
0.0
 49
0.0
 49
0.0
 49
0.0208333333333333
 49
0.0
 49
0.0
 49
0.0
 49
0.0
 49
1.0
 49
0.0
 49
0.0
 49
0.0
 49
0.0
 49
1.0
175
     0
142
0.0208333333333333
142
0.0
142
0.0
142
0.0
142
0.0
142
0.0208333333333333
142
0.0
142
0.0
142
0.0
142
0.0
142
1.0
142
0.0
142
0.0
142
0.0
142
0.0
142
1.0
179
     0
144
0.0208333333333333
144
0.0
144
0.0
144
0.0
144
0.0
144
0.0208333333333333
144
0.0
144
0.0
144
0.0
144
0.0
144
1.0
144
0.0
144
0.0
144
0.0
144
0.0
144
1.0
147
0.0208333333333333
147
0.0
147
0.0
147
0.0
147
0.0
147
0.0208333333333333
147
0.0
147
0.0
147
0.0
147
0.0
147
1.0
147
0.0
147
0.0
147
0.0
147
0.0
147
1.0
  0
MLEADERSTYLE
  5
13885
102
{ACAD_REACTORS
330
13884
102
}
330
13884
100
AcDbMLeaderStyle
170
     2
171
     1
172
     0
 90
        2
 40
0.0
 41
0.0
173
     1
 91
-1056964608
340
13879
 92
       -2
290
     1
 42
0.09
291
     1
 43
0.36
  3
Standard
 44
0.18
300

342
13874
174
     1
178
     6
175
     1
176
     0
 93
-1056964608
 45
0.18
292
     0
297
     0
 46
0.18
 94
-1056964608
 47
1.0
 49
1.0
140
1.0
293
     1
141
0.0
294
     1
177
     0
142
1.0
295
     0
296
     0
143
0.125
1001
ACAD_MLEADERVER
1070
     2
  0
MLINESTYLE
  5
1387E
102
{ACAD_REACTORS
330
1387D
102
}
330
1387D
100
AcDbMlineStyle
  2
STANDARD
 70
     0
  3

 62
   256
 51
90.0
 52
90.0
 71
     2
 49
0.5
 62
   256
  6
BYLAYER
 49
-0.5
 62
   256
  6
BYLAYER
  0
ACDBPLACEHOLDER
  5
13826
102
{ACAD_REACTORS
330
13825
102
}
330
13825
  0
SCALE
  5
13852
102
{ACAD_REACTORS
330
13851
102
}
330
13851
100
AcDbScale
 70
     0
300
1:1
140
1.0
141
1.0
290
     1
  0
SCALE
  5
13853
102
{ACAD_REACTORS
330
13851
102
}
330
13851
100
AcDbScale
 70
     0
300
1:2
140
1.0
141
2.0
290
     0
  0
SCALE
  5
13854
102
{ACAD_REACTORS
330
13851
102
}
330
13851
100
AcDbScale
 70
     0
300
1:4
140
1.0
141
4.0
290
     0
  0
SCALE
  5
13855
102
{ACAD_REACTORS
330
13851
102
}
330
13851
100
AcDbScale
 70
     0
300
1:5
140
1.0
141
5.0
290
     0
  0
SCALE
  5
13856
102
{ACAD_REACTORS
330
13851
102
}
330
13851
100
AcDbScale
 70
     0
300
1:8
140
1.0
141
8.0
290
     0
  0
SCALE
  5
13857
102
{ACAD_REACTORS
330
13851
102
}
330
13851
100
AcDbScale
 70
     0
300
1:10
140
1.0
141
10.0
290
     0
  0
SCALE
  5
13858
102
{ACAD_REACTORS
330
13851
102
}
330
13851
100
AcDbScale
 70
     0
300
1:16
140
1.0
141
16.0
290
     0
  0
SCALE
  5
13859
102
{ACAD_REACTORS
330
13851
102
}
330
13851
100
AcDbScale
 70
     0
300
1:20
140
1.0
141
20.0
290
     0
  0
SCALE
  5
1385A
102
{ACAD_REACTORS
330
13851
102
}
330
13851
100
AcDbScale
 70
     0
300
1:30
140
1.0
141
30.0
290
     0
  0
SCALE
  5
1385B
102
{ACAD_REACTORS
330
13851
102
}
330
13851
100
AcDbScale
 70
     0
300
1:40
140
1.0
141
40.0
290
     0
  0
SCALE
  5
1385C
102
{ACAD_REACTORS
330
13851
102
}
330
13851
100
AcDbScale
 70
     0
300
1:50
140
1.0
141
50.0
290
     0
  0
SCALE
  5
1385D
102
{ACAD_REACTORS
330
13851
102
}
330
13851
100
AcDbScale
 70
     0
300
1:100
140
1.0
141
100.0
290
     0
  0
SCALE
  5
1385E
102
{ACAD_REACTORS
330
13851
102
}
330
13851
100
AcDbScale
 70
     0
300
2:1
140
2.0
141
1.0
290
     0
  0
SCALE
  5
1385F
102
{ACAD_REACTORS
330
13851
102
}
330
13851
100
AcDbScale
 70
     0
300
4:1
140
4.0
141
1.0
290
     0
  0
SCALE
  5
13860
102
{ACAD_REACTORS
330
13851
102
}
330
13851
100
AcDbScale
 70
     0
300
8:1
140
8.0
141
1.0
290
     0
  0
SCALE
  5
13861
102
{ACAD_REACTORS
330
13851
102
}
330
13851
100
AcDbScale
 70
     0
300
10:1
140
10.0
141
1.0
290
     0
  0
SCALE
  5
13862
102
{ACAD_REACTORS
330
13851
102
}
330
13851
100
AcDbScale
 70
     0
300
100:1
140
100.0
141
1.0
290
     0
  0
SCALE
  5
13863
102
{ACAD_REACTORS
330
13851
102
}
330
13851
100
AcDbScale
 70
     0
300
1/128" = 1'-0"
140
0.0078125
141
12.0
290
     0
  0
SCALE
  5
13864
102
{ACAD_REACTORS
330
13851
102
}
330
13851
100
AcDbScale
 70
     0
300
1/64" = 1'-0"
140
0.015625
141
12.0
290
     0
  0
SCALE
  5
13865
102
{ACAD_REACTORS
330
13851
102
}
330
13851
100
AcDbScale
 70
     0
300
1/32" = 1'-0"
140
0.03125
141
12.0
290
     0
  0
SCALE
  5
13866
102
{ACAD_REACTORS
330
13851
102
}
330
13851
100
AcDbScale
 70
     0
300
1/16" = 1'-0"
140
0.0625
141
12.0
290
     0
  0
SCALE
  5
13867
102
{ACAD_REACTORS
330
13851
102
}
330
13851
100
AcDbScale
 70
     0
300
3/32" = 1'-0"
140
0.09375
141
12.0
290
     0
  0
SCALE
  5
13868
102
{ACAD_REACTORS
330
13851
102
}
330
13851
100
AcDbScale
 70
     0
300
1/8" = 1'-0"
140
0.125
141
12.0
290
     0
  0
SCALE
  5
13869
102
{ACAD_REACTORS
330
13851
102
}
330
13851
100
AcDbScale
 70
     0
300
3/16" = 1'-0"
140
0.1875
141
12.0
290
     0
  0
SCALE
  5
1386A
102
{ACAD_REACTORS
330
13851
102
}
330
13851
100
AcDbScale
 70
     0
300
1/4" = 1'-0"
140
0.25
141
12.0
290
     0
  0
SCALE
  5
1386B
102
{ACAD_REACTORS
330
13851
102
}
330
13851
100
AcDbScale
 70
     0
300
3/8" = 1'-0"
140
0.375
141
12.0
290
     0
  0
SCALE
  5
1386C
102
{ACAD_REACTORS
330
13851
102
}
330
13851
100
AcDbScale
 70
     0
300
1/2" = 1'-0"
140
0.5
141
12.0
290
     0
  0
SCALE
  5
1386D
102
{ACAD_REACTORS
330
13851
102
}
330
13851
100
AcDbScale
 70
     0
300
3/4" = 1'-0"
140
0.75
141
12.0
290
     0
  0
SCALE
  5
1386E
102
{ACAD_REACTORS
330
13851
102
}
330
13851
100
AcDbScale
 70
     0
300
1" = 1'-0"
140
1.0
141
12.0
290
     0
  0
SCALE
  5
1386F
102
{ACAD_REACTORS
330
13851
102
}
330
13851
100
AcDbScale
 70
     0
300
1-1/2" = 1'-0"
140
1.5
141
12.0
290
     0
  0
SCALE
  5
13870
102
{ACAD_REACTORS
330
13851
102
}
330
13851
100
AcDbScale
 70
     0
300
3" = 1'-0"
140
3.0
141
12.0
290
     0
  0
SCALE
  5
13871
102
{ACAD_REACTORS
330
13851
102
}
330
13851
100
AcDbScale
 70
     0
300
6" = 1'-0"
140
6.0
141
12.0
290
     0
  0
SCALE
  5
13872
102
{ACAD_REACTORS
330
13851
102
}
330
13851
100
AcDbScale
 70
     0
300
1'-0" = 1'-0"
140
12.0
141
12.0
290
     0
  0
TABLESTYLE
  5
13883
102
{ACAD_XDICTIONARY
360
15A67
102
}
102
{ACAD_REACTORS
330
13882
102
}
330
13882
100
AcDbTableStyle
  3
Standard
 70
     0
 71
     0
 40
0.06
 41
0.06
280
     0
281
     0
  7
STANDARD
140
0.18
170
     2
 62
     0
 63
     7
283
     0
274
    -2
284
     1
 64
     0
275
    -2
285
     1
 65
     0
276
    -2
286
     1
 66
     0
277
    -2
287
     1
 67
     0
278
    -2
288
     1
 68
     0
279
    -2
289
     1
 69
     0
  7
STANDARD
140
0.25
170
     5
 62
     0
 63
     7
283
     0
274
    -2
284
     1
 64
     0
275
    -2
285
     1
 65
     0
276
    -2
286
     1
 66
     0
277
    -2
287
     1
 67
     0
278
    -2
288
     1
 68
     0
279
    -2
289
     1
 69
     0
  7
STANDARD
140
0.18
170
     5
 62
     0
 63
     7
283
     0
274
    -2
284
     1
 64
     0
275
    -2
285
     1
 65
     0
276
    -2
286
     1
 66
     0
277
    -2
287
     1
 67
     0
278
    -2
288
     1
 68
     0
279
    -2
289
     1
 69
     0
  0
VISUALSTYLE
  5
13846
102
{ACAD_REACTORS
330
13840
102
}
330
13840
100
AcDbVisualStyle
  2
2dWireframe
 70
     4
 71
     0
 72
     2
 73
     0
 90
        0
 40
-0.6
 41
-30.0
 62
     5
 63
     7
 74
     1
 91
        4
 64
     7
 65
   257
 75
     1
175
     1
 42
1.0
 92
        0
 66
   257
 43
1.0
 76
     1
 77
     6
 78
     2
 67
     7
 79
     5
170
     0
171
     0
290
     0
174
     0
 93
        1
 44
0.0
173
     0
291
     0
 45
0.0
1001
ACAD
1000
AcDbSavedByObjectVersion
1070
     0
  0
VISUALSTYLE
  5
13848
102
{ACAD_REACTORS
330
13840
102
}
330
13840
100
AcDbVisualStyle
  2
3D Hidden
 70
     6
 71
     1
 72
     2
 73
     2
 90
        0
 40
-0.6
 41
-30.0
 62
     5
 63
     7
 74
     2
 91
        2
 64
     7
 65
   257
 75
     2
175
     1
 42
40.0
 92
        0
 66
   257
 43
1.0
 76
     1
 77
     6
 78
     2
 67
     7
 79
     3
170
     0
171
     0
290
     0
174
     0
 93
        1
 44
0.0
173
     0
291
     0
 45
0.0
1001
ACAD
1000
AcDbSavedByObjectVersion
1070
     0
  0
VISUALSTYLE
  5
13847
102
{ACAD_REACTORS
330
13840
102
}
330
13840
100
AcDbVisualStyle
  2
3dWireframe
 70
     5
 71
     0
 72
     2
 73
     0
 90
        0
 40
-0.6
 41
-30.0
 62
     5
 63
     7
 74
     1
 91
        4
 64
     7
 65
   257
 75
     1
175
     1
 42
1.0
 92
        0
 66
   257
 43
1.0
 76
     1
 77
     6
 78
     2
 67
     7
 79
     5
170
     0
171
     0
290
     0
174
     0
 93
        1
 44
0.0
173
     0
291
     0
 45
0.0
1001
ACAD
1000
AcDbSavedByObjectVersion
1070
     0
  0
VISUALSTYLE
  5
13845
102
{ACAD_REACTORS
330
13840
102
}
330
13840
100
AcDbVisualStyle
  2
Basic
 70
     7
 71
     1
 72
     0
 73
     1
 90
        0
 40
-0.6
 41
-30.0
 62
     5
 63
     7
 74
     0
 91
        4
 64
     7
 65
   257
 75
     1
175
     1
 42
1.0
 92
        8
 66
     7
 43
1.0
 76
     1
 77
     6
 78
     2
 67
     7
 79
     5
170
     0
171
     0
290
     0
174
     0
 93
        1
 44
0.0
173
     0
291
     1
 45
0.0
1001
ACAD
1000
AcDbSavedByObjectVersion
1070
     0
  0
VISUALSTYLE
  5
1384C
102
{ACAD_REACTORS
330
13840
102
}
330
13840
100
AcDbVisualStyle
  2
Brighten
 70
    12
 71
     2
 72
     2
 73
     0
 90
        0
 40
-0.6
 41
-30.0
 62
     5
 63
     7
 74
     1
 91
        4
 64
     7
 65
   257
 75
     1
175
     1
 42
1.0
 92
        8
 66
     7
 43
1.0
 76
     1
 77
     6
 78
     2
 67
     7
 79
     5
170
     0
171
     0
290
     0
174
     0
 93
        1
 44
50.0
173
     0
291
     1
 45
0.0
1001
ACAD
1000
AcDbSavedByObjectVersion
1070
     0
  0
VISUALSTYLE
  5
13850
102
{ACAD_REACTORS
330
13840
102
}
330
13840
100
AcDbVisualStyle
  2
ColorChange
 70
    16
 71
     2
 72
     2
 73
     3
 90
        0
 40
-0.6
 41
-30.0
 62
     5
 63
     8
 74
     1
 91
        4
 64
     7
 65
   257
 75
     1
175
     1
 42
1.0
 92
        8
 66
     8
 43
1.0
 76
     1
 77
     6
 78
     2
 67
     7
 79
     5
170
     0
171
     0
290
     0
174
     0
 93
        1
 44
0.0
173
     0
291
     1
 45
0.0
1001
ACAD
1000
AcDbSavedByObjectVersion
1070
     0
  0
VISUALSTYLE
  5
13849
102
{ACAD_REACTORS
330
13840
102
}
330
13840
100
AcDbVisualStyle
  2
Conceptual
 70
     9
 71
     3
 72
     2
 73
     0
 90
        0
 40
-0.6
 41
-30.0
 62
     5
 63
     7
 74
     2
 91
        2
 64
     7
 65
   257
 75
     1
175
     1
 42
40.0
 92
        8
 66
     7
 43
1.0
 76
     1
 77
     6
 78
     2
 67
     7
 79
     3
170
     0
171
     0
290
     0
174
     0
 93
        1
 44
0.0
173
     0
291
     0
 45
0.0
1001
ACAD
1000
AcDbSavedByObjectVersion
1070
     0
  0
VISUALSTYLE
  5
1384B
102
{ACAD_REACTORS
330
13840
102
}
330
13840
100
AcDbVisualStyle
  2
Dim
 70
    11
 71
     2
 72
     2
 73
     0
 90
        0
 40
-0.6
 41
-30.0
 62
     5
 63
     7
 74
     1
 91
        4
 64
     7
 65
   257
 75
     1
175
     1
 42
1.0
 92
        8
 66
     7
 43
1.0
 76
     1
 77
     6
 78
     2
 67
     7
 79
     5
170
     0
171
     0
290
     0
174
     0
 93
        1
 44
-50.0
173
     0
291
     1
 45
0.0
1001
ACAD
1000
AcDbSavedByObjectVersion
1070
     0
  0
VISUALSTYLE
  5
15C3A
102
{ACAD_XDICTIONARY
360
15C3B
102
}
102
{ACAD_REACTORS
330
13840
102
}
330
13840
100
AcDbVisualStyle
  2
EdgeColorOff
 70
    22
 71
     2
 72
     2
 73
     0
 90
        0
 40
-0.6
 41
-30.0
 62
     5
 63
     7
 74
     1
 91
        4
 64
     7
 65
   257
 75
     1
175
     1
 42
1.0
 92
        8
 66
     7
 43
1.0
 76
     1
 77
     6
 78
     2
 67
     7
 79
     5
170
     0
171
     0
290
     0
174
     0
 93
        1
 44
0.0
173
     0
291
     1
 45
0.0
1001
ACAD
1000
AcDbSavedByObjectVersion
1070
     0
  0
VISUALSTYLE
  5
1384F
102
{ACAD_REACTORS
330
13840
102
}
330
13840
100
AcDbVisualStyle
  2
Facepattern
 70
    15
 71
     2
 72
     2
 73
     0
 90
        0
 40
-0.6
 41
-30.0
 62
     5
 63
     7
 74
     1
 91
        4
 64
     7
 65
   257
 75
     1
175
     1
 42
1.0
 92
        8
 66
     7
 43
1.0
 76
     1
 77
     6
 78
     2
 67
     7
 79
     5
170
     0
171
     0
290
     0
174
     0
 93
        1
 44
0.0
173
     0
291
     1
 45
0.0
1001
ACAD
1000
AcDbSavedByObjectVersion
1070
     0
  0
VISUALSTYLE
  5
13841
102
{ACAD_REACTORS
330
13840
102
}
330
13840
100
AcDbVisualStyle
  2
Flat
 70
     0
 71
     2
 72
     1
 73
     1
 90
        2
 40
-0.6
 41
30.0
 62
     5
 63
     7
 74
     0
 91
        4
 64
     7
 65
   257
 75
     1
175
     1
 42
1.0
 92
        8
 66
     7
 43
1.0
 76
     1
 77
     6
 78
     2
 67
     7
 79
     5
170
     0
171
     0
290
     0
174
     0
 93
       13
 44
0.0
173
     0
291
     1
 45
0.0
1001
ACAD
1000
AcDbSavedByObjectVersion
1070
     0
  0
VISUALSTYLE
  5
13842
102
{ACAD_REACTORS
330
13840
102
}
330
13840
100
AcDbVisualStyle
  2
FlatWithEdges
 70
     1
 71
     2
 72
     1
 73
     1
 90
        2
 40
-0.6
 41
30.0
 62
     5
 63
     7
 74
     1
 91
        4
 64
     7
 65
   257
 75
     1
175
     1
 42
1.0
 92
        0
 66
   257
 43
1.0
 76
     1
 77
     6
 78
     2
 67
     7
 79
     5
170
     0
171
     0
290
     0
174
     0
 93
       13
 44
0.0
173
     0
291
     1
 45
0.0
1001
ACAD
1000
AcDbSavedByObjectVersion
1070
     0
  0
VISUALSTYLE
  5
13843
102
{ACAD_REACTORS
330
13840
102
}
330
13840
100
AcDbVisualStyle
  2
Gouraud
 70
     2
 71
     2
 72
     2
 73
     1
 90
        2
 40
-0.6
 41
30.0
 62
     5
 63
     7
 74
     0
 91
        4
 64
     7
 65
   257
 75
     1
175
     1
 42
1.0
 92
        0
 66
     7
 43
1.0
 76
     1
 77
     6
 78
     2
 67
     7
 79
     5
170
     0
171
     0
290
     0
174
     0
 93
       13
 44
0.0
173
     0
291
     1
 45
0.0
1001
ACAD
1000
AcDbSavedByObjectVersion
1070
     0
  0
VISUALSTYLE
  5
13844
102
{ACAD_REACTORS
330
13840
102
}
330
13840
100
AcDbVisualStyle
  2
GouraudWithEdges
 70
     3
 71
     2
 72
     2
 73
     1
 90
        2
 40
-0.6
 41
30.0
 62
     5
 63
     7
 74
     1
 91
        4
 64
     7
 65
   257
 75
     1
175
     1
 42
1.0
 92
        0
 66
   257
 43
1.0
 76
     1
 77
     6
 78
     2
 67
     7
 79
     5
170
     0
171
     0
290
     0
174
     0
 93
       13
 44
0.0
173
     0
291
     1
 45
0.0
1001
ACAD
1000
AcDbSavedByObjectVersion
1070
     0
  0
VISUALSTYLE
  5
15C3D
102
{ACAD_XDICTIONARY
360
15C3E
102
}
102
{ACAD_REACTORS
330
13840
102
}
330
13840
100
AcDbVisualStyle
  2
JitterOff
 70
    20
 71
     2
 72
     2
 73
     0
 90
        0
 40
-0.6
 41
-30.0
 62
     5
 63
     7
 74
     1
 91
        4
 64
     7
 65
   257
 75
     1
175
     1
 42
1.0
 92
       10
 66
     7
 43
1.0
 76
     1
 77
     6
 78
     2
 67
     7
 79
     5
170
     0
171
     0
290
     0
174
     0
 93
        1
 44
0.0
173
     0
291
     1
 45
0.0
1001
ACAD
1000
AcDbSavedByObjectVersion
1070
     0
  0
VISUALSTYLE
  5
1384E
102
{ACAD_REACTORS
330
13840
102
}
330
13840
100
AcDbVisualStyle
  2
Linepattern
 70
    14
 71
     2
 72
     2
 73
     0
 90
        0
 40
-0.6
 41
-30.0
 62
     5
 63
     7
 74
     1
 91
        4
 64
     7
 65
   257
 75
     7
175
     7
 42
1.0
 92
        8
 66
     7
 43
1.0
 76
     1
 77
     6
 78
     2
 67
     7
 79
     5
170
     0
171
     0
290
     0
174
     0
 93
        1
 44
0.0
173
     0
291
     1
 45
0.0
1001
ACAD
1000
AcDbSavedByObjectVersion
1070
     0
  0
VISUALSTYLE
  5
15C40
102
{ACAD_XDICTIONARY
360
15C41
102
}
102
{ACAD_REACTORS
330
13840
102
}
330
13840
100
AcDbVisualStyle
  2
OverhangOff
 70
    21
 71
     2
 72
     2
 73
     0
 90
        0
 40
-0.6
 41
-30.0
 62
     5
 63
     7
 74
     1
 91
        4
 64
     7
 65
   257
 75
     1
175
     1
 42
1.0
 92
        9
 66
     7
 43
1.0
 76
     1
 77
     6
 78
     2
 67
     7
 79
     5
170
     0
171
     0
290
     0
174
     0
 93
        1
 44
0.0
173
     0
291
     1
 45
0.0
1001
ACAD
1000
AcDbSavedByObjectVersion
1070
     0
  0
VISUALSTYLE
  5
1384A
102
{ACAD_REACTORS
330
13840
102
}
330
13840
100
AcDbVisualStyle
  2
Realistic
 70
     8
 71
     2
 72
     2
 73
     0
 90
        0
 40
-0.6
 41
-30.0
 62
     5
 63
     7
 74
     1
 91
        0
 64
     7
 65
   257
 75
     1
175
     1
 42
1.0
 92
        8
 66
     8
 43
1.0
 76
     1
 77
     6
 78
     2
 67
     7
 79
     5
170
     0
171
     0
290
     0
174
     0
 93
       13
 44
0.0
173
     0
291
     0
 45
0.0
1001
ACAD
1000
AcDbSavedByObjectVersion
1070
     0
  0
VISUALSTYLE
  5
1384D
102
{ACAD_REACTORS
330
13840
102
}
330
13840
100
AcDbVisualStyle
  2
Thicken
 70
    13
 71
     2
 72
     2
 73
     0
 90
        0
 40
-0.6
 41
-30.0
 62
     5
 63
     7
 74
     1
 91
        4
 64
     7
 65
   257
 75
     1
175
     1
 42
1.0
 92
       12
 66
     7
 43
1.0
 76
     1
 77
     6
 78
     2
 67
     7
 79
     5
170
     0
171
     0
290
     0
174
     0
 93
        1
 44
0.0
173
     0
291
     1
 45
0.0
1001
ACAD
1000
AcDbSavedByObjectVersion
1070
     0
  0
DICTIONARYVAR
  5
13C76
102
{ACAD_REACTORS
330
13C73
102
}
330
13C73
100
DictionaryVariables
280
     0
  1
1:1
  0
DICTIONARYVAR
  5
13C75
102
{ACAD_REACTORS
330
13C73
102
}
330
13C73
100
DictionaryVariables
280
     0
  1
STANDARD
  0
DICTIONARYVAR
  5
13C74
102
{ACAD_REACTORS
330
13C73
102
}
330
13C73
100
DictionaryVariables
280
     0
  1
STANDARD
  0
DICTIONARYVAR
  5
13C79
102
{ACAD_REACTORS
330
13C73
102
}
330
13C73
100
DictionaryVariables
280
     0
  1
1
  0
DICTIONARYVAR
  5
13C78
102
{ACAD_REACTORS
330
13C73
102
}
330
13C73
100
DictionaryVariables
280
     0
  1
0
  0
DICTIONARYVAR
  5
15A6F
102
{ACAD_REACTORS
330
13C73
102
}
330
13C73
100
DictionaryVariables
280
     0
  1
0
  0
DICTIONARYVAR
  5
15DDD
102
{ACAD_REACTORS
330
13C73
102
}
330
13C73
100
DictionaryVariables
280
     0
  1
1.570796
  0
DICTIONARYVAR
  5
15DDE
102
{ACAD_REACTORS
330
13C73
102
}
330
13C73
100
DictionaryVariables
280
     0
  1
1.570796
  0
DICTIONARYVAR
  5
15DDF
102
{ACAD_REACTORS
330
13C73
102
}
330
13C73
100
DictionaryVariables
280
     0
  1
-122.394000
  0
DICTIONARYVAR
  5
15A6E
102
{ACAD_REACTORS
330
13C73
102
}
330
13C73
100
DictionaryVariables
280
     0
  1
0
  0
DICTIONARYVAR
  5
13C77
102
{ACAD_REACTORS
330
13C73
102
}
330
13C73
100
DictionaryVariables
280
     0
  1
127
  0
XRECORD
  5
15DB2
102
{ACAD_REACTORS
330
15DB1
102
}
330
15DB1
100
AcDbXrecord
280
     1
330
145A0
330
145A1
330
145A2
330
145BB
330
145BC
330
145BD
330
145BE
330
145BF
330
145C0
330
145E8
330
14623
330
14628
330
14630
330
14639
330
1463E
330
2CD
330
15AF1
330
15B09
330
15B14
330
15B15
330
15C74
  0
DICTIONARY
  5
15DFA
330
1388A
100
AcDbDictionary
280
     1
281
     1
  3
ACAD_XREC_ROUNDTRIP
360
15DFB
  0
DICTIONARY
  5
15DFC
330
1388E
100
AcDbDictionary
280
     1
281
     1
  3
ACAD_XREC_ROUNDTRIP
360
15DFD
  0
DICTIONARY
  5
13831
330
13830
100
AcDbDictionary
280
     1
281
     1
  3
ACAD_XREC_ROUNDTRIP
360
15DF7
  3
BUMPTILE
360
13833
  3
DIFFUSETILE
360
13832
  3
OPACITYTILE
360
13836
  3
REFLECTIONTILE
360
13835
  3
REFRACTIONTILE
360
13837
  3
SPECULARTILE
360
13834
  0
DICTIONARY
  5
13829
330
13828
100
AcDbDictionary
280
     1
281
     1
  3
ACAD_XREC_ROUNDTRIP
360
15DF6
  3
BUMPTILE
360
1382B
  3
DIFFUSETILE
360
1382A
  3
OPACITYTILE
360
1382E
  3
REFLECTIONTILE
360
1382D
  3
REFRACTIONTILE
360
1382F
  3
SPECULARTILE
360
1382C
  0
DICTIONARY
  5
13839
330
13838
100
AcDbDictionary
280
     1
281
     1
  3
ACAD_XREC_ROUNDTRIP
360
15DF8
  3
BUMPTILE
360
1383B
  3
DIFFUSETILE
360
1383A
  3
OPACITYTILE
360
1383E
  3
REFLECTIONTILE
360
1383D
  3
REFRACTIONTILE
360
1383F
  3
SPECULARTILE
360
1383C
  0
DICTIONARY
  5
15A67
330
13883
100
AcDbDictionary
280
     1
281
     1
  3
ACAD_ROUNDTRIP_2008_TABLESTYLE_CELLSTYLEMAP
360
15DF0
  3
ACAD_XREC_ROUNDTRIP
360
15DF9
  0
DICTIONARY
  5
15C3B
330
15C3A
100
AcDbDictionary
280
     1
281
     1
  3
ACAD_XREC_ROUNDTRIP
360
15C3C
  0
DICTIONARY
  5
15C3E
330
15C3D
100
AcDbDictionary
280
     1
281
     1
  3
ACAD_XREC_ROUNDTRIP
360
15C3F
  0
DICTIONARY
  5
15C41
330
15C40
100
AcDbDictionary
280
     1
281
     1
  3
ACAD_XREC_ROUNDTRIP
360
15C42
  0
XRECORD
  5
15DFB
102
{ACAD_REACTORS
330
15DFA
102
}
330
15DFA
100
AcDbXrecord
280
     1
102
SHADEPLOT
 70
     0
102
SHADEPLOTRESLEVEL
 70
     2
102
SHADEPLOTCUSTOMDPI
 70
   300
  0
XRECORD
  5
15DFD
102
{ACAD_REACTORS
330
15DFC
102
}
330
15DFC
100
AcDbXrecord
280
     1
102
SHADEPLOT
 70
     0
102
SHADEPLOTRESLEVEL
 70
     2
102
SHADEPLOTCUSTOMDPI
 70
   300
  0
XRECORD
  5
15DF7
102
{ACAD_REACTORS
330
13831
102
}
330
13831
100
AcDbXrecord
280
     1
102
MATERIAL
148
0.0
149
0.0
149
0.0
 93
        0
 94
      127
282
     0
 72
     0
 77
     0
171
     0
175
     0
179
     0
273
     0
  0
XRECORD
  5
13833
102
{ACAD_REACTORS
330
13831
102
}
330
13831
100
AcDbXrecord
280
     1
270
     1
271
     1
  0
XRECORD
  5
13832
102
{ACAD_REACTORS
330
13831
102
}
330
13831
100
AcDbXrecord
280
     1
270
     1
271
     1
  0
XRECORD
  5
13836
102
{ACAD_REACTORS
330
13831
102
}
330
13831
100
AcDbXrecord
280
     1
270
     1
271
     1
  0
XRECORD
  5
13835
102
{ACAD_REACTORS
330
13831
102
}
330
13831
100
AcDbXrecord
280
     1
270
     1
271
     1
  0
XRECORD
  5
13837
102
{ACAD_REACTORS
330
13831
102
}
330
13831
100
AcDbXrecord
280
     1
270
     1
271
     1
  0
XRECORD
  5
13834
102
{ACAD_REACTORS
330
13831
102
}
330
13831
100
AcDbXrecord
280
     1
270
     1
271
     1
  0
XRECORD
  5
15DF6
102
{ACAD_REACTORS
330
13829
102
}
330
13829
100
AcDbXrecord
280
     1
102
MATERIAL
148
0.0
149
0.0
149
0.0
 93
        0
 94
      127
282
     0
 72
     0
 77
     0
171
     0
175
     0
179
     0
273
     0
  0
XRECORD
  5
1382B
102
{ACAD_REACTORS
330
13829
102
}
330
13829
100
AcDbXrecord
280
     1
270
     1
271
     1
  0
XRECORD
  5
1382A
102
{ACAD_REACTORS
330
13829
102
}
330
13829
100
AcDbXrecord
280
     1
270
     1
271
     1
  0
XRECORD
  5
1382E
102
{ACAD_REACTORS
330
13829
102
}
330
13829
100
AcDbXrecord
280
     1
270
     1
271
     1
  0
XRECORD
  5
1382D
102
{ACAD_REACTORS
330
13829
102
}
330
13829
100
AcDbXrecord
280
     1
270
     1
271
     1
  0
XRECORD
  5
1382F
102
{ACAD_REACTORS
330
13829
102
}
330
13829
100
AcDbXrecord
280
     1
270
     1
271
     1
  0
XRECORD
  5
1382C
102
{ACAD_REACTORS
330
13829
102
}
330
13829
100
AcDbXrecord
280
     1
270
     1
271
     1
  0
XRECORD
  5
15DF8
102
{ACAD_REACTORS
330
13839
102
}
330
13839
100
AcDbXrecord
280
     1
102
MATERIAL
148
0.0
149
0.0
149
0.0
 93
        0
 94
      127
282
     0
 72
     0
 77
     0
171
     0
175
     0
179
     0
273
     0
  0
XRECORD
  5
1383B
102
{ACAD_REACTORS
330
13839
102
}
330
13839
100
AcDbXrecord
280
     1
270
     1
271
     1
  0
XRECORD
  5
1383A
102
{ACAD_REACTORS
330
13839
102
}
330
13839
100
AcDbXrecord
280
     1
270
     1
271
     1
  0
XRECORD
  5
1383E
102
{ACAD_REACTORS
330
13839
102
}
330
13839
100
AcDbXrecord
280
     1
270
     1
271
     1
  0
XRECORD
  5
1383D
102
{ACAD_REACTORS
330
13839
102
}
330
13839
100
AcDbXrecord
280
     1
270
     1
271
     1
  0
XRECORD
  5
1383F
102
{ACAD_REACTORS
330
13839
102
}
330
13839
100
AcDbXrecord
280
     1
270
     1
271
     1
  0
XRECORD
  5
1383C
102
{ACAD_REACTORS
330
13839
102
}
330
13839
100
AcDbXrecord
280
     1
270
     1
271
     1
  0
CELLSTYLEMAP
  5
15DF0
102
{ACAD_REACTORS
330
15A67
102
}
330
15A67
100
AcDbCellStyleMap
 90
        3
300
CELLSTYLE
  1
TABLEFORMAT_BEGIN
 90
        5
170
     1
 91
        0
 92
    32768
 62
   257
 93
        1
300
CONTENTFORMAT
  1
CONTENTFORMAT_BEGIN
 90
        0
 91
        0
 92
      512
 93
        0
300

 40
0.0
140
1.0
 94
        5
 62
     0
340
13874
144
0.25
309
CONTENTFORMAT_END
171
     1
301
MARGIN
  1
CELLMARGIN_BEGIN
 40
0.06
 40
0.06
 40
0.06
 40
0.06
 40
0.18
 40
0.18
309
CELLMARGIN_END
 94
        6
 95
        1
302
GRIDFORMAT
  1
GRIDFORMAT_BEGIN
 90
        0
 91
        1
 62
     0
 92
       -2
340
0
 93
        0
 40
0.045
309
GRIDFORMAT_END
 95
        2
302
GRIDFORMAT
  1
GRIDFORMAT_BEGIN
 90
        0
 91
        1
 62
     0
 92
       -2
340
0
 93
        0
 40
0.045
309
GRIDFORMAT_END
 95
        4
302
GRIDFORMAT
  1
GRIDFORMAT_BEGIN
 90
        0
 91
        1
 62
     0
 92
       -2
340
0
 93
        0
 40
0.045
309
GRIDFORMAT_END
 95
        8
302
GRIDFORMAT
  1
GRIDFORMAT_BEGIN
 90
        0
 91
        1
 62
     0
 92
       -2
340
0
 93
        0
 40
0.045
309
GRIDFORMAT_END
 95
       16
302
GRIDFORMAT
  1
GRIDFORMAT_BEGIN
 90
        0
 91
        1
 62
     0
 92
       -2
340
0
 93
        0
 40
0.045
309
GRIDFORMAT_END
 95
       32
302
GRIDFORMAT
  1
GRIDFORMAT_BEGIN
 90
        0
 91
        1
 62
     0
 92
       -2
340
0
 93
        0
 40
0.045
309
GRIDFORMAT_END
309
TABLEFORMAT_END
  1
CELLSTYLE_BEGIN
 90
        1
 91
        1
300
_TITLE
309
CELLSTYLE_END
300
CELLSTYLE
  1
TABLEFORMAT_BEGIN
 90
        5
170
     1
 91
        0
 92
        0
 62
   257
 93
        1
300
CONTENTFORMAT
  1
CONTENTFORMAT_BEGIN
 90
        0
 91
        0
 92
      512
 93
        0
300

 40
0.0
140
1.0
 94
        5
 62
     0
340
13874
144
0.18
309
CONTENTFORMAT_END
171
     1
301
MARGIN
  1
CELLMARGIN_BEGIN
 40
0.06
 40
0.06
 40
0.06
 40
0.06
 40
0.18
 40
0.18
309
CELLMARGIN_END
 94
        6
 95
        1
302
GRIDFORMAT
  1
GRIDFORMAT_BEGIN
 90
        0
 91
        1
 62
     0
 92
       -2
340
0
 93
        0
 40
0.045
309
GRIDFORMAT_END
 95
        2
302
GRIDFORMAT
  1
GRIDFORMAT_BEGIN
 90
        0
 91
        1
 62
     0
 92
       -2
340
0
 93
        0
 40
0.045
309
GRIDFORMAT_END
 95
        4
302
GRIDFORMAT
  1
GRIDFORMAT_BEGIN
 90
        0
 91
        1
 62
     0
 92
       -2
340
0
 93
        0
 40
0.045
309
GRIDFORMAT_END
 95
        8
302
GRIDFORMAT
  1
GRIDFORMAT_BEGIN
 90
        0
 91
        1
 62
     0
 92
       -2
340
0
 93
        0
 40
0.045
309
GRIDFORMAT_END
 95
       16
302
GRIDFORMAT
  1
GRIDFORMAT_BEGIN
 90
        0
 91
        1
 62
     0
 92
       -2
340
0
 93
        0
 40
0.045
309
GRIDFORMAT_END
 95
       32
302
GRIDFORMAT
  1
GRIDFORMAT_BEGIN
 90
        0
 91
        1
 62
     0
 92
       -2
340
0
 93
        0
 40
0.045
309
GRIDFORMAT_END
309
TABLEFORMAT_END
  1
CELLSTYLE_BEGIN
 90
        2
 91
        1
300
_HEADER
309
CELLSTYLE_END
300
CELLSTYLE
  1
TABLEFORMAT_BEGIN
 90
        5
170
     1
 91
        0
 92
        0
 62
   257
 93
        1
300
CONTENTFORMAT
  1
CONTENTFORMAT_BEGIN
 90
        0
 91
        0
 92
      512
 93
        0
300

 40
0.0
140
1.0
 94
        2
 62
     0
340
13874
144
0.18
309
CONTENTFORMAT_END
171
     1
301
MARGIN
  1
CELLMARGIN_BEGIN
 40
0.06
 40
0.06
 40
0.06
 40
0.06
 40
0.18
 40
0.18
309
CELLMARGIN_END
 94
        6
 95
        1
302
GRIDFORMAT
  1
GRIDFORMAT_BEGIN
 90
        0
 91
        1
 62
     0
 92
       -2
340
0
 93
        0
 40
0.045
309
GRIDFORMAT_END
 95
        2
302
GRIDFORMAT
  1
GRIDFORMAT_BEGIN
 90
        0
 91
        1
 62
     0
 92
       -2
340
0
 93
        0
 40
0.045
309
GRIDFORMAT_END
 95
        4
302
GRIDFORMAT
  1
GRIDFORMAT_BEGIN
 90
        0
 91
        1
 62
     0
 92
       -2
340
0
 93
        0
 40
0.045
309
GRIDFORMAT_END
 95
        8
302
GRIDFORMAT
  1
GRIDFORMAT_BEGIN
 90
        0
 91
        1
 62
     0
 92
       -2
340
0
 93
        0
 40
0.045
309
GRIDFORMAT_END
 95
       16
302
GRIDFORMAT
  1
GRIDFORMAT_BEGIN
 90
        0
 91
        1
 62
     0
 92
       -2
340
0
 93
        0
 40
0.045
309
GRIDFORMAT_END
 95
       32
302
GRIDFORMAT
  1
GRIDFORMAT_BEGIN
 90
        0
 91
        1
 62
     0
 92
       -2
340
0
 93
        0
 40
0.045
309
GRIDFORMAT_END
309
TABLEFORMAT_END
  1
CELLSTYLE_BEGIN
 90
        3
 91
        2
300
_DATA
309
CELLSTYLE_END
  0
XRECORD
  5
15DF9
102
{ACAD_REACTORS
330
15A67
102
}
330
15A67
100
AcDbXrecord
280
     1
102
ACAD_ROUNDTRIP_PRE2007_TABLESTYLE
 90
      512
 91
        0
  1

 92
      512
 93
        0
  2

 94
      512
 95
        0
  3

  0
XRECORD
  5
15C3C
102
{ACAD_REACTORS
330
15C3B
102
}
330
15C3B
100
AcDbXrecord
280
     1
102
RTVSPropertyOp0
 70
     0
102
RTVSPropertyOp1
 70
     0
102
RTVSPropertyOp2
 70
     0
102
RTVSPropertyOp3
 70
     0
102
RTVSPropertyOp4
 70
     0
102
RTVSPropertyOp5
 70
     0
102
RTVSPropertyOp6
 70
     0
102
RTVSPropertyOp7
 70
     0
102
RTVSPropertyOp8
 70
     0
102
RTVSPropertyOp9
 70
     0
102
RTVSPropertyOp10
 70
     0
102
RTVSPropertyOp11
 70
     0
102
RTVSPropertyOp12
 70
     0
102
RTVSPropertyOp13
 70
     0
102
RTVSPropertyOp14
 70
     2
102
RTVSPropertyOp15
 70
     0
102
RTVSPropertyOp16
 70
     0
102
RTVSPropertyOp17
 70
     0
102
RTVSPropertyOp18
 70
     0
102
RTVSPropertyOp19
 70
     0
102
RTVSPropertyOp20
 70
     0
102
RTVSPropertyOp21
 70
     0
102
RTVSPropertyOp22
 70
     0
102
RTVSPropertyOp23
 70
     0
102
RTVSPropertyOp24
 70
     0
102
RTVSPropertyOp25
 70
     0
102
RTVSPropertyOp26
 70
     0
102
RTVSPropertyOp27
 70
     0
  0
XRECORD
  5
15C3F
102
{ACAD_REACTORS
330
15C3E
102
}
330
15C3E
100
AcDbXrecord
280
     1
102
RTVSPropertyOp0
 70
     0
102
RTVSPropertyOp1
 70
     0
102
RTVSPropertyOp2
 70
     0
102
RTVSPropertyOp3
 70
     0
102
RTVSPropertyOp4
 70
     0
102
RTVSPropertyOp5
 70
     0
102
RTVSPropertyOp6
 70
     0
102
RTVSPropertyOp7
 70
     0
102
RTVSPropertyOp8
 70
     0
102
RTVSPropertyOp9
 70
     0
102
RTVSPropertyOp10
 70
     0
102
RTVSPropertyOp11
 70
     0
102
RTVSPropertyOp12
 70
     0
102
RTVSPropertyOp13
 70
     0
102
RTVSPropertyOp14
 70
     2
102
RTVSPropertyOp15
 70
     0
102
RTVSPropertyOp16
 70
     0
102
RTVSPropertyOp17
 70
     0
102
RTVSPropertyOp18
 70
     0
102
RTVSPropertyOp19
 70
     0
102
RTVSPropertyOp20
 70
     0
102
RTVSPropertyOp21
 70
     0
102
RTVSPropertyOp22
 70
     0
102
RTVSPropertyOp23
 70
     0
102
RTVSPropertyOp24
 70
     0
102
RTVSPropertyOp25
 70
     0
102
RTVSPropertyOp26
 70
     0
102
RTVSPropertyOp27
 70
     0
  0
XRECORD
  5
15C42
102
{ACAD_REACTORS
330
15C41
102
}
330
15C41
100
AcDbXrecord
280
     1
102
RTVSPropertyOp0
 70
     0
102
RTVSPropertyOp1
 70
     0
102
RTVSPropertyOp2
 70
     0
102
RTVSPropertyOp3
 70
     0
102
RTVSPropertyOp4
 70
     0
102
RTVSPropertyOp5
 70
     0
102
RTVSPropertyOp6
 70
     0
102
RTVSPropertyOp7
 70
     0
102
RTVSPropertyOp8
 70
     0
102
RTVSPropertyOp9
 70
     0
102
RTVSPropertyOp10
 70
     0
102
RTVSPropertyOp11
 70
     0
102
RTVSPropertyOp12
 70
     0
102
RTVSPropertyOp13
 70
     0
102
RTVSPropertyOp14
 70
     2
102
RTVSPropertyOp15
 70
     0
102
RTVSPropertyOp16
 70
     0
102
RTVSPropertyOp17
 70
     0
102
RTVSPropertyOp18
 70
     0
102
RTVSPropertyOp19
 70
     0
102
RTVSPropertyOp20
 70
     0
102
RTVSPropertyOp21
 70
     0
102
RTVSPropertyOp22
 70
     0
102
RTVSPropertyOp23
 70
     0
102
RTVSPropertyOp24
 70
     0
102
RTVSPropertyOp25
 70
     0
102
RTVSPropertyOp26
 70
     0
102
RTVSPropertyOp27
 70
     0
  0
ENDSEC
  0
EOF
