999
DXF file: 42DBL-K.dxf
999
Pro/ENGINEER 2004110 by Parametric Technology Corporation
0
SECTION
2
HEADER
9
$ACADVER
1
AC1015
9
$DWGCODEPAGE
3
ANSI_1252
9
$EXTMAX
10
11.6929133858
20
8.2677165354
30
0.0000000000
9
$EXTMIN
10
0.0000000000
20
0.0000000000
30
0.0000000000
9
$LIMMIN
10
0.0000000000
20
0.0000000000
9
$LIMMAX
10
11.6929133858
20
8.2677165354
9
$VIEWCTR
10
5.8464566929
20
4.1338582677
9
$VIEWSIZE
40
8.2677165354
9
$CLAYER
8
0
9
$LTSCALE
40
0.6431102362
9
$CELTYPE
6
BYLAYER
9
$DIMSCALE
40
1
9
$DIMASZ
40
0.1875000000
9
$DIMEXO
40
0.0730807087
9
$DIMDLI
40
0.4443307087
9
$DIMEXE
40
0.2104724409
9
$DIMCEN
40
0.1052362205
9
$DIMLFAC
40
1.0000000000
9
$DIMBLK
1
_FILLED
9
$DIMTXT
40
0.0700000000
9
$DIMTOL
70
1
9
$DIMLIM
70
0
9
$DIMTFAC
40
1.0000000000
9
$DIMTP
40
0.0100000000
9
$DIMTM
40
0.0100000000
9
$PDMODE
70
3
9
$PDSIZE
40
0.3125000000
9
$HANDSEED
5
5C6
9
$MEASUREMENT
70
0
9
$INSUNITS
70
1
0
ENDSEC
0
SECTION
2
CLASSES
0
CLASS
1
ACDBDICTIONARYWDFLT
2
AcDbDictionaryWithDefault
3
AutoCAD 2000
90
0
280
0
281
0
0
CLASS
1
ACDBPLACEHOLDER
2
AcDbPlaceHolder
3
AutoCAD 2000
90
0
280
0
281
0
0
CLASS
1
LAYOUT
2
AcDbLayout
3
AutoCAD 2000
90
0
280
0
281
0
0
ENDSEC
0
SECTION
2
TABLES
0
TABLE
2
VPORT
5
8
100
AcDbSymbolTable
70
2
0
VPORT
5
1F4
100
AcDbSymbolTableRecord
100
AcDbViewportTableRecord
2
*ACTIVE
70
0
10
0.0
20
0.0
11
1.0
21
1.0
12
5.8464566929
22
4.1338582677
13
0.0
23
0.0
14
1.0
24
1.0
15
0.0
25
0.0
16
0.0
26
0.0
36
1.0
17
0.0
27
0.0
37
0.0
40
8.2677165354
41
1.4142857143
42
50.0
43
0.0
44
0.0
50
0.0
51
0.0
71
0
72
100
73
1
74
1
75
0
76
0
77
0
78
0
0
ENDTAB
0
TABLE
2
LTYPE
5
5
100
AcDbSymbolTable
70
6
0
LTYPE
5
14
100
AcDbSymbolTableRecord
100
AcDbLinetypeTableRecord
2
BYBLOCK
70
0
3

72
65
73
0
40
0.0
0
LTYPE
5
15
100
AcDbSymbolTableRecord
100
AcDbLinetypeTableRecord
2
BYLAYER
70
0
3

72
65
73
0
40
0.0
0
LTYPE
5
16
100
AcDbSymbolTableRecord
100
AcDbLinetypeTableRecord
2
CONTINUOUS
70
64
3
Solid line
72
65
73
0
40
0
0
LTYPE
5
1F5
100
AcDbSymbolTableRecord
100
AcDbLinetypeTableRecord
2
CENTER
70
64
3
____ _ ____ _ ____ _ ____ _ ____ _ ____ _ ____
72
65
73
4
40
0.6
49
0.375
74
0
49
-0.075
74
0
49
0.075
74
0
49
-0.075
74
0
0
LTYPE
5
1F6
100
AcDbSymbolTableRecord
100
AcDbLinetypeTableRecord
2
HIDDEN
70
64
3
- - - - - - - - - - - - - - - - - - - -
72
65
73
2
40
0.2
49
0.1
74
0
49
-0.1
74
0
0
LTYPE
5
1F7
100
AcDbSymbolTableRecord
100
AcDbLinetypeTableRecord
2
PHANTOM
70
64
3
_____ _ _ _____ _ _ _____ _ _ _____
72
65
73
6
40
0.8
49
0.45
74
0
49
-0.05
74
0
49
0.1
74
0
49
-0.05
74
0
49
0.1
74
0
49
-0.05
74
0
0
LTYPE
5
1F8
100
AcDbSymbolTableRecord
100
AcDbLinetypeTableRecord
2
DOT
70
64
3
. . . . . . . . . . . . . . . . . . . .
72
65
73
2
40
0.2
49
0.1
74
0
49
-0.1
74
0
0
LTYPE
5
1F9
100
AcDbSymbolTableRecord
100
AcDbLinetypeTableRecord
2
DASHED
70
64
3
- - - - - - - - - - - - - - - - - - - -
72
65
73
2
40
0.2
49
0.1
74
0
49
-0.1
74
0
0
ENDTAB
0
TABLE
2
LAYER
5
2
100
AcDbSymbolTable
70
36
0
LAYER
5
10
100
AcDbSymbolTableRecord
100
AcDbLayerTableRecord
2
0
70
0
62
7
6
CONTINUOUS
370
-3
390
F
0
LAYER
5
1FA
100
AcDbSymbolTableRecord
100
AcDbLayerTableRecord
2
DEFAULT_1
70
0
62
7
6
CENTER
370
-3
390
F
0
LAYER
5
1FB
100
AcDbSymbolTableRecord
100
AcDbLayerTableRecord
2
DEFAULT_2
70
0
62
8
6
HIDDEN
370
-3
390
F
0
LAYER
5
1FC
100
AcDbSymbolTableRecord
100
AcDbLayerTableRecord
2
DEFAULT_3
70
0
62
7
6
PHANTOM
370
-3
390
F
0
LAYER
5
1FD
100
AcDbSymbolTableRecord
100
AcDbLayerTableRecord
2
_2D_DELETED_OBJS
70
0
62
7
6
CONTINUOUS
370
-3
390
F
0
LAYER
5
1FE
100
AcDbSymbolTableRecord
100
AcDbLayerTableRecord
2
8_ALL_NOTES_BALLOONS_SYMBOLS_GT
70
0
62
7
6
CONTINUOUS
370
-3
390
F
0
ENDTAB
0
TABLE
2
STYLE
5
3
100
AcDbSymbolTable
70
1
0
STYLE
5
11
100
AcDbSymbolTableRecord
100
AcDbTextStyleTableRecord
2
STANDARD
70
0
40
0.0
41
1.0000000000
50
0.0
71
0
42
0.2
3
txt
4

0
STYLE
5
1FF
100
AcDbSymbolTableRecord
100
AcDbTextStyleTableRecord
2
TEXTSTYLE_1
70
0
40
0.0
41
0.9000000000
50
0.0
71
0
42
0.2
3
txt
4

0
STYLE
5
200
100
AcDbSymbolTableRecord
100
AcDbTextStyleTableRecord
2
TEXTSTYLE_2
70
0
40
0.0
41
0.8000000000
50
0.0
71
0
42
0.2
3
txt
4

0
ENDTAB
0
TABLE
2
VIEW
5
6
100
AcDbSymbolTable
70
0
0
ENDTAB
0
TABLE
2
UCS
5
7
100
AcDbSymbolTable
70
0
0
ENDTAB
0
TABLE
2
APPID
5
9
100
AcDbSymbolTable
70
1
0
APPID
5
201
100
AcDbSymbolTableRecord
100
AcDbRegAppTableRecord
2
ACAD
70
0
0
ENDTAB
0
TABLE
2
BLOCK_RECORD
5
1
100
AcDbSymbolTable
70
0
0
BLOCK_RECORD
5
1F
100
AcDbSymbolTableRecord
100
AcDbBlockTableRecord
2
*MODEL_SPACE
0
BLOCK_RECORD
5
1B
100
AcDbSymbolTableRecord
100
AcDbBlockTableRecord
2
*PAPER_SPACE
0
BLOCK_RECORD
5
202
100
AcDbSymbolTableRecord
100
AcDbBlockTableRecord
2
_FILLED
0
BLOCK_RECORD
5
203
100
AcDbSymbolTableRecord
100
AcDbBlockTableRecord
2
*D0
0
BLOCK_RECORD
5
204
100
AcDbSymbolTableRecord
100
AcDbBlockTableRecord
2
*D1
0
BLOCK_RECORD
5
205
100
AcDbSymbolTableRecord
100
AcDbBlockTableRecord
2
*D2
0
BLOCK_RECORD
5
206
100
AcDbSymbolTableRecord
100
AcDbBlockTableRecord
2
*D3
0
BLOCK_RECORD
5
207
100
AcDbSymbolTableRecord
100
AcDbBlockTableRecord
2
*D4
0
BLOCK_RECORD
5
208
100
AcDbSymbolTableRecord
100
AcDbBlockTableRecord
2
*D5
0
BLOCK_RECORD
5
209
100
AcDbSymbolTableRecord
100
AcDbBlockTableRecord
2
*D6
0
BLOCK_RECORD
5
20A
100
AcDbSymbolTableRecord
100
AcDbBlockTableRecord
2
*D7
0
BLOCK_RECORD
5
20B
100
AcDbSymbolTableRecord
100
AcDbBlockTableRecord
2
*D8
0
BLOCK_RECORD
5
20C
100
AcDbSymbolTableRecord
100
AcDbBlockTableRecord
2
*D9
0
BLOCK_RECORD
5
20D
100
AcDbSymbolTableRecord
100
AcDbBlockTableRecord
2
*D10
0
BLOCK_RECORD
5
20E
100
AcDbSymbolTableRecord
100
AcDbBlockTableRecord
2
*D11
0
BLOCK_RECORD
5
20F
100
AcDbSymbolTableRecord
100
AcDbBlockTableRecord
2
*D12
0
BLOCK_RECORD
5
210
100
AcDbSymbolTableRecord
100
AcDbBlockTableRecord
2
*D13
0
BLOCK_RECORD
5
211
100
AcDbSymbolTableRecord
100
AcDbBlockTableRecord
2
*D14
0
BLOCK_RECORD
5
212
100
AcDbSymbolTableRecord
100
AcDbBlockTableRecord
2
*D15
0
BLOCK_RECORD
5
213
100
AcDbSymbolTableRecord
100
AcDbBlockTableRecord
2
*D16
0
ENDTAB
0
TABLE
2
DIMSTYLE
5
A
100
AcDbSymbolTable
70
1
100
AcDbDimStyleTable
71
0
0
DIMSTYLE
105
214
100
AcDbSymbolTableRecord
100
AcDbDimStyleTableRecord
2
STANDARD
70
0
3

4

40
1.0
41
0.1875000000
42
0.0625
43
0.38
44
0.18
45
0.0
46
0.0
47
0.0100000000
48
0.0100000000
140
0.0700000000
141
0.09
142
0.0
143
25.4
144
1.0000000000
145
0.0
146
1.0000000000
147
0.09
71
1
72
0
73
1
74
1
75
0
76
0
77
0
78
4
170
0
171
2
172
0
173
0
174
0
175
0
176
0
177
0
178
0
270
2
271
2
272
2
273
2
274
2
275
0
280
0
281
0
282
0
283
1
284
4
285
0
286
0
287
3
288
0
340
11
341
202
342
202
343
202
344
202
0
DIMSTYLE
105
215
100
AcDbSymbolTableRecord
100
AcDbDimStyleTableRecord
2
DIMSTYLE_1
70
0
3

4

40
1.0
41
0.1875000000
42
0.0625
43
0.38
44
0.18
45
0.0
46
0.0
47
0.0010000000
48
0.0010000000
140
0.0700000000
141
0.09
142
0.0
143
25.4
144
1.0000000000
145
0.0
146
1.0000000000
147
0.09
71
1
72
0
73
1
74
1
75
0
76
0
77
0
78
4
170
0
171
2
172
0
173
0
174
0
175
0
176
0
177
0
178
0
270
2
271
3
272
3
273
2
274
2
275
0
280
0
281
0
282
0
283
1
284
4
285
0
286
0
287
3
288
0
340
11
341
202
342
202
343
202
344
202
0
DIMSTYLE
105
216
100
AcDbSymbolTableRecord
100
AcDbDimStyleTableRecord
2
DIMSTYLE_2
70
0
3

4

40
1.0
41
0.1875000000
42
0.0625
43
0.38
44
0.18
45
0.0
46
0.0
47
0.0010000000
48
0.0010000000
140
0.0700000000
141
0.09
142
0.0
143
25.4
144
1.0000000000
145
0.0
146
1.0000000000
147
0.09
71
1
72
0
73
1
74
1
75
0
76
0
77
0
78
4
170
0
171
2
172
0
173
0
174
0
175
0
176
0
177
0
178
0
270
2
271
3
272
3
273
2
274
2
275
0
280
0
281
0
282
0
283
1
284
4
285
0
286
0
287
3
288
0
340
11
341
202
342
202
343
202
344
202
0
DIMSTYLE
105
217
100
AcDbSymbolTableRecord
100
AcDbDimStyleTableRecord
2
DIMSTYLE_3
70
0
3

4

40
1.0
41
0.1875000000
42
0.0625
43
0.38
44
0.18
45
0.0
46
0.0
47
0.0150000000
48
0.0050000000
140
0.0700000000
141
0.09
142
0.0
143
25.4
144
1.0000000000
145
0.0
146
1.0000000000
147
0.09
71
0
72
1
73
1
74
1
75
0
76
0
77
0
78
4
170
0
171
2
172
0
173
0
174
0
175
0
176
0
177
0
178
0
270
2
271
2
272
2
273
2
274
2
275
0
280
0
281
0
282
0
283
1
284
4
285
0
286
0
287
3
288
0
340
11
341
202
342
202
343
202
344
202
0
ENDTAB
0
ENDSEC
0
SECTION
2
BLOCKS
0
BLOCK
5
20
100
AcDbEntity
8
0
100
AcDbBlockBegin
2
*MODEL_SPACE
70
0
10
0.0
20
0.0
30
0.0
3
*MODEL_SPACE
1

0
ENDBLK
5
21
100
AcDbEntity
8
0
100
AcDbBlockEnd
0
BLOCK
5
1C
100
AcDbEntity
8
0
100
AcDbBlockBegin
2
*PAPER_SPACE
70
0
10
0.0
20
0.0
30
0.0
3
*PAPER_SPACE
1

0
ENDBLK
5
1D
100
AcDbEntity
8
0
100
AcDbBlockEnd
0
BLOCK
5
218
100
AcDbEntity
8
0
100
AcDbBlockBegin
62
7
6
CONTINUOUS
2
*D0
70
65
10
0.0000000000
20
0.0000000000
3
*D0
1

0
TEXT
5
219
100
AcDbEntity
8
0
100
AcDbText
62
7
6
CONTINUOUS
10
7.4722346127
20
7.5415671154
7
TEXTSTYLE_1
40
0.0700000000
1
45.11 MAX
41
1.1571428571
72
0
100
AcDbText
0
TEXT
5
21A
100
AcDbEntity
8
0
100
AcDbText
62
7
6
CONTINUOUS
10
7.4722346127
20
7.3255671154
7
TEXTSTYLE_1
40
0.0700000000
1
1.776
41
1.1571428571
72
0
100
AcDbText
0
LINE
5
21B
100
AcDbEntity
8
0
100
AcDbLine
62
7
6
CONTINUOUS
10
6.9310452648
20
5.4069769842
11
6.9310452648
21
7.6565671154
0
LINE
5
21C
100
AcDbEntity
8
0
100
AcDbLine
62
7
6
CONTINUOUS
10
8.7038956585
20
4.3092020617
11
8.7038956585
21
6.9173714134
0
LINE
5
21D
100
AcDbEntity
8
0
100
AcDbLine
62
7
6
CONTINUOUS
10
8.7038956585
20
7.1303090746
11
8.7038956585
21
7.6565671154
0
LINE
5
21E
100
AcDbEntity
8
0
100
AcDbLine
62
7
6
CONTINUOUS
10
6.9310452648
20
7.5765671154
11
7.4162346127
21
7.5765671154
0
LINE
5
21F
100
AcDbEntity
8
0
100
AcDbLine
62
7
6
CONTINUOUS
10
8.7038956585
20
7.5765671154
11
8.2572346127
21
7.5765671154
0
INSERT
5
220
100
AcDbEntity
8
0
100
AcDbBlockReference
62
7
6
CONTINUOUS
2
_FILLED
10
6.9310452648
20
7.5765671154
41
  0.187500
42
  0.187500
43
  0.187500
50
180.000000
0
INSERT
5
221
100
AcDbEntity
8
0
100
AcDbBlockReference
62
7
6
CONTINUOUS
2
_FILLED
10
8.7038956585
20
7.5765671154
41
  0.187500
42
  0.187500
43
  0.187500
0
ENDBLK
5
222
100
AcDbEntity
8
0
6
BYBLOCK
62
0
100
AcDbBlockEnd
0
BLOCK
5
223
100
AcDbEntity
8
0
100
AcDbBlockBegin
62
7
6
CONTINUOUS
2
*D1
70
65
10
0.0000000000
20
0.0000000000
3
*D1
1

0
TEXT
5
224
100
AcDbEntity
8
0
100
AcDbText
62
7
6
CONTINUOUS
10
8.8889436295
20
6.9978043922
7
TEXTSTYLE_1
40
0.0700000000
1
27.76 MAX
41
1.1571428571
72
0
100
AcDbText
0
TEXT
5
225
100
AcDbEntity
8
0
100
AcDbText
62
7
6
CONTINUOUS
10
8.8889436295
20
6.7818043922
7
TEXTSTYLE_1
40
0.0700000000
1
1.093
41
1.1571428571
72
0
100
AcDbText
0
LINE
5
226
100
AcDbEntity
8
0
100
AcDbLine
62
7
6
CONTINUOUS
10
8.0210452648
20
4.5242071724
11
8.0210452648
21
6.4353906851
0
LINE
5
227
100
AcDbEntity
8
0
100
AcDbLine
62
7
6
CONTINUOUS
10
8.0210452648
20
6.7038998350
11
8.0210452648
21
7.1128043922
0
LINE
5
228
100
AcDbEntity
8
0
100
AcDbLine
62
7
6
CONTINUOUS
10
6.9310452648
20
5.4069769842
11
6.9310452648
21
7.1128043922
0
LINE
5
229
100
AcDbEntity
8
0
100
AcDbLine
62
7
6
CONTINUOUS
10
8.0210452648
20
7.0328043922
11
7.4760452648
21
7.0328043922
0
LINE
5
22A
100
AcDbEntity
8
0
100
AcDbLine
62
7
6
CONTINUOUS
10
7.4760452648
20
7.0328043922
11
8.8329436295
21
7.0328043922
0
LINE
5
22B
100
AcDbEntity
8
0
100
AcDbLine
62
7
6
CONTINUOUS
10
6.9310452648
20
7.0328043922
11
7.4760452648
21
7.0328043922
0
INSERT
5
22C
100
AcDbEntity
8
0
100
AcDbBlockReference
62
7
6
CONTINUOUS
2
_FILLED
10
8.0210452648
20
7.0328043922
41
  0.187500
42
  0.187500
43
  0.187500
0
INSERT
5
22D
100
AcDbEntity
8
0
100
AcDbBlockReference
62
7
6
CONTINUOUS
2
_FILLED
10
6.9310452648
20
7.0328043922
41
  0.187500
42
  0.187500
43
  0.187500
50
180.000000
0
ENDBLK
5
22E
100
AcDbEntity
8
0
6
BYBLOCK
62
0
100
AcDbBlockEnd
0
BLOCK
5
22F
100
AcDbEntity
8
0
100
AcDbBlockBegin
62
7
6
CONTINUOUS
2
*D2
70
65
10
0.0000000000
20
0.0000000000
3
*D2
1

0
TEXT
5
230
100
AcDbEntity
8
0
100
AcDbText
62
7
6
CONTINUOUS
10
7.0930170907
20
6.5425425880
7
TEXTSTYLE_1
40
0.0700000000
1
23.44 MAX
41
1.1571428571
72
0
100
AcDbText
0
TEXT
5
231
100
AcDbEntity
8
0
100
AcDbText
62
7
6
CONTINUOUS
10
7.0930170907
20
6.3265425880
7
TEXTSTYLE_1
40
0.0700000000
1
.923
41
1.1571428571
72
0
100
AcDbText
0
LINE
5
232
100
AcDbEntity
8
0
100
AcDbLine
62
7
6
CONTINUOUS
10
7.8418956585
20
4.6817064639
11
7.8418956585
21
6.6575425880
0
LINE
5
233
100
AcDbEntity
8
0
100
AcDbLine
62
7
6
CONTINUOUS
10
6.9310452648
20
5.4069769842
11
6.9310452648
21
6.6575425880
0
LINE
5
234
100
AcDbEntity
8
0
100
AcDbLine
62
7
6
CONTINUOUS
10
7.8418956585
20
6.5775425880
11
8.1418956585
21
6.5775425880
0
LINE
5
235
100
AcDbEntity
8
0
100
AcDbLine
62
7
6
CONTINUOUS
10
6.9310452648
20
6.5775425880
11
6.6310452648
21
6.5775425880
0
INSERT
5
236
100
AcDbEntity
8
0
100
AcDbBlockReference
62
7
6
CONTINUOUS
2
_FILLED
10
7.8418956585
20
6.5775425880
41
  0.187500
42
  0.187500
43
  0.187500
50
180.000000
0
INSERT
5
237
100
AcDbEntity
8
0
100
AcDbBlockReference
62
7
6
CONTINUOUS
2
_FILLED
10
6.9310452648
20
6.5775425880
41
  0.187500
42
  0.187500
43
  0.187500
0
ENDBLK
5
238
100
AcDbEntity
8
0
6
BYBLOCK
62
0
100
AcDbBlockEnd
0
BLOCK
5
239
100
AcDbEntity
8
0
100
AcDbBlockBegin
62
7
6
CONTINUOUS
2
*D3
70
65
10
0.0000000000
20
0.0000000000
3
*D3
1

0
TEXT
5
23A
100
AcDbEntity
8
0
100
AcDbText
62
7
6
CONTINUOUS
10
7.1756486198
20
6.0274858109
7
TEXTSTYLE_1
40
0.0700000000
1
21.74
41
1.1571428571
72
0
100
AcDbText
0
TEXT
5
23B
100
AcDbEntity
8
0
100
AcDbText
62
7
6
CONTINUOUS
10
7.2161486198
20
5.8114858109
7
TEXTSTYLE_1
40
0.0700000000
1
.856
41
1.1571428571
72
0
100
AcDbText
0
TEXT
5
23C
100
AcDbEntity
8
0
100
AcDbText
62
7
6
CONTINUOUS
10
7.2566486198
20
5.5954858109
7
TEXTSTYLE_1
40
0.0700000000
1
MAX
41
1.1571428571
72
0
100
AcDbText
0
LINE
5
23D
100
AcDbEntity
8
0
100
AcDbLine
62
7
6
CONTINUOUS
10
7.7820452648
20
4.9047065480
11
7.7820452648
21
6.1424858109
0
LINE
5
23E
100
AcDbEntity
8
0
100
AcDbLine
62
7
6
CONTINUOUS
10
6.9310452648
20
5.4069769842
11
6.9310452648
21
6.1424858109
0
LINE
5
23F
100
AcDbEntity
8
0
100
AcDbLine
62
7
6
CONTINUOUS
10
7.7820452648
20
6.0624858109
11
7.6366486198
21
6.0624858109
0
LINE
5
240
100
AcDbEntity
8
0
100
AcDbLine
62
7
6
CONTINUOUS
10
6.9310452648
20
6.0624858109
11
7.1196486198
21
6.0624858109
0
INSERT
5
241
100
AcDbEntity
8
0
100
AcDbBlockReference
62
7
6
CONTINUOUS
2
_FILLED
10
7.7820452648
20
6.0624858109
41
  0.187500
42
  0.187500
43
  0.187500
0
INSERT
5
242
100
AcDbEntity
8
0
100
AcDbBlockReference
62
7
6
CONTINUOUS
2
_FILLED
10
6.9310452648
20
6.0624858109
41
  0.187500
42
  0.187500
43
  0.187500
50
180.000000
0
ENDBLK
5
243
100
AcDbEntity
8
0
6
BYBLOCK
62
0
100
AcDbBlockEnd
0
BLOCK
5
244
100
AcDbEntity
8
0
100
AcDbBlockBegin
62
7
6
CONTINUOUS
2
*D4
70
65
10
0.0000000000
20
0.0000000000
3
*D4
1

0
TEXT
5
245
100
AcDbEntity
8
0
100
AcDbText
62
7
6
CONTINUOUS
10
5.3922534653
20
6.9979877117
7
TEXTSTYLE_1
40
0.0700000000
1
4.95%%p0.20
41
1.1582010582
72
0
100
AcDbText
0
TEXT
5
246
100
AcDbEntity
8
0
100
AcDbText
62
7
6
CONTINUOUS
10
5.3922534653
20
6.7819877117
7
TEXTSTYLE_1
40
0.0700000000
1
.195%%p.008
41
1.1582010582
72
0
100
AcDbText
0
LINE
5
247
100
AcDbEntity
8
0
100
AcDbLine
62
7
6
CONTINUOUS
10
6.9310452648
20
5.4069769842
11
6.9310452648
21
7.1129877117
0
LINE
5
248
100
AcDbEntity
8
0
100
AcDbLine
62
7
6
CONTINUOUS
10
6.7330452585
20
4.5242024563
11
6.7330452585
21
5.3757604053
0
LINE
5
249
100
AcDbEntity
8
0
100
AcDbLine
62
7
6
CONTINUOUS
10
6.7330452585
20
5.5706050774
11
6.7330452585
21
6.4472366770
0
LINE
5
24A
100
AcDbEntity
8
0
100
AcDbLine
62
7
6
CONTINUOUS
10
6.7330452585
20
6.6802078512
11
6.7330452585
21
7.1129877117
0
LINE
5
24B
100
AcDbEntity
8
0
100
AcDbLine
62
7
6
CONTINUOUS
10
6.9310452648
20
7.0329877117
11
7.2310452648
21
7.0329877117
0
LINE
5
24C
100
AcDbEntity
8
0
100
AcDbLine
62
7
6
CONTINUOUS
10
6.7330452585
20
7.0329877117
11
6.1779201320
21
7.0329877117
0
INSERT
5
24D
100
AcDbEntity
8
0
100
AcDbBlockReference
62
7
6
CONTINUOUS
2
_FILLED
10
6.9310452648
20
7.0329877117
41
  0.187500
42
  0.187500
43
  0.187500
50
180.000000
0
INSERT
5
24E
100
AcDbEntity
8
0
100
AcDbBlockReference
62
7
6
CONTINUOUS
2
_FILLED
10
6.7330452585
20
7.0329877117
41
  0.187500
42
  0.187500
43
  0.187500
0
ENDBLK
5
24F
100
AcDbEntity
8
0
6
BYBLOCK
62
0
100
AcDbBlockEnd
0
BLOCK
5
250
100
AcDbEntity
8
0
100
AcDbBlockBegin
62
7
6
CONTINUOUS
2
*D5
70
65
10
0.0000000000
20
0.0000000000
3
*D5
1

0
TEXT
5
251
100
AcDbEntity
8
0
100
AcDbText
62
7
6
CONTINUOUS
10
5.3278522464
20
7.5415671154
7
TEXTSTYLE_1
40
0.0700000000
1
14.27%%p0.20
41
1.1580952381
72
0
100
AcDbText
0
TEXT
5
252
100
AcDbEntity
8
0
100
AcDbText
62
7
6
CONTINUOUS
10
5.4088522464
20
7.3255671154
7
TEXTSTYLE_1
40
0.0700000000
1
.562%%p.008
41
1.1582010582
72
0
100
AcDbText
0
LINE
5
253
100
AcDbEntity
8
0
100
AcDbLine
62
7
6
CONTINUOUS
10
6.9310452648
20
5.4069769842
11
6.9310452648
21
7.6565671154
0
LINE
5
254
100
AcDbEntity
8
0
100
AcDbLine
62
7
6
CONTINUOUS
10
6.3660452585
20
4.3092071724
11
6.3660452585
21
5.3793030357
0
LINE
5
255
100
AcDbEntity
8
0
100
AcDbLine
62
7
6
CONTINUOUS
10
6.3660452585
20
5.5741477078
11
6.3660452585
21
6.9776466261
0
LINE
5
256
100
AcDbEntity
8
0
100
AcDbLine
62
7
6
CONTINUOUS
10
6.3660452585
20
7.1026764861
11
6.3660452585
21
7.6565671154
0
LINE
5
257
100
AcDbEntity
8
0
100
AcDbLine
62
7
6
CONTINUOUS
10
6.9310452648
20
7.5765671154
11
6.6485452616
21
7.5765671154
0
LINE
5
258
100
AcDbEntity
8
0
100
AcDbLine
62
7
6
CONTINUOUS
10
6.3660452585
20
7.5765671154
11
6.6485452616
21
7.5765671154
0
LINE
5
259
100
AcDbEntity
8
0
100
AcDbLine
62
7
6
CONTINUOUS
10
6.6485452616
20
7.5765671154
11
6.1945189131
21
7.5765671154
0
INSERT
5
25A
100
AcDbEntity
8
0
100
AcDbBlockReference
62
7
6
CONTINUOUS
2
_FILLED
10
6.9310452648
20
7.5765671154
41
  0.187500
42
  0.187500
43
  0.187500
0
INSERT
5
25B
100
AcDbEntity
8
0
100
AcDbBlockReference
62
7
6
CONTINUOUS
2
_FILLED
10
6.3660452585
20
7.5765671154
41
  0.187500
42
  0.187500
43
  0.187500
50
180.000000
0
ENDBLK
5
25C
100
AcDbEntity
8
0
6
BYBLOCK
62
0
100
AcDbBlockEnd
0
BLOCK
5
25D
100
AcDbEntity
8
0
100
AcDbBlockBegin
62
7
6
CONTINUOUS
2
*D6
70
65
10
0.0000000000
20
0.0000000000
3
*D6
1

0
TEXT
5
25E
100
AcDbEntity
8
0
100
AcDbText
62
7
6
CONTINUOUS
10
5.6513023602
20
2.5961342632
7
TEXTSTYLE_1
40
0.0700000000
1
45.97%%p0.64
41
1.1580952381
72
0
100
AcDbText
0
TEXT
5
25F
100
AcDbEntity
8
0
100
AcDbText
62
7
6
CONTINUOUS
10
5.6513023602
20
2.3801342632
7
TEXTSTYLE_1
40
0.0700000000
1
1.810%%p.025
41
1.1580952381
72
0
100
AcDbText
0
TEXT
5
260
100
AcDbEntity
8
0
100
AcDbText
62
7
6
CONTINUOUS
10
5.7326356935
20
2.1641342632
7
TEXTSTYLE_1
40
0.0700000000
1
EXTENDED
41
1.1571428571
72
0
100
AcDbText
0
TEXT
5
261
100
AcDbEntity
8
0
100
AcDbText
62
7
6
CONTINUOUS
10
5.6513023602
20
1.9481342632
7
TEXTSTYLE_1
40
0.0700000000
1
21.64%%p0.64
41
1.1580952381
72
0
100
AcDbText
0
TEXT
5
262
100
AcDbEntity
8
0
100
AcDbText
62
7
6
CONTINUOUS
10
5.6918023602
20
1.7321342632
7
TEXTSTYLE_1
40
0.0700000000
1
.852%%p.025
41
1.1582010582
72
0
100
AcDbText
0
TEXT
5
263
100
AcDbEntity
8
0
100
AcDbText
62
7
6
CONTINUOUS
10
5.6921356935
20
1.5161342632
7
TEXTSTYLE_1
40
0.0700000000
1
RETRACTED
41
1.1571428571
72
0
100
AcDbText
0
LINE
5
264
100
AcDbEntity
8
0
100
AcDbLine
62
7
6
CONTINUOUS
10
6.9310452648
20
2.7351666030
11
6.9310452648
21
2.5511342632
0
LINE
5
265
100
AcDbEntity
8
0
100
AcDbLine
62
7
6
CONTINUOUS
10
5.1210452648
20
3.9271916925
11
5.1210452648
21
3.7725160009
0
LINE
5
266
100
AcDbEntity
8
0
100
AcDbLine
62
7
6
CONTINUOUS
10
5.1210452648
20
3.6748133731
11
5.1210452648
21
2.5511342632
0
LINE
5
267
100
AcDbEntity
8
0
100
AcDbLine
62
7
6
CONTINUOUS
10
6.9310452648
20
2.6311342632
11
6.5179690269
21
2.6311342632
0
LINE
5
268
100
AcDbEntity
8
0
100
AcDbLine
62
7
6
CONTINUOUS
10
5.1210452648
20
2.6311342632
11
5.5953023602
21
2.6311342632
0
INSERT
5
269
100
AcDbEntity
8
0
100
AcDbBlockReference
62
7
6
CONTINUOUS
2
_FILLED
10
6.9310452648
20
2.6311342632
41
  0.187500
42
  0.187500
43
  0.187500
0
INSERT
5
26A
100
AcDbEntity
8
0
100
AcDbBlockReference
62
7
6
CONTINUOUS
2
_FILLED
10
5.1210452648
20
2.6311342632
41
  0.187500
42
  0.187500
43
  0.187500
50
180.000000
0
ENDBLK
5
26B
100
AcDbEntity
8
0
6
BYBLOCK
62
0
100
AcDbBlockEnd
0
BLOCK
5
26C
100
AcDbEntity
8
0
100
AcDbBlockBegin
62
7
6
CONTINUOUS
2
*D7
70
65
10
0.0000000000
20
0.0000000000
3
*D7
1

0
TEXT
5
26D
100
AcDbEntity
8
0
100
AcDbText
62
7
6
CONTINUOUS
10
9.6654723653
20
4.1373947094
7
TEXTSTYLE_1
40
0.0700000000
1
%%c42.01
41
1.1865079365
72
0
100
AcDbText
0
TEXT
5
26E
100
AcDbEntity
8
0
100
AcDbText
62
7
6
CONTINUOUS
10
9.6654723653
20
3.9213947094
7
TEXTSTYLE_1
40
0.0700000000
1
%%c1.654
41
1.1865079365
72
0
100
AcDbText
0
TEXT
5
26F
100
AcDbEntity
8
0
100
AcDbText
62
7
6
CONTINUOUS
10
9.7931390320
20
3.7053947094
7
TEXTSTYLE_1
40
0.0700000000
1
MAX
41
1.1571428571
72
0
100
AcDbText
0
LINE
5
270
100
AcDbEntity
8
0
100
AcDbLine
62
7
6
CONTINUOUS
10
7.8045452648
20
4.8822071724
11
7.8179808595
21
4.8822071724
0
LINE
5
271
100
AcDbEntity
8
0
100
AcDbLine
62
7
6
CONTINUOUS
10
7.8804039534
20
4.8822071724
11
7.9601667957
21
4.8822071724
0
LINE
5
272
100
AcDbEntity
8
0
100
AcDbLine
62
7
6
CONTINUOUS
10
8.0815450340
20
4.8822071724
11
8.6156092824
21
4.8822071724
0
LINE
5
273
100
AcDbEntity
8
0
100
AcDbLine
62
7
6
CONTINUOUS
10
8.7855388160
20
4.8822071724
11
9.2761011216
21
4.8822071724
0
LINE
5
274
100
AcDbEntity
8
0
100
AcDbLine
62
7
6
CONTINUOUS
10
9.4690361694
20
4.8822071724
11
9.9946390320
21
4.8822071724
0
LINE
5
275
100
AcDbEntity
8
0
100
AcDbLine
62
7
6
CONTINUOUS
10
7.8045452648
20
3.2362071724
11
8.7786029167
21
3.2362071724
0
LINE
5
276
100
AcDbEntity
8
0
100
AcDbLine
62
7
6
CONTINUOUS
10
8.9242568026
20
3.2362071724
11
9.0248273429
21
3.2362071724
0
LINE
5
277
100
AcDbEntity
8
0
100
AcDbLine
62
7
6
CONTINUOUS
10
9.2051607255
20
3.2362071724
11
9.9946390320
21
3.2362071724
0
LINE
5
278
100
AcDbEntity
8
0
100
AcDbLine
62
7
6
CONTINUOUS
10
9.9146390320
20
4.8822071724
11
9.9146390320
21
4.3133947094
0
LINE
5
279
100
AcDbEntity
8
0
100
AcDbLine
62
7
6
CONTINUOUS
10
9.9146390320
20
3.2362071724
11
9.9146390320
21
3.6493947094
0
INSERT
5
27A
100
AcDbEntity
8
0
100
AcDbBlockReference
62
7
6
CONTINUOUS
2
_FILLED
10
9.9146390320
20
4.8822071724
41
  0.187500
42
  0.187500
43
  0.187500
50
 90.000000
0
INSERT
5
27B
100
AcDbEntity
8
0
100
AcDbBlockReference
62
7
6
CONTINUOUS
2
_FILLED
10
9.9146390320
20
3.2362071724
41
  0.187500
42
  0.187500
43
  0.187500
50
270.000000
0
ENDBLK
5
27C
100
AcDbEntity
8
0
6
BYBLOCK
62
0
100
AcDbBlockEnd
0
BLOCK
5
27D
100
AcDbEntity
8
0
100
AcDbBlockBegin
62
7
6
CONTINUOUS
2
*D8
70
65
10
0.0000000000
20
0.0000000000
3
*D8
1

0
TEXT
5
27E
100
AcDbEntity
8
0
100
AcDbText
62
7
6
CONTINUOUS
10
9.5003493780
20
5.3039888882
7
TEXTSTYLE_1
40
0.0700000000
1
%%c28.09%%p0.25
41
1.1740259740
72
0
100
AcDbText
0
TEXT
5
27F
100
AcDbEntity
8
0
100
AcDbText
62
7
6
CONTINUOUS
10
9.5003493780
20
5.0879888882
7
TEXTSTYLE_1
40
0.0700000000
1
%%c1.106%%p.010
41
1.1740259740
72
0
100
AcDbText
0
LINE
5
280
100
AcDbEntity
8
0
100
AcDbLine
62
7
6
CONTINUOUS
10
7.9043956585
20
3.4992080241
11
8.8098144637
21
3.4992080241
0
LINE
5
281
100
AcDbEntity
8
0
100
AcDbLine
62
7
6
CONTINUOUS
10
8.9415965510
20
3.4992080241
11
9.0456350409
21
3.4992080241
0
LINE
5
282
100
AcDbEntity
8
0
100
AcDbLine
62
7
6
CONTINUOUS
10
9.1947568765
20
3.4992080241
11
9.4470160447
21
3.4992080241
0
LINE
5
283
100
AcDbEntity
8
0
100
AcDbLine
62
7
6
CONTINUOUS
10
7.9043956585
20
4.6192064639
11
7.9532308964
21
4.6192064639
0
LINE
5
284
100
AcDbEntity
8
0
100
AcDbLine
62
7
6
CONTINUOUS
10
8.0954168327
20
4.6192064639
11
8.6294810811
21
4.6192064639
0
LINE
5
285
100
AcDbEntity
8
0
100
AcDbLine
62
7
6
CONTINUOUS
10
8.7786029167
20
4.6192064639
11
9.4470160447
21
4.6192064639
0
LINE
5
286
100
AcDbEntity
8
0
100
AcDbLine
62
7
6
CONTINUOUS
10
9.3670160447
20
3.4992080241
11
9.3670160447
21
4.0592072440
0
LINE
5
287
100
AcDbEntity
8
0
100
AcDbLine
62
7
6
CONTINUOUS
10
9.3670160447
20
4.6192064639
11
9.3670160447
21
4.0592072440
0
LINE
5
288
100
AcDbEntity
8
0
100
AcDbLine
62
7
6
CONTINUOUS
10
9.3670160447
20
4.0592072440
11
9.3670160447
21
5.3389888882
0
LINE
5
289
100
AcDbEntity
8
0
100
AcDbLine
62
7
6
CONTINUOUS
10
9.3670160447
20
5.3389888882
11
9.4443493780
21
5.3389888882
0
INSERT
5
28A
100
AcDbEntity
8
0
100
AcDbBlockReference
62
7
6
CONTINUOUS
2
_FILLED
10
9.3670160447
20
3.4992080241
41
  0.187500
42
  0.187500
43
  0.187500
50
270.000000
0
INSERT
5
28B
100
AcDbEntity
8
0
100
AcDbBlockReference
62
7
6
CONTINUOUS
2
_FILLED
10
9.3670160447
20
4.6192064639
41
  0.187500
42
  0.187500
43
  0.187500
50
 90.000000
0
ENDBLK
5
28C
100
AcDbEntity
8
0
6
BYBLOCK
62
0
100
AcDbBlockEnd
0
BLOCK
5
28D
100
AcDbEntity
8
0
100
AcDbBlockBegin
62
7
6
CONTINUOUS
2
*D9
70
65
10
0.0000000000
20
0.0000000000
3
*D9
1

0
TEXT
5
28E
100
AcDbEntity
8
0
100
AcDbText
62
7
6
CONTINUOUS
10
9.2431886854
20
2.9340520357
7
TEXTSTYLE_1
40
0.0700000000
1
%%c20.45%%p0.13
41
1.1740259740
72
0
100
AcDbText
0
TEXT
5
28F
100
AcDbEntity
8
0
100
AcDbText
62
7
6
CONTINUOUS
10
9.2431886854
20
2.7180520357
7
TEXTSTYLE_1
40
0.0700000000
1
%%c.805%%p.005
41
1.1757142857
72
0
100
AcDbText
0
TEXT
5
290
100
AcDbEntity
8
0
100
AcDbText
62
7
6
CONTINUOUS
10
9.2431886854
20
2.5020520357
7
TEXTSTYLE_1
40
0.0700000000
1
BOTH ENDS
41
1.1571428571
72
0
100
AcDbText
0
LINE
5
291
100
AcDbEntity
8
0
100
AcDbLine
62
7
6
CONTINUOUS
10
8.0835452648
20
3.6567071724
11
8.8184961203
21
3.6567071724
0
LINE
5
292
100
AcDbEntity
8
0
100
AcDbLine
62
7
6
CONTINUOUS
10
8.9710859056
20
3.6567071724
11
9.1898553520
21
3.6567071724
0
LINE
5
293
100
AcDbEntity
8
0
100
AcDbLine
62
7
6
CONTINUOUS
10
8.0835452648
20
4.4617071724
11
8.6485665867
21
4.4617071724
0
LINE
5
294
100
AcDbEntity
8
0
100
AcDbLine
62
7
6
CONTINUOUS
10
8.7734127747
20
4.4617071724
11
8.8393038183
21
4.4617071724
0
LINE
5
295
100
AcDbEntity
8
0
100
AcDbLine
62
7
6
CONTINUOUS
10
8.9433423083
20
4.4617071724
11
9.1898553520
21
4.4617071724
0
LINE
5
296
100
AcDbEntity
8
0
100
AcDbLine
62
7
6
CONTINUOUS
10
9.1098553520
20
3.6567071724
11
9.1098553520
21
4.0592071724
0
LINE
5
297
100
AcDbEntity
8
0
100
AcDbLine
62
7
6
CONTINUOUS
10
9.1098553520
20
4.0592071724
11
9.1098553520
21
2.9690520357
0
LINE
5
298
100
AcDbEntity
8
0
100
AcDbLine
62
7
6
CONTINUOUS
10
9.1098553520
20
2.9690520357
11
9.1871886854
21
2.9690520357
0
LINE
5
299
100
AcDbEntity
8
0
100
AcDbLine
62
7
6
CONTINUOUS
10
9.1098553520
20
4.4617071724
11
9.1098553520
21
4.0592071724
0
INSERT
5
29A
100
AcDbEntity
8
0
100
AcDbBlockReference
62
7
6
CONTINUOUS
2
_FILLED
10
9.1098553520
20
3.6567071724
41
  0.187500
42
  0.187500
43
  0.187500
50
270.000000
0
INSERT
5
29B
100
AcDbEntity
8
0
100
AcDbBlockReference
62
7
6
CONTINUOUS
2
_FILLED
10
9.1098553520
20
4.4617071724
41
  0.187500
42
  0.187500
43
  0.187500
50
 90.000000
0
ENDBLK
5
29C
100
AcDbEntity
8
0
6
BYBLOCK
62
0
100
AcDbBlockEnd
0
BLOCK
5
29D
100
AcDbEntity
8
0
100
AcDbBlockBegin
62
7
6
CONTINUOUS
2
*D10
70
65
10
0.0000000000
20
0.0000000000
3
*D10
1

0
TEXT
5
29E
100
AcDbEntity
8
0
100
AcDbText
62
7
6
CONTINUOUS
10
9.2626901271
20
2.1023747189
7
TEXTSTYLE_1
40
0.0700000000
1
%%c9.53%%p0.13
41
1.1757142857
72
0
100
AcDbText
0
TEXT
5
29F
100
AcDbEntity
8
0
100
AcDbText
62
7
6
CONTINUOUS
10
9.2626901271
20
1.8863747189
7
TEXTSTYLE_1
40
0.0700000000
1
%%c.375%%p.005
41
1.1757142857
72
0
100
AcDbText
0
TEXT
5
2A0
100
AcDbEntity
8
0
100
AcDbText
62
7
6
CONTINUOUS
10
9.2626901271
20
1.6703747189
7
TEXTSTYLE_1
40
0.0700000000
1
BOTH ENDS
41
1.1571428571
72
0
100
AcDbText
0
TEXT
5
2A1
100
AcDbEntity
8
0
100
AcDbText
62
7
6
CONTINUOUS
10
9.2626901271
20
1.4543747189
7
TEXTSTYLE_1
40
0.0700000000
1
 
41
1.1571428571
72
0
100
AcDbText
0
LINE
5
2A2
100
AcDbEntity
8
0
100
AcDbLine
62
7
6
CONTINUOUS
10
8.7663956585
20
3.8717122831
11
8.9514904329
21
3.8717122831
0
LINE
5
2A3
100
AcDbEntity
8
0
100
AcDbLine
62
7
6
CONTINUOUS
10
8.7663956585
20
4.2467020617
11
8.9514904329
21
4.2467020617
0
LINE
5
2A4
100
AcDbEntity
8
0
100
AcDbLine
62
7
6
CONTINUOUS
10
8.8714904329
20
3.8717122831
11
8.8714904329
21
2.1373747189
0
LINE
5
2A5
100
AcDbEntity
8
0
100
AcDbLine
62
7
6
CONTINUOUS
10
8.8714904329
20
2.1373747189
11
9.2066901271
21
2.1373747189
0
LINE
5
2A6
100
AcDbEntity
8
0
100
AcDbLine
62
7
6
CONTINUOUS
10
8.8714904329
20
4.2467020617
11
8.8714904329
21
4.5467020617
0
INSERT
5
2A7
100
AcDbEntity
8
0
100
AcDbBlockReference
62
7
6
CONTINUOUS
2
_FILLED
10
8.8714904329
20
3.8717122831
41
  0.187500
42
  0.187500
43
  0.187500
50
 90.000000
0
INSERT
5
2A8
100
AcDbEntity
8
0
100
AcDbBlockReference
62
7
6
CONTINUOUS
2
_FILLED
10
8.8714904329
20
4.2467020617
41
  0.187500
42
  0.187500
43
  0.187500
50
270.000000
0
ENDBLK
5
2A9
100
AcDbEntity
8
0
6
BYBLOCK
62
0
100
AcDbBlockEnd
0
BLOCK
5
2AA
100
AcDbEntity
8
0
100
AcDbBlockBegin
62
7
6
CONTINUOUS
2
*D11
70
65
10
0.0000000000
20
0.0000000000
3
*D11
1

0
TEXT
5
2AB
100
AcDbEntity
8
0
100
AcDbText
62
7
6
CONTINUOUS
10
1.3628053473
20
4.0443759354
7
TEXTSTYLE_1
40
0.0700000000
1
55.55%%p0.10
41
1.1580952381
72
0
100
AcDbText
0
TEXT
5
2AC
100
AcDbEntity
8
0
100
AcDbText
62
7
6
CONTINUOUS
10
1.3628053473
20
3.8283759354
7
TEXTSTYLE_1
40
0.0700000000
1
2.187%%p.004
41
1.1580952381
72
0
100
AcDbText
0
LINE
5
2AD
100
AcDbEntity
8
0
100
AcDbLine
62
7
6
CONTINUOUS
10
3.1010920154
20
5.1527071724
11
1.6881386807
21
5.1527071724
0
LINE
5
2AE
100
AcDbEntity
8
0
100
AcDbLine
62
7
6
CONTINUOUS
10
3.1035089271
20
2.9657074460
11
1.6881386807
21
2.9657074460
0
LINE
5
2AF
100
AcDbEntity
8
0
100
AcDbLine
62
7
6
CONTINUOUS
10
1.7681386807
20
5.1527071724
11
1.7681386807
21
4.2203759354
0
LINE
5
2B0
100
AcDbEntity
8
0
100
AcDbLine
62
7
6
CONTINUOUS
10
1.7681386807
20
2.9657074460
11
1.7681386807
21
3.7723759354
0
INSERT
5
2B1
100
AcDbEntity
8
0
100
AcDbBlockReference
62
7
6
CONTINUOUS
2
_FILLED
10
1.7681386807
20
5.1527071724
41
  0.187500
42
  0.187500
43
  0.187500
50
 90.000000
0
INSERT
5
2B2
100
AcDbEntity
8
0
100
AcDbBlockReference
62
7
6
CONTINUOUS
2
_FILLED
10
1.7681386807
20
2.9657074460
41
  0.187500
42
  0.187500
43
  0.187500
50
270.000000
0
ENDBLK
5
2B3
100
AcDbEntity
8
0
6
BYBLOCK
62
0
100
AcDbBlockEnd
0
BLOCK
5
2B4
100
AcDbEntity
8
0
100
AcDbBlockBegin
62
7
6
CONTINUOUS
2
*D12
70
65
10
0.0000000000
20
0.0000000000
3
*D12
1

0
TEXT
5
2B5
100
AcDbEntity
8
0
100
AcDbText
62
7
6
CONTINUOUS
10
3.0501789702
20
6.0517285185
7
TEXTSTYLE_1
40
0.0700000000
1
%%c3.66%%p0.13
41
1.1757142857
72
0
100
AcDbText
0
TEXT
5
2B6
100
AcDbEntity
8
0
100
AcDbText
62
7
6
CONTINUOUS
10
3.0501789702
20
5.8357285185
7
TEXTSTYLE_1
40
0.0700000000
1
%%c.144%%p.005
41
1.1757142857
72
0
100
AcDbText
0
TEXT
5
2B7
100
AcDbEntity
8
0
100
AcDbText
62
7
6
CONTINUOUS
10
3.0501789702
20
5.6197285185
7
TEXTSTYLE_1
40
0.0700000000
1
(2x)
41
1.1571428571
72
0
100
AcDbText
0
LINE
5
2B8
100
AcDbEntity
8
0
100
AcDbLine
62
7
6
CONTINUOUS
10
3.1285277030
20
5.2273847728
11
2.7250292312
21
6.0867285185
0
LINE
5
2B9
100
AcDbEntity
8
0
100
AcDbLine
62
7
6
CONTINUOUS
10
2.7250292312
20
6.0867285185
11
2.9941789702
21
6.0867285185
0
INSERT
5
2BA
100
AcDbEntity
8
0
100
AcDbBlockReference
62
7
6
CONTINUOUS
2
_FILLED
10
3.1285277030
20
5.2273847728
41
  0.187500
42
  0.187500
43
  0.187500
50
295.152054
0
ENDBLK
5
2BB
100
AcDbEntity
8
0
6
BYBLOCK
62
0
100
AcDbBlockEnd
0
BLOCK
5
2BC
100
AcDbEntity
8
0
100
AcDbBlockBegin
62
7
6
CONTINUOUS
2
*D13
70
65
10
0.0000000000
20
0.0000000000
3
*D13
1

0
TEXT
5
2BD
100
AcDbEntity
8
0
100
AcDbText
62
7
6
CONTINUOUS
10
3.9444383697
20
3.0083721618
7
TEXTSTYLE_1
40
0.0700000000
1
%%c5.54
41
1.1923809524
72
0
100
AcDbText
0
TEXT
5
2BE
100
AcDbEntity
8
0
100
AcDbText
62
7
6
CONTINUOUS
10
4.3617717031
20
3.0083721618
7
TEXTSTYLE_1
40
0.0700000000
1
 REF
41
1.1571428571
72
0
100
AcDbText
0
TEXT
5
2BF
100
AcDbEntity
8
0
100
AcDbText
62
7
6
CONTINUOUS
10
3.9444383697
20
2.7923721618
7
TEXTSTYLE_1
40
0.0700000000
1
%%c.218 REF
41
1.1767195767
72
0
100
AcDbText
0
LINE
5
2C0
100
AcDbEntity
8
0
100
AcDbLine
62
7
6
CONTINUOUS
10
5.1035916818
20
4.1682071724
11
4.9292035640
21
4.1682071724
0
LINE
5
2C1
100
AcDbEntity
8
0
100
AcDbLine
62
7
6
CONTINUOUS
10
4.8811215705
20
4.1682071724
11
4.7638164100
21
4.1682071724
0
LINE
5
2C2
100
AcDbEntity
8
0
100
AcDbLine
62
7
6
CONTINUOUS
10
5.0858408710
20
3.9502071724
11
4.7638164100
21
3.9502071724
0
LINE
5
2C3
100
AcDbEntity
8
0
100
AcDbLine
62
7
6
CONTINUOUS
10
4.8438164100
20
4.1682071724
11
4.8438164100
21
4.4682071724
0
LINE
5
2C4
100
AcDbEntity
8
0
100
AcDbLine
62
7
6
CONTINUOUS
10
4.8438164100
20
3.9502071724
11
4.8438164100
21
3.0433721618
0
LINE
5
2C5
100
AcDbEntity
8
0
100
AcDbLine
62
7
6
CONTINUOUS
10
4.8438164100
20
3.0433721618
11
4.7417717031
21
3.0433721618
0
INSERT
5
2C6
100
AcDbEntity
8
0
100
AcDbBlockReference
62
7
6
CONTINUOUS
2
_FILLED
10
4.8438164100
20
4.1682071724
41
  0.187500
42
  0.187500
43
  0.187500
50
270.000000
0
INSERT
5
2C7
100
AcDbEntity
8
0
100
AcDbBlockReference
62
7
6
CONTINUOUS
2
_FILLED
10
4.8438164100
20
3.9502071724
41
  0.187500
42
  0.187500
43
  0.187500
50
 90.000000
0
ENDBLK
5
2C8
100
AcDbEntity
8
0
6
BYBLOCK
62
0
100
AcDbBlockEnd
0
BLOCK
5
2C9
100
AcDbEntity
8
0
100
AcDbBlockBegin
62
7
6
CONTINUOUS
2
*D14
70
65
10
0.0000000000
20
0.0000000000
3
*D14
1

0
TEXT
5
2CA
100
AcDbEntity
8
0
100
AcDbText
62
7
6
CONTINUOUS
10
5.3494222689
20
5.4433278789
7
TEXTSTYLE_1
40
0.0700000000
1
1.57%%p0.13
41
1.1582010582
72
0
100
AcDbText
0
TEXT
5
2CB
100
AcDbEntity
8
0
100
AcDbText
62
7
6
CONTINUOUS
10
5.3494222689
20
5.2273278789
7
TEXTSTYLE_1
40
0.0700000000
1
.062%%p.005
41
1.1582010582
72
0
100
AcDbText
0
LINE
5
2CC
100
AcDbEntity
8
0
100
AcDbLine
62
7
6
CONTINUOUS
10
6.9310452648
20
5.4069769842
11
6.9310452648
21
5.5583278789
0
LINE
5
2CD
100
AcDbEntity
8
0
100
AcDbLine
62
7
6
CONTINUOUS
10
6.9900452648
20
5.3999851675
11
6.9900452648
21
5.5583278789
0
LINE
5
2CE
100
AcDbEntity
8
0
100
AcDbLine
62
7
6
CONTINUOUS
10
6.9310452648
20
5.4783278789
11
6.1350889356
21
5.4783278789
0
LINE
5
2CF
100
AcDbEntity
8
0
100
AcDbLine
62
7
6
CONTINUOUS
10
6.9900452648
20
5.4783278789
11
7.2900452648
21
5.4783278789
0
INSERT
5
2D0
100
AcDbEntity
8
0
100
AcDbBlockReference
62
7
6
CONTINUOUS
2
_FILLED
10
6.9310452648
20
5.4783278789
41
  0.187500
42
  0.187500
43
  0.187500
0
INSERT
5
2D1
100
AcDbEntity
8
0
100
AcDbBlockReference
62
7
6
CONTINUOUS
2
_FILLED
10
6.9900452648
20
5.4783278789
41
  0.187500
42
  0.187500
43
  0.187500
50
180.000000
0
ENDBLK
5
2D2
100
AcDbEntity
8
0
6
BYBLOCK
62
0
100
AcDbBlockEnd
0
BLOCK
5
2D3
100
AcDbEntity
8
0
100
AcDbBlockBegin
62
7
6
CONTINUOUS
2
*D15
70
65
10
0.0000000000
20
0.0000000000
3
*D15
1

0
TEXT
5
2D4
100
AcDbEntity
8
0
100
AcDbText
62
7
6
CONTINUOUS
10
0.8294270769
20
4.6128127430
7
TEXTSTYLE_1
40
0.0700000000
1
65.28%%p0.25
41
1.1580952381
72
0
100
AcDbText
0
TEXT
5
2D5
100
AcDbEntity
8
0
100
AcDbText
62
7
6
CONTINUOUS
10
0.8294270769
20
4.3968127430
7
TEXTSTYLE_1
40
0.0700000000
1
2.570%%p.010
41
1.1580952381
72
0
100
AcDbText
0
LINE
5
2D6
100
AcDbEntity
8
0
100
AcDbLine
62
7
6
CONTINUOUS
10
3.1015958358
20
5.3444851675
11
1.1547604103
21
5.3444851675
0
LINE
5
2D7
100
AcDbEntity
8
0
100
AcDbLine
62
7
6
CONTINUOUS
10
3.1015958358
20
2.7739291773
11
1.1547604103
21
2.7739291773
0
LINE
5
2D8
100
AcDbEntity
8
0
100
AcDbLine
62
7
6
CONTINUOUS
10
1.2347604103
20
5.3444851675
11
1.2347604103
21
4.7888127430
0
LINE
5
2D9
100
AcDbEntity
8
0
100
AcDbLine
62
7
6
CONTINUOUS
10
1.2347604103
20
2.7739291773
11
1.2347604103
21
4.3408127430
0
INSERT
5
2DA
100
AcDbEntity
8
0
100
AcDbBlockReference
62
7
6
CONTINUOUS
2
_FILLED
10
1.2347604103
20
5.3444851675
41
  0.187500
42
  0.187500
43
  0.187500
50
 90.000000
0
INSERT
5
2DB
100
AcDbEntity
8
0
100
AcDbBlockReference
62
7
6
CONTINUOUS
2
_FILLED
10
1.2347604103
20
2.7739291773
41
  0.187500
42
  0.187500
43
  0.187500
50
270.000000
0
ENDBLK
5
2DC
100
AcDbEntity
8
0
6
BYBLOCK
62
0
100
AcDbBlockEnd
0
BLOCK
5
2DD
100
AcDbEntity
8
0
100
AcDbBlockBegin
62
7
6
CONTINUOUS
2
*D16
70
65
10
0.0000000000
20
0.0000000000
3
*D16
1

0
TEXT
5
2DE
100
AcDbEntity
8
0
100
AcDbText
62
7
6
CONTINUOUS
10
5.4731383247
20
4.5505142634
7
TEXTSTYLE_1
40
0.0700000000
1
5.46%%p0.25
41
1.1582010582
72
0
100
AcDbText
0
TEXT
5
2DF
100
AcDbEntity
8
0
100
AcDbText
62
7
6
CONTINUOUS
10
5.4731383247
20
4.3705142634
7
TEXTSTYLE_1
40
0.0700000000
1
.215%%p.010
41
1.1582010582
72
0
100
AcDbText
0
LINE
5
2E0
100
AcDbEntity
8
0
100
AcDbLine
62
7
6
CONTINUOUS
10
5.1210452648
20
4.2307061012
11
5.1210452648
21
4.6655142634
0
LINE
5
2E1
100
AcDbEntity
8
0
100
AcDbLine
62
7
6
CONTINUOUS
10
4.9060452648
20
4.1624071724
11
4.9060452648
21
4.6655142634
0
LINE
5
2E2
100
AcDbEntity
8
0
100
AcDbLine
62
7
6
CONTINUOUS
10
5.1210452648
20
4.5855142634
11
5.4171383247
21
4.5855142634
0
LINE
5
2E3
100
AcDbEntity
8
0
100
AcDbLine
62
7
6
CONTINUOUS
10
4.9060452648
20
4.5855142634
11
4.6060452648
21
4.5855142634
0
INSERT
5
2E4
100
AcDbEntity
8
0
100
AcDbBlockReference
62
7
6
CONTINUOUS
2
_FILLED
10
5.1210452648
20
4.5855142634
41
  0.187500
42
  0.187500
43
  0.187500
50
180.000000
0
INSERT
5
2E5
100
AcDbEntity
8
0
100
AcDbBlockReference
62
7
6
CONTINUOUS
2
_FILLED
10
4.9060452648
20
4.5855142634
41
  0.187500
42
  0.187500
43
  0.187500
0
ENDBLK
5
2E6
100
AcDbEntity
8
0
6
BYBLOCK
62
0
100
AcDbBlockEnd
0
BLOCK
5
2E7
100
AcDbEntity
8
0
100
AcDbBlockBegin
2
_FILLED
70
64
10
0.0000000000
20
0.0000000000
3
_FILLED
1

0
SOLID
5
2E8
100
AcDbEntity
8
0
6
BYBLOCK
62
0
100
AcDbTrace
10
0.0000000000
20
0.0000000000
11
-1.0000000000
21
0.1666666667
12
-1.0000000000
22
-0.1666666667
13
-1.0000000000
23
-0.1666666667
0
ENDBLK
5
2E9
100
AcDbEntity
8
0
6
BYBLOCK
62
0
100
AcDbBlockEnd
0
ENDSEC
0
SECTION
2
ENTITIES
0
DIMENSION
5
2EA
100
AcDbEntity
8
0
100
AcDbDimension
62
7
6
CONTINUOUS
2
*D0
10
8.7038956585
20
7.5765671154
11
7.8367346127
21
7.4685671154
70
160
1
45.11 MAX\P1.776
3
DIMSTYLE_1
100
AcDbAlignedDimension
13
6.9310452648
23
5.4069769842
14
8.7038956585
24
4.3092020617
100
AcDbRotatedDimension
0
DIMENSION
5
2EB
100
AcDbEntity
8
0
100
AcDbDimension
62
7
6
CONTINUOUS
2
*D1
10
6.9310452648
20
7.0328043922
11
9.2534436295
21
6.9248043922
70
160
1
27.76 MAX\P1.093
3
DIMSTYLE_1
100
AcDbAlignedDimension
13
8.0210452648
23
4.5242071724
14
6.9310452648
24
5.4069769842
50
180.000000
100
AcDbRotatedDimension
0
DIMENSION
5
2EC
100
AcDbEntity
8
0
100
AcDbDimension
62
7
6
CONTINUOUS
2
*D2
10
6.9310452648
20
6.5775425880
11
7.4575170907
21
6.4695425880
70
160
1
23.44 MAX\P.923
3
DIMSTYLE_1
100
AcDbAlignedDimension
13
7.8418956585
23
4.6817064639
14
6.9310452648
24
5.4069769842
50
180.000000
100
AcDbRotatedDimension
0
DIMENSION
5
2ED
100
AcDbEntity
8
0
100
AcDbDimension
62
7
6
CONTINUOUS
2
*D3
10
6.9310452648
20
6.0624858109
11
7.3781486198
21
5.8464858109
70
160
1
21.74\P.856\PMAX
3
DIMSTYLE_1
100
AcDbAlignedDimension
13
7.7820452648
23
4.9047065480
14
6.9310452648
24
5.4069769842
50
180.000000
100
AcDbRotatedDimension
0
DIMENSION
5
2EE
100
AcDbEntity
8
0
100
AcDbDimension
62
7
6
CONTINUOUS
2
*D4
10
6.7330452585
20
7.0329877117
11
5.7570867987
21
6.9249877117
70
160
1
4.95%%p0.20\P.195%%p.008
3
DIMSTYLE_1
100
AcDbAlignedDimension
13
6.9310452648
23
5.4069769842
14
6.7330452585
24
4.5242024563
50
180.000000
100
AcDbRotatedDimension
0
DIMENSION
5
2EF
100
AcDbEntity
8
0
100
AcDbDimension
62
7
6
CONTINUOUS
2
*D5
10
6.3660452585
20
7.5765671154
11
5.7331855797
21
7.4685671154
70
160
1
14.27%%p0.20\P.562%%p.008
3
DIMSTYLE_1
100
AcDbAlignedDimension
13
6.9310452648
23
5.4069769842
14
6.3660452585
24
4.3092071724
50
180.000000
100
AcDbRotatedDimension
0
DIMENSION
5
2F0
100
AcDbEntity
8
0
100
AcDbDimension
62
7
6
CONTINUOUS
2
*D6
10
5.1210452648
20
2.6311342632
11
6.0566356935
21
2.0911342632
70
160
1
45.97%%p0.64\P1.810%%p.025\PEXTENDED\P21.64%%p0.64\P.852%%p.025\PRETRACTED
3
DIMSTYLE_1
100
AcDbAlignedDimension
13
6.9310452648
23
2.7351666030
14
5.1210452648
24
3.9271916925
50
180.000000
100
AcDbRotatedDimension
0
DIMENSION
5
2F1
100
AcDbEntity
8
0
100
AcDbDimension
62
7
6
CONTINUOUS
2
*D7
10
9.9146390320
20
3.2362071724
11
9.9146390320
21
3.9563947094
70
160
1
%%c42.01\P%%c1.654\PMAX
3
DIMSTYLE_1
100
AcDbAlignedDimension
13
7.8045452648
23
4.8822071724
14
7.8045452648
24
3.2362071724
50
270.000000
100
AcDbRotatedDimension
0
DIMENSION
5
2F2
100
AcDbEntity
8
0
100
AcDbDimension
62
7
6
CONTINUOUS
2
*D8
10
9.3670160447
20
4.6192064639
11
9.9523493780
21
5.2309888882
70
160
1
%%c28.09%%p0.25\P%%c1.106%%p.010
3
DIMSTYLE_1
100
AcDbAlignedDimension
13
7.9043956585
23
3.4992080241
14
7.9043956585
24
4.6192064639
50
90.000000
100
AcDbRotatedDimension
0
DIMENSION
5
2F3
100
AcDbEntity
8
0
100
AcDbDimension
62
7
6
CONTINUOUS
2
*D9
10
9.1098553520
20
4.4617071724
11
9.6951886854
21
2.7530520357
70
160
1
%%c20.45%%p0.13\P%%c.805%%p.005\PBOTH ENDS
3
DIMSTYLE_1
100
AcDbAlignedDimension
13
8.0835452648
23
3.6567071724
14
8.0835452648
24
4.4617071724
50
90.000000
100
AcDbRotatedDimension
0
DIMENSION
5
2F4
100
AcDbEntity
8
0
100
AcDbDimension
62
7
6
CONTINUOUS
2
*D10
10
8.8714904329
20
4.2467020617
11
9.6741901271
21
1.9213747189
70
160
1
%%c9.53%%p0.13\P%%c.375%%p.005\PBOTH ENDS\P 
3
DIMSTYLE_1
100
AcDbAlignedDimension
13
8.7663956585
23
3.8717122831
14
8.7663956585
24
4.2467020617
50
90.000000
100
AcDbRotatedDimension
0
DIMENSION
5
2F5
100
AcDbEntity
8
0
100
AcDbDimension
62
7
6
CONTINUOUS
2
*D11
10
1.7681386807
20
2.9657074460
11
1.7681386807
21
3.9713759354
70
160
1
55.55%%p0.10\P2.187%%p.004
3
DIMSTYLE_1
100
AcDbAlignedDimension
13
3.1010920154
23
5.1527071724
14
3.1035089271
24
2.9657074460
50
270.000000
100
AcDbRotatedDimension
0
DIMENSION
5
2F6
100
AcDbEntity
8
0
100
AcDbDimension
62
7
6
CONTINUOUS
2
*D12
10
3.1285277030
20
5.2273847728
11
3.4616789702
21
5.8707285185
70
163
1
%%c3.66%%p0.13\P%%c.144%%p.005\P(2x)
3
DIMSTYLE_2
100
AcDbDiametricDimension
15
3.1986563279
25
5.0780295721
0
DIMENSION
5
2F7
100
AcDbEntity
8
0
100
AcDbDimension
62
7
6
CONTINUOUS
2
*D13
10
4.8438164100
20
3.9502071724
11
4.3151050364
21
2.9353721618
70
160
1
%%c5.54 REF\P%%c.218 REF
3
DIMSTYLE_1
100
AcDbAlignedDimension
13
5.1035916818
23
4.1682071724
14
5.0858408710
24
3.9502071724
50
270.000000
100
AcDbRotatedDimension
0
DIMENSION
5
2F8
100
AcDbEntity
8
0
100
AcDbDimension
62
7
6
CONTINUOUS
2
*D14
10
6.9900452648
20
5.4783278789
11
5.7142556023
21
5.3703278789
70
160
1
1.57%%p0.13\P.062%%p.005
3
DIMSTYLE_1
100
AcDbAlignedDimension
13
6.9310452648
23
5.5583278789
14
6.9900452648
24
5.5583278789
100
AcDbRotatedDimension
0
DIMENSION
5
2F9
100
AcDbEntity
8
0
100
AcDbDimension
62
7
6
CONTINUOUS
2
*D15
10
1.2347604103
20
2.7739291773
11
1.2347604103
21
4.5398127430
70
160
1
65.28%%p0.25\P2.570%%p.010
3
DIMSTYLE_1
100
AcDbAlignedDimension
13
3.1015958358
23
5.3444851675
14
3.1015958358
24
2.7739291773
50
270.000000
100
AcDbRotatedDimension
0
DIMENSION
5
2FA
100
AcDbEntity
8
0
100
AcDbDimension
62
7
6
CONTINUOUS
2
*D16
10
4.9060452648
20
4.5855142634
11
5.8379716581
21
4.4955142634
70
160
1
5.46%%p0.25\P.215%%p.010
3
DIMSTYLE_3
100
AcDbAlignedDimension
13
5.1210452648
23
4.2307061012
14
4.9060452648
24
4.1624071724
50
180.000000
100
AcDbRotatedDimension
0
TEXT
5
2FB
100
AcDbEntity
8
0
100
AcDbText
62
7
6
CONTINUOUS
10
0.7875841504
20
7.8841006405
7
STANDARD
40
0.1000000000
1
42DBL-K SERIES (CAPTIVE)
41
1.1571428571
72
0
100
AcDbText
0
TEXT
5
2FC
100
AcDbEntity
8
0
100
AcDbText
62
7
6
CONTINUOUS
10
0.0920069202
20
8.3898121521
7
STANDARD
40
0.0800000000
1
SERIES 42DBL-K
41
1.2857142857
72
0
100
AcDbText
0
MTEXT
5
2FD
100
AcDbEntity
8
0
100
AcDbMText
62
7
6
CONTINUOUS
7
TEXTSTYLE_2
71
1
72
1
10
5.2569773700
20
3.7300460712
30
0.0000000000
11
1.0000000000
21
0.0000000000
31
0.0000000000
1
#4-40 UNC-2A\P(OTHER UNIFIED\PAND METRIC THREADS\PAVAILABLE)
40
0.0700000000
41
1.2960000000
0
LINE
5
2FE
100
AcDbEntity
8
0
100
AcDbLine
62
7
6
CONTINUOUS
10
4.9967663916
20
4.0036071724
11
5.0091021848
21
3.7200460712
0
LINE
5
2FF
100
AcDbEntity
8
0
100
AcDbLine
62
7
6
CONTINUOUS
10
5.0091021848
20
3.7200460712
11
5.2569773700
21
3.7200460712
0
SOLID
5
300
100
AcDbEntity
8
0
100
AcDbTrace
62
7
6
CONTINUOUS
10
5.0361359907
20
3.8176425329
11
4.9967663916
21
4.0036071724
12
4.9736950482
22
3.8149261569
13
4.9736950482
23
3.8149261569
0
MTEXT
5
301
100
AcDbEntity
8
0
100
AcDbMText
62
7
6
CONTINUOUS
7
STANDARD
71
1
72
1
10
0.8831011508
20
1.4324617656
30
0.0000000000
11
1.0000000000
21
0.0000000000
31
0.0000000000
1
NOTES :\P \P1. NOT RECOMMENDED TO USE AT THE FULLY RETRACTED\P   AND EXTENDED POSITIONS.\P \P2. SHAFT AXIAL BACKLASH : 0.15/.006 MAX.
40
0.0700000000
41
4.3200000000
0
TEXT
5
302
100
AcDbEntity
8
8_ALL_NOTES_BALLOONS_SYMBOLS_GT
100
AcDbText
62
7
6
CONTINUOUS
10
7.9133431443
20
2.5408478817
7
TEXTSTYLE_2
40
0.0700000000
1
304.8%%p25.4
41
1.0423809524
72
1
11
8.2781764776
21
2.5408478817
100
AcDbText
0
TEXT
5
303
100
AcDbEntity
8
8_ALL_NOTES_BALLOONS_SYMBOLS_GT
100
AcDbText
62
7
6
CONTINUOUS
10
8.1293431443
20
2.3248478817
7
TEXTSTYLE_2
40
0.0700000000
1
12%%p1
41
1.0630952381
72
1
11
8.2781764776
21
2.3248478817
100
AcDbText
0
TEXT
5
304
100
AcDbEntity
8
8_ALL_NOTES_BALLOONS_SYMBOLS_GT
100
AcDbText
62
7
6
CONTINUOUS
10
8.1341764776
20
2.1088478817
7
TEXTSTYLE_2
40
0.0700000000
1
LONG
41
1.0285714286
72
1
11
8.2781764776
21
2.1088478817
100
AcDbText
0
LINE
5
305
100
AcDbEntity
8
8_ALL_NOTES_BALLOONS_SYMBOLS_GT
100
AcDbLine
62
7
6
CONTINUOUS
10
7.5149860613
20
2.9181524424
11
7.7133431443
21
2.6008478817
0
LINE
5
306
100
AcDbEntity
8
8_ALL_NOTES_BALLOONS_SYMBOLS_GT
100
AcDbLine
62
7
6
CONTINUOUS
10
7.7133431443
20
2.6008478817
11
7.9133431443
21
2.6008478817
0
SOLID
5
307
100
AcDbEntity
8
8_ALL_NOTES_BALLOONS_SYMBOLS_GT
100
AcDbTrace
62
7
6
CONTINUOUS
10
7.6408742796
20
2.7757271321
11
7.5149860613
21
2.9181524424
12
7.5878775185
22
2.7425971862
13
7.5878775185
23
2.7425971862
0
TEXT
5
308
100
AcDbEntity
8
0
100
AcDbText
62
7
6
CONTINUOUS
10
7.8112457371
20
0.2968312407
7
STANDARD
40
0.1000000000
1
Dimensions : mm/inches
41
1.1571428571
72
0
100
AcDbText
0
LINE
5
309
100
AcDbEntity
8
0
100
AcDbLine
62
7
6
CONTINUOUS
10
0.0000000000
20
0.0000000000
11
0.0000000000
21
8.2677165354
0
LINE
5
30A
100
AcDbEntity
8
0
100
AcDbLine
62
7
6
CONTINUOUS
10
0.7930112746
20
7.8030979904
11
0.7930112746
21
0.1871173906
0
LINE
5
30B
100
AcDbEntity
8
0
100
AcDbLine
62
7
6
CONTINUOUS
10
0.0000000000
20
0.0000000000
11
11.6929133858
21
0.0000000000
0
LINE
5
30C
100
AcDbEntity
8
0
100
AcDbLine
62
7
6
CONTINUOUS
10
0.7930112746
20
0.1871173906
11
10.5123111833
21
0.1871173906
0
LINE
5
30D
100
AcDbEntity
8
DEFAULT_1
100
AcDbLine
62
7
6
CENTER
10
2.5080958358
20
4.0592071724
11
2.5080958358
21
3.9285405058
0
LINE
5
30E
100
AcDbEntity
8
DEFAULT_1
100
AcDbLine
62
7
6
CENTER
10
2.5080958358
20
4.0592071724
11
2.5080958358
21
4.1898738391
0
LINE
5
30F
100
AcDbEntity
8
0
100
AcDbLine
62
7
6
CONTINUOUS
10
2.6497899681
20
4.0929165599
11
2.6501307438
21
4.0877173271
0
LINE
5
310
100
AcDbEntity
8
0
100
AcDbLine
62
7
6
CONTINUOUS
10
2.6582491083
20
3.9638550197
11
2.6585898841
21
3.9586557868
0
LINE
5
311
100
AcDbEntity
8
DEFAULT_1
100
AcDbLine
62
7
6
CENTER
10
2.7002337874
20
4.5230692209
11
2.7002337874
21
4.3924025542
0
LINE
5
312
100
AcDbEntity
8
DEFAULT_1
100
AcDbLine
62
7
6
CENTER
10
2.7002337874
20
3.5953451240
11
2.7002337874
21
3.4646784573
0
LINE
5
313
100
AcDbEntity
8
DEFAULT_1
100
AcDbLine
62
7
6
CENTER
10
2.7002337874
20
3.5953451240
11
2.7002337874
21
3.7260117906
0
LINE
5
314
100
AcDbEntity
8
DEFAULT_1
100
AcDbLine
62
7
6
CENTER
10
2.7002337874
20
4.5230692209
11
2.7002337874
21
4.6537358875
0
LINE
5
315
100
AcDbEntity
8
0
100
AcDbLine
62
7
6
CONTINUOUS
10
2.8787006781
20
3.6294692689
11
2.8787201375
21
3.6298088825
0
LINE
5
316
100
AcDbEntity
8
0
100
AcDbLine
62
7
6
CONTINUOUS
10
3.0623295853
20
4.5991912204
11
3.0637963506
21
4.6070403979
0
LINE
5
317
100
AcDbEntity
8
0
100
AcDbLine
62
7
6
CONTINUOUS
10
2.6495381593
20
4.0916506318
11
2.6552458261
21
4.1203450104
0
LINE
5
318
100
AcDbEntity
8
0
100
AcDbLine
62
7
6
CONTINUOUS
10
2.6705832890
20
4.1974516435
11
2.6762909558
21
4.2261460221
0
LINE
5
319
100
AcDbEntity
8
0
100
AcDbLine
62
7
6
CONTINUOUS
10
2.8617844953
20
3.5914582195
11
2.8634331310
21
3.5992712207
0
LINE
5
31A
100
AcDbEntity
8
0
100
AcDbLine
62
7
6
CONTINUOUS
10
2.7355485828
20
4.3455532922
11
2.7332440868
21
4.3408802367
0
LINE
5
31B
100
AcDbEntity
8
0
100
AcDbLine
62
7
6
CONTINUOUS
10
2.6783436430
20
4.2295531496
11
2.6760391470
21
4.2248800940
0
LINE
5
31C
100
AcDbEntity
8
0
100
AcDbLine
62
7
6
CONTINUOUS
10
3.0663185278
20
5.3039844805
11
2.4328549631
21
4.4454917644
0
LINE
5
31D
100
AcDbEntity
8
0
100
AcDbLine
62
7
6
CONTINUOUS
10
2.4328549631
20
3.6729225804
11
3.0663185278
21
2.8144298644
0
LINE
5
31E
100
AcDbEntity
8
0
100
AcDbLine
62
7
6
CONTINUOUS
10
2.6581749928
20
3.9598780171
11
2.6675791977
21
3.9321741229
0
LINE
5
31F
100
AcDbEntity
8
0
100
AcDbLine
62
7
6
CONTINUOUS
10
2.6928498817
20
3.8577290884
11
2.7022540865
21
3.8300251942
0
LINE
5
320
100
AcDbEntity
8
0
100
AcDbLine
62
7
6
CONTINUOUS
10
2.8251138425
20
4.4476828971
11
2.8250502210
21
4.4480170654
0
LINE
5
321
100
AcDbEntity
8
0
100
AcDbLine
62
7
6
CONTINUOUS
10
3.0648786668
20
4.5654492244
11
3.0648194012
21
4.5662749136
0
LINE
5
322
100
AcDbEntity
8
0
100
AcDbLine
62
7
6
CONTINUOUS
10
3.2633130049
20
3.5529651204
11
3.2633722705
21
3.5521394312
0
LINE
5
323
100
AcDbEntity
8
0
100
AcDbLine
62
7
6
CONTINUOUS
10
3.1323152197
20
3.5191739817
11
3.1316946240
21
3.5282198950
0
LINE
5
324
100
AcDbEntity
8
0
100
AcDbLine
62
7
6
CONTINUOUS
10
3.1958764519
20
4.5992403631
11
3.1964970477
21
4.5901944498
0
LINE
5
325
100
AcDbEntity
8
0
100
AcDbLine
62
7
6
CONTINUOUS
10
3.0626640734
20
4.5814225732
11
3.0620986313
21
4.5904721015
0
LINE
5
326
100
AcDbEntity
8
0
100
AcDbLine
62
7
6
CONTINUOUS
10
3.2655275983
20
3.5369917716
11
3.2660930404
21
3.5279422433
0
LINE
5
327
100
AcDbEntity
8
0
100
AcDbLine
62
7
6
CONTINUOUS
10
3.1318543463
20
3.5435192910
11
3.1318053308
21
3.5443456521
0
LINE
5
328
100
AcDbEntity
8
0
100
AcDbLine
62
7
6
CONTINUOUS
10
3.1963373254
20
4.5748950538
11
3.1963863408
21
4.5740686927
0
LINE
5
329
100
AcDbEntity
8
0
100
AcDbLine
62
7
6
CONTINUOUS
10
3.1316946240
20
3.5282198950
11
3.1316029026
21
3.5364126450
0
LINE
5
32A
100
AcDbEntity
8
0
100
AcDbLine
62
7
6
CONTINUOUS
10
3.1964970477
20
4.5901944498
11
3.1965887691
21
4.5820016998
0
LINE
5
32B
100
AcDbEntity
8
DEFAULT_1
100
AcDbLine
62
7
6
CENTER
10
3.1640958358
20
4.0592071724
11
3.1640958358
21
2.5995630586
0
LINE
5
32C
100
AcDbEntity
8
DEFAULT_1
100
AcDbLine
62
7
6
CENTER
10
3.1640958358
20
4.0592071724
11
3.1640958358
21
5.3274615311
0
LINE
5
32D
100
AcDbEntity
8
0
100
AcDbLine
62
7
6
CONTINUOUS
10
3.0620986313
20
4.5904721015
11
3.0623295853
21
4.5991912204
0
LINE
5
32E
100
AcDbEntity
8
0
100
AcDbLine
62
7
6
CONTINUOUS
10
3.2660930404
20
3.5279422433
11
3.2658620864
21
3.5192231245
0
LINE
5
32F
100
AcDbEntity
8
0
100
AcDbLine
62
7
6
CONTINUOUS
10
3.1316029026
20
3.5364126450
11
3.1318015308
21
3.5421809722
0
LINE
5
330
100
AcDbEntity
8
0
100
AcDbLine
62
7
6
CONTINUOUS
10
3.1965887691
20
4.5820016998
11
3.1963901409
21
4.5762333727
0
LINE
5
331
100
AcDbEntity
8
0
100
AcDbLine
62
7
6
CONTINUOUS
10
3.1318015308
20
3.5421809722
11
3.1318543463
21
3.5435192910
0
LINE
5
332
100
AcDbEntity
8
0
100
AcDbLine
62
7
6
CONTINUOUS
10
3.1963901409
20
4.5762333727
11
3.1963373254
21
4.5748950538
0
LINE
5
333
100
AcDbEntity
8
0
100
AcDbLine
62
7
6
CONTINUOUS
10
3.1945245623
20
4.6077592012
11
3.1925087757
21
4.5714197307
0
LINE
5
334
100
AcDbEntity
8
0
100
AcDbLine
62
7
6
CONTINUOUS
10
3.1336671094
20
3.5106551436
11
3.1356828960
21
3.5469946142
0
LINE
5
335
100
AcDbEntity
8
0
100
AcDbLine
62
7
6
CONTINUOUS
10
3.4494909936
20
4.4889450759
11
3.4494715341
21
4.4886054623
0
LINE
5
336
100
AcDbEntity
8
0
100
AcDbLine
62
7
6
CONTINUOUS
10
3.2658620864
20
3.5192231245
11
3.2643953210
21
3.5113739470
0
LINE
5
337
100
AcDbEntity
8
0
100
AcDbLine
62
7
6
CONTINUOUS
10
3.4664071764
20
4.5269561254
11
3.4647585407
21
4.5191431242
0
LINE
5
338
100
AcDbEntity
8
0
100
AcDbLine
62
7
6
CONTINUOUS
10
3.0647666805
20
4.5651280155
11
3.0648786668
21
4.5654492244
0
LINE
5
339
100
AcDbEntity
8
0
100
AcDbLine
62
7
6
CONTINUOUS
10
2.9943307096
20
3.5751113122
11
2.9822865402
21
3.5407666110
0
LINE
5
33A
100
AcDbEntity
8
0
100
AcDbLine
62
7
6
CONTINUOUS
10
3.3338609621
20
4.5433030327
11
3.3459051315
21
4.5776477338
0
LINE
5
33B
100
AcDbEntity
8
0
100
AcDbLine
62
7
6
CONTINUOUS
10
3.3316537920
20
4.5479789351
11
3.3321171493
21
4.5492355921
0
LINE
5
33C
100
AcDbEntity
8
0
100
AcDbLine
62
7
6
CONTINUOUS
10
2.9965378797
20
3.5704354098
11
2.9960745223
21
3.5691787528
0
LINE
5
33D
100
AcDbEntity
8
0
100
AcDbLine
62
7
6
CONTINUOUS
10
3.3321171493
20
4.5492355921
11
3.3341410840
21
4.5546408432
0
LINE
5
33E
100
AcDbEntity
8
0
100
AcDbLine
62
7
6
CONTINUOUS
10
2.9960745223
20
3.5691787528
11
2.9940505876
21
3.5637735016
0
LINE
5
33F
100
AcDbEntity
8
0
100
AcDbLine
62
7
6
CONTINUOUS
10
2.8634331310
20
3.5992712207
11
2.8665564196
21
3.6074150184
0
LINE
5
340
100
AcDbEntity
8
0
100
AcDbLine
62
7
6
CONTINUOUS
10
3.3341410840
20
4.5546408432
11
3.3373610532
21
4.5621748570
0
LINE
5
341
100
AcDbEntity
8
0
100
AcDbLine
62
7
6
CONTINUOUS
10
2.9940505876
20
3.5637735016
11
2.9908306185
21
3.5562394879
0
LINE
5
342
100
AcDbEntity
8
0
100
AcDbLine
62
7
6
CONTINUOUS
10
3.3312922730
20
4.5472342344
11
3.3316537920
21
4.5479789351
0
LINE
5
343
100
AcDbEntity
8
0
100
AcDbLine
62
7
6
CONTINUOUS
10
2.8665564196
20
3.6074150184
11
2.8705419246
21
3.6155593071
0
LINE
5
344
100
AcDbEntity
8
0
100
AcDbLine
62
7
6
CONTINUOUS
10
3.3373610532
20
4.5621748570
11
3.3413961301
21
4.5702946994
0
LINE
5
345
100
AcDbEntity
8
0
100
AcDbLine
62
7
6
CONTINUOUS
10
2.8783299461
20
3.6287291115
11
2.8787006781
21
3.6294692689
0
LINE
5
346
100
AcDbEntity
8
0
100
AcDbLine
62
7
6
CONTINUOUS
10
2.7020674273
20
3.8297408099
11
2.7022540865
21
3.8300251942
0
LINE
5
347
100
AcDbEntity
8
0
100
AcDbLine
62
7
6
CONTINUOUS
10
2.8251138425
20
4.4476828971
11
2.8058236688
21
4.4256866698
0
LINE
5
348
100
AcDbEntity
8
0
100
AcDbLine
62
7
6
CONTINUOUS
10
2.7539877197
20
4.3665790981
11
2.7346975460
21
4.3445828707
0
LINE
5
349
100
AcDbEntity
8
0
100
AcDbLine
62
7
6
CONTINUOUS
10
2.7018391953
20
3.8312474245
11
2.7047339321
21
3.8269151446
0
LINE
5
34A
100
AcDbEntity
8
0
100
AcDbLine
62
7
6
CONTINUOUS
10
2.7736957958
20
3.7237064221
11
2.7765905326
21
3.7193741422
0
LINE
5
34B
100
AcDbEntity
8
0
100
AcDbLine
62
7
6
CONTINUOUS
10
2.8101312010
20
4.4682974949
11
2.8059716537
21
4.4759639503
0
LINE
5
34C
100
AcDbEntity
8
0
100
AcDbLine
62
7
6
CONTINUOUS
10
3.3973533939
20
3.5902073641
11
3.3946412474
21
3.5953021961
0
LINE
5
34D
100
AcDbEntity
8
0
100
AcDbLine
62
7
6
CONTINUOUS
10
3.3946412474
20
3.5953021961
11
3.3940178275
21
3.5964876220
0
LINE
5
34E
100
AcDbEntity
8
0
100
AcDbLine
62
7
6
CONTINUOUS
10
2.9335504243
20
4.5231121488
11
2.9341738442
21
4.5219267229
0
LINE
5
34F
100
AcDbEntity
8
0
100
AcDbLine
62
7
6
CONTINUOUS
10
2.9161718716
20
4.5494815279
11
2.9325958844
21
4.5170027300
0
LINE
5
350
100
AcDbEntity
8
0
100
AcDbLine
62
7
6
CONTINUOUS
10
3.4120198001
20
3.5689328170
11
3.3955957872
21
3.6014116149
0
LINE
5
351
100
AcDbEntity
8
0
100
AcDbLine
62
7
6
CONTINUOUS
10
3.1318053308
20
3.5443456521
11
3.1316523764
21
3.5446494959
0
LINE
5
352
100
AcDbEntity
8
0
100
AcDbLine
62
7
6
CONTINUOUS
10
2.8059716537
20
4.4759639503
11
2.8033173210
21
4.4834949201
0
LINE
5
353
100
AcDbEntity
8
0
100
AcDbLine
62
7
6
CONTINUOUS
10
3.1361610115
20
3.5029690263
11
3.1336822713
21
3.5105596017
0
LINE
5
354
100
AcDbEntity
8
0
100
AcDbLine
62
7
6
CONTINUOUS
10
3.2591228539
20
3.5550852964
11
3.2658646479
21
3.5193198281
0
LINE
5
355
100
AcDbEntity
8
0
100
AcDbLine
62
7
6
CONTINUOUS
10
3.0690688178
20
4.5633290484
11
3.0623270238
21
4.5990945168
0
LINE
5
356
100
AcDbEntity
8
0
100
AcDbLine
62
7
6
CONTINUOUS
10
3.0648194012
20
4.5662749136
11
3.0645923519
21
4.5675948892
0
LINE
5
357
100
AcDbEntity
8
0
100
AcDbLine
62
7
6
CONTINUOUS
10
3.2633722705
20
3.5521394312
11
3.2635993198
21
3.5508194557
0
LINE
5
358
100
AcDbEntity
8
0
100
AcDbLine
62
7
6
CONTINUOUS
10
3.0645923519
20
4.5675948892
11
3.0636425052
21
4.5732879413
0
LINE
5
359
100
AcDbEntity
8
0
100
AcDbLine
62
7
6
CONTINUOUS
10
3.2635993198
20
3.5508194557
11
3.2645491665
21
3.5451264035
0
LINE
5
35A
100
AcDbEntity
8
0
100
AcDbLine
62
7
6
CONTINUOUS
10
3.1336822713
20
3.5105596017
11
3.1323152197
21
3.5191739817
0
LINE
5
35B
100
AcDbEntity
8
0
100
AcDbLine
62
7
6
CONTINUOUS
10
3.1945094003
20
4.6078547432
11
3.1958764519
21
4.5992403631
0
LINE
5
35C
100
AcDbEntity
8
0
100
AcDbLine
62
7
6
CONTINUOUS
10
3.0636425052
20
4.5732879413
11
3.0626640734
21
4.5814225732
0
LINE
5
35D
100
AcDbEntity
8
0
100
AcDbLine
62
7
6
CONTINUOUS
10
3.2645491665
20
3.5451264035
11
3.2655275983
21
3.5369917716
0
LINE
5
35E
100
AcDbEntity
8
0
100
AcDbLine
62
7
6
CONTINUOUS
10
3.6784017036
20
4.0254977849
11
3.6780609279
21
4.0306970177
0
LINE
5
35F
100
AcDbEntity
8
0
100
AcDbLine
62
7
6
CONTINUOUS
10
3.6699425633
20
4.1545593252
11
3.6696017876
21
4.1597585580
0
LINE
5
360
100
AcDbEntity
8
DEFAULT_1
100
AcDbLine
62
7
6
CENTER
10
3.6279578843
20
4.5230692209
11
3.6279578843
21
4.3924025542
0
LINE
5
361
100
AcDbEntity
8
DEFAULT_1
100
AcDbLine
62
7
6
CENTER
10
3.6279578843
20
3.5953451240
11
3.6279578843
21
3.4646784573
0
LINE
5
362
100
AcDbEntity
8
DEFAULT_1
100
AcDbLine
62
7
6
CENTER
10
3.6279578843
20
3.5953451240
11
3.6279578843
21
3.7260117906
0
LINE
5
363
100
AcDbEntity
8
DEFAULT_1
100
AcDbLine
62
7
6
CENTER
10
3.6279578843
20
4.5230692209
11
3.6279578843
21
4.6537358875
0
LINE
5
364
100
AcDbEntity
8
DEFAULT_1
100
AcDbLine
62
7
6
CENTER
10
3.8200958358
20
4.0592071724
11
3.8200958358
21
3.9285405058
0
LINE
5
365
100
AcDbEntity
8
DEFAULT_1
100
AcDbLine
62
7
6
CENTER
10
3.8200958358
20
4.0592071724
11
3.8200958358
21
4.1898738391
0
LINE
5
366
100
AcDbEntity
8
0
100
AcDbLine
62
7
6
CONTINUOUS
10
3.6519007159
20
3.8922683227
11
3.6576083827
21
3.9209627013
0
LINE
5
367
100
AcDbEntity
8
0
100
AcDbLine
62
7
6
CONTINUOUS
10
3.6729458456
20
3.9980693344
11
3.6786535124
21
4.0267637130
0
LINE
5
368
100
AcDbEntity
8
0
100
AcDbLine
62
7
6
CONTINUOUS
10
3.2634249912
20
3.5532863294
11
3.2633130049
21
3.5529651204
0
LINE
5
369
100
AcDbEntity
8
0
100
AcDbLine
62
7
6
CONTINUOUS
10
3.4647585407
20
4.5191431242
11
3.4616352521
21
4.5109993264
0
LINE
5
36A
100
AcDbEntity
8
0
100
AcDbLine
62
7
6
CONTINUOUS
10
2.9968993987
20
3.5711801104
11
2.9965378797
21
3.5704354098
0
LINE
5
36B
100
AcDbEntity
8
0
100
AcDbLine
62
7
6
CONTINUOUS
10
3.4616352521
20
4.5109993264
11
3.4576497471
21
4.5028550378
0
LINE
5
36C
100
AcDbEntity
8
0
100
AcDbLine
62
7
6
CONTINUOUS
10
2.9908306185
20
3.5562394879
11
2.9867955416
21
3.5481196454
0
LINE
5
36D
100
AcDbEntity
8
0
100
AcDbLine
62
7
6
CONTINUOUS
10
3.4498617255
20
4.4896852333
11
3.4494909936
21
4.4889450759
0
LINE
5
36E
100
AcDbEntity
8
0
100
AcDbLine
62
7
6
CONTINUOUS
10
2.8705419246
20
3.6155593071
11
2.8745588665
21
3.6227002974
0
LINE
5
36F
100
AcDbEntity
8
0
100
AcDbLine
62
7
6
CONTINUOUS
10
3.4576497471
20
4.5028550378
11
3.4536328052
21
4.4957140475
0
LINE
5
370
100
AcDbEntity
8
0
100
AcDbLine
62
7
6
CONTINUOUS
10
3.3413961301
20
4.5702946994
11
3.3459557016
21
4.5777302008
0
LINE
5
371
100
AcDbEntity
8
0
100
AcDbLine
62
7
6
CONTINUOUS
10
2.9867955416
20
3.5481196454
11
2.9822359701
21
3.5406841440
0
LINE
5
372
100
AcDbEntity
8
0
100
AcDbLine
62
7
6
CONTINUOUS
10
2.8745588665
20
3.6227002974
11
2.8776150472
21
3.6275965011
0
LINE
5
373
100
AcDbEntity
8
0
100
AcDbLine
62
7
6
CONTINUOUS
10
3.4536328052
20
4.4957140475
11
3.4505766245
21
4.4908178437
0
LINE
5
374
100
AcDbEntity
8
0
100
AcDbLine
62
7
6
CONTINUOUS
10
2.8776150472
20
3.6275965011
11
2.8783299461
21
3.6287291115
0
LINE
5
375
100
AcDbEntity
8
0
100
AcDbLine
62
7
6
CONTINUOUS
10
3.4505766245
20
4.4908178437
11
3.4498617255
21
4.4896852333
0
LINE
5
376
100
AcDbEntity
8
0
100
AcDbLine
62
7
6
CONTINUOUS
10
3.4647239003
20
4.5190528014
11
3.4448084427
21
4.4885897901
0
LINE
5
377
100
AcDbEntity
8
0
100
AcDbLine
62
7
6
CONTINUOUS
10
2.8634677713
20
3.5993615434
11
2.8833832290
21
3.6298245548
0
LINE
5
378
100
AcDbEntity
8
0
100
AcDbLine
62
7
6
CONTINUOUS
10
3.3459557016
20
4.5777302008
11
3.3511505464
21
4.5837944053
0
LINE
5
379
100
AcDbEntity
8
0
100
AcDbLine
62
7
6
CONTINUOUS
10
2.6684120586
20
3.8052803668
11
2.6737463196
21
3.8112223065
0
LINE
5
37A
100
AcDbEntity
8
0
100
AcDbLine
62
7
6
CONTINUOUS
10
5.6393060685
20
1.9059774941
11
6.4462090054
21
1.9059774941
0
LINE
5
37B
100
AcDbEntity
8
0
100
AcDbLine
62
7
6
CONTINUOUS
10
9.2625654208
20
2.0538237001
11
10.0593930462
21
2.0538237001
0
LINE
5
37C
100
AcDbEntity
8
0
100
AcDbLine
62
7
6
CONTINUOUS
10
2.6455728074
20
4.2410670382
11
2.6395086030
21
4.2462618830
0
LINE
5
37D
100
AcDbEntity
8
0
100
AcDbLine
62
7
6
CONTINUOUS
10
2.7756201111
20
3.7202251791
11
2.7976163385
21
3.7009350054
0
LINE
5
37E
100
AcDbEntity
8
0
100
AcDbLine
62
7
6
CONTINUOUS
10
2.8567239101
20
3.6490990562
11
2.8787201375
21
3.6298088825
0
LINE
5
37F
100
AcDbEntity
8
0
100
AcDbLine
62
7
6
CONTINUOUS
10
3.4180226414
20
3.5635233952
11
3.4120807017
21
3.5688576562
0
LINE
5
380
100
AcDbEntity
8
0
100
AcDbLine
62
7
6
CONTINUOUS
10
2.6762909558
20
4.2261460221
11
2.6760687739
21
4.2264036095
0
LINE
5
381
100
AcDbEntity
8
0
100
AcDbLine
62
7
6
CONTINUOUS
10
3.4984525855
20
3.6701383303
11
3.5221738560
21
3.6425354563
0
LINE
5
382
100
AcDbEntity
8
0
100
AcDbLine
62
7
6
CONTINUOUS
10
2.8297390862
20
4.4482760146
11
2.8060177872
21
4.4758789218
0
LINE
5
383
100
AcDbEntity
8
0
100
AcDbLine
62
7
6
CONTINUOUS
10
2.8245860508
20
4.4487025004
11
2.8237294326
21
4.4497321081
0
LINE
5
384
100
AcDbEntity
8
0
100
AcDbLine
62
7
6
CONTINUOUS
10
3.5036056209
20
3.6697118444
11
3.5044622391
21
3.6686822367
0
LINE
5
385
100
AcDbEntity
8
0
100
AcDbLine
62
7
6
CONTINUOUS
10
2.8237294326
20
4.4497321081
11
2.8200603152
21
4.4541875125
0
LINE
5
386
100
AcDbEntity
8
0
100
AcDbLine
62
7
6
CONTINUOUS
10
3.5044622391
20
3.6686822367
11
3.5081311773
21
3.6642270596
0
LINE
5
387
100
AcDbEntity
8
0
100
AcDbLine
62
7
6
CONTINUOUS
10
3.4120807017
20
3.5688576562
11
3.4065896103
21
3.5756344023
0
LINE
5
388
100
AcDbEntity
8
0
100
AcDbLine
62
7
6
CONTINUOUS
10
2.9161109699
20
4.5495566887
11
2.9216020614
21
4.5427799425
0
LINE
5
389
100
AcDbEntity
8
0
100
AcDbLine
62
7
6
CONTINUOUS
10
2.8200603152
20
4.4541875125
11
2.8151456524
21
4.4607430945
0
LINE
5
38A
100
AcDbEntity
8
0
100
AcDbLine
62
7
6
CONTINUOUS
10
3.5081311773
20
3.6642270596
11
3.5130458211
21
3.6576715285
0
LINE
5
38B
100
AcDbEntity
8
0
100
AcDbLine
62
7
6
CONTINUOUS
10
2.8250502210
20
4.4480170654
11
2.8245860508
21
4.4487025004
0
LINE
5
38C
100
AcDbEntity
8
0
100
AcDbLine
62
7
6
CONTINUOUS
10
3.5031414507
20
3.6703972795
11
3.5036056209
21
3.6697118444
0
LINE
5
38D
100
AcDbEntity
8
0
100
AcDbLine
62
7
6
CONTINUOUS
10
3.4065896103
20
3.5756344023
11
3.4015292019
21
3.5831580952
0
LINE
5
38E
100
AcDbEntity
8
0
100
AcDbLine
62
7
6
CONTINUOUS
10
2.9216020614
20
4.5427799425
11
2.9266624698
21
4.5352562497
0
LINE
5
38F
100
AcDbEntity
8
0
100
AcDbLine
62
7
6
CONTINUOUS
10
2.8151456524
20
4.4607430945
11
2.8101312010
21
4.4682974949
0
LINE
5
390
100
AcDbEntity
8
0
100
AcDbLine
62
7
6
CONTINUOUS
10
3.5130458211
20
3.6576715285
11
3.5180604185
21
3.6501169354
0
LINE
5
391
100
AcDbEntity
8
0
100
AcDbLine
62
7
6
CONTINUOUS
10
3.3940178275
20
3.5964876220
11
3.3935621984
21
3.5971787639
0
LINE
5
392
100
AcDbEntity
8
0
100
AcDbLine
62
7
6
CONTINUOUS
10
2.9341738442
20
4.5219267229
11
2.9346294733
21
4.5212355809
0
LINE
5
393
100
AcDbEntity
8
0
100
AcDbLine
62
7
6
CONTINUOUS
10
3.4015292019
20
3.5831580952
11
3.3973533939
21
3.5902073641
0
LINE
5
394
100
AcDbEntity
8
0
100
AcDbLine
62
7
6
CONTINUOUS
10
2.9266624698
20
4.5352562497
11
2.9308382778
21
4.5282069807
0
LINE
5
395
100
AcDbEntity
8
0
100
AcDbLine
62
7
6
CONTINUOUS
10
3.5180604185
20
3.6501169354
11
3.5222200795
21
3.6424502617
0
LINE
5
396
100
AcDbEntity
8
0
100
AcDbLine
62
7
6
CONTINUOUS
10
2.9308382778
20
4.5282069807
11
2.9335504243
21
4.5231121488
0
LINE
5
397
100
AcDbEntity
8
0
100
AcDbLine
62
7
6
CONTINUOUS
10
3.1963863408
20
4.5740686927
11
3.1965392953
21
4.5737648489
0
LINE
5
398
100
AcDbEntity
8
0
100
AcDbLine
62
7
6
CONTINUOUS
10
3.5222200795
20
3.6424502617
11
3.5248743507
21
3.6349194247
0
LINE
5
399
100
AcDbEntity
8
0
100
AcDbLine
62
7
6
CONTINUOUS
10
3.6700166789
20
4.1585363277
11
3.6606124740
21
4.1862402219
0
LINE
5
39A
100
AcDbEntity
8
0
100
AcDbLine
62
7
6
CONTINUOUS
10
3.6353417900
20
4.2606852565
11
3.6259375851
21
4.2883891506
0
LINE
5
39B
100
AcDbEntity
8
0
100
AcDbLine
62
7
6
CONTINUOUS
10
3.1920306601
20
4.6154453186
11
3.1945094003
21
4.6078547432
0
LINE
5
39C
100
AcDbEntity
8
0
100
AcDbLine
62
7
6
CONTINUOUS
10
3.5030778292
20
3.6707314477
11
3.5031414507
21
3.6703972795
0
LINE
5
39D
100
AcDbEntity
8
0
100
AcDbLine
62
7
6
CONTINUOUS
10
4.2183293610
20
3.9877944202
11
4.2180357481
21
3.9915120345
0
LINE
5
39E
100
AcDbEntity
8
0
100
AcDbLine
62
7
6
CONTINUOUS
10
4.2288146727
20
4.1249433557
11
4.2289925942
21
4.1284715404
0
LINE
5
39F
100
AcDbEntity
8
0
100
AcDbLine
62
7
6
CONTINUOUS
10
4.2288146727
20
4.0989433557
11
4.2289925942
21
4.1024715404
0
LINE
5
3A0
100
AcDbEntity
8
0
100
AcDbLine
62
7
6
CONTINUOUS
10
4.2288146727
20
4.0719433557
11
4.2289925942
21
4.0754715404
0
LINE
5
3A1
100
AcDbEntity
8
0
100
AcDbLine
62
7
6
CONTINUOUS
10
4.2288146727
20
4.0459433557
11
4.2289925942
21
4.0494715404
0
LINE
5
3A2
100
AcDbEntity
8
0
100
AcDbLine
62
7
6
CONTINUOUS
10
4.2288146727
20
4.0189433557
11
4.2289925942
21
4.0224715404
0
LINE
5
3A3
100
AcDbEntity
8
0
100
AcDbLine
62
7
6
CONTINUOUS
10
4.2180357481
20
3.9915120345
11
4.2187054326
21
3.9955506965
0
LINE
5
3A4
100
AcDbEntity
8
0
100
AcDbLine
62
7
6
CONTINUOUS
10
3.5926430889
20
3.7728610526
11
3.5949475849
21
3.7775341082
0
LINE
5
3A5
100
AcDbEntity
8
0
100
AcDbLine
62
7
6
CONTINUOUS
10
3.6498480287
20
3.8888611953
11
3.6521525246
21
3.8935342508
0
LINE
5
3A6
100
AcDbEntity
8
0
100
AcDbLine
62
7
6
CONTINUOUS
10
3.6261242444
20
4.2886735349
11
3.6259375851
21
4.2883891506
0
LINE
5
3A7
100
AcDbEntity
8
0
100
AcDbLine
62
7
6
CONTINUOUS
10
2.9822359701
20
3.5406841440
11
2.9770411253
21
3.5346199396
0
LINE
5
3A8
100
AcDbEntity
8
0
100
AcDbLine
62
7
6
CONTINUOUS
10
3.6597796131
20
4.3131339780
11
3.6544453521
21
4.3071920383
0
LINE
5
3A9
100
AcDbEntity
8
0
100
AcDbLine
62
7
6
CONTINUOUS
10
3.3310346855
20
4.5470120525
11
3.3312922730
21
4.5472342344
0
LINE
5
3AA
100
AcDbEntity
8
0
100
AcDbLine
62
7
6
CONTINUOUS
10
2.7750269937
20
3.7248504227
11
2.7474240865
21
3.7011291237
0
LINE
5
3AB
100
AcDbEntity
8
0
100
AcDbLine
62
7
6
CONTINUOUS
10
3.5531646780
20
4.3935639221
11
3.5807675852
21
4.4172852211
0
LINE
5
3AC
100
AcDbEntity
8
0
100
AcDbLine
62
7
6
CONTINUOUS
10
3.5535911638
20
4.3987169574
11
3.5546207715
21
4.3995735757
0
LINE
5
3AD
100
AcDbEntity
8
0
100
AcDbLine
62
7
6
CONTINUOUS
10
2.7746005079
20
3.7196973874
11
2.7735709001
21
3.7188407692
0
LINE
5
3AE
100
AcDbEntity
8
0
100
AcDbLine
62
7
6
CONTINUOUS
10
3.5546207715
20
4.3995735757
11
3.5590761760
21
4.4032426931
0
LINE
5
3AF
100
AcDbEntity
8
0
100
AcDbLine
62
7
6
CONTINUOUS
10
2.7735709001
20
3.7188407692
11
2.7691154957
21
3.7151716517
0
LINE
5
3B0
100
AcDbEntity
8
0
100
AcDbLine
62
7
6
CONTINUOUS
10
2.6737463196
20
3.8112223065
11
2.6805230658
21
3.8167133980
0
LINE
5
3B1
100
AcDbEntity
8
0
100
AcDbLine
62
7
6
CONTINUOUS
10
3.5590761760
20
4.4032426931
11
3.5656317580
21
4.4081573559
0
LINE
5
3B2
100
AcDbEntity
8
0
100
AcDbLine
62
7
6
CONTINUOUS
10
2.9361360879
20
4.5214638130
11
2.9318038080
21
4.5185690761
0
LINE
5
3B3
100
AcDbEntity
8
0
100
AcDbLine
62
7
6
CONTINUOUS
10
2.8285950855
20
4.4496072125
11
2.8242628056
21
4.4467124756
0
LINE
5
3B4
100
AcDbEntity
8
8_ALL_NOTES_BALLOONS_SYMBOLS_GT
100
AcDbLine
62
7
6
CONTINUOUS
10
7.9189365942
20
2.5009999961
11
8.6463121830
21
2.5009999961
0
LINE
5
3B5
100
AcDbEntity
8
0
100
AcDbLine
62
7
6
CONTINUOUS
10
2.8777497160
20
3.6306599194
11
2.8824227716
21
3.6283554234
0
LINE
5
3B6
100
AcDbEntity
8
0
100
AcDbLine
62
7
6
CONTINUOUS
10
2.9937498587
20
3.5734549796
11
2.9984229143
21
3.5711504836
0
LINE
5
3B7
100
AcDbEntity
8
0
100
AcDbLine
62
7
6
CONTINUOUS
10
2.6530083088
20
4.2365074667
11
2.6455728074
21
4.2410670382
0
LINE
5
3B8
100
AcDbEntity
8
0
100
AcDbLine
62
7
6
CONTINUOUS
10
3.3935621984
20
3.5971787639
11
3.3932778141
21
3.5973654231
0
LINE
5
3B9
100
AcDbEntity
8
0
100
AcDbLine
62
7
6
CONTINUOUS
10
3.6826189968
20
3.8773472133
11
3.6886830687
21
3.8721524619
0
LINE
5
3BA
100
AcDbEntity
8
0
100
AcDbLine
62
7
6
CONTINUOUS
10
2.9101690303
20
4.5548909497
11
2.9161109699
21
4.5495566887
0
LINE
5
3BB
100
AcDbEntity
8
0
100
AcDbLine
62
7
6
CONTINUOUS
10
3.6519007159
20
3.8922683227
11
3.6521228978
21
3.8920107353
0
LINE
5
3BC
100
AcDbEntity
8
0
100
AcDbLine
62
7
6
CONTINUOUS
10
3.6263524764
20
4.2871669204
11
3.6234577395
21
4.2914992002
0
LINE
5
3BD
100
AcDbEntity
8
0
100
AcDbLine
62
7
6
CONTINUOUS
10
3.5544958759
20
4.3947079228
11
3.5516011391
21
4.3990402026
0
LINE
5
3BE
100
AcDbEntity
8
0
100
AcDbLine
62
7
6
CONTINUOUS
10
4.2195304963
20
3.9844458501
11
4.2183293610
21
3.9877944202
0
LINE
5
3BF
100
AcDbEntity
8
0
100
AcDbLine
62
7
6
CONTINUOUS
10
4.2289925942
20
4.0224715404
11
4.2284176247
21
4.0253381403
0
LINE
5
3C0
100
AcDbEntity
8
0
100
AcDbLine
62
7
6
CONTINUOUS
10
4.2289925942
20
4.0494715404
11
4.2284176247
21
4.0523381403
0
LINE
5
3C1
100
AcDbEntity
8
0
100
AcDbLine
62
7
6
CONTINUOUS
10
4.2289925942
20
4.0754715404
11
4.2284176247
21
4.0783381403
0
LINE
5
3C2
100
AcDbEntity
8
0
100
AcDbLine
62
7
6
CONTINUOUS
10
4.2289925942
20
4.1024715404
11
4.2284176247
21
4.1053381403
0
LINE
5
3C3
100
AcDbEntity
8
0
100
AcDbLine
62
7
6
CONTINUOUS
10
4.2289925942
20
4.1284715404
11
4.2284176247
21
4.1313381403
0
LINE
5
3C4
100
AcDbEntity
8
0
100
AcDbLine
62
7
6
CONTINUOUS
10
4.2276796456
20
4.1208899346
11
4.2288146727
21
4.1249433557
0
LINE
5
3C5
100
AcDbEntity
8
0
100
AcDbLine
62
7
6
CONTINUOUS
10
4.2276796456
20
4.0948899346
11
4.2288146727
21
4.0989433557
0
LINE
5
3C6
100
AcDbEntity
8
0
100
AcDbLine
62
7
6
CONTINUOUS
10
4.2276796456
20
4.0678899346
11
4.2288146727
21
4.0719433557
0
LINE
5
3C7
100
AcDbEntity
8
0
100
AcDbLine
62
7
6
CONTINUOUS
10
4.2276796456
20
4.0418899346
11
4.2288146727
21
4.0459433557
0
LINE
5
3C8
100
AcDbEntity
8
0
100
AcDbLine
62
7
6
CONTINUOUS
10
4.2276796456
20
4.0148899346
11
4.2288146727
21
4.0189433557
0
LINE
5
3C9
100
AcDbEntity
8
0
100
AcDbLine
62
7
6
CONTINUOUS
10
4.2187054326
20
3.9955506965
11
4.2203331562
21
4.0000394282
0
LINE
5
3CA
100
AcDbEntity
8
0
100
AcDbLine
62
7
6
CONTINUOUS
10
4.2255724748
20
4.1162340765
11
4.2276796456
21
4.1208899346
0
LINE
5
3CB
100
AcDbEntity
8
0
100
AcDbLine
62
7
6
CONTINUOUS
10
4.2255724748
20
4.0902340765
11
4.2276796456
21
4.0948899346
0
LINE
5
3CC
100
AcDbEntity
8
0
100
AcDbLine
62
7
6
CONTINUOUS
10
4.2255724748
20
4.0632340765
11
4.2276796456
21
4.0678899346
0
LINE
5
3CD
100
AcDbEntity
8
0
100
AcDbLine
62
7
6
CONTINUOUS
10
4.2255724748
20
4.0372340765
11
4.2276796456
21
4.0418899346
0
LINE
5
3CE
100
AcDbEntity
8
0
100
AcDbLine
62
7
6
CONTINUOUS
10
4.2255724748
20
4.0102340765
11
4.2276796456
21
4.0148899346
0
LINE
5
3CF
100
AcDbEntity
8
0
100
AcDbLine
62
7
6
CONTINUOUS
10
4.2203331562
20
4.0000394282
11
4.2228061063
21
4.0050380812
0
LINE
5
3D0
100
AcDbEntity
8
0
100
AcDbLine
62
7
6
CONTINUOUS
10
4.2235026971
20
4.1123464688
11
4.2255724748
21
4.1162340765
0
LINE
5
3D1
100
AcDbEntity
8
0
100
AcDbLine
62
7
6
CONTINUOUS
10
4.2231476470
20
4.0856795879
11
4.2255724748
21
4.0902340765
0
LINE
5
3D2
100
AcDbEntity
8
0
100
AcDbLine
62
7
6
CONTINUOUS
10
4.2235026971
20
4.0593464688
11
4.2255724748
21
4.0632340765
0
LINE
5
3D3
100
AcDbEntity
8
0
100
AcDbLine
62
7
6
CONTINUOUS
10
4.2231476470
20
4.0326795879
11
4.2255724748
21
4.0372340765
0
LINE
5
3D4
100
AcDbEntity
8
0
100
AcDbLine
62
7
6
CONTINUOUS
10
4.2228061063
20
4.0050380812
11
4.2255724748
21
4.0102340765
0
LINE
5
3D5
100
AcDbEntity
8
0
100
AcDbLine
62
7
6
CONTINUOUS
10
3.2618731439
20
2.8144298644
11
3.8953367086
21
3.6729225804
0
LINE
5
3D6
100
AcDbEntity
8
0
100
AcDbLine
62
7
6
CONTINUOUS
10
3.5934941257
20
3.7738314741
11
3.5742039520
21
3.7518352467
0
LINE
5
3D7
100
AcDbEntity
8
0
100
AcDbLine
62
7
6
CONTINUOUS
10
3.5223680029
20
3.6927276751
11
3.5030778292
21
3.6707314477
0
LINE
5
3D8
100
AcDbEntity
8
0
100
AcDbLine
62
7
6
CONTINUOUS
10
2.9971569862
20
3.5714022924
11
2.9968993987
21
3.5711801104
0
LINE
5
3D9
100
AcDbEntity
8
0
100
AcDbLine
62
7
6
CONTINUOUS
10
3.6544453521
20
4.3071920383
11
3.6476686059
21
4.3017009469
0
LINE
5
3DA
100
AcDbEntity
8
0
100
AcDbLine
62
7
6
CONTINUOUS
10
2.7691154957
20
3.7151716517
11
2.7625599137
21
3.7102569890
0
LINE
5
3DB
100
AcDbEntity
8
0
100
AcDbLine
62
7
6
CONTINUOUS
10
3.5529057288
20
4.3982527873
11
3.5535911638
21
4.3987169574
0
LINE
5
3DC
100
AcDbEntity
8
0
100
AcDbLine
62
7
6
CONTINUOUS
10
2.7752859429
20
3.7201615576
11
2.7746005079
21
3.7196973874
0
LINE
5
3DD
100
AcDbEntity
8
0
100
AcDbLine
62
7
6
CONTINUOUS
10
2.6805230658
20
3.8167133980
11
2.6880467586
21
3.8217738063
0
LINE
5
3DE
100
AcDbEntity
8
0
100
AcDbLine
62
7
6
CONTINUOUS
10
3.6476686059
20
4.3017009469
11
3.6401449131
21
4.2966405385
0
LINE
5
3DF
100
AcDbEntity
8
0
100
AcDbLine
62
7
6
CONTINUOUS
10
3.5656317580
20
4.4081573559
11
3.5731861583
21
4.4131718072
0
LINE
5
3E0
100
AcDbEntity
8
0
100
AcDbLine
62
7
6
CONTINUOUS
10
2.7625599137
20
3.7102569890
11
2.7550055134
21
3.7052425376
0
LINE
5
3E1
100
AcDbEntity
8
0
100
AcDbLine
62
7
6
CONTINUOUS
10
2.7013762854
20
3.8292851807
11
2.7020674273
21
3.8297408099
0
LINE
5
3E2
100
AcDbEntity
8
0
100
AcDbLine
62
7
6
CONTINUOUS
10
3.6268153863
20
4.2891291641
11
3.6261242444
21
4.2886735349
0
LINE
5
3E3
100
AcDbEntity
8
0
100
AcDbLine
62
7
6
CONTINUOUS
10
2.6880467586
20
3.8217738063
11
2.6950960275
21
3.8259496144
0
LINE
5
3E4
100
AcDbEntity
8
0
100
AcDbLine
62
7
6
CONTINUOUS
10
3.6401449131
20
4.2966405385
11
3.6330956441
21
4.2924647305
0
LINE
5
3E5
100
AcDbEntity
8
0
100
AcDbLine
62
7
6
CONTINUOUS
10
3.2484883482
20
4.1096893649
11
3.2296131146
21
4.0987917437
0
LINE
5
3E6
100
AcDbEntity
8
0
100
AcDbLine
62
7
6
CONTINUOUS
10
3.0797033235
20
4.0087249799
11
3.0985785571
21
4.0196226011
0
LINE
5
3E7
100
AcDbEntity
8
0
100
AcDbLine
62
7
6
CONTINUOUS
10
3.5731861583
20
4.4131718072
11
3.5808526138
21
4.4173313546
0
LINE
5
3E8
100
AcDbEntity
8
0
100
AcDbLine
62
7
6
CONTINUOUS
10
2.6950960275
20
3.8259496144
11
2.7001908595
21
3.8286617608
0
LINE
5
3E9
100
AcDbEntity
8
0
100
AcDbLine
62
7
6
CONTINUOUS
10
3.6330956441
20
4.2924647305
11
3.6280008122
21
4.2897525840
0
LINE
5
3EA
100
AcDbEntity
8
0
100
AcDbLine
62
7
6
CONTINUOUS
10
3.2339598219
20
4.0970366483
11
3.2520541440
21
4.1066575700
0
LINE
5
3EB
100
AcDbEntity
8
0
100
AcDbLine
62
7
6
CONTINUOUS
10
3.0942318498
20
4.0213776965
11
3.0761375277
21
4.0117567748
0
LINE
5
3EC
100
AcDbEntity
8
0
100
AcDbLine
62
7
6
CONTINUOUS
10
2.7001908595
20
3.8286617608
11
2.7013762854
21
3.8292851807
0
LINE
5
3ED
100
AcDbEntity
8
0
100
AcDbLine
62
7
6
CONTINUOUS
10
3.6280008122
20
4.2897525840
11
3.6268153863
21
4.2891291641
0
LINE
5
3EE
100
AcDbEntity
8
0
100
AcDbLine
62
7
6
CONTINUOUS
10
2.6492343155
20
4.0914976774
11
2.6495381593
21
4.0916506318
0
LINE
5
3EF
100
AcDbEntity
8
0
100
AcDbLine
62
7
6
CONTINUOUS
10
3.0647666805
20
4.5651280155
11
3.0370627864
21
4.5557238106
0
LINE
5
3F0
100
AcDbEntity
8
0
100
AcDbLine
62
7
6
CONTINUOUS
10
2.9626177518
20
4.5304531266
11
2.9349138576
21
4.5210489217
0
LINE
5
3F1
100
AcDbEntity
8
0
100
AcDbLine
62
7
6
CONTINUOUS
10
5.6309612749
20
2.5582068495
11
6.4582686539
21
2.5582068495
0
LINE
5
3F2
100
AcDbEntity
8
8_ALL_NOTES_BALLOONS_SYMBOLS_GT
100
AcDbLine
62
7
6
CONTINUOUS
10
6.9830452648
20
2.7739291773
11
6.9310452648
21
2.7739291773
0
LINE
5
3F3
100
AcDbEntity
8
0
100
AcDbLine
62
7
6
CONTINUOUS
10
9.2385975524
20
2.8873729010
11
10.1287028954
21
2.8873729010
0
LINE
5
3F4
100
AcDbEntity
8
0
100
AcDbLine
62
7
6
CONTINUOUS
10
2.6581749928
20
3.9598780171
11
2.6578537839
21
3.9599900034
0
LINE
5
3F5
100
AcDbEntity
8
0
100
AcDbLine
62
7
6
CONTINUOUS
10
2.6760687739
20
4.2264036095
11
2.6753240732
21
4.2267651286
0
LINE
5
3F6
100
AcDbEntity
8
0
100
AcDbLine
62
7
6
CONTINUOUS
10
3.6521228978
20
3.8920107353
11
3.6528675985
21
3.8916492162
0
LINE
5
3F7
100
AcDbEntity
8
0
100
AcDbLine
62
7
6
CONTINUOUS
10
3.6158878983
20
3.7616677967
11
3.6077433995
21
3.7656534213
0
LINE
5
3F8
100
AcDbEntity
8
0
100
AcDbLine
62
7
6
CONTINUOUS
10
2.7123036819
20
4.3567465887
11
2.7204479705
21
4.3527610837
0
LINE
5
3F9
100
AcDbEntity
8
0
100
AcDbLine
62
7
6
CONTINUOUS
10
2.6611281513
20
4.2324723898
11
2.6530083088
21
4.2365074667
0
LINE
5
3FA
100
AcDbEntity
8
0
100
AcDbLine
62
7
6
CONTINUOUS
10
3.6670631762
20
3.8859421123
11
3.6751832655
21
3.8819069313
0
LINE
5
3FB
100
AcDbEntity
8
0
100
AcDbLine
62
7
6
CONTINUOUS
10
3.5945738968
20
3.7734412827
11
3.5938337394
21
3.7738120146
0
LINE
5
3FC
100
AcDbEntity
8
0
100
AcDbLine
62
7
6
CONTINUOUS
10
2.7336177749
20
4.3449730621
11
2.7343579323
21
4.3446023302
0
LINE
5
3FD
100
AcDbEntity
8
0
100
AcDbLine
62
7
6
CONTINUOUS
10
3.2520541440
20
4.0117567748
11
3.2339598219
21
4.0213776965
0
LINE
5
3FE
100
AcDbEntity
8
0
100
AcDbLine
62
7
6
CONTINUOUS
10
3.0761375277
20
4.1066575700
11
3.0942318498
21
4.0970366483
0
LINE
5
3FF
100
AcDbEntity
8
0
100
AcDbLine
62
7
6
CONTINUOUS
10
3.6077433995
20
3.7656534213
11
3.6006024621
21
3.7696703512
0
LINE
5
400
100
AcDbEntity
8
0
100
AcDbLine
62
7
6
CONTINUOUS
10
2.7204479705
20
4.3527610837
11
2.7275889608
21
4.3487441417
0
LINE
5
401
100
AcDbEntity
8
0
100
AcDbLine
62
7
6
CONTINUOUS
10
3.2296131146
20
4.0196226011
11
3.2484883482
21
4.0087249799
0
LINE
5
402
100
AcDbEntity
8
0
100
AcDbLine
62
7
6
CONTINUOUS
10
3.0985785571
20
4.0987917437
11
3.0797033235
21
4.1096893649
0
LINE
5
403
100
AcDbEntity
8
0
100
AcDbLine
62
7
6
CONTINUOUS
10
3.6751832655
20
3.8819069313
11
3.6826189968
21
3.8773472133
0
LINE
5
404
100
AcDbEntity
8
0
100
AcDbLine
62
7
6
CONTINUOUS
10
3.6006024621
20
3.7696703512
11
3.5957065072
21
3.7727263838
0
LINE
5
405
100
AcDbEntity
8
0
100
AcDbLine
62
7
6
CONTINUOUS
10
2.7275889608
20
4.3487441417
11
2.7324851645
21
4.3456879611
0
LINE
5
406
100
AcDbEntity
8
0
100
AcDbLine
62
7
6
CONTINUOUS
10
3.5957065072
20
3.7727263838
11
3.5945738968
21
3.7734412827
0
LINE
5
407
100
AcDbEntity
8
0
100
AcDbLine
62
7
6
CONTINUOUS
10
2.7324851645
20
4.3456879611
11
2.7336177749
21
4.3449730621
0
LINE
5
408
100
AcDbEntity
8
0
100
AcDbLine
62
7
6
CONTINUOUS
10
2.7042502068
20
4.3598352369
11
2.7347132182
21
4.3399197793
0
LINE
5
409
100
AcDbEntity
8
0
100
AcDbLine
62
7
6
CONTINUOUS
10
3.6239414282
20
3.7585791319
11
3.5934784535
21
3.7784945656
0
LINE
5
40A
100
AcDbEntity
8
0
100
AcDbLine
62
7
6
CONTINUOUS
10
2.9346294733
20
4.5212355809
11
2.9349138576
21
4.5210489217
0
LINE
5
40B
100
AcDbEntity
8
0
100
AcDbLine
62
7
6
CONTINUOUS
10
3.5525715606
20
4.3981891658
11
3.5305753332
21
4.4174793395
0
LINE
5
40C
100
AcDbEntity
8
0
100
AcDbLine
62
7
6
CONTINUOUS
10
3.4714677615
20
4.4693152886
11
3.4494715341
21
4.4886054623
0
LINE
5
40D
100
AcDbEntity
8
0
100
AcDbLine
62
7
6
CONTINUOUS
10
4.2245468673
20
4.0313557681
11
4.2237857660
21
4.0320916134
0
LINE
5
40E
100
AcDbEntity
8
0
100
AcDbLine
62
7
6
CONTINUOUS
10
4.2245468673
20
4.0583557681
11
4.2237857660
21
4.0590916134
0
LINE
5
40F
100
AcDbEntity
8
0
100
AcDbLine
62
7
6
CONTINUOUS
10
4.2230958358
20
3.9797071724
11
4.2226066701
21
3.9802037163
0
LINE
5
410
100
AcDbEntity
8
0
100
AcDbLine
62
7
6
CONTINUOUS
10
4.2254599200
20
4.0303713569
11
4.2245468673
21
4.0313557681
0
LINE
5
411
100
AcDbEntity
8
0
100
AcDbLine
62
7
6
CONTINUOUS
10
4.2254599200
20
4.0573713569
11
4.2245468673
21
4.0583557681
0
LINE
5
412
100
AcDbEntity
8
0
100
AcDbLine
62
7
6
CONTINUOUS
10
4.2254599200
20
4.0833713569
11
4.2245468673
21
4.0843557681
0
LINE
5
413
100
AcDbEntity
8
0
100
AcDbLine
62
7
6
CONTINUOUS
10
4.2254599200
20
4.1103713569
11
4.2245468673
21
4.1113557681
0
LINE
5
414
100
AcDbEntity
8
0
100
AcDbLine
62
7
6
CONTINUOUS
10
4.2254599200
20
4.1363713569
11
4.2245468673
21
4.1373557681
0
LINE
5
415
100
AcDbEntity
8
0
100
AcDbLine
62
7
6
CONTINUOUS
10
4.2226066701
20
3.9802037163
11
4.2212103123
21
3.9818187198
0
LINE
5
416
100
AcDbEntity
8
0
100
AcDbLine
62
7
6
CONTINUOUS
10
4.2264568308
20
4.0291156871
11
4.2254599200
21
4.0303713569
0
LINE
5
417
100
AcDbEntity
8
0
100
AcDbLine
62
7
6
CONTINUOUS
10
4.2264568308
20
4.0561156871
11
4.2254599200
21
4.0573713569
0
LINE
5
418
100
AcDbEntity
8
0
100
AcDbLine
62
7
6
CONTINUOUS
10
4.2264568308
20
4.0821156871
11
4.2254599200
21
4.0833713569
0
LINE
5
419
100
AcDbEntity
8
0
100
AcDbLine
62
7
6
CONTINUOUS
10
4.2264568308
20
4.1091156871
11
4.2254599200
21
4.1103713569
0
LINE
5
41A
100
AcDbEntity
8
0
100
AcDbLine
62
7
6
CONTINUOUS
10
4.2264568308
20
4.1351156871
11
4.2254599200
21
4.1363713569
0
LINE
5
41B
100
AcDbEntity
8
0
100
AcDbLine
62
7
6
CONTINUOUS
10
3.8953367086
20
4.4454917644
11
3.2618731439
21
5.3039844805
0
LINE
5
41C
100
AcDbEntity
8
0
100
AcDbLine
62
7
6
CONTINUOUS
10
4.2212103123
20
3.9818187198
11
4.2195304963
21
3.9844458501
0
LINE
5
41D
100
AcDbEntity
8
0
100
AcDbLine
62
7
6
CONTINUOUS
10
4.2274827507
20
4.0274909045
11
4.2264568308
21
4.0291156871
0
LINE
5
41E
100
AcDbEntity
8
0
100
AcDbLine
62
7
6
CONTINUOUS
10
4.2274827507
20
4.0544909045
11
4.2264568308
21
4.0561156871
0
LINE
5
41F
100
AcDbEntity
8
0
100
AcDbLine
62
7
6
CONTINUOUS
10
4.2274827507
20
4.0804909045
11
4.2264568308
21
4.0821156871
0
LINE
5
420
100
AcDbEntity
8
0
100
AcDbLine
62
7
6
CONTINUOUS
10
4.2274827507
20
4.1074909045
11
4.2264568308
21
4.1091156871
0
LINE
5
421
100
AcDbEntity
8
0
100
AcDbLine
62
7
6
CONTINUOUS
10
4.2274827507
20
4.1334909045
11
4.2264568308
21
4.1351156871
0
LINE
5
422
100
AcDbEntity
8
0
100
AcDbLine
62
7
6
CONTINUOUS
10
4.2284176247
20
4.0253381403
11
4.2274827507
21
4.0274909045
0
LINE
5
423
100
AcDbEntity
8
0
100
AcDbLine
62
7
6
CONTINUOUS
10
4.2284176247
20
4.0523381403
11
4.2274827507
21
4.0544909045
0
LINE
5
424
100
AcDbEntity
8
0
100
AcDbLine
62
7
6
CONTINUOUS
10
4.2284176247
20
4.0783381403
11
4.2274827507
21
4.0804909045
0
LINE
5
425
100
AcDbEntity
8
0
100
AcDbLine
62
7
6
CONTINUOUS
10
4.2284176247
20
4.1053381403
11
4.2274827507
21
4.1074909045
0
LINE
5
426
100
AcDbEntity
8
0
100
AcDbLine
62
7
6
CONTINUOUS
10
4.2284176247
20
4.1313381403
11
4.2274827507
21
4.1334909045
0
LINE
5
427
100
AcDbEntity
8
0
100
AcDbLine
62
7
6
CONTINUOUS
10
4.9060452648
20
4.1148071724
11
4.9060452648
21
4.0999071724
0
LINE
5
428
100
AcDbEntity
8
0
100
AcDbLine
62
7
6
CONTINUOUS
10
4.9060452648
20
4.0999071724
11
4.9060452648
21
4.0185071724
0
LINE
5
429
100
AcDbEntity
8
0
100
AcDbLine
62
7
6
CONTINUOUS
10
4.9060452648
20
4.0185071724
11
4.9060452648
21
4.0036071724
0
LINE
5
42A
100
AcDbEntity
8
0
100
AcDbLine
62
7
6
CONTINUOUS
10
5.0610452648
20
4.0999071724
11
5.0610452648
21
4.0185071724
0
LINE
5
42B
100
AcDbEntity
8
DEFAULT_2
100
AcDbLine
62
8
6
HIDDEN
10
5.0610452648
20
4.0185071724
11
5.0610452648
21
4.0036071737
0
LINE
5
42C
100
AcDbEntity
8
DEFAULT_2
100
AcDbLine
62
8
6
HIDDEN
10
5.0610452648
20
4.0999071724
11
5.0610452648
21
4.1148071711
0
LINE
5
42D
100
AcDbEntity
8
0
100
AcDbLine
62
7
6
CONTINUOUS
10
3.3920555838
20
3.5969505319
11
3.3963878637
21
3.5998452687
0
LINE
5
42E
100
AcDbEntity
8
0
100
AcDbLine
62
7
6
CONTINUOUS
10
3.4995965862
20
3.6688071324
11
3.5039288660
21
3.6717018692
0
LINE
5
42F
100
AcDbEntity
8
0
100
AcDbLine
62
7
6
CONTINUOUS
10
2.7550055134
20
3.7052425376
11
2.7473390579
21
3.7010829903
0
LINE
5
430
100
AcDbEntity
8
0
100
AcDbLine
62
7
6
CONTINUOUS
10
3.6543701913
20
4.3071311367
11
3.6218913934
21
4.2907071238
0
LINE
5
431
100
AcDbEntity
8
0
100
AcDbLine
62
7
6
CONTINUOUS
10
2.6738214804
20
3.8112832081
11
2.7063002783
21
3.8277072210
0
LINE
5
432
100
AcDbEntity
8
0
100
AcDbLine
62
7
6
CONTINUOUS
10
3.6789573562
20
4.0269166674
11
3.6786535124
21
4.0267637130
0
LINE
5
433
100
AcDbEntity
8
0
100
AcDbLine
62
7
6
CONTINUOUS
10
3.5808526138
20
4.4173313546
11
3.5883835835
21
4.4199856873
0
LINE
5
434
100
AcDbEntity
8
0
100
AcDbLine
62
7
6
CONTINUOUS
10
2.6078576897
20
4.0871419967
11
2.6154482651
21
4.0896207369
0
LINE
5
435
100
AcDbEntity
8
8_ALL_NOTES_BALLOONS_SYMBOLS_GT
100
AcDbLine
62
7
6
CENTER
10
3.1635920154
20
2.9657071724
11
3.3137663229
21
2.9657363076
0
LINE
5
436
100
AcDbEntity
8
0
100
AcDbLine
62
7
6
CONTINUOUS
10
3.9477587515
20
2.9673917568
11
4.6712360532
21
2.9673917568
0
LINE
5
437
100
AcDbEntity
8
0
100
AcDbLine
62
7
6
CONTINUOUS
10
7.3521436200
20
3.2332071724
11
7.4199469096
21
3.2332071724
0
LINE
5
438
100
AcDbEntity
8
0
100
AcDbLine
62
7
6
CONTINUOUS
10
7.7420452648
20
3.2362071724
11
7.5405760647
21
3.2362071724
0
LINE
5
439
100
AcDbEntity
8
0
100
AcDbLine
62
7
6
CONTINUOUS
10
7.0300452648
20
3.2362071724
11
7.2315144649
21
3.2362071724
0
LINE
5
43A
100
AcDbEntity
8
8_ALL_NOTES_BALLOONS_SYMBOLS_GT
100
AcDbLine
62
7
6
CENTER
10
3.1635920154
20
2.9657071724
11
3.0154329896
21
2.9657363076
0
LINE
5
43B
100
AcDbEntity
8
0
100
AcDbLine
62
7
6
CONTINUOUS
10
2.6241117879
20
3.9574409219
11
2.6162626104
21
3.9589076872
0
LINE
5
43C
100
AcDbEntity
8
0
100
AcDbLine
62
7
6
CONTINUOUS
10
3.1316523764
20
3.5446494959
11
3.1029579979
21
3.5503571627
0
LINE
5
43D
100
AcDbEntity
8
0
100
AcDbLine
62
7
6
CONTINUOUS
10
3.0258513647
20
3.5656946256
11
2.9971569862
21
3.5714022924
0
LINE
5
43E
100
AcDbEntity
8
0
100
AcDbLine
62
7
6
CONTINUOUS
10
3.6318447888
20
3.7568958319
11
3.6240319272
21
3.7585444240
0
LINE
5
43F
100
AcDbEntity
8
0
100
AcDbLine
62
7
6
CONTINUOUS
10
2.6799999756
20
4.2289722987
11
2.6456552745
21
4.2410164681
0
LINE
5
440
100
AcDbEntity
8
0
100
AcDbLine
62
7
6
CONTINUOUS
10
3.6481916961
20
3.8894420461
11
3.6825363515
21
3.8773978928
0
LINE
5
441
100
AcDbEntity
8
0
100
AcDbLine
62
7
6
CONTINUOUS
10
2.6753240732
20
4.2267651286
11
2.6740674162
21
4.2272284859
0
LINE
5
442
100
AcDbEntity
8
0
100
AcDbLine
62
7
6
CONTINUOUS
10
3.6528675985
20
3.8916492162
11
3.6541242555
21
3.8911858589
0
LINE
5
443
100
AcDbEntity
8
0
100
AcDbLine
62
7
6
CONTINUOUS
10
2.6740674162
20
4.2272284859
11
2.6686621651
21
4.2292524206
0
LINE
5
444
100
AcDbEntity
8
0
100
AcDbLine
62
7
6
CONTINUOUS
10
3.6541242555
20
3.8911858589
11
3.6595292087
21
3.8891620430
0
LINE
5
445
100
AcDbEntity
8
0
100
AcDbLine
62
7
6
CONTINUOUS
10
3.6240319272
20
3.7585444240
11
3.6158878983
21
3.7616677967
0
LINE
5
446
100
AcDbEntity
8
0
100
AcDbLine
62
7
6
CONTINUOUS
10
2.7041598841
20
4.3598698773
11
2.7123036819
21
4.3567465887
0
LINE
5
447
100
AcDbEntity
8
0
100
AcDbLine
62
7
6
CONTINUOUS
10
2.6686621651
20
4.2292524206
11
2.6611281513
21
4.2324723898
0
LINE
5
448
100
AcDbEntity
8
0
100
AcDbLine
62
7
6
CONTINUOUS
10
3.6595292087
20
3.8891620430
11
3.6670631762
21
3.8859421123
0
LINE
5
449
100
AcDbEntity
8
0
100
AcDbLine
62
7
6
CONTINUOUS
10
4.2232749482
20
4.0325515178
11
4.2230958358
21
4.0327071724
0
LINE
5
44A
100
AcDbEntity
8
0
100
AcDbLine
62
7
6
CONTINUOUS
10
4.2232749482
20
4.0595515178
11
4.2230958358
21
4.0597071724
0
LINE
5
44B
100
AcDbEntity
8
0
100
AcDbLine
62
7
6
CONTINUOUS
10
4.2232749482
20
4.0855515178
11
4.2230958358
21
4.0857071724
0
LINE
5
44C
100
AcDbEntity
8
0
100
AcDbLine
62
7
6
CONTINUOUS
10
4.2232749482
20
4.1125515178
11
4.2230958358
21
4.1127071724
0
LINE
5
44D
100
AcDbEntity
8
0
100
AcDbLine
62
7
6
CONTINUOUS
10
4.2232749482
20
4.1385515178
11
4.2230958358
21
4.1387071724
0
LINE
5
44E
100
AcDbEntity
8
0
100
AcDbLine
62
7
6
CONTINUOUS
10
4.2237857660
20
4.0320916134
11
4.2232749482
21
4.0325515178
0
LINE
5
44F
100
AcDbEntity
8
0
100
AcDbLine
62
7
6
CONTINUOUS
10
4.2237857660
20
4.0590916134
11
4.2232749482
21
4.0595515178
0
LINE
5
450
100
AcDbEntity
8
0
100
AcDbLine
62
7
6
CONTINUOUS
10
4.2237857660
20
4.0850916134
11
4.2232749482
21
4.0855515178
0
LINE
5
451
100
AcDbEntity
8
0
100
AcDbLine
62
7
6
CONTINUOUS
10
4.2237857660
20
4.1120916134
11
4.2232749482
21
4.1125515178
0
LINE
5
452
100
AcDbEntity
8
0
100
AcDbLine
62
7
6
CONTINUOUS
10
4.2237857660
20
4.1380916134
11
4.2232749482
21
4.1385515178
0
LINE
5
453
100
AcDbEntity
8
0
100
AcDbLine
62
7
6
CONTINUOUS
10
4.2245468673
20
4.0843557681
11
4.2237857660
21
4.0850916134
0
LINE
5
454
100
AcDbEntity
8
0
100
AcDbLine
62
7
6
CONTINUOUS
10
4.2245468673
20
4.1113557681
11
4.2237857660
21
4.1120916134
0
LINE
5
455
100
AcDbEntity
8
0
100
AcDbLine
62
7
6
CONTINUOUS
10
4.2245468673
20
4.1373557681
11
4.2237857660
21
4.1380916134
0
LINE
5
456
100
AcDbEntity
8
0
100
AcDbLine
62
7
6
CONTINUOUS
10
5.1210452648
20
4.1682061012
11
5.1210452648
21
3.9502082437
0
LINE
5
457
100
AcDbEntity
8
0
100
AcDbLine
62
7
6
CONTINUOUS
10
2.7473390579
20
3.7010829903
11
2.7398080882
21
3.6984286575
0
LINE
5
458
100
AcDbEntity
8
0
100
AcDbLine
62
7
6
CONTINUOUS
10
3.7203339820
20
4.0312723481
11
3.7127435647
21
4.0287936434
0
LINE
5
459
100
AcDbEntity
8
0
100
AcDbLine
62
7
6
CONTINUOUS
10
7.3340452585
20
3.6386872426
11
7.3400452648
21
3.6391601754
0
LINE
5
45A
100
AcDbEntity
8
0
100
AcDbLine
62
7
6
CONTINUOUS
10
3.1303864483
20
3.5449013047
11
3.1355856812
21
3.5452420804
0
LINE
5
45B
100
AcDbEntity
8
0
100
AcDbLine
62
7
6
CONTINUOUS
10
3.2594479886
20
3.5533604449
11
3.2646472214
21
3.5537012206
0
LINE
5
45C
100
AcDbEntity
8
0
100
AcDbLine
62
7
6
CONTINUOUS
10
7.8418956585
20
3.4992071724
11
7.7820452648
21
3.4992071724
0
LINE
5
45D
100
AcDbEntity
8
0
100
AcDbLine
62
7
6
CONTINUOUS
10
6.9300452585
20
3.4992071724
11
6.9310452648
21
3.4992071724
0
LINE
5
45E
100
AcDbEntity
8
0
100
AcDbLine
62
7
6
CONTINUOUS
10
7.7820452648
20
3.4993016443
11
7.8418956585
21
3.4993016443
0
LINE
5
45F
100
AcDbEntity
8
0
100
AcDbLine
62
7
6
CONTINUOUS
10
6.9300452585
20
3.5054342917
11
6.9310452648
21
3.5054342917
0
LINE
5
460
100
AcDbEntity
8
0
100
AcDbLine
62
7
6
CONTINUOUS
10
6.9300452585
20
3.5289166517
11
6.9310452648
21
3.5289166517
0
LINE
5
461
100
AcDbEntity
8
0
100
AcDbLine
62
7
6
CONTINUOUS
10
6.9300452585
20
3.5550852964
11
6.9310452648
21
3.5550852964
0
LINE
5
462
100
AcDbEntity
8
0
100
AcDbLine
62
7
6
CONTINUOUS
10
6.9310452648
20
3.5666730790
11
6.9300452585
21
3.5666730790
0
LINE
5
463
100
AcDbEntity
8
0
100
AcDbLine
62
7
6
CONTINUOUS
10
6.9310452648
20
3.5691718162
11
6.9300452585
21
3.5691718162
0
LINE
5
464
100
AcDbEntity
8
DEFAULT_1
100
AcDbLine
62
7
6
CENTER
10
3.6279578843
20
3.5953451240
11
3.4972912176
21
3.5953451240
0
LINE
5
465
100
AcDbEntity
8
DEFAULT_1
100
AcDbLine
62
7
6
CENTER
10
2.7002337874
20
3.5953451240
11
2.5695671207
21
3.5953451240
0
LINE
5
466
100
AcDbEntity
8
DEFAULT_1
100
AcDbLine
62
7
6
CENTER
10
2.7002337874
20
3.5953451240
11
2.8309004541
21
3.5953451240
0
LINE
5
467
100
AcDbEntity
8
DEFAULT_1
100
AcDbLine
62
7
6
CENTER
10
3.6279578843
20
3.5953451240
11
3.7586245510
21
3.5953451240
0
LINE
5
468
100
AcDbEntity
8
0
100
AcDbLine
62
7
6
CONTINUOUS
10
6.9300452585
20
3.6212659046
11
6.9310452648
21
3.6212659046
0
LINE
5
469
100
AcDbEntity
8
0
100
AcDbLine
62
7
6
CONTINUOUS
10
7.3320452648
20
3.6264571724
11
7.4400452648
21
3.6264571724
0
LINE
5
46A
100
AcDbEntity
8
0
100
AcDbLine
62
7
6
CONTINUOUS
10
7.4320452648
20
3.6269571724
11
7.3920452648
21
3.6269571724
0
LINE
5
46B
100
AcDbEntity
8
0
100
AcDbLine
62
7
6
CONTINUOUS
10
7.3800452648
20
3.6269571724
11
7.3400452648
21
3.6269571724
0
LINE
5
46C
100
AcDbEntity
8
0
100
AcDbLine
62
7
6
CONTINUOUS
10
6.9300452585
20
3.6499420150
11
6.9310452648
21
3.6499420150
0
LINE
5
46D
100
AcDbEntity
8
0
100
AcDbLine
62
7
6
CONTINUOUS
10
7.4400452648
20
3.6514571724
11
7.4320452648
21
3.6514571724
0
LINE
5
46E
100
AcDbEntity
8
0
100
AcDbLine
62
7
6
CONTINUOUS
10
7.3320452648
20
3.6514571724
11
7.3400452648
21
3.6514571724
0
LINE
5
46F
100
AcDbEntity
8
0
100
AcDbLine
62
7
6
CONTINUOUS
10
8.0210452648
20
3.6567071724
11
7.8418956585
21
3.6567071724
0
LINE
5
470
100
AcDbEntity
8
0
100
AcDbLine
62
7
6
CONTINUOUS
10
6.7330452585
20
3.6567071724
11
6.9300452585
21
3.6567071724
0
LINE
5
471
100
AcDbEntity
8
0
100
AcDbLine
62
7
6
CONTINUOUS
10
6.9300452585
20
3.6701383303
11
6.9310452648
21
3.6701383303
0
LINE
5
472
100
AcDbEntity
8
0
100
AcDbLine
62
7
6
CONTINUOUS
10
6.9310452648
20
3.7606630164
11
6.9300452585
21
3.7606630164
0
LINE
5
473
100
AcDbEntity
8
0
100
AcDbLine
62
7
6
CONTINUOUS
10
6.9310452648
20
3.7703465662
11
6.9300452585
21
3.7703465662
0
LINE
5
474
100
AcDbEntity
8
0
100
AcDbLine
62
7
6
CONTINUOUS
10
3.5938337394
20
3.7738120146
11
3.5934941257
21
3.7738314741
0
LINE
5
475
100
AcDbEntity
8
0
100
AcDbLine
62
7
6
CONTINUOUS
10
7.4320452648
20
3.6312307943
11
7.4378956585
21
3.6308636813
0
LINE
5
476
100
AcDbEntity
8
0
100
AcDbLine
62
7
6
CONTINUOUS
10
3.7040798838
20
4.1609734229
11
3.7119290613
21
4.1595066576
0
LINE
5
477
100
AcDbEntity
8
0
100
AcDbLine
62
7
6
CONTINUOUS
10
2.6963468829
20
4.3615185130
11
2.7041598841
21
4.3598698773
0
LINE
5
478
100
AcDbEntity
8
0
100
AcDbLine
62
7
6
CONTINUOUS
10
3.6700166789
20
4.1585363277
11
3.6703378878
21
4.1584243414
0
LINE
5
479
100
AcDbEntity
8
0
100
AcDbLine
62
7
6
CONTINUOUS
10
3.4504419557
20
4.4877544255
11
3.4457689001
21
4.4900589215
0
LINE
5
47A
100
AcDbEntity
8
0
100
AcDbLine
62
7
6
CONTINUOUS
10
3.3344418130
20
4.5449593652
11
3.3297687574
21
4.5472638612
0
LINE
5
47B
100
AcDbEntity
8
0
100
AcDbLine
62
7
6
CONTINUOUS
10
3.3932778141
20
3.5973654231
11
3.3655739199
21
3.5879612183
0
LINE
5
47C
100
AcDbEntity
8
0
100
AcDbLine
62
7
6
CONTINUOUS
10
3.2911288853
20
3.5626905342
11
3.2634249912
21
3.5532863294
0
LINE
5
47D
100
AcDbEntity
8
0
100
AcDbLine
62
7
6
CONTINUOUS
10
3.7041289163
20
4.0274265445
11
3.6950827350
21
4.0268059471
0
LINE
5
47E
100
AcDbEntity
8
0
100
AcDbLine
62
7
6
CONTINUOUS
10
2.6418804350
20
3.9577754100
11
2.6328309068
21
3.9572099678
0
LINE
5
47F
100
AcDbEntity
8
0
100
AcDbLine
62
7
6
CONTINUOUS
10
3.6797837172
20
4.0269656829
11
3.6789573562
21
4.0269166674
0
LINE
5
480
100
AcDbEntity
8
0
100
AcDbLine
62
7
6
CONTINUOUS
10
3.6950827350
20
4.0268059471
11
3.6868900425
21
4.0267142434
0
LINE
5
481
100
AcDbEntity
8
0
100
AcDbLine
62
7
6
CONTINUOUS
10
2.6331085585
20
4.0916083843
11
2.6413013085
21
4.0917001057
0
LINE
5
482
100
AcDbEntity
8
0
100
AcDbLine
62
7
6
CONTINUOUS
10
6.9300452585
20
3.8544435265
11
6.9310452648
21
3.8544435265
0
LINE
5
483
100
AcDbEntity
8
0
100
AcDbLine
62
7
6
CONTINUOUS
10
8.7038956585
20
3.8717071724
11
8.0210452648
21
3.8717071724
0
LINE
5
484
100
AcDbEntity
8
0
100
AcDbLine
62
7
6
CONTINUOUS
10
6.3660452585
20
3.8717071724
11
6.7330452585
21
3.8717071724
0
LINE
5
485
100
AcDbEntity
8
0
100
AcDbLine
62
7
6
CONTINUOUS
10
6.9300452585
20
3.8806296468
11
6.9310452648
21
3.8806296468
0
LINE
5
486
100
AcDbEntity
8
0
100
AcDbLine
62
7
6
CONTINUOUS
10
6.9300452585
20
3.8894420461
11
6.9310452648
21
3.8894420461
0
LINE
5
487
100
AcDbEntity
8
0
100
AcDbLine
62
7
6
CONTINUOUS
10
7.6520452648
20
3.9222071724
11
7.5957701575
21
3.9222071724
0
LINE
5
488
100
AcDbEntity
8
0
100
AcDbLine
62
7
6
CONTINUOUS
10
7.4753823761
20
3.9222071724
11
7.4320452648
21
3.9222071724
0
LINE
5
489
100
AcDbEntity
8
0
100
AcDbLine
62
7
6
CONTINUOUS
10
7.1200452648
20
3.9222071724
11
7.1763203720
21
3.9222071724
0
LINE
5
48A
100
AcDbEntity
8
0
100
AcDbLine
62
7
6
CONTINUOUS
10
7.2967081535
20
3.9222071724
11
7.3400452648
21
3.9222071724
0
LINE
5
48B
100
AcDbEntity
8
0
100
AcDbLine
62
7
6
CONTINUOUS
10
5.1210452648
20
3.9502071724
11
6.3660452585
21
3.9502071724
0
LINE
5
48C
100
AcDbEntity
8
0
100
AcDbLine
62
7
6
CONTINUOUS
10
3.9854158682
20
3.9797071724
11
4.2230958358
21
3.9797071724
0
LINE
5
48D
100
AcDbEntity
8
0
100
AcDbLine
62
7
6
CONTINUOUS
10
5.1210452648
20
3.9940907414
11
6.3660452585
21
3.9940907414
0
LINE
5
48E
100
AcDbEntity
8
0
100
AcDbLine
62
7
6
CONTINUOUS
10
1.3492395233
20
4.0017665497
11
2.1537603223
21
4.0017665497
0
LINE
5
48F
100
AcDbEntity
8
0
100
AcDbLine
62
7
6
CONTINUOUS
10
5.0610452648
20
4.0036071724
11
4.9060452648
21
4.0036071724
0
LINE
5
490
100
AcDbEntity
8
0
100
AcDbLine
62
7
6
CONTINUOUS
10
5.1210452648
20
4.0087249799
11
6.3660452585
21
4.0087249799
0
LINE
5
491
100
AcDbEntity
8
0
100
AcDbLine
62
7
6
CONTINUOUS
10
5.0610452648
20
4.0185071724
11
4.9060452648
21
4.0185071724
0
LINE
5
492
100
AcDbEntity
8
0
100
AcDbLine
62
7
6
CONTINUOUS
10
5.1210452648
20
4.0196226011
11
6.3660452585
21
4.0196226011
0
LINE
5
493
100
AcDbEntity
8
0
100
AcDbLine
62
7
6
CONTINUOUS
10
5.1210452648
20
4.0202071724
11
5.0610452648
21
4.0202071724
0
LINE
5
494
100
AcDbEntity
8
0
100
AcDbLine
62
7
6
CONTINUOUS
10
6.9310452648
20
4.0292886355
11
6.9300452585
21
4.0292886355
0
LINE
5
495
100
AcDbEntity
8
0
100
AcDbLine
62
7
6
CONTINUOUS
10
5.1210452648
20
4.0322990003
11
6.3660452585
21
4.0322990003
0
LINE
5
496
100
AcDbEntity
8
0
100
AcDbLine
62
7
6
CONTINUOUS
10
3.9892025133
20
4.0327071724
11
4.2230958358
21
4.0327071724
0
LINE
5
497
100
AcDbEntity
8
0
100
AcDbLine
62
7
6
CONTINUOUS
10
6.9310452648
20
4.0489212823
11
6.9300452585
21
4.0489212823
0
LINE
5
498
100
AcDbEntity
8
0
100
AcDbLine
62
7
6
CONTINUOUS
10
7.4320452648
20
4.0592071724
11
7.3920452648
21
4.0592071724
0
LINE
5
499
100
AcDbEntity
8
DEFAULT_1
100
AcDbLine
62
7
6
CENTER
10
3.1640958358
20
4.0592071724
11
2.2384435726
21
4.0592071724
0
LINE
5
49A
100
AcDbEntity
8
DEFAULT_1
100
AcDbLine
62
7
6
CENTER
10
3.1640958358
20
4.0592071724
11
4.2191219585
21
4.0592071724
0
LINE
5
49B
100
AcDbEntity
8
DEFAULT_1
100
AcDbLine
62
7
6
CENTER
10
4.8393785981
20
4.0592071724
11
7.3400452648
21
4.0592071724
0
LINE
5
49C
100
AcDbEntity
8
0
100
AcDbLine
62
7
6
CONTINUOUS
10
7.3400452648
20
4.0592071724
11
7.3800452648
21
4.0592071724
0
LINE
5
49D
100
AcDbEntity
8
DEFAULT_1
100
AcDbLine
62
7
6
CENTER
10
7.3800452648
20
4.0592071724
11
7.3920452648
21
4.0592071724
0
LINE
5
49E
100
AcDbEntity
8
DEFAULT_1
100
AcDbLine
62
7
6
CENTER
10
7.4320452648
20
4.0592071724
11
8.8074462242
21
4.0592071724
0
LINE
5
49F
100
AcDbEntity
8
0
100
AcDbLine
62
7
6
CONTINUOUS
10
3.9910601128
20
4.0597071724
11
4.2230958358
21
4.0597071724
0
LINE
5
4A0
100
AcDbEntity
8
0
100
AcDbLine
62
7
6
CONTINUOUS
10
3.9892025133
20
4.0857071724
11
4.2230958358
21
4.0857071724
0
LINE
5
4A1
100
AcDbEntity
8
0
100
AcDbLine
62
7
6
CONTINUOUS
10
5.1210452648
20
4.0861153446
11
6.3660452585
21
4.0861153446
0
LINE
5
4A2
100
AcDbEntity
8
0
100
AcDbLine
62
7
6
CONTINUOUS
10
9.6548686536
20
4.0922333495
11
10.1475415040
21
4.0922333495
0
LINE
5
4A3
100
AcDbEntity
8
0
100
AcDbLine
62
7
6
CONTINUOUS
10
5.1210452648
20
4.0982071724
11
5.0610452648
21
4.0982071724
0
LINE
5
4A4
100
AcDbEntity
8
0
100
AcDbLine
62
7
6
CONTINUOUS
10
5.1210452648
20
4.0987917437
11
6.3660452585
21
4.0987917437
0
LINE
5
4A5
100
AcDbEntity
8
0
100
AcDbLine
62
7
6
CONTINUOUS
10
5.0610452648
20
4.0999071724
11
4.9060452648
21
4.0999071724
0
LINE
5
4A6
100
AcDbEntity
8
0
100
AcDbLine
62
7
6
CONTINUOUS
10
5.1210452648
20
4.1096893649
11
6.3660452585
21
4.1096893649
0
LINE
5
4A7
100
AcDbEntity
8
0
100
AcDbLine
62
7
6
CONTINUOUS
10
3.9872734676
20
4.1127071724
11
4.2230958358
21
4.1127071724
0
LINE
5
4A8
100
AcDbEntity
8
0
100
AcDbLine
62
7
6
CONTINUOUS
10
5.0610452648
20
4.1148071724
11
4.9060452648
21
4.1148071724
0
LINE
5
4A9
100
AcDbEntity
8
0
100
AcDbLine
62
7
6
CONTINUOUS
10
5.1210452648
20
4.1243236034
11
6.3660452585
21
4.1243236034
0
LINE
5
4AA
100
AcDbEntity
8
0
100
AcDbLine
62
7
6
CONTINUOUS
10
3.9854158682
20
4.1387071724
11
4.2230958358
21
4.1387071724
0
LINE
5
4AB
100
AcDbEntity
8
0
100
AcDbLine
62
7
6
CONTINUOUS
10
6.9300452585
20
4.1424874020
11
6.9310452648
21
4.1424874020
0
LINE
5
4AC
100
AcDbEntity
8
0
100
AcDbLine
62
7
6
CONTINUOUS
10
6.9300452585
20
4.1595131080
11
6.9310452648
21
4.1595131080
0
LINE
5
4AD
100
AcDbEntity
8
0
100
AcDbLine
62
7
6
CONTINUOUS
10
5.1210452648
20
4.1682071724
11
6.3660452585
21
4.1682071724
0
LINE
5
4AE
100
AcDbEntity
8
0
100
AcDbLine
62
7
6
CONTINUOUS
10
2.6328309068
20
3.9572099678
11
2.6241117879
21
3.9574409219
0
LINE
5
4AF
100
AcDbEntity
8
0
100
AcDbLine
62
7
6
CONTINUOUS
10
3.6953607649
20
4.1612043770
11
3.7040798838
21
4.1609734229
0
LINE
5
4B0
100
AcDbEntity
8
0
100
AcDbLine
62
7
6
CONTINUOUS
10
3.6868900425
20
4.0267142434
11
3.6811220361
21
4.0269128674
0
LINE
5
4B1
100
AcDbEntity
8
0
100
AcDbLine
62
7
6
CONTINUOUS
10
2.6413013085
20
4.0917001057
11
2.6470696356
21
4.0915014774
0
LINE
5
4B2
100
AcDbEntity
8
0
100
AcDbLine
62
7
6
CONTINUOUS
10
3.6811220361
20
4.0269128674
11
3.6797837172
21
4.0269656829
0
LINE
5
4B3
100
AcDbEntity
8
0
100
AcDbLine
62
7
6
CONTINUOUS
10
2.6470696356
20
4.0915014774
11
2.6484079545
21
4.0914486620
0
LINE
5
4B4
100
AcDbEntity
8
0
100
AcDbLine
62
7
6
CONTINUOUS
10
3.7126478162
20
4.0287784487
11
3.6763083941
21
4.0307942325
0
LINE
5
4B5
100
AcDbEntity
8
0
100
AcDbLine
62
7
6
CONTINUOUS
10
2.6155438071
20
4.0896358989
11
2.6518832776
21
4.0876201123
0
LINE
5
4B6
100
AcDbEntity
8
0
100
AcDbLine
62
7
6
CONTINUOUS
10
2.7343579323
20
4.3446023302
11
2.7346975460
21
4.3445828707
0
LINE
5
4B7
100
AcDbEntity
8
0
100
AcDbLine
62
7
6
CONTINUOUS
10
3.3310346855
20
4.5470120525
11
3.3023403070
21
4.5527197192
0
LINE
5
4B8
100
AcDbEntity
8
0
100
AcDbLine
62
7
6
CONTINUOUS
10
3.2252336738
20
4.5680571822
11
3.1965392953
21
4.5737648489
0
LINE
5
4B9
100
AcDbEntity
8
0
100
AcDbLine
62
7
6
CONTINUOUS
10
2.7756201111
20
3.7202251791
11
2.7752859429
21
3.7201615576
0
LINE
5
4BA
100
AcDbEntity
8
0
100
AcDbLine
62
7
6
CONTINUOUS
10
2.6599739599
20
3.9641801543
11
2.6242084915
21
3.9574383604
0
LINE
5
4BB
100
AcDbEntity
8
0
100
AcDbLine
62
7
6
CONTINUOUS
10
3.6682177118
20
4.1542341905
11
3.7039831802
21
4.1609759844
0
LINE
5
4BC
100
AcDbEntity
8
0
100
AcDbLine
62
7
6
CONTINUOUS
10
2.6570280946
20
3.9599307378
11
2.6557081191
21
3.9597036885
0
LINE
5
4BD
100
AcDbEntity
8
0
100
AcDbLine
62
7
6
CONTINUOUS
10
3.6711635770
20
4.1584836071
11
3.6724835526
21
4.1587106564
0
LINE
5
4BE
100
AcDbEntity
8
0
100
AcDbLine
62
7
6
CONTINUOUS
10
2.6557081191
20
3.9597036885
11
2.6500150670
21
3.9587538418
0
LINE
5
4BF
100
AcDbEntity
8
0
100
AcDbLine
62
7
6
CONTINUOUS
10
3.6724835526
20
4.1587106564
11
3.6781766047
21
4.1596605031
0
LINE
5
4C0
100
AcDbEntity
8
0
100
AcDbLine
62
7
6
CONTINUOUS
10
3.7127435647
20
4.0287936434
11
3.7041289163
21
4.0274265445
0
LINE
5
4C1
100
AcDbEntity
8
0
100
AcDbLine
62
7
6
CONTINUOUS
10
2.6154482651
20
4.0896207369
11
2.6240626451
21
4.0909877885
0
LINE
5
4C2
100
AcDbEntity
8
0
100
AcDbLine
62
7
6
CONTINUOUS
10
2.6500150670
20
3.9587538418
11
2.6418804350
21
3.9577754100
0
LINE
5
4C3
100
AcDbEntity
8
0
100
AcDbLine
62
7
6
CONTINUOUS
10
3.6781766047
20
4.1596605031
11
3.6863112366
21
4.1606389349
0
LINE
5
4C4
100
AcDbEntity
8
0
100
AcDbLine
62
7
6
CONTINUOUS
10
7.4378956585
20
4.4797153095
11
7.4320452648
21
4.4792541695
0
LINE
5
4C5
100
AcDbEntity
8
0
100
AcDbLine
62
7
6
CONTINUOUS
10
2.6578537839
20
3.9599900034
11
2.6570280946
21
3.9599307378
0
LINE
5
4C6
100
AcDbEntity
8
0
100
AcDbLine
62
7
6
CONTINUOUS
10
3.6703378878
20
4.1584243414
11
3.6711635770
21
4.1584836071
0
LINE
5
4C7
100
AcDbEntity
8
0
100
AcDbLine
62
7
6
CONTINUOUS
10
2.6240626451
20
4.0909877885
11
2.6331085585
21
4.0916083843
0
LINE
5
4C8
100
AcDbEntity
8
0
100
AcDbLine
62
7
6
CONTINUOUS
10
3.6863112366
20
4.1606389349
11
3.6953607649
21
4.1612043770
0
LINE
5
4C9
100
AcDbEntity
8
0
100
AcDbLine
62
7
6
CONTINUOUS
10
2.6484079545
20
4.0914486620
11
2.6492343155
21
4.0914976774
0
LINE
5
4CA
100
AcDbEntity
8
0
100
AcDbLine
62
7
6
CONTINUOUS
10
7.6520452648
20
4.1962071724
11
7.4320452648
21
4.1962071724
0
LINE
5
4CB
100
AcDbEntity
8
0
100
AcDbLine
62
7
6
CONTINUOUS
10
7.1200452648
20
4.1962071724
11
7.3400452648
21
4.1962071724
0
LINE
5
4CC
100
AcDbEntity
8
0
100
AcDbLine
62
7
6
CONTINUOUS
10
8.7038956585
20
4.2467071724
11
8.0210452648
21
4.2467071724
0
LINE
5
4CD
100
AcDbEntity
8
0
100
AcDbLine
62
7
6
CONTINUOUS
10
6.3660452585
20
4.2467071724
11
6.7330452585
21
4.2467071724
0
LINE
5
4CE
100
AcDbEntity
8
0
100
AcDbLine
62
7
6
CONTINUOUS
10
6.9300452585
20
4.2907071238
11
6.9310452648
21
4.2907071238
0
LINE
5
4CF
100
AcDbEntity
8
0
100
AcDbLine
62
7
6
CONTINUOUS
10
6.9310452648
20
4.3027241385
11
6.9300452585
21
4.3027241385
0
LINE
5
4D0
100
AcDbEntity
8
0
100
AcDbLine
62
7
6
CONTINUOUS
10
6.9310452648
20
4.3302520943
11
6.9300452585
21
4.3302520943
0
LINE
5
4D1
100
AcDbEntity
8
0
100
AcDbLine
62
7
6
CONTINUOUS
10
6.9300452585
20
4.4082164072
11
6.9310452648
21
4.4082164072
0
LINE
5
4D2
100
AcDbEntity
8
0
100
AcDbLine
62
7
6
CONTINUOUS
10
6.9300452585
20
4.4157517916
11
6.9310452648
21
4.4157517916
0
LINE
5
4D3
100
AcDbEntity
8
0
100
AcDbLine
62
7
6
CONTINUOUS
10
8.0210452648
20
4.4617071724
11
7.8418956585
21
4.4617071724
0
LINE
5
4D4
100
AcDbEntity
8
0
100
AcDbLine
62
7
6
CONTINUOUS
10
6.7330452585
20
4.4617071724
11
6.9300452585
21
4.4617071724
0
LINE
5
4D5
100
AcDbEntity
8
0
100
AcDbLine
62
7
6
CONTINUOUS
10
7.4400452648
20
4.4669571724
11
7.4320452648
21
4.4669571724
0
LINE
5
4D6
100
AcDbEntity
8
0
100
AcDbLine
62
7
6
CONTINUOUS
10
7.3320452648
20
4.4669571724
11
7.3400452648
21
4.4669571724
0
LINE
5
4D7
100
AcDbEntity
8
0
100
AcDbLine
62
7
6
CONTINUOUS
10
6.9300452585
20
4.4885897901
11
6.9310452648
21
4.4885897901
0
LINE
5
4D8
100
AcDbEntity
8
0
100
AcDbLine
62
7
6
CONTINUOUS
10
7.3400452648
20
4.4914571724
11
7.3800452648
21
4.4914571724
0
LINE
5
4D9
100
AcDbEntity
8
0
100
AcDbLine
62
7
6
CONTINUOUS
10
7.3920452648
20
4.4914571724
11
7.4320452648
21
4.4914571724
0
LINE
5
4DA
100
AcDbEntity
8
0
100
AcDbLine
62
7
6
CONTINUOUS
10
7.3320452648
20
4.4919571724
11
7.4400452648
21
4.4919571724
0
LINE
5
4DB
100
AcDbEntity
8
0
100
AcDbLine
62
7
6
CONTINUOUS
10
6.9310452648
20
4.5108787677
11
6.9300452585
21
4.5108787677
0
LINE
5
4DC
100
AcDbEntity
8
0
100
AcDbLine
62
7
6
CONTINUOUS
10
5.4588015012
20
4.5186313825
11
6.2434832438
21
4.5186313825
0
LINE
5
4DD
100
AcDbEntity
8
DEFAULT_1
100
AcDbLine
62
7
6
CENTER
10
3.6279578843
20
4.5230692209
11
3.4972912176
21
4.5230692209
0
LINE
5
4DE
100
AcDbEntity
8
DEFAULT_1
100
AcDbLine
62
7
6
CENTER
10
2.7002337874
20
4.5230692209
11
2.5695671207
21
4.5230692209
0
LINE
5
4DF
100
AcDbEntity
8
DEFAULT_1
100
AcDbLine
62
7
6
CENTER
10
2.7002337874
20
4.5230692209
11
2.8309004541
21
4.5230692209
0
LINE
5
4E0
100
AcDbEntity
8
DEFAULT_1
100
AcDbLine
62
7
6
CENTER
10
3.6279578843
20
4.5230692209
11
3.7586245510
21
4.5230692209
0
LINE
5
4E1
100
AcDbEntity
8
0
100
AcDbLine
62
7
6
CONTINUOUS
10
6.9310452648
20
4.5389566384
11
6.9300452585
21
4.5389566384
0
LINE
5
4E2
100
AcDbEntity
8
0
100
AcDbLine
62
7
6
CONTINUOUS
10
0.8274593734
20
4.5650187361
11
1.6121775002
21
4.5650187361
0
LINE
5
4E3
100
AcDbEntity
8
0
100
AcDbLine
62
7
6
CONTINUOUS
10
6.9300452585
20
4.5804286698
11
6.9310452648
21
4.5804286698
0
LINE
5
4E4
100
AcDbEntity
8
0
100
AcDbLine
62
7
6
CONTINUOUS
10
6.9300452585
20
4.5818136163
11
6.9310452648
21
4.5818136163
0
LINE
5
4E5
100
AcDbEntity
8
0
100
AcDbLine
62
7
6
CONTINUOUS
10
7.3400452648
20
4.4871835506
11
7.3340452585
21
4.4875600517
0
LINE
5
4E6
100
AcDbEntity
8
0
100
AcDbLine
62
7
6
CONTINUOUS
10
6.3660452585
20
3.8717071724
11
6.3660452585
21
4.2467071724
0
LINE
5
4E7
100
AcDbEntity
8
0
100
AcDbLine
62
7
6
CONTINUOUS
10
3.5525715606
20
4.3981891658
11
3.5529057288
21
4.3982527873
0
LINE
5
4E8
100
AcDbEntity
8
0
100
AcDbLine
62
7
6
CONTINUOUS
10
3.1978052234
20
4.5735130402
11
3.1926059905
21
4.5731722645
0
LINE
5
4E9
100
AcDbEntity
8
0
100
AcDbLine
62
7
6
CONTINUOUS
10
3.0687436831
20
4.5650538999
11
3.0635444502
21
4.5647131242
0
LINE
5
4EA
100
AcDbEntity
8
0
100
AcDbLine
62
7
6
CONTINUOUS
10
6.9310452648
20
4.5980083576
11
6.9300452585
21
4.5980083576
0
LINE
5
4EB
100
AcDbEntity
8
0
100
AcDbLine
62
7
6
CONTINUOUS
10
6.9310452648
20
4.6191127006
11
6.9300452585
21
4.6191127006
0
LINE
5
4EC
100
AcDbEntity
8
0
100
AcDbLine
62
7
6
CONTINUOUS
10
7.8418956585
20
4.6192071724
11
7.7820452648
21
4.6192071724
0
LINE
5
4ED
100
AcDbEntity
8
0
100
AcDbLine
62
7
6
CONTINUOUS
10
6.9300452585
20
4.6192071724
11
6.9310452648
21
4.6192071724
0
LINE
5
4EE
100
AcDbEntity
8
0
100
AcDbLine
62
7
6
CONTINUOUS
10
7.7420452648
20
4.8822071724
11
7.4260452648
21
4.8822071724
0
LINE
5
4EF
100
AcDbEntity
8
0
100
AcDbLine
62
7
6
CONTINUOUS
10
7.0300452648
20
4.8822071724
11
7.3460452648
21
4.8822071724
0
LINE
5
4F0
100
AcDbEntity
8
0
100
AcDbLine
62
7
6
CONTINUOUS
10
7.3460452648
20
4.8852071724
11
7.4260452648
21
4.8852071724
0
LINE
5
4F1
100
AcDbEntity
8
0
100
AcDbLine
62
7
6
CONTINUOUS
10
6.7330452585
20
3.6567118886
11
6.7330452585
21
4.4617024563
0
LINE
5
4F2
100
AcDbEntity
8
0
100
AcDbLine
62
7
6
CONTINUOUS
10
6.9300452585
20
3.4992077341
11
6.9300452585
21
4.6192065513
0
LINE
5
4F3
100
AcDbEntity
8
0
100
AcDbLine
62
7
6
CONTINUOUS
10
6.9310452648
20
2.7739291773
11
6.9310452648
21
3.5177828506
0
LINE
5
4F4
100
AcDbEntity
8
0
100
AcDbLine
62
7
6
CONTINUOUS
10
6.9310452648
20
3.5182179307
11
6.9310452648
21
5.3444769842
0
LINE
5
4F5
100
AcDbEntity
8
0
100
AcDbLine
62
7
6
CONTINUOUS
10
6.9900452648
20
2.7809291773
11
6.9900452648
21
5.3374851675
0
LINE
5
4F6
100
AcDbEntity
8
0
100
AcDbLine
62
7
6
CONTINUOUS
10
7.1100452648
20
4.1862071724
11
7.1100452648
21
3.9322071724
0
LINE
5
4F7
100
AcDbEntity
8
DEFAULT_1
100
AcDbLine
62
7
6
CENTER
10
3.1635920154
20
5.1527071724
11
3.0154329896
21
5.1526780372
0
LINE
5
4F8
100
AcDbEntity
8
0
100
AcDbLine
62
7
6
CONTINUOUS
10
9.4933914805
20
5.2543882234
11
10.3878993707
21
5.2543882234
0
LINE
5
4F9
100
AcDbEntity
8
0
100
AcDbLine
62
7
6
CONTINUOUS
10
6.9830452648
20
5.3444851675
11
6.9310452648
21
5.3444851675
0
LINE
5
4FA
100
AcDbEntity
8
0
100
AcDbLine
62
7
6
CONTINUOUS
10
5.3540746930
20
5.4041014485
11
6.0708190488
21
5.4041014485
0
LINE
5
4FB
100
AcDbEntity
8
DEFAULT_1
100
AcDbLine
62
7
6
CENTER
10
3.1635920154
20
5.1527071724
11
3.3137663229
21
5.1526780372
0
LINE
5
4FC
100
AcDbEntity
8
0
100
AcDbLine
62
7
6
CONTINUOUS
10
7.1669681845
20
4.0384442597
11
7.2632901325
21
2.8412716489
0
LINE
5
4FD
100
AcDbEntity
8
0
100
AcDbLine
62
7
6
CONTINUOUS
10
7.1800529574
20
4.0420691055
11
7.2770410288
21
2.8366173348
0
LINE
5
4FE
100
AcDbEntity
8
0
100
AcDbLine
62
7
6
CONTINUOUS
10
7.2332800383
20
4.0455317848
11
7.3304553995
21
2.8377522137
0
LINE
5
4FF
100
AcDbEntity
8
0
100
AcDbLine
62
7
6
CONTINUOUS
10
7.2865071191
20
4.0489944642
11
7.3836400685
21
2.8417420250
0
LINE
5
500
100
AcDbEntity
8
0
100
AcDbLine
62
7
6
CONTINUOUS
10
7.3320452648
20
4.4919571724
11
7.3320452648
21
4.4669571724
0
LINE
5
501
100
AcDbEntity
8
0
100
AcDbLine
62
7
6
CONTINUOUS
10
7.3320452648
20
3.6514571724
11
7.3320452648
21
3.6264571724
0
LINE
5
502
100
AcDbEntity
8
0
100
AcDbLine
62
7
6
CONTINUOUS
10
7.3340452585
20
3.6514571724
11
7.3340452585
21
3.6264571724
0
LINE
5
503
100
AcDbEntity
8
0
100
AcDbLine
62
7
6
CONTINUOUS
10
7.3340452585
20
4.4669571724
11
7.3340452585
21
4.4919571724
0
LINE
5
504
100
AcDbEntity
8
0
100
AcDbLine
62
7
6
CONTINUOUS
10
7.3400452648
20
3.6269571724
11
7.3400452648
21
4.4914571724
0
LINE
5
505
100
AcDbEntity
8
0
100
AcDbLine
62
7
6
CONTINUOUS
10
7.3460452648
20
4.8852054366
11
7.3460452648
21
4.8822071724
0
LINE
5
506
100
AcDbEntity
8
0
100
AcDbLine
62
7
6
CONTINUOUS
10
7.3800452648
20
3.6269571724
11
7.3800452648
21
4.4914571724
0
LINE
5
507
100
AcDbEntity
8
0
100
AcDbLine
62
7
6
CONTINUOUS
10
7.3860452648
20
4.8852060621
11
7.3860452648
21
4.4919571724
0
LINE
5
508
100
AcDbEntity
8
0
100
AcDbLine
62
7
6
CONTINUOUS
10
7.3860452648
20
3.2332082828
11
7.3860452648
21
3.6264571724
0
LINE
5
509
100
AcDbEntity
8
0
100
AcDbLine
62
7
6
CONTINUOUS
10
7.3920452648
20
3.6269571724
11
7.3920452648
21
4.4914571724
0
LINE
5
50A
100
AcDbEntity
8
0
100
AcDbLine
62
7
6
CONTINUOUS
10
7.4260452648
20
4.8822071724
11
7.4260452648
21
4.8852054366
0
LINE
5
50B
100
AcDbEntity
8
0
100
AcDbLine
62
7
6
CONTINUOUS
10
7.4320452648
20
3.6269571724
11
7.4320452648
21
4.4914571724
0
LINE
5
50C
100
AcDbEntity
8
0
100
AcDbLine
62
7
6
CONTINUOUS
10
7.4378956585
20
3.6514571724
11
7.4378956585
21
3.6264571724
0
LINE
5
50D
100
AcDbEntity
8
0
100
AcDbLine
62
7
6
CONTINUOUS
10
7.4378956585
20
4.4669571724
11
7.4378956585
21
4.4919571724
0
LINE
5
50E
100
AcDbEntity
8
0
100
AcDbLine
62
7
6
CONTINUOUS
10
7.4400452648
20
3.6264571724
11
7.4400452648
21
3.6514571724
0
LINE
5
50F
100
AcDbEntity
8
0
100
AcDbLine
62
7
6
CONTINUOUS
10
7.4400452648
20
4.4669571724
11
7.4400452648
21
4.4919571724
0
LINE
5
510
100
AcDbEntity
8
0
100
AcDbLine
62
7
6
CONTINUOUS
10
7.4855834104
20
4.0489944642
11
7.3884504610
21
2.8417420250
0
LINE
5
511
100
AcDbEntity
8
0
100
AcDbLine
62
7
6
CONTINUOUS
10
6.9900452648
20
3.5096898220
11
6.9883113311
21
3.5074976957
0
LINE
5
512
100
AcDbEntity
8
0
100
AcDbLine
62
7
6
CONTINUOUS
10
6.9900452648
20
5.3374851675
11
6.9830452648
21
5.3444851675
0
LINE
5
513
100
AcDbEntity
8
0
100
AcDbLine
62
7
6
CONTINUOUS
10
7.6620452648
20
3.9322071724
11
7.6620452648
21
4.1862071724
0
LINE
5
514
100
AcDbEntity
8
0
100
AcDbLine
62
7
6
CONTINUOUS
10
7.7820452648
20
4.8422065480
11
7.7820452648
21
3.2762077968
0
LINE
5
515
100
AcDbEntity
8
0
100
AcDbLine
62
7
6
CONTINUOUS
10
7.8418956585
20
3.4992080241
11
7.8418956585
21
4.6192064639
0
LINE
5
516
100
AcDbEntity
8
0
100
AcDbLine
62
7
6
CONTINUOUS
10
7.5388104913
20
4.0455317848
11
7.4416120022
21
2.8374647611
0
LINE
5
517
100
AcDbEntity
8
0
100
AcDbLine
62
7
6
CONTINUOUS
10
7.5920375722
20
4.0420691055
11
7.4950495007
21
2.8366173348
0
LINE
5
518
100
AcDbEntity
8
0
100
AcDbLine
62
7
6
CONTINUOUS
10
7.6051223450
20
4.0384442597
11
7.5088003971
21
2.8412716489
0
LINE
5
519
100
AcDbEntity
8
0
100
AcDbLine
62
7
6
CONTINUOUS
10
6.9900452648
20
2.7809291773
11
6.9830452648
21
2.7739291773
0
LINE
5
51A
100
AcDbEntity
8
0
100
AcDbLine
62
7
6
CONTINUOUS
10
7.1554200006
20
5.9871347595
11
7.5388643057
21
5.9871347595
0
LINE
5
51B
100
AcDbEntity
8
0
100
AcDbLine
62
7
6
CONTINUOUS
10
3.0563059982
20
5.9974662335
11
3.8625598987
21
5.9974662335
0
LINE
5
51C
100
AcDbEntity
8
0
100
AcDbLine
62
7
6
CONTINUOUS
10
8.0210452648
20
3.6567071724
11
8.0210452648
21
4.4617071724
0
LINE
5
51D
100
AcDbEntity
8
0
100
AcDbLine
62
7
6
CONTINUOUS
10
7.0705848827
20
6.4979175053
11
7.4553605916
21
6.4979175053
0
LINE
5
51E
100
AcDbEntity
8
0
100
AcDbLine
62
7
6
CONTINUOUS
10
8.7038956585
20
3.8717122831
11
8.7038956585
21
4.2467020617
0
LINE
5
51F
100
AcDbEntity
8
0
100
AcDbLine
62
7
6
CONTINUOUS
10
8.8786079405
20
6.9507733995
11
9.2809445212
21
6.9507733995
0
LINE
5
520
100
AcDbEntity
8
0
100
AcDbLine
62
7
6
CONTINUOUS
10
5.3791187212
20
6.9518487024
11
6.1128102790
21
6.9518487024
0
LINE
5
521
100
AcDbEntity
8
0
100
AcDbLine
62
7
6
CONTINUOUS
10
5.3393252945
20
7.4996151515
11
6.1229540173
21
7.4996151515
0
LINE
5
522
100
AcDbEntity
8
0
100
AcDbLine
62
7
6
CONTINUOUS
10
7.4413195325
20
7.4996151515
11
7.8775196775
21
7.4996151515
0
LINE
5
523
100
AcDbEntity
8
0
100
AcDbLine
62
7
6
CONTINUOUS
10
0.7930112746
20
7.8030979904
11
10.5123111833
21
7.8030979904
0
LINE
5
524
100
AcDbEntity
8
0
100
AcDbLine
62
7
6
CONTINUOUS
10
0.0000000000
20
8.2677165354
11
11.6929133858
21
8.2677165354
0
LINE
5
525
100
AcDbEntity
8
0
100
AcDbLine
62
7
6
CONTINUOUS
10
10.5123111833
20
7.8030979904
11
10.5123111833
21
0.1871173906
0
LINE
5
526
100
AcDbEntity
8
0
100
AcDbLine
62
7
6
CONTINUOUS
10
11.6929133858
20
0.0000000000
11
11.6929133858
21
8.2677165354
0
CIRCLE
5
527
100
AcDbEntity
8
0
100
AcDbCircle
62
7
6
CONTINUOUS
10
3.1640958358
20
4.0592071724
40
0.0407000000
0
CIRCLE
5
528
100
AcDbEntity
8
0
100
AcDbCircle
62
7
6
CONTINUOUS
10
3.1640958358
20
4.0592071724
40
0.0556000000
0
ARC
5
529
100
AcDbEntity
8
0
100
AcDbCircle
62
7
6
CONTINUOUS
10
3.0847033235
20
4.1183496189
40
0.0100000000
100
AcDbArc
50
143.3161983284
51
240.0000000000
0
ARC
5
52A
100
AcDbEntity
8
0
100
AcDbCircle
62
7
6
CONTINUOUS
10
3.1640958358
20
4.0592071724
40
0.1090000000
100
AcDbArc
50
36.6838016716
51
143.3161983284
0
ARC
5
52B
100
AcDbEntity
8
0
100
AcDbCircle
62
7
6
CONTINUOUS
10
3.2434883482
20
4.1183496189
40
0.0100000000
100
AcDbArc
50
300.0000000000
51
36.6838016716
0
ARC
5
52C
100
AcDbEntity
8
0
100
AcDbCircle
62
7
6
CONTINUOUS
10
3.2346131146
20
4.0901314897
40
0.0100000000
100
AcDbArc
50
120.0000000000
51
203.6791481434
0
ARC
5
52D
100
AcDbEntity
8
0
100
AcDbCircle
62
7
6
CONTINUOUS
10
3.1640958358
20
4.0592071724
40
0.0670000000
100
AcDbArc
50
336.3208518566
51
23.6791481434
0
ARC
5
52E
100
AcDbEntity
8
0
100
AcDbCircle
62
7
6
CONTINUOUS
10
3.2346131146
20
4.0282828552
40
0.0100000000
100
AcDbArc
50
156.3208518566
51
240.0000000000
0
ARC
5
52F
100
AcDbEntity
8
0
100
AcDbCircle
62
7
6
CONTINUOUS
10
3.2434883482
20
4.0000647259
40
0.0100000000
100
AcDbArc
50
323.3161983284
51
60.0000000000
0
ARC
5
530
100
AcDbEntity
8
0
100
AcDbCircle
62
7
6
CONTINUOUS
10
3.1640958358
20
4.0592071724
40
0.1090000000
100
AcDbArc
50
216.6838016716
51
323.3161983284
0
ARC
5
531
100
AcDbEntity
8
0
100
AcDbCircle
62
7
6
CONTINUOUS
10
3.0847033235
20
4.0000647259
40
0.0100000000
100
AcDbArc
50
120.0000000000
51
216.6838016716
0
ARC
5
532
100
AcDbEntity
8
0
100
AcDbCircle
62
7
6
CONTINUOUS
10
3.0935785571
20
4.0282828552
40
0.0100000000
100
AcDbArc
50
300.0000000000
51
23.6791481434
0
ARC
5
533
100
AcDbEntity
8
0
100
AcDbCircle
62
7
6
CONTINUOUS
10
3.1640958358
20
4.0592071724
40
0.0670000000
100
AcDbArc
50
156.3208518566
51
203.6791481434
0
ARC
5
534
100
AcDbEntity
8
0
100
AcDbCircle
62
7
6
CONTINUOUS
10
3.0935785571
20
4.0901314897
40
0.0100000000
100
AcDbArc
50
336.3208518566
51
60.0000000000
0
ARC
5
535
100
AcDbEntity
8
0
100
AcDbCircle
62
7
6
CONTINUOUS
10
3.6970525117
20
4.1461392243
40
0.0200000000
100
AcDbArc
50
9.2640900860
51
41.9415131521
0
ARC
5
536
100
AcDbEntity
8
0
100
AcDbCircle
62
7
6
CONTINUOUS
10
3.1640958358
20
4.0592071724
40
0.5600000000
100
AcDbArc
50
8.7044631662
51
9.2640900860
0
ARC
5
537
100
AcDbEntity
8
0
100
AcDbCircle
62
7
6
CONTINUOUS
10
3.1640958358
20
4.0592071724
40
0.5600000000
100
AcDbArc
50
358.2359099140
51
358.7955368338
0
ARC
5
538
100
AcDbEntity
8
0
100
AcDbCircle
62
7
6
CONTINUOUS
10
3.7038399032
20
4.0425836418
40
0.0200000000
100
AcDbArc
50
325.5584868479
51
358.2359099140
0
ARC
5
539
100
AcDbEntity
8
0
100
AcDbCircle
62
7
6
CONTINUOUS
10
3.6691158822
20
3.8680141998
40
0.0200000000
100
AcDbArc
50
339.2640900860
51
11.9415131521
0
ARC
5
53A
100
AcDbEntity
8
0
100
AcDbCircle
62
7
6
CONTINUOUS
10
3.1640958358
20
4.0592071724
40
0.5600000000
100
AcDbArc
50
338.7044631662
51
339.2640900860
0
ARC
5
53B
100
AcDbEntity
8
0
100
AcDbCircle
62
7
6
CONTINUOUS
10
3.1640958358
20
4.0592071724
40
0.5600000000
100
AcDbArc
50
328.2359099140
51
328.7955368338
0
ARC
5
53C
100
AcDbEntity
8
0
100
AcDbCircle
62
7
6
CONTINUOUS
10
3.6232161444
20
3.7749387389
40
0.0200000000
100
AcDbArc
50
295.5584868479
51
328.2359099140
0
ARC
5
53D
100
AcDbEntity
8
0
100
AcDbCircle
62
7
6
CONTINUOUS
10
3.5058595391
20
3.6411191780
40
0.0200000000
100
AcDbArc
50
309.2640900860
51
341.9415131521
0
ARC
5
53E
100
AcDbEntity
8
0
100
AcDbCircle
62
7
6
CONTINUOUS
10
3.1640958358
20
4.0592071724
40
0.5600000000
100
AcDbArc
50
308.7044631662
51
309.2640900860
0
ARC
5
53F
100
AcDbEntity
8
0
100
AcDbCircle
62
7
6
CONTINUOUS
10
3.1640958358
20
4.0592071724
40
0.5600000000
100
AcDbArc
50
298.2359099140
51
298.7955368338
0
ARC
5
540
100
AcDbEntity
8
0
100
AcDbCircle
62
7
6
CONTINUOUS
10
3.4195714697
20
3.5834633332
40
0.0200000000
100
AcDbArc
50
265.5584868479
51
298.2359099140
0
ARC
5
541
100
AcDbEntity
8
0
100
AcDbCircle
62
7
6
CONTINUOUS
10
3.2510278877
20
3.5262504966
40
0.0200000000
100
AcDbArc
50
279.2640900860
51
311.9415131521
0
ARC
5
542
100
AcDbEntity
8
0
100
AcDbCircle
62
7
6
CONTINUOUS
10
3.1640958358
20
4.0592071724
40
0.5600000000
100
AcDbArc
50
278.7044631662
51
279.2640900860
0
ARC
5
543
100
AcDbEntity
8
0
100
AcDbCircle
62
7
6
CONTINUOUS
10
3.1640958358
20
4.0592071724
40
0.5600000000
100
AcDbArc
50
268.2359099140
51
268.7955368338
0
ARC
5
544
100
AcDbEntity
8
0
100
AcDbCircle
62
7
6
CONTINUOUS
10
3.1474723052
20
3.5194631051
40
0.0200000000
100
AcDbArc
50
235.5584868479
51
268.2359099140
0
ARC
5
545
100
AcDbEntity
8
0
100
AcDbCircle
62
7
6
CONTINUOUS
10
2.9729028633
20
3.5541871261
40
0.0200000000
100
AcDbArc
50
249.2640900860
51
281.9415131521
0
ARC
5
546
100
AcDbEntity
8
0
100
AcDbCircle
62
7
6
CONTINUOUS
10
3.1640958358
20
4.0592071724
40
0.5600000000
100
AcDbArc
50
248.7044631662
51
249.2640900860
0
ARC
5
547
100
AcDbEntity
8
0
100
AcDbCircle
62
7
6
CONTINUOUS
10
3.1640958358
20
4.0592071724
40
0.5600000000
100
AcDbArc
50
238.2359099140
51
238.7955368338
0
ARC
5
548
100
AcDbEntity
8
0
100
AcDbCircle
62
7
6
CONTINUOUS
10
2.8798274023
20
3.6000868639
40
0.0200000000
100
AcDbArc
50
205.5584868479
51
238.2359099140
0
ARC
5
549
100
AcDbEntity
8
0
100
AcDbCircle
62
7
6
CONTINUOUS
10
2.7460078414
20
3.7174434691
40
0.0200000000
100
AcDbArc
50
219.2640900860
51
251.9415131521
0
ARC
5
54A
100
AcDbEntity
8
0
100
AcDbCircle
62
7
6
CONTINUOUS
10
3.1640958358
20
4.0592071724
40
0.5600000000
100
AcDbArc
50
218.7044631662
51
219.2640900860
0
ARC
5
54B
100
AcDbEntity
8
0
100
AcDbCircle
62
7
6
CONTINUOUS
10
3.1640958358
20
4.0592071724
40
0.5600000000
100
AcDbArc
50
208.2359099140
51
208.7955368338
0
ARC
5
54C
100
AcDbEntity
8
0
100
AcDbCircle
62
7
6
CONTINUOUS
10
2.6883519967
20
3.8037315386
40
0.0200000000
100
AcDbArc
50
175.5584868479
51
208.2359099140
0
ARC
5
54D
100
AcDbEntity
8
0
100
AcDbCircle
62
7
6
CONTINUOUS
10
2.6311391600
20
3.9722751205
40
0.0200000000
100
AcDbArc
50
189.2640900860
51
221.9415131521
0
ARC
5
54E
100
AcDbEntity
8
0
100
AcDbCircle
62
7
6
CONTINUOUS
10
3.1640958358
20
4.0592071724
40
0.5600000000
100
AcDbArc
50
188.7044631662
51
189.2640900860
0
ARC
5
54F
100
AcDbEntity
8
0
100
AcDbCircle
62
7
6
CONTINUOUS
10
3.1640958358
20
4.0592071724
40
0.5600000000
100
AcDbArc
50
178.2359099140
51
178.7955368338
0
ARC
5
550
100
AcDbEntity
8
0
100
AcDbCircle
62
7
6
CONTINUOUS
10
2.6243517685
20
4.0758307030
40
0.0200000000
100
AcDbArc
50
145.5584868479
51
178.2359099140
0
ARC
5
551
100
AcDbEntity
8
0
100
AcDbCircle
62
7
6
CONTINUOUS
10
2.6590757895
20
4.2504001450
40
0.0200000000
100
AcDbArc
50
159.2640900860
51
191.9415131521
0
ARC
5
552
100
AcDbEntity
8
0
100
AcDbCircle
62
7
6
CONTINUOUS
10
3.1640958358
20
4.0592071724
40
0.5600000000
100
AcDbArc
50
158.7044631662
51
159.2640900860
0
ARC
5
553
100
AcDbEntity
8
0
100
AcDbCircle
62
7
6
CONTINUOUS
10
3.1640958358
20
4.0592071724
40
0.5600000000
100
AcDbArc
50
148.2359099140
51
148.7955368338
0
ARC
5
554
100
AcDbEntity
8
0
100
AcDbCircle
62
7
6
CONTINUOUS
10
2.7049755273
20
4.3434756059
40
0.0200000000
100
AcDbArc
50
115.5584868479
51
148.2359099140
0
ARC
5
555
100
AcDbEntity
8
0
100
AcDbCircle
62
7
6
CONTINUOUS
10
2.8223321326
20
4.4772951669
40
0.0200000000
100
AcDbArc
50
129.2640900860
51
161.9415131521
0
ARC
5
556
100
AcDbEntity
8
0
100
AcDbCircle
62
7
6
CONTINUOUS
10
3.1640958358
20
4.0592071724
40
0.5600000000
100
AcDbArc
50
128.7044631662
51
129.2640900860
0
ARC
5
557
100
AcDbEntity
8
0
100
AcDbCircle
62
7
6
CONTINUOUS
10
3.1640958358
20
4.0592071724
40
0.5600000000
100
AcDbArc
50
118.2359099140
51
118.7955368338
0
ARC
5
558
100
AcDbEntity
8
0
100
AcDbCircle
62
7
6
CONTINUOUS
10
2.9086202020
20
4.5349510116
40
0.0200000000
100
AcDbArc
50
85.5584868479
51
118.2359099140
0
ARC
5
559
100
AcDbEntity
8
0
100
AcDbCircle
62
7
6
CONTINUOUS
10
3.0771637839
20
4.5921638483
40
0.0200000000
100
AcDbArc
50
99.2640900860
51
131.9415131521
0
ARC
5
55A
100
AcDbEntity
8
0
100
AcDbCircle
62
7
6
CONTINUOUS
10
3.1640958358
20
4.0592071724
40
0.5600000000
100
AcDbArc
50
98.7044631662
51
99.2640900860
0
ARC
5
55B
100
AcDbEntity
8
0
100
AcDbCircle
62
7
6
CONTINUOUS
10
3.1640958358
20
4.0592071724
40
0.5600000000
100
AcDbArc
50
88.2359099140
51
88.7955368338
0
ARC
5
55C
100
AcDbEntity
8
0
100
AcDbCircle
62
7
6
CONTINUOUS
10
3.1807193665
20
4.5989512398
40
0.0200000000
100
AcDbArc
50
55.5584868479
51
88.2359099140
0
ARC
5
55D
100
AcDbEntity
8
0
100
AcDbCircle
62
7
6
CONTINUOUS
10
3.3552888084
20
4.5642272188
40
0.0200000000
100
AcDbArc
50
69.2640900860
51
101.9415131521
0
ARC
5
55E
100
AcDbEntity
8
0
100
AcDbCircle
62
7
6
CONTINUOUS
10
3.1640958358
20
4.0592071724
40
0.5600000000
100
AcDbArc
50
68.7044631662
51
69.2640900860
0
ARC
5
55F
100
AcDbEntity
8
0
100
AcDbCircle
62
7
6
CONTINUOUS
10
3.1640958358
20
4.0592071724
40
0.5600000000
100
AcDbArc
50
58.2359099140
51
58.7955368338
0
ARC
5
560
100
AcDbEntity
8
0
100
AcDbCircle
62
7
6
CONTINUOUS
10
3.4483642693
20
4.5183274810
40
0.0200000000
100
AcDbArc
50
25.5584868479
51
58.2359099140
0
ARC
5
561
100
AcDbEntity
8
0
100
AcDbCircle
62
7
6
CONTINUOUS
10
3.5821838303
20
4.4009708757
40
0.0200000000
100
AcDbArc
50
39.2640900860
51
71.9415131521
0
ARC
5
562
100
AcDbEntity
8
0
100
AcDbCircle
62
7
6
CONTINUOUS
10
3.1640958358
20
4.0592071724
40
0.5600000000
100
AcDbArc
50
38.7044631662
51
39.2640900860
0
ARC
5
563
100
AcDbEntity
8
0
100
AcDbCircle
62
7
6
CONTINUOUS
10
3.1640958358
20
4.0592071724
40
0.5600000000
100
AcDbArc
50
28.2359099140
51
28.7955368338
0
ARC
5
564
100
AcDbEntity
8
0
100
AcDbCircle
62
7
6
CONTINUOUS
10
3.6398396750
20
4.3146828063
40
0.0200000000
100
AcDbArc
50
355.5584868479
51
28.2359099140
0
CIRCLE
5
565
100
AcDbEntity
8
0
100
AcDbCircle
62
7
6
CONTINUOUS
10
3.1640958358
20
4.0592071724
40
0.1875000000
0
ARC
5
566
100
AcDbEntity
8
0
100
AcDbCircle
62
7
6
CONTINUOUS
10
3.0895371341
20
4.0302071724
40
0.0100000000
100
AcDbArc
50
298.0000000000
51
21.2538091854
0
ARC
5
567
100
AcDbEntity
8
0
100
AcDbCircle
62
7
6
CONTINUOUS
10
3.0808322434
20
4.0029272989
40
0.0100000000
100
AcDbArc
50
118.0000000000
51
214.0557107250
0
ARC
5
568
100
AcDbEntity
8
0
100
AcDbCircle
62
7
6
CONTINUOUS
10
3.1640958358
20
4.0592071724
40
0.1105000000
100
AcDbArc
50
214.0557107250
51
325.9442892750
0
ARC
5
569
100
AcDbEntity
8
0
100
AcDbCircle
62
7
6
CONTINUOUS
10
3.2473594283
20
4.0029272989
40
0.0100000000
100
AcDbArc
50
325.9442892750
51
62.0000000000
0
ARC
5
56A
100
AcDbEntity
8
0
100
AcDbCircle
62
7
6
CONTINUOUS
10
3.2386545375
20
4.0302071724
40
0.0100000000
100
AcDbArc
50
158.7461908146
51
242.0000000000
0
ARC
5
56B
100
AcDbEntity
8
0
100
AcDbCircle
62
7
6
CONTINUOUS
10
3.2386545375
20
4.0882071724
40
0.0100000000
100
AcDbArc
50
118.0000000000
51
201.2538091854
0
ARC
5
56C
100
AcDbEntity
8
0
100
AcDbCircle
62
7
6
CONTINUOUS
10
3.2473594283
20
4.1154870460
40
0.0100000000
100
AcDbArc
50
298.0000000000
51
34.0557107250
0
ARC
5
56D
100
AcDbEntity
8
0
100
AcDbCircle
62
7
6
CONTINUOUS
10
3.1640958358
20
4.0592071724
40
0.1105000000
100
AcDbArc
50
34.0557107250
51
145.9442892750
0
ARC
5
56E
100
AcDbEntity
8
0
100
AcDbCircle
62
7
6
CONTINUOUS
10
3.0808322434
20
4.1154870460
40
0.0100000000
100
AcDbArc
50
145.9442892750
51
242.0000000000
0
ARC
5
56F
100
AcDbEntity
8
0
100
AcDbCircle
62
7
6
CONTINUOUS
10
3.0895371341
20
4.0882071724
40
0.0100000000
100
AcDbArc
50
338.7461908146
51
62.0000000000
0
ARC
5
570
100
AcDbEntity
8
0
100
AcDbCircle
62
7
6
CONTINUOUS
10
3.1640958358
20
4.0592071724
40
0.0700000000
100
AcDbArc
50
158.7461908146
51
201.2538091854
0
ARC
5
571
100
AcDbEntity
8
0
100
AcDbCircle
62
7
6
CONTINUOUS
10
3.1640958358
20
4.0592071724
40
0.0700000000
100
AcDbArc
50
338.7461908146
51
21.2538091854
0
ARC
5
572
100
AcDbEntity
8
0
100
AcDbCircle
62
7
6
CONTINUOUS
10
2.6614893920
20
4.2566578310
40
0.0200000000
100
AcDbArc
50
158.5524486379
51
250.6750000000
0
ARC
5
573
100
AcDbEntity
8
0
100
AcDbCircle
62
7
6
CONTINUOUS
10
2.7014802793
20
4.3377513285
40
0.0200000000
100
AcDbArc
50
56.8250000000
51
148.9475513621
0
ARC
5
574
100
AcDbEntity
8
0
100
AcDbCircle
62
7
6
CONTINUOUS
10
2.8275512166
20
4.4815076807
40
0.0200000000
100
AcDbArc
50
128.5524486379
51
220.6750000000
0
ARC
5
575
100
AcDbEntity
8
0
100
AcDbCircle
62
7
6
CONTINUOUS
10
3.0837899002
20
4.5932024502
40
0.0200000000
100
AcDbArc
50
98.5524486379
51
190.6750000000
0
ARC
5
576
100
AcDbEntity
8
0
100
AcDbCircle
62
7
6
CONTINUOUS
10
2.9027310897
20
4.5317412659
40
0.0200000000
100
AcDbArc
50
26.8250000000
51
118.9475513621
0
ARC
5
577
100
AcDbEntity
8
0
100
AcDbCircle
62
7
6
CONTINUOUS
10
3.3615464944
20
4.5618136163
40
0.0200000000
100
AcDbArc
50
68.5524486379
51
160.6750000000
0
ARC
5
578
100
AcDbEntity
8
0
100
AcDbCircle
62
7
6
CONTINUOUS
10
3.1740143728
20
4.5991160746
40
0.0200000000
100
AcDbArc
50
356.8250000000
51
88.9475513621
0
ARC
5
579
100
AcDbEntity
8
0
100
AcDbCircle
62
7
6
CONTINUOUS
10
3.4426399919
20
4.5218227289
40
0.0200000000
100
AcDbArc
50
326.8250000000
51
58.9475513621
0
ARC
5
57A
100
AcDbEntity
8
0
100
AcDbCircle
62
7
6
CONTINUOUS
10
3.5863963441
20
4.3957517916
40
0.0200000000
100
AcDbArc
50
38.5524486379
51
130.6750000000
0
ARC
5
57B
100
AcDbEntity
8
0
100
AcDbCircle
62
7
6
CONTINUOUS
10
3.6366299293
20
4.3205719185
40
0.0200000000
100
AcDbArc
50
296.8250000000
51
28.9475513621
0
ARC
5
57C
100
AcDbEntity
8
0
100
AcDbCircle
62
7
6
CONTINUOUS
10
3.6980911136
20
4.1395131080
40
0.0200000000
100
AcDbArc
50
8.5524486379
51
100.6750000000
0
ARC
5
57D
100
AcDbEntity
8
0
100
AcDbCircle
62
7
6
CONTINUOUS
10
3.6667022797
20
3.8617565138
40
0.0200000000
100
AcDbArc
50
338.5524486379
51
70.6750000000
0
ARC
5
57E
100
AcDbEntity
8
0
100
AcDbCircle
62
7
6
CONTINUOUS
10
3.5006404551
20
3.6369066642
40
0.0200000000
100
AcDbArc
50
308.5524486379
51
40.6750000000
0
ARC
5
57F
100
AcDbEntity
8
0
100
AcDbCircle
62
7
6
CONTINUOUS
10
3.7040047380
20
4.0492886355
40
0.0200000000
100
AcDbArc
50
266.8250000000
51
358.9475513621
0
ARC
5
580
100
AcDbEntity
8
0
100
AcDbCircle
62
7
6
CONTINUOUS
10
3.6267113924
20
3.7806630164
40
0.0200000000
100
AcDbArc
50
236.8250000000
51
328.9475513621
0
ARC
5
581
100
AcDbEntity
8
0
100
AcDbCircle
62
7
6
CONTINUOUS
10
3.4254605820
20
3.5866730790
40
0.0200000000
100
AcDbArc
50
206.8250000000
51
298.9475513621
0
ARC
5
582
100
AcDbEntity
8
0
100
AcDbCircle
62
7
6
CONTINUOUS
10
3.2444017715
20
3.5252118946
40
0.0200000000
100
AcDbArc
50
278.5524486379
51
10.6750000000
0
ARC
5
583
100
AcDbEntity
8
0
100
AcDbCircle
62
7
6
CONTINUOUS
10
2.6241869337
20
4.0691257094
40
0.0200000000
100
AcDbArc
50
86.8250000000
51
178.9475513621
0
ARC
5
584
100
AcDbEntity
8
0
100
AcDbCircle
62
7
6
CONTINUOUS
10
2.6301005581
20
3.9789012368
40
0.0200000000
100
AcDbArc
50
188.5524486379
51
280.6750000000
0
ARC
5
585
100
AcDbEntity
8
0
100
AcDbCircle
62
7
6
CONTINUOUS
10
2.6915617424
20
3.7978424263
40
0.0200000000
100
AcDbArc
50
116.8250000000
51
208.9475513621
0
ARC
5
586
100
AcDbEntity
8
0
100
AcDbCircle
62
7
6
CONTINUOUS
10
2.7417953276
20
3.7226625532
40
0.0200000000
100
AcDbArc
50
218.5524486379
51
310.6750000000
0
ARC
5
587
100
AcDbEntity
8
0
100
AcDbCircle
62
7
6
CONTINUOUS
10
3.1541772989
20
3.5192982703
40
0.0200000000
100
AcDbArc
50
176.8250000000
51
268.9475513621
0
ARC
5
588
100
AcDbEntity
8
0
100
AcDbCircle
62
7
6
CONTINUOUS
10
2.9666451773
20
3.5566007285
40
0.0200000000
100
AcDbArc
50
248.5524486379
51
340.6750000000
0
ARC
5
589
100
AcDbEntity
8
0
100
AcDbCircle
62
7
6
CONTINUOUS
10
2.8855516798
20
3.5965916159
40
0.0200000000
100
AcDbArc
50
146.8250000000
51
238.9475513621
0
CIRCLE
5
58A
100
AcDbEntity
8
0
100
AcDbCircle
62
7
6
CONTINUOUS
10
3.1640958358
20
4.0592071724
40
0.4025000000
0
ARC
5
58B
100
AcDbEntity
8
0
100
AcDbCircle
62
7
6
CONTINUOUS
10
3.1640958358
20
4.0592071724
40
0.5130000000
100
AcDbArc
50
250.6750000000
51
266.8250000000
0
ARC
5
58C
100
AcDbEntity
8
0
100
AcDbCircle
62
7
6
CONTINUOUS
10
3.1640958358
20
4.0592071724
40
0.5130000000
100
AcDbArc
50
280.6750000000
51
296.8250000000
0
ARC
5
58D
100
AcDbEntity
8
0
100
AcDbCircle
62
7
6
CONTINUOUS
10
3.1640958358
20
4.0592071724
40
0.5130000000
100
AcDbArc
50
310.6750000000
51
326.8250000000
0
ARC
5
58E
100
AcDbEntity
8
0
100
AcDbCircle
62
7
6
CONTINUOUS
10
3.1640958358
20
4.0592071724
40
0.5130000000
100
AcDbArc
50
340.6750000000
51
356.8250000000
0
ARC
5
58F
100
AcDbEntity
8
0
100
AcDbCircle
62
7
6
CONTINUOUS
10
3.1640958358
20
4.0592071724
40
0.5130000000
100
AcDbArc
50
10.6750000000
51
26.8250000000
0
ARC
5
590
100
AcDbEntity
8
0
100
AcDbCircle
62
7
6
CONTINUOUS
10
3.1640958358
20
4.0592071724
40
0.5130000000
100
AcDbArc
50
40.6750000000
51
56.8250000000
0
ARC
5
591
100
AcDbEntity
8
0
100
AcDbCircle
62
7
6
CONTINUOUS
10
3.1640958358
20
4.0592071724
40
0.5130000000
100
AcDbArc
50
70.6750000000
51
86.8250000000
0
ARC
5
592
100
AcDbEntity
8
0
100
AcDbCircle
62
7
6
CONTINUOUS
10
3.1640958358
20
4.0592071724
40
0.5130000000
100
AcDbArc
50
100.6750000000
51
116.8250000000
0
ARC
5
593
100
AcDbEntity
8
0
100
AcDbCircle
62
7
6
CONTINUOUS
10
3.1640958358
20
4.0592071724
40
0.5130000000
100
AcDbArc
50
130.6750000000
51
146.8250000000
0
ARC
5
594
100
AcDbEntity
8
0
100
AcDbCircle
62
7
6
CONTINUOUS
10
3.1640958358
20
4.0592071724
40
0.5130000000
100
AcDbArc
50
160.6750000000
51
176.8250000000
0
ARC
5
595
100
AcDbEntity
8
0
100
AcDbCircle
62
7
6
CONTINUOUS
10
3.1640958358
20
4.0592071724
40
0.5130000000
100
AcDbArc
50
190.6750000000
51
206.8250000000
0
ARC
5
596
100
AcDbEntity
8
0
100
AcDbCircle
62
7
6
CONTINUOUS
10
3.1640958358
20
4.0592071724
40
0.5130000000
100
AcDbArc
50
220.6750000000
51
236.8250000000
0
ARC
5
597
100
AcDbEntity
8
0
100
AcDbCircle
62
7
6
CONTINUOUS
10
3.1640958358
20
4.0592071724
40
0.5600000000
100
AcDbArc
50
148.9475513621
51
158.5524486379
0
ARC
5
598
100
AcDbEntity
8
0
100
AcDbCircle
62
7
6
CONTINUOUS
10
3.1640958358
20
4.0592071724
40
0.5600000000
100
AcDbArc
50
118.9475513621
51
128.5524486379
0
ARC
5
599
100
AcDbEntity
8
0
100
AcDbCircle
62
7
6
CONTINUOUS
10
3.1640958358
20
4.0592071724
40
0.5600000000
100
AcDbArc
50
88.9475513621
51
98.5524486379
0
ARC
5
59A
100
AcDbEntity
8
0
100
AcDbCircle
62
7
6
CONTINUOUS
10
3.1640958358
20
4.0592071724
40
0.5600000000
100
AcDbArc
50
58.9475513621
51
68.5524486379
0
ARC
5
59B
100
AcDbEntity
8
0
100
AcDbCircle
62
7
6
CONTINUOUS
10
3.1640958358
20
4.0592071724
40
0.5600000000
100
AcDbArc
50
28.9475513621
51
38.5524486379
0
ARC
5
59C
100
AcDbEntity
8
0
100
AcDbCircle
62
7
6
CONTINUOUS
10
3.1640958358
20
4.0592071724
40
0.5600000000
100
AcDbArc
50
358.9475513621
51
8.5524486379
0
ARC
5
59D
100
AcDbEntity
8
0
100
AcDbCircle
62
7
6
CONTINUOUS
10
3.1640958358
20
4.0592071724
40
0.5600000000
100
AcDbArc
50
328.9475513621
51
338.5524486379
0
ARC
5
59E
100
AcDbEntity
8
0
100
AcDbCircle
62
7
6
CONTINUOUS
10
3.1640958358
20
4.0592071724
40
0.5600000000
100
AcDbArc
50
298.9475513621
51
308.5524486379
0
ARC
5
59F
100
AcDbEntity
8
0
100
AcDbCircle
62
7
6
CONTINUOUS
10
3.1640958358
20
4.0592071724
40
0.5600000000
100
AcDbArc
50
178.9475513621
51
188.5524486379
0
ARC
5
5A0
100
AcDbEntity
8
0
100
AcDbCircle
62
7
6
CONTINUOUS
10
3.1640958358
20
4.0592071724
40
0.5600000000
100
AcDbArc
50
208.9475513621
51
218.5524486379
0
ARC
5
5A1
100
AcDbEntity
8
0
100
AcDbCircle
62
7
6
CONTINUOUS
10
3.1640958358
20
4.0592071724
40
0.5600000000
100
AcDbArc
50
268.9475513621
51
278.5524486379
0
ARC
5
5A2
100
AcDbEntity
8
0
100
AcDbCircle
62
7
6
CONTINUOUS
10
3.1640958358
20
4.0592071724
40
0.5600000000
100
AcDbArc
50
238.9475513621
51
248.5524486379
0
CIRCLE
5
5A3
100
AcDbEntity
8
0
100
AcDbCircle
62
7
6
CONTINUOUS
10
3.0370958358
20
4.0592071724
40
0.0331662479
0
CIRCLE
5
5A4
100
AcDbEntity
8
0
100
AcDbCircle
62
7
6
CONTINUOUS
10
3.2910958358
20
4.0592071724
40
0.0331662479
0
ARC
5
5A5
100
AcDbEntity
8
0
100
AcDbCircle
62
7
6
CONTINUOUS
10
3.1640958358
20
4.0592071724
40
0.8270000000
100
AcDbArc
50
152.1543416187
51
207.8456583813
0
CIRCLE
5
5A6
100
AcDbEntity
8
0
100
AcDbCircle
62
7
6
CONTINUOUS
10
3.1640958358
20
4.0592071724
40
0.5700000000
0
CIRCLE
5
5A7
100
AcDbEntity
8
0
100
AcDbCircle
62
7
6
CONTINUOUS
10
2.7002337874
20
3.5953451240
40
0.0640000000
0
CIRCLE
5
5A8
100
AcDbEntity
8
0
100
AcDbCircle
62
7
6
CONTINUOUS
10
3.6279578843
20
3.5953451240
40
0.0640000000
0
CIRCLE
5
5A9
100
AcDbEntity
8
0
100
AcDbCircle
62
7
6
CONTINUOUS
10
3.6279578843
20
4.5230692209
40
0.0640000000
0
CIRCLE
5
5AA
100
AcDbEntity
8
0
100
AcDbCircle
62
7
6
CONTINUOUS
10
2.7002337874
20
4.5230692209
40
0.0640000000
0
CIRCLE
5
5AB
100
AcDbEntity
8
0
100
AcDbCircle
62
7
6
CONTINUOUS
10
2.5080958358
20
4.0592071724
40
0.0640000000
0
CIRCLE
5
5AC
100
AcDbEntity
8
0
100
AcDbCircle
62
7
6
CONTINUOUS
10
3.8200958358
20
4.0592071724
40
0.0640000000
0
CIRCLE
5
5AD
100
AcDbEntity
8
0
100
AcDbCircle
62
7
6
CONTINUOUS
10
3.1660089271
20
2.9657074460
40
0.0825000000
0
CIRCLE
5
5AE
100
AcDbEntity
8
0
100
AcDbCircle
62
7
6
CONTINUOUS
10
3.1635920154
20
5.1527071724
40
0.0825000000
0
ARC
5
5AF
100
AcDbEntity
8
0
100
AcDbCircle
62
7
6
CONTINUOUS
10
3.1640958358
20
5.2062071724
40
0.1382779951
100
AcDbArc
50
45.0000000000
51
135.0000000000
0
ARC
5
5B0
100
AcDbEntity
8
0
100
AcDbCircle
62
7
6
CONTINUOUS
10
3.1640958358
20
4.0592071724
40
0.8270000000
100
AcDbArc
50
332.1543416187
51
27.8456583813
0
ARC
5
5B1
100
AcDbEntity
8
0
100
AcDbCircle
62
7
6
CONTINUOUS
10
7.1200452648
20
3.9322071724
40
0.0100000000
100
AcDbArc
50
180.0000000000
51
270.0000000000
0
ARC
5
5B2
100
AcDbEntity
8
0
100
AcDbCircle
62
7
6
CONTINUOUS
10
7.1200452648
20
4.1862071724
40
0.0100000000
100
AcDbArc
50
90.0000000000
51
180.0000000000
0
ARC
5
5B3
100
AcDbEntity
8
0
100
AcDbCircle
62
7
6
CONTINUOUS
10
7.0300452648
20
4.8422071724
40
0.0400000000
100
AcDbArc
50
90.0000000000
51
180.0000000000
0
ARC
5
5B4
100
AcDbEntity
8
0
100
AcDbCircle
62
7
6
CONTINUOUS
10
7.0300452648
20
3.2762071724
40
0.0400000000
100
AcDbArc
50
180.0000000000
51
270.0000000000
0
ARC
5
5B5
100
AcDbEntity
8
0
100
AcDbCircle
62
7
6
CONTINUOUS
10
7.6520452648
20
4.1862071724
40
0.0100000000
100
AcDbArc
50
0.0000000000
51
90.0000000000
0
ARC
5
5B6
100
AcDbEntity
8
0
100
AcDbCircle
62
7
6
CONTINUOUS
10
7.6520452648
20
3.9322071724
40
0.0100000000
100
AcDbArc
50
270.0000000000
51
360.0000000000
0
ARC
5
5B7
100
AcDbEntity
8
0
100
AcDbCircle
62
7
6
CONTINUOUS
10
7.7420452648
20
3.2762071724
40
0.0400000000
100
AcDbArc
50
270.0000000000
51
360.0000000000
0
ARC
5
5B8
100
AcDbEntity
8
0
100
AcDbCircle
62
7
6
CONTINUOUS
10
7.7420452648
20
4.8422071724
40
0.0400000000
100
AcDbArc
50
0.0000000000
51
90.0000000000
0
ARC
5
5B9
100
AcDbEntity
8
8_ALL_NOTES_BALLOONS_SYMBOLS_GT
100
AcDbCircle
62
7
6
CONTINUOUS
10
3.1640958358
20
2.9122071724
40
0.1382779951
100
AcDbArc
50
225.0000000000
51
315.0000000000
0
SPLINE
5
5BA
100
AcDbEntity
8
0
100
AcDbSpline
62
7
6
CONTINUOUS
70
0
71
3
72
11
73
7
74
5
42
0.0000001000
43
0.0000001000
44
0.0000000001
12
0.0539339706
22
0.0208014868
32
0.0000000000
13
0.0550139785
23
-0.0006686453
33
0.0000000000
40
0.0000000000
40
0.0000000000
40
0.0000000000
40
0.0000000000
40
0.3003923761
40
0.5788219939
40
0.9937109160
40
1.0000000000
40
1.0000000000
40
1.0000000000
40
1.0000000000
10
7.2332800383
20
4.0455317848
30
0.0000000000
10
7.2386804895
20
4.0476146542
30
0.0000000000
10
7.2492932942
20
4.0510080135
30
0.0000000000
10
7.2663025014
20
4.0387696613
30
0.0000000000
10
7.2786723298
20
4.0489948816
30
0.0000000000
10
7.2863917900
20
4.0489958659
30
0.0000000000
10
7.2865071191
20
4.0489944642
30
0.0000000000
11
7.2332800383
21
4.0455317848
31
0.0000000000
11
7.2495060547
21
4.0483028555
31
0.0000000000
11
7.2640298370
21
4.0434615947
31
0.0000000000
11
7.2861613148
21
4.0489944642
31
0.0000000000
11
7.2865071191
21
4.0489944642
31
0.0000000000
0
SPLINE
5
5BB
100
AcDbEntity
8
0
100
AcDbSpline
62
7
6
CONTINUOUS
70
0
71
3
72
11
73
7
74
5
42
0.0000001000
43
0.0000001000
44
0.0000000001
12
0.0539339706
22
0.0208014868
32
0.0000000000
13
0.0550139785
23
-0.0006686453
33
0.0000000000
40
0.0000000000
40
0.0000000000
40
0.0000000000
40
0.0000000000
40
0.3003923761
40
0.5788219939
40
0.9937109160
40
1.0000000000
40
1.0000000000
40
1.0000000000
40
1.0000000000
10
7.1800529574
20
4.0420691055
30
0.0000000000
10
7.1854534086
20
4.0441519748
30
0.0000000000
10
7.1960662133
20
4.0475453342
30
0.0000000000
10
7.2130754205
20
4.0353069819
30
0.0000000000
10
7.2254452489
20
4.0455322023
30
0.0000000000
10
7.2331647091
20
4.0455331865
30
0.0000000000
10
7.2332800383
20
4.0455317848
30
0.0000000000
11
7.1800529574
21
4.0420691055
31
0.0000000000
11
7.1962789738
21
4.0448401761
31
0.0000000000
11
7.2108027561
21
4.0399989154
31
0.0000000000
11
7.2329342339
21
4.0455317848
31
0.0000000000
11
7.2332800383
21
4.0455317848
31
0.0000000000
0
SPLINE
5
5BC
100
AcDbEntity
8
0
100
AcDbSpline
62
7
6
CONTINUOUS
70
0
71
3
72
9
73
5
74
3
42
0.0000001000
43
0.0000001000
44
0.0000000001
12
0.0128616907
22
0.0048886900
32
0.0000000000
13
0.0133326509
23
-0.0001620463
33
0.0000000000
40
0.0000000000
40
0.0000000000
40
0.0000000000
40
0.0000000000
40
0.9740496068
40
1.0000000000
40
1.0000000000
40
1.0000000000
40
1.0000000000
10
7.1669681845
20
4.0384442597
30
0.0000000000
10
7.1711441595
20
4.0400315353
30
0.0000000000
10
7.1754957699
20
4.0420699408
30
0.0000000000
10
7.1799376282
20
4.0420705072
30
0.0000000000
10
7.1800529574
20
4.0420691055
30
0.0000000000
11
7.1669681845
21
4.0384442597
31
0.0000000000
11
7.1797071530
21
4.0420691055
31
0.0000000000
11
7.1800529574
21
4.0420691055
31
0.0000000000
0
SPLINE
5
5BD
100
AcDbEntity
8
0
100
AcDbSpline
62
7
6
CONTINUOUS
70
0
71
3
72
11
73
7
74
5
42
0.0000001000
43
0.0000001000
44
0.0000000001
12
-0.0539339706
22
0.0208014868
32
0.0000000000
13
-0.0550139785
23
-0.0006686453
33
0.0000000000
40
0.0000000000
40
0.0000000000
40
0.0000000000
40
0.0000000000
40
0.3003923761
40
0.5788219939
40
0.9937109160
40
1.0000000000
40
1.0000000000
40
1.0000000000
40
1.0000000000
10
7.5388104913
20
4.0455317848
30
0.0000000000
10
7.5334100401
20
4.0476146542
30
0.0000000000
10
7.5227972353
20
4.0510080135
30
0.0000000000
10
7.5057880282
20
4.0387696613
30
0.0000000000
10
7.4934181997
20
4.0489948816
30
0.0000000000
10
7.4856987396
20
4.0489958659
30
0.0000000000
10
7.4855834104
20
4.0489944642
30
0.0000000000
11
7.5388104913
21
4.0455317848
31
0.0000000000
11
7.5225844748
21
4.0483028555
31
0.0000000000
11
7.5080606925
21
4.0434615947
31
0.0000000000
11
7.4859292147
21
4.0489944642
31
0.0000000000
11
7.4855834104
21
4.0489944642
31
0.0000000000
0
SPLINE
5
5BE
100
AcDbEntity
8
0
100
AcDbSpline
62
7
6
CONTINUOUS
70
0
71
3
72
11
73
7
74
5
42
0.0000001000
43
0.0000001000
44
0.0000000001
12
-0.0539339706
22
0.0208014868
32
0.0000000000
13
-0.0550139785
23
-0.0006686453
33
0.0000000000
40
0.0000000000
40
0.0000000000
40
0.0000000000
40
0.0000000000
40
0.3003923761
40
0.5788219939
40
0.9937109160
40
1.0000000000
40
1.0000000000
40
1.0000000000
40
1.0000000000
10
7.5920375722
20
4.0420691055
30
0.0000000000
10
7.5866371210
20
4.0441519748
30
0.0000000000
10
7.5760243162
20
4.0475453342
30
0.0000000000
10
7.5590151091
20
4.0353069819
30
0.0000000000
10
7.5466452806
20
4.0455322023
30
0.0000000000
10
7.5389258205
20
4.0455331865
30
0.0000000000
10
7.5388104913
20
4.0455317848
30
0.0000000000
11
7.5920375722
21
4.0420691055
31
0.0000000000
11
7.5758115557
21
4.0448401761
31
0.0000000000
11
7.5612877734
21
4.0399989154
31
0.0000000000
11
7.5391562956
21
4.0455317848
31
0.0000000000
11
7.5388104913
21
4.0455317848
31
0.0000000000
0
SPLINE
5
5BF
100
AcDbEntity
8
0
100
AcDbSpline
62
7
6
CONTINUOUS
70
0
71
3
72
9
73
5
74
3
42
0.0000001000
43
0.0000001000
44
0.0000000001
12
-0.0128616907
22
0.0048886900
32
0.0000000000
13
-0.0133326509
23
-0.0001620463
33
0.0000000000
40
0.0000000000
40
0.0000000000
40
0.0000000000
40
0.0000000000
40
0.9740496068
40
1.0000000000
40
1.0000000000
40
1.0000000000
40
1.0000000000
10
7.6051223450
20
4.0384442597
30
0.0000000000
10
7.6009463701
20
4.0400315353
30
0.0000000000
10
7.5965947596
20
4.0420699408
30
0.0000000000
10
7.5921529014
20
4.0420705072
30
0.0000000000
10
7.5920375722
20
4.0420691055
30
0.0000000000
11
7.6051223450
21
4.0384442597
31
0.0000000000
11
7.5923833765
21
4.0420691055
31
0.0000000000
11
7.5920375722
21
4.0420691055
31
0.0000000000
0
SPLINE
5
5C0
100
AcDbEntity
8
0
100
AcDbSpline
62
7
6
CONTINUOUS
70
0
71
3
72
12
73
8
74
6
42
0.0000001000
43
0.0000001000
44
0.0000000001
12
0.0590737266
22
-0.0473414910
32
0.0000000000
13
0.0311589524
23
-0.0466749189
33
0.0000000000
40
0.0000000000
40
0.0000000000
40
0.0000000000
40
0.0000000000
40
0.2682298940
40
0.5105775525
40
0.7292618661
40
0.9950425866
40
1.0000000000
40
1.0000000000
40
1.0000000000
40
1.0000000000
10
7.2770410288
20
2.8366173348
30
0.0000000000
10
7.2823228086
20
2.8323845338
30
0.0000000000
10
7.2914602392
20
2.8322468751
30
0.0000000000
10
7.3036431801
20
2.8398651632
30
0.0000000000
10
7.3163240832
20
2.8433378575
30
0.0000000000
10
7.3275296486
20
2.8419785920
30
0.0000000000
10
7.3304039103
20
2.8378293427
30
0.0000000000
10
7.3304553995
20
2.8377522137
30
0.0000000000
11
7.2770410288
21
2.8366173348
31
0.0000000000
11
7.2917556894
21
2.8337499525
31
0.0000000000
11
7.3041329491
21
2.8393902227
31
0.0000000000
11
7.3160401862
21
2.8423670320
31
0.0000000000
11
7.3302975360
21
2.8379801552
31
0.0000000000
11
7.3304553995
21
2.8377522137
31
0.0000000000
0
SPLINE
5
5C1
100
AcDbEntity
8
0
100
AcDbSpline
62
7
6
CONTINUOUS
70
0
71
3
72
12
73
8
74
6
42
0.0000001000
43
0.0000001000
44
0.0000000001
12
0.0590737266
22
-0.0473414910
32
0.0000000000
13
0.0311589524
23
-0.0466749189
33
0.0000000000
40
0.0000000000
40
0.0000000000
40
0.0000000000
40
0.0000000000
40
0.2682298940
40
0.5105775525
40
0.7292618661
40
0.9950425866
40
1.0000000000
40
1.0000000000
40
1.0000000000
40
1.0000000000
10
7.3302256978
20
2.8406071461
30
0.0000000000
10
7.3355074776
20
2.8363743451
30
0.0000000000
10
7.3446449082
20
2.8362366864
30
0.0000000000
10
7.3568278490
20
2.8438549745
30
0.0000000000
10
7.3695087521
20
2.8473276688
30
0.0000000000
10
7.3807143175
20
2.8459684033
30
0.0000000000
10
7.3835885792
20
2.8418191540
30
0.0000000000
10
7.3836400685
20
2.8417420250
30
0.0000000000
11
7.3302256978
21
2.8406071461
31
0.0000000000
11
7.3449403584
21
2.8377397638
31
0.0000000000
11
7.3573176181
21
2.8433800341
31
0.0000000000
11
7.3692248552
21
2.8463568433
31
0.0000000000
11
7.3834822050
21
2.8419699665
31
0.0000000000
11
7.3836400685
21
2.8417420250
31
0.0000000000
0
SPLINE
5
5C2
100
AcDbEntity
8
0
100
AcDbSpline
62
7
6
CONTINUOUS
70
0
71
3
72
9
73
5
74
3
42
0.0000001000
43
0.0000001000
44
0.0000000001
12
0.0156814117
22
0.0007856392
32
0.0000000000
13
0.0080913097
23
-0.0121204725
33
0.0000000000
40
0.0000000000
40
0.0000000000
40
0.0000000000
40
0.0000000000
40
0.9809094186
40
1.0000000000
40
1.0000000000
40
1.0000000000
40
1.0000000000
10
7.2632901325
20
2.8412716489
30
0.0000000000
10
7.2684174806
20
2.8415285292
30
0.0000000000
10
7.2742326913
20
2.8406742163
30
0.0000000000
10
7.2769895395
20
2.8366944637
30
0.0000000000
10
7.2770410288
20
2.8366173348
30
0.0000000000
11
7.2632901325
21
2.8412716489
31
0.0000000000
11
7.2768831652
21
2.8368452763
31
0.0000000000
11
7.2770410288
21
2.8366173348
31
0.0000000000
0
SPLINE
5
5C3
100
AcDbEntity
8
0
100
AcDbSpline
62
7
6
CONTINUOUS
70
0
71
3
72
12
73
8
74
6
42
0.0000001000
43
0.0000001000
44
0.0000000001
12
-0.0590737266
22
-0.0473414910
32
0.0000000000
13
-0.0311589524
23
-0.0466749189
33
0.0000000000
40
0.0000000000
40
0.0000000000
40
0.0000000000
40
0.0000000000
40
0.2682298940
40
0.5105775525
40
0.7292618661
40
0.9950425866
40
1.0000000000
40
1.0000000000
40
1.0000000000
40
1.0000000000
10
7.4950495007
20
2.8366173348
30
0.0000000000
10
7.4897677209
20
2.8323845338
30
0.0000000000
10
7.4806302903
20
2.8322468751
30
0.0000000000
10
7.4684473495
20
2.8398651632
30
0.0000000000
10
7.4557664464
20
2.8433378575
30
0.0000000000
10
7.4445608810
20
2.8419785920
30
0.0000000000
10
7.4416866193
20
2.8378293427
30
0.0000000000
10
7.4416351300
20
2.8377522137
30
0.0000000000
11
7.4950495007
21
2.8366173348
31
0.0000000000
11
7.4803348401
21
2.8337499525
31
0.0000000000
11
7.4679575804
21
2.8393902227
31
0.0000000000
11
7.4560503433
21
2.8423670320
31
0.0000000000
11
7.4417929936
21
2.8379801552
31
0.0000000000
11
7.4416351300
21
2.8377522137
31
0.0000000000
0
SPLINE
5
5C4
100
AcDbEntity
8
0
100
AcDbSpline
62
7
6
CONTINUOUS
70
0
71
3
72
12
73
8
74
6
42
0.0000001000
43
0.0000001000
44
0.0000000001
12
-0.0590737266
22
-0.0473414910
32
0.0000000000
13
-0.0311589524
23
-0.0466749189
33
0.0000000000
40
0.0000000000
40
0.0000000000
40
0.0000000000
40
0.0000000000
40
0.2682298940
40
0.5105775525
40
0.7292618661
40
0.9950425866
40
1.0000000000
40
1.0000000000
40
1.0000000000
40
1.0000000000
10
7.4418648318
20
2.8406071461
30
0.0000000000
10
7.4365830520
20
2.8363743451
30
0.0000000000
10
7.4274456213
20
2.8362366864
30
0.0000000000
10
7.4152626805
20
2.8438549745
30
0.0000000000
10
7.4025817774
20
2.8473276688
30
0.0000000000
10
7.3913762120
20
2.8459684033
30
0.0000000000
10
7.3885019503
20
2.8418191540
30
0.0000000000
10
7.3884504610
20
2.8417420250
30
0.0000000000
11
7.4418648318
21
2.8406071461
31
0.0000000000
11
7.4271501711
21
2.8377397638
31
0.0000000000
11
7.4147729115
21
2.8433800341
31
0.0000000000
11
7.4028656743
21
2.8463568433
31
0.0000000000
11
7.3886083246
21
2.8419699665
31
0.0000000000
11
7.3884504610
21
2.8417420250
31
0.0000000000
0
SPLINE
5
5C5
100
AcDbEntity
8
0
100
AcDbSpline
62
7
6
CONTINUOUS
70
0
71
3
72
9
73
5
74
3
42
0.0000001000
43
0.0000001000
44
0.0000000001
12
-0.0156814117
22
0.0007856392
32
0.0000000000
13
-0.0080913097
23
-0.0121204725
33
0.0000000000
40
0.0000000000
40
0.0000000000
40
0.0000000000
40
0.0000000000
40
0.9809094186
40
1.0000000000
40
1.0000000000
40
1.0000000000
40
1.0000000000
10
7.5088003971
20
2.8412716489
30
0.0000000000
10
7.5036730489
20
2.8415285292
30
0.0000000000
10
7.4978578382
20
2.8406742163
30
0.0000000000
10
7.4951009900
20
2.8366944637
30
0.0000000000
10
7.4950495007
20
2.8366173348
30
0.0000000000
11
7.5088003971
21
2.8412716489
31
0.0000000000
11
7.4952073643
21
2.8368452763
31
0.0000000000
11
7.4950495007
21
2.8366173348
31
0.0000000000
0
ENDSEC
0
SECTION
2
OBJECTS
0
DICTIONARY
5
C
100
AcDbDictionary
280
0
281
1
3
ACAD_GROUP
350
D
3
ACAD_MLINESTYLE
350
17
3
ACAD_LAYOUT
350
1A
3
ACAD_PLOTSETTINGS
350
19
3
ACAD_PLOTSTYLENAME
350
E
0
DICTIONARY
5
D
102
{ACAD_REACTORS
330
C
102
}
100
AcDbDictionary
280
0
281
1
0
ACDBDICTIONARYWDFLT
5
E
102
{ACAD_REACTORS
330
C
102
}
100
AcDbDictionary
281
1
3
Normal
350
F
100
AcDbDictionaryWithDefault
340
F
0
DICTIONARY
5
17
102
{ACAD_REACTORS
330
C
102
}
100
AcDbDictionary
280
0
281
1
3
Standard
350
18
0
DICTIONARY
5
19
102
{ACAD_REACTORS
330
C
102
}
100
AcDbDictionary
281
1
0
DICTIONARY
5
1A
102
{ACAD_REACTORS
330
C
102
}
100
AcDbDictionary
281
1
3
Layout1
350
1E
3
Model
350
22
0
ACDBPLACEHOLDER
5
F
102
{ACAD_REACTORS
330
E
102
}
0
MLINESTYLE
5
18
102
{ACAD_REACTORS
330
17
102
}
100
AcDbMlineStyle
2
STANDARD
70
0
3

62
256
51
90.0
52
90.0
71
2
49
0.5
62
256
6
BYLAYER
49
-0.5
62
256
6
BYLAYER
0
LAYOUT
5
1E
102
{ACAD_REACTORS
330
1A
102
}
100
AcDbPlotSettings
1

2

4

6

40
0.0
41
0.0
42
0.0
43
0.0
44
0.0
45
0.0
46
0.0
47
0.0
48
0.0
49
0.0
140
0.0
141
0.0
142
1.0
143
1.0
70
0
72
0
73
0
74
0
7

75
0
147
1.0
148
0.0
149
0.0
100
AcDbLayout
1
Layout1
70
0
71
0
10
0.0
20
0.0
11
0.0
21
0.0
12
0.0
22
0.0
32
0.0
14
0.0
24
0.0
34
0.0
15
0.0
25
0.0
35
0.0
146
0.0
13
0.0
23
0.0
33
0.0
16
0.0
26
0.0
36
0.0
17
0.0
27
0.0
37
0.0
76
0
330
1B
331
0
345
0
346
0
0
LAYOUT
5
22
102
{ACAD_REACTORS
330
1A
102
}
100
AcDbPlotSettings
1

2

4

6

40
0.0
41
0.0
42
0.0
43
0.0
44
0.0
45
0.0
46
0.0
47
0.0
48
0.0
49
0.0
140
0.0
141
0.0
142
1.0
143
1.0
70
0
72
0
73
0
74
0
7

75
0
147
1.0
148
0.0
149
0.0
100
AcDbLayout
1
Model
70
0
71
0
10
0.0
20
0.0
11
0.0
21
0.0
12
0.0
22
0.0
32
0.0
14
0.0
24
0.0
34
0.0
15
0.0
25
0.0
35
0.0
146
0.0
13
0.0
23
0.0
33
0.0
16
0.0
26
0.0
36
0.0
17
0.0
27
0.0
37
0.0
76
0
330
1F
331
0
345
0
346
0
0
ENDSEC
0
EOF
