  0
SECTION
  2
HEADER
  9
$ACADVER
  1
AC1015
  9
$ACADMAINTVER
 70
    20
  9
$DWGCODEPAGE
  3
ANSI_1252
  9
$INSBASE
 10
0.0
 20
0.0
 30
0.0
  9
$EXTMIN
 10
-87.49517479429414
 20
140.2023342673228
 30
-0.0015258207003583
  9
$EXTMAX
 10
73.63265639146266
 20
232.937623622056
 30
0.0000000349246037
  9
$LIMMIN
 10
0.0
 20
0.0
  9
$LIMMAX
 10
1600.0
 20
1100.0
  9
$ORTHOMODE
 70
     0
  9
$REGENMODE
 70
     1
  9
$FILLMODE
 70
     1
  9
$QTEXTMODE
 70
     0
  9
$MIRRTEXT
 70
     1
  9
$LTSCALE
 40
3.0
  9
$ATTMODE
 70
     1
  9
$TEXTSIZE
 40
0.2
  9
$TRACEWID
 40
0.05
  9
$TEXTSTYLE
  7
STANDARD
  9
$CLAYER
  8
0
  9
$CELTYPE
  6
ByLayer
  9
$CECOLOR
 62
   256
  9
$CELTSCALE
 40
1.0
  9
$DISPSILH
 70
     0
  9
$DIMSCALE
 40
1.0
  9
$DIMASZ
 40
1.5
  9
$DIMEXO
 40
1.5
  9
$DIMDLI
 40
1.0
  9
$DIMRND
 40
0.0
  9
$DIMDLE
 40
0.0
  9
$DIMEXE
 40
0.5
  9
$DIMTP
 40
0.01
  9
$DIMTM
 40
0.01
  9
$DIMTXT
 40
2.2
  9
$DIMCEN
 40
0.0
  9
$DIMTSZ
 40
0.0
  9
$DIMTOL
 70
     1
  9
$DIMLIM
 70
     0
  9
$DIMTIH
 70
     0
  9
$DIMTOH
 70
     0
  9
$DIMSE1
 70
     0
  9
$DIMSE2
 70
     0
  9
$DIMTAD
 70
     1
  9
$DIMZIN
 70
     1
  9
$DIMBLK
  1

  9
$DIMASO
 70
     1
  9
$DIMSHO
 70
     1
  9
$DIMPOST
  1

  9
$DIMAPOST
  1

  9
$DIMALT
 70
     0
  9
$DIMALTD
 70
     2
  9
$DIMALTF
 40
25.4
  9
$DIMLFAC
 40
1.0
  9
$DIMTOFL
 70
     0
  9
$DIMTVP
 40
0.0
  9
$DIMTIX
 70
     0
  9
$DIMSOXD
 70
     0
  9
$DIMSAH
 70
     0
  9
$DIMBLK1
  1

  9
$DIMBLK2
  1

  9
$DIMSTYLE
  2
STANDARD
  9
$DIMCLRD
 70
     0
  9
$DIMCLRE
 70
     0
  9
$DIMCLRT
 70
     0
  9
$DIMTFAC
 40
0.7
  9
$DIMGAP
 40
0.8
  9
$DIMJUST
 70
     0
  9
$DIMSD1
 70
     0
  9
$DIMSD2
 70
     0
  9
$DIMTOLJ
 70
     0
  9
$DIMTZIN
 70
     0
  9
$DIMALTZ
 70
     0
  9
$DIMALTTZ
 70
     0
  9
$DIMUPT
 70
     0
  9
$DIMDEC
 70
     2
  9
$DIMTDEC
 70
     2
  9
$DIMALTU
 70
     2
  9
$DIMALTTD
 70
     2
  9
$DIMTXSTY
  7
STANDARD
  9
$DIMAUNIT
 70
     0
  9
$DIMADEC
 70
     0
  9
$DIMALTRND
 40
0.0
  9
$DIMAZIN
 70
     0
  9
$DIMDSEP
 70
    46
  9
$DIMATFIT
 70
     3
  9
$DIMFRAC
 70
     0
  9
$DIMLDRBLK
  1

  9
$DIMLUNIT
 70
     2
  9
$DIMLWD
 70
    -2
  9
$DIMLWE
 70
    -2
  9
$DIMTMOVE
 70
     0
  9
$LUNITS
 70
     2
  9
$LUPREC
 70
     4
  9
$SKETCHINC
 40
0.1
  9
$FILLETRAD
 40
0.0
  9
$AUNITS
 70
     0
  9
$AUPREC
 70
     0
  9
$MENU
  1
acad
  9
$ELEVATION
 40
0.0
  9
$PELEVATION
 40
0.0
  9
$THICKNESS
 40
0.0
  9
$LIMCHECK
 70
     0
  9
$CHAMFERA
 40
0.2
  9
$CHAMFERB
 40
0.2
  9
$CHAMFERC
 40
0.0
  9
$CHAMFERD
 40
0.0
  9
$SKPOLY
 70
     0
  9
$TDCREATE
 40
2453879.491120567
  9
$TDUCREATE
 40
2453879.157787234
  9
$TDUPDATE
 40
2454687.559258461
  9
$TDUUPDATE
 40
2454687.225925128
  9
$TDINDWG
 40
0.3615300926
  9
$TDUSRTIMER
 40
0.3615300926
  9
$USRTIMER
 70
     1
  9
$ANGBASE
 50
0.0
  9
$ANGDIR
 70
     0
  9
$PDMODE
 70
     3
  9
$PDSIZE
 40
0.3125
  9
$PLINEWID
 40
0.0
  9
$SPLFRAME
 70
     0
  9
$SPLINETYPE
 70
     6
  9
$SPLINESEGS
 70
     8
  9
$HANDSEED
  5
BE2C
  9
$SURFTAB1
 70
     6
  9
$SURFTAB2
 70
     6
  9
$SURFTYPE
 70
     6
  9
$SURFU
 70
     6
  9
$SURFV
 70
     6
  9
$UCSBASE
  2

  9
$UCSNAME
  2

  9
$UCSORG
 10
0.0
 20
0.0
 30
0.0
  9
$UCSXDIR
 10
1.0
 20
0.0
 30
0.0
  9
$UCSYDIR
 10
0.0
 20
1.0
 30
0.0
  9
$UCSORTHOREF
  2

  9
$UCSORTHOVIEW
 70
     0
  9
$UCSORGTOP
 10
0.0
 20
0.0
 30
0.0
  9
$UCSORGBOTTOM
 10
0.0
 20
0.0
 30
0.0
  9
$UCSORGLEFT
 10
0.0
 20
0.0
 30
0.0
  9
$UCSORGRIGHT
 10
0.0
 20
0.0
 30
0.0
  9
$UCSORGFRONT
 10
0.0
 20
0.0
 30
0.0
  9
$UCSORGBACK
 10
0.0
 20
0.0
 30
0.0
  9
$PUCSBASE
  2

  9
$PUCSNAME
  2

  9
$PUCSORG
 10
0.0
 20
0.0
 30
0.0
  9
$PUCSXDIR
 10
1.0
 20
0.0
 30
0.0
  9
$PUCSYDIR
 10
0.0
 20
1.0
 30
0.0
  9
$PUCSORTHOREF
  2

  9
$PUCSORTHOVIEW
 70
     0
  9
$PUCSORGTOP
 10
0.0
 20
0.0
 30
0.0
  9
$PUCSORGBOTTOM
 10
0.0
 20
0.0
 30
0.0
  9
$PUCSORGLEFT
 10
0.0
 20
0.0
 30
0.0
  9
$PUCSORGRIGHT
 10
0.0
 20
0.0
 30
0.0
  9
$PUCSORGFRONT
 10
0.0
 20
0.0
 30
0.0
  9
$PUCSORGBACK
 10
0.0
 20
0.0
 30
0.0
  9
$USERI1
 70
     0
  9
$USERI2
 70
     0
  9
$USERI3
 70
     0
  9
$USERI4
 70
     0
  9
$USERI5
 70
     0
  9
$USERR1
 40
0.0
  9
$USERR2
 40
0.0
  9
$USERR3
 40
0.0
  9
$USERR4
 40
0.0
  9
$USERR5
 40
0.0
  9
$WORLDVIEW
 70
     1
  9
$SHADEDGE
 70
     3
  9
$SHADEDIF
 70
    70
  9
$TILEMODE
 70
     1
  9
$MAXACTVP
 70
    16
  9
$PINSBASE
 10
0.0
 20
0.0
 30
0.0
  9
$PLIMCHECK
 70
     0
  9
$PEXTMIN
 10
1.000000000000000E+20
 20
1.000000000000000E+20
 30
1.000000000000000E+20
  9
$PEXTMAX
 10
-1.000000000000000E+20
 20
-1.000000000000000E+20
 30
-1.000000000000000E+20
  9
$PLIMMIN
 10
0.0
 20
0.0
  9
$PLIMMAX
 10
12.0
 20
9.0
  9
$UNITMODE
 70
     0
  9
$VISRETAIN
 70
     0
  9
$PLINEGEN
 70
     1
  9
$PSLTSCALE
 70
     0
  9
$TREEDEPTH
 70
  3020
  9
$CMLSTYLE
  2
Standard
  9
$CMLJUST
 70
     0
  9
$CMLSCALE
 40
1.0
  9
$PROXYGRAPHICS
 70
     0
  9
$MEASUREMENT
 70
     0
  9
$CELWEIGHT
370
     0
  9
$ENDCAPS
280
     0
  9
$JOINSTYLE
280
     0
  9
$LWDISPLAY
290
     1
  9
$INSUNITS
 70
     1
  9
$HYPERLINKBASE
  1

  9
$STYLESHEET
  1
acad.ctb
  9
$XEDIT
290
     1
  9
$CEPSNTYPE
380
     0
  9
$PSTYLEMODE
290
     1
  9
$FINGERPRINTGUID
  2

  9
$VERSIONGUID
  2
{24BF8653-7CC8-4A28-B98F-E714DDA41162}
  9
$EXTNAMES
290
     1
  9
$PSVPSCALE
 40
0.0
  9
$OLESTARTUP
290
     0
  0
ENDSEC
  0
SECTION
  2
CLASSES
  0
CLASS
  1
ACDBDICTIONARYWDFLT
  2
AcDbDictionaryWithDefault
  3
ObjectDBX Classes
 90
        0
280
     0
281
     0
  0
CLASS
  1
ACDBPLACEHOLDER
  2
AcDbPlaceHolder
  3
ObjectDBX Classes
 90
        0
280
     0
281
     0
  0
CLASS
  1
LAYOUT
  2
AcDbLayout
  3
ObjectDBX Classes
 90
        0
280
     0
281
     0
  0
CLASS
  1
IMAGE
  2
AcDbRasterImage
  3
ISM
 90
    32895
280
     0
281
     1
  0
CLASS
  1
DICTIONARYVAR
  2
AcDbDictionaryVar
  3
ObjectDBX Classes
 90
        0
280
     0
281
     0
  0
CLASS
  1
RASTERVARIABLES
  2
AcDbRasterVariables
  3
ISM
 90
    32768
280
     0
281
     0
  0
CLASS
  1
IMAGEDEF
  2
AcDbRasterImageDef
  3
ISM
 90
    32768
280
     0
281
     0
  0
CLASS
  1
IMAGEDEF_REACTOR
  2
AcDbRasterImageDefReactor
  3
ISM
 90
    32769
280
     0
281
     0
  0
CLASS
  1
IDBUFFER
  2
AcDbIdBuffer
  3
ObjectDBX Classes
 90
    32768
280
     0
281
     0
  0
CLASS
  1
SPATIAL_FILTER
  2
AcDbSpatialFilter
  3
ObjectDBX Classes
 90
    32768
280
     0
281
     0
  0
CLASS
  1
SORTENTSTABLE
  2
AcDbSortentsTable
  3
ObjectDBX Classes
 90
        0
280
     0
281
     0
  0
CLASS
  1
LAYER_INDEX
  2
AcDbLayerIndex
  3
ObjectDBX Classes
 90
    32768
280
     0
281
     0
  0
CLASS
  1
SPATIAL_INDEX
  2
AcDbSpatialIndex
  3
ObjectDBX Classes
 90
    32768
280
     0
281
     0
  0
CLASS
  1
OBJECT_PTR
  2
CAseDLPNTableRecord
  3
ASE-LPNTableRecord
 90
    32769
280
     0
281
     0
  0
CLASS
  1
PLOTSETTINGS
  2
AcDbPlotSettings
  3
ObjectDBX Classes
 90
    32768
280
     0
281
     0
  0
CLASS
  1
VBA_PROJECT
  2
AcDbVbaProject
  3
acad
 90
    32768
280
     0
281
     0
  0
CLASS
  1
WIPEOUT
  2
AcDbWipeout
  3
"WipeOut|Product Desc: Object Enabler for WipeOut entity^I^I^I^I^I^I|Company: Autodesk, Inc.^I^I^I^I^I^I|WEB Address: www.autodesk.com"
 90
    32895
280
     0
281
     1
  0
CLASS
  1
WIPEOUTVARIABLES
  2
AcDbWipeoutVariables
  3
"WipeOut|Product Desc:     WipeOut Dbx Application|Company:          Autodesk, Inc.|WEB Address:      www.autodesk.com"
 90
    32768
280
     0
281
     0
  0
CLASS
  1
RTEXT
  2
RText
  3
RText|AutoCAD Express Tool|expresstools@autodesk.com
 90
    33791
280
     0
281
     1
  0
CLASS
  1
ARCALIGNEDTEXT
  2
AcDbArcAlignedText
  3
ATEXT|AutoCAD Express Tool|expresstools@autodesk.com
 90
    32768
280
     0
281
     1
  0
CLASS
  1
TABLESTYLE
  2
AcDbTableStyle
  3
ObjectDBX Classes
 90
     2047
280
     0
281
     0
  0
CLASS
  1
DIMASSOC
  2
AcDbDimAssoc
  3
"AcDbDimAssoc|Product Desc:     AcDim ARX App For Dimension|Company:          Autodesk, Inc.|WEB Address:      www.autodesk.com"
 90
    32768
280
     0
281
     0
  0
ENDSEC
  0
SECTION
  2
TABLES
  0
TABLE
  2
VPORT
  5
8
330
0
100
AcDbSymbolTable
 70
     9
  0
VPORT
  5
BE26
330
8
100
AcDbSymbolTableRecord
100
AcDbViewportTableRecord
  2
*Active
 70
     0
 10
0.0
 20
0.0
 11
1.0
 21
1.0
 12
-6.931259201415742
 22
186.5699789446894
 13
0.0
 23
0.0
 14
10.0
 24
10.0
 15
0.0
 25
0.0
 16
0.0
 26
0.0
 36
1.0
 17
0.0
 27
0.0
 37
0.0
 40
93.84367926733949
 41
1.766467065868263
 42
50.0
 43
0.0
 44
0.0
 50
0.0
 51
0.0
 71
     0
 72
   100
 73
     1
 74
     1
 75
     0
 76
     0
 77
     0
 78
     0
281
     0
 65
     0
110
0.0
120
0.0
130
0.0
111
1.0
121
0.0
131
0.0
112
0.0
122
1.0
132
0.0
 79
     0
146
0.0
  0
ENDTAB
  0
TABLE
  2
LTYPE
  5
5
330
0
100
AcDbSymbolTable
 70
     4
  0
LTYPE
  5
14
330
5
100
AcDbSymbolTableRecord
100
AcDbLinetypeTableRecord
  2
ByBlock
 70
     0
  3

 72
    65
 73
     0
 40
0.0
  0
LTYPE
  5
15
330
5
100
AcDbSymbolTableRecord
100
AcDbLinetypeTableRecord
  2
ByLayer
 70
     0
  3

 72
    65
 73
     0
 40
0.0
  0
LTYPE
  5
16
330
5
100
AcDbSymbolTableRecord
100
AcDbLinetypeTableRecord
  2
CONTINUOUS
 70
     0
  3
Solid line
 72
    65
 73
     0
 40
0.0
  0
LTYPE
  5
8DF9
330
5
100
AcDbSymbolTableRecord
100
AcDbLinetypeTableRecord
  2
CENTER
 70
     0
  3
Center ____ _ ____ _ ____ _ ____ _ ____ _ ____
 72
    65
 73
     4
 40
2.0
 49
1.25
 74
     0
 49
-0.25
 74
     0
 49
0.25
 74
     0
 49
-0.25
 74
     0
  0
LTYPE
  5
8E00
330
5
100
AcDbSymbolTableRecord
100
AcDbLinetypeTableRecord
  2
PHANTOM
 70
     0
  3
Phantom ______  __  __  ______  __  __  ______
 72
    65
 73
     6
 40
2.5
 49
1.25
 74
     0
 49
-0.25
 74
     0
 49
0.25
 74
     0
 49
-0.25
 74
     0
 49
0.25
 74
     0
 49
-0.25
 74
     0
  0
ENDTAB
  0
TABLE
  2
LAYER
  5
2
102
{ACAD_XDICTIONARY
360
46EE
102
}
330
0
100
AcDbSymbolTable
 70
     4
  0
LAYER
  5
10
330
2
100
AcDbSymbolTableRecord
100
AcDbLayerTableRecord
  2
0
 70
     0
 62
     7
  6
CONTINUOUS
370
    15
390
F
  0
LAYER
  5
FE3
330
2
100
AcDbSymbolTableRecord
100
AcDbLayerTableRecord
  2
Defpoints
 70
     0
 62
     7
  6
CONTINUOUS
290
     0
370
    -3
390
F
  0
LAYER
  5
46F1
330
2
100
AcDbSymbolTableRecord
100
AcDbLayerTableRecord
  2
Dimension
 70
     0
 62
     7
  6
CONTINUOUS
370
     0
390
F
1001
AcAecLayerStandard
1000

1000

  0
LAYER
  5
8A66
330
2
100
AcDbSymbolTableRecord
100
AcDbLayerTableRecord
  2
Centerline
 70
     0
 62
     7
  6
PHANTOM
370
     5
390
F
1001
AcAecLayerStandard
1000

1000

  0
ENDTAB
  0
TABLE
  2
STYLE
  5
3
330
0
100
AcDbSymbolTable
 70
     2
  0
STYLE
  5
11
330
3
100
AcDbSymbolTableRecord
100
AcDbTextStyleTableRecord
  2
STANDARD
 70
     0
 40
0.0
 41
1.0
 50
0.0
 71
     0
 42
0.2
  3
ARIAL.TTF
  4

1001
ACAD
1000
Arial
1071
       34
  0
STYLE
  5
8DF8
330
3
100
AcDbSymbolTableRecord
100
AcDbTextStyleTableRecord
  2

 70
     1
 40
0.0
 41
1.0
 50
0.0
 71
     0
 42
0.2
  3
ltypeshp.shx
  4

  0
ENDTAB
  0
TABLE
  2
VIEW
  5
6
330
0
100
AcDbSymbolTable
 70
     0
  0
ENDTAB
  0
TABLE
  2
UCS
  5
7
330
0
100
AcDbSymbolTable
 70
     0
  0
ENDTAB
  0
TABLE
  2
APPID
  5
9
330
0
100
AcDbSymbolTable
 70
    13
  0
APPID
  5
212
330
9
100
AcDbSymbolTableRecord
100
AcDbRegAppTableRecord
  2
ACAD
 70
     0
  0
APPID
  5
9B1
330
9
100
AcDbSymbolTableRecord
100
AcDbRegAppTableRecord
  2
DCO15
 70
     0
  0
APPID
  5
4673
330
9
100
AcDbSymbolTableRecord
100
AcDbRegAppTableRecord
  2
ACAD_EXEMPT_FROM_CAD_STANDARDS
 70
     0
  0
APPID
  5
46F2
330
9
100
AcDbSymbolTableRecord
100
AcDbRegAppTableRecord
  2
AcAecLayerStandard
 70
     0
  0
APPID
  5
46F5
330
9
100
AcDbSymbolTableRecord
100
AcDbRegAppTableRecord
  2
ACAD_DSTYLE_DIMTEXT_FILL
 70
     0
  0
APPID
  5
46F6
330
9
100
AcDbSymbolTableRecord
100
AcDbRegAppTableRecord
  2
ACAD_DSTYLE_DIMEXT_LENGTH
 70
     0
  0
APPID
  5
46F7
330
9
100
AcDbSymbolTableRecord
100
AcDbRegAppTableRecord
  2
ACAD_DSTYLE_DIMEXT_ENABLED
 70
     0
  0
APPID
  5
46F8
330
9
100
AcDbSymbolTableRecord
100
AcDbRegAppTableRecord
  2
ACAD_DSTYLE_DIM_LINETYPE
 70
     0
  0
APPID
  5
46F9
330
9
100
AcDbSymbolTableRecord
100
AcDbRegAppTableRecord
  2
ACAD_DSTYLE_DIM_EXT1_LINETYPE
 70
     0
  0
APPID
  5
46FA
330
9
100
AcDbSymbolTableRecord
100
AcDbRegAppTableRecord
  2
ACAD_DSTYLE_DIM_EXT2_LINETYPE
 70
     0
  0
APPID
  5
4914
330
9
100
AcDbSymbolTableRecord
100
AcDbRegAppTableRecord
  2
ACAD_DSTYLE_DIMJOGGED_JOGANGLE_SYMBOL
 70
     0
  0
APPID
  5
4D98
330
9
100
AcDbSymbolTableRecord
100
AcDbRegAppTableRecord
  2
ACAD_DSTYLE_DIMARC_LENGTH_SYMBOL
 70
     0
  0
APPID
  5
8A6E
330
9
100
AcDbSymbolTableRecord
100
AcDbRegAppTableRecord
  2
ACAD_PSEXT
 70
     0
  0
ENDTAB
  0
TABLE
  2
DIMSTYLE
  5
A
330
0
100
AcDbSymbolTable
 70
     2
100
AcDbDimStyleTable
 71
     1
340
229
  0
DIMSTYLE
105
229
102
{ACAD_REACTORS
330
AA20
330
AA7E
330
AAA6
330
AAF3
330
AB09
330
AB21
330
ABA9
330
ADAB
330
AD9D
330
ADD7
330
ADF6
330
B00E
330
B01C
330
B0BF
330
B0B2
330
BB16
330
AB69
102
}
330
A
100
AcDbSymbolTableRecord
100
AcDbDimStyleTableRecord
  2
STANDARD
 70
     0
 41
1.5
 42
1.5
 43
1.0
 44
0.5
 47
0.01
 48
0.01
 71
     1
 73
     0
 74
     0
 77
     1
 78
     1
140
2.2
141
0.0
146
0.7
147
0.8
271
     2
272
     2
283
     0
340
11
1001
ACAD_DSTYLE_DIMEXT_LENGTH
1070
   378
1040
0.18
1001
ACAD_DSTYLE_DIMEXT_ENABLED
1070
   383
1070
     0
1001
ACAD_DSTYLE_DIMARC_LENGTH_SYMBOL
1070
   379
1070
     0
1001
ACAD_DSTYLE_DIMJOGGED_JOGANGLE_SYMBOL
1070
   384
1040
0.7853981633974483
  0
ENDTAB
  0
TABLE
  2
BLOCK_RECORD
  5
1
330
0
100
AcDbSymbolTable
 70
    59
  0
BLOCK_RECORD
  5
1F
102
{ACAD_XDICTIONARY
360
467E
102
}
330
1
100
AcDbSymbolTableRecord
100
AcDbBlockTableRecord
  2
*MODEL_SPACE
340
22
  0
BLOCK_RECORD
  5
1B
330
1
100
AcDbSymbolTableRecord
100
AcDbBlockTableRecord
  2
*PAPER_SPACE
340
1E
  0
BLOCK_RECORD
  5
8E05
330
1
100
AcDbSymbolTableRecord
100
AcDbBlockTableRecord
  2
*D16
340
0
  0
BLOCK_RECORD
  5
8E50
330
1
100
AcDbSymbolTableRecord
100
AcDbBlockTableRecord
  2
*D17
340
0
  0
BLOCK_RECORD
  5
8EA9
330
1
100
AcDbSymbolTableRecord
100
AcDbBlockTableRecord
  2
*D18
340
0
  0
BLOCK_RECORD
  5
96F8
330
1
100
AcDbSymbolTableRecord
100
AcDbBlockTableRecord
  2
*D19
340
0
  0
BLOCK_RECORD
  5
9720
330
1
100
AcDbSymbolTableRecord
100
AcDbBlockTableRecord
  2
*D20
340
0
  0
BLOCK_RECORD
  5
973F
330
1
100
AcDbSymbolTableRecord
100
AcDbBlockTableRecord
  2
*D21
340
0
  0
BLOCK_RECORD
  5
9773
330
1
100
AcDbSymbolTableRecord
100
AcDbBlockTableRecord
  2
*D22
340
0
  0
BLOCK_RECORD
  5
98D3
330
1
100
AcDbSymbolTableRecord
100
AcDbBlockTableRecord
  2
*D23
340
0
  0
BLOCK_RECORD
  5
99C2
330
1
100
AcDbSymbolTableRecord
100
AcDbBlockTableRecord
  2
*D26
340
0
  0
BLOCK_RECORD
  5
99CE
330
1
100
AcDbSymbolTableRecord
100
AcDbBlockTableRecord
  2
*D27
340
0
  0
BLOCK_RECORD
  5
99DA
330
1
100
AcDbSymbolTableRecord
100
AcDbBlockTableRecord
  2
*D28
340
0
  0
BLOCK_RECORD
  5
99E6
330
1
100
AcDbSymbolTableRecord
100
AcDbBlockTableRecord
  2
*D29
340
0
  0
BLOCK_RECORD
  5
99F3
330
1
100
AcDbSymbolTableRecord
100
AcDbBlockTableRecord
  2
*D30
340
0
  0
BLOCK_RECORD
  5
9A00
330
1
100
AcDbSymbolTableRecord
100
AcDbBlockTableRecord
  2
*D31
340
0
  0
BLOCK_RECORD
  5
9ADB
330
1
100
AcDbSymbolTableRecord
100
AcDbBlockTableRecord
  2
*D32
340
0
  0
BLOCK_RECORD
  5
9AE8
330
1
100
AcDbSymbolTableRecord
100
AcDbBlockTableRecord
  2
*D33
340
0
  0
BLOCK_RECORD
  5
9D8F
330
1
100
AcDbSymbolTableRecord
100
AcDbBlockTableRecord
  2
*D34
340
0
  0
BLOCK_RECORD
  5
9DAA
330
1
100
AcDbSymbolTableRecord
100
AcDbBlockTableRecord
  2
*D35
340
0
  0
BLOCK_RECORD
  5
9DFB
330
1
100
AcDbSymbolTableRecord
100
AcDbBlockTableRecord
  2
*D36
340
0
  0
BLOCK_RECORD
  5
9E93
330
1
100
AcDbSymbolTableRecord
100
AcDbBlockTableRecord
  2
*D38
340
0
  0
BLOCK_RECORD
  5
9EA6
330
1
100
AcDbSymbolTableRecord
100
AcDbBlockTableRecord
  2
*D39
340
0
  0
BLOCK_RECORD
  5
AA21
330
1
100
AcDbSymbolTableRecord
100
AcDbBlockTableRecord
  2
*D41
340
0
  0
BLOCK_RECORD
  5
AA7F
330
1
100
AcDbSymbolTableRecord
100
AcDbBlockTableRecord
  2
*D42
340
0
  0
BLOCK_RECORD
  5
AAA7
330
1
100
AcDbSymbolTableRecord
100
AcDbBlockTableRecord
  2
*D43
340
0
  0
BLOCK_RECORD
  5
AAF4
330
1
100
AcDbSymbolTableRecord
100
AcDbBlockTableRecord
  2
*D44
340
0
  0
BLOCK_RECORD
  5
AB0A
330
1
100
AcDbSymbolTableRecord
100
AcDbBlockTableRecord
  2
*D45
340
0
  0
BLOCK_RECORD
  5
AB22
330
1
100
AcDbSymbolTableRecord
100
AcDbBlockTableRecord
  2
*D46
340
0
  0
BLOCK_RECORD
  5
AB6A
330
1
100
AcDbSymbolTableRecord
100
AcDbBlockTableRecord
  2
*D47
340
0
  0
BLOCK_RECORD
  5
ABAA
330
1
100
AcDbSymbolTableRecord
100
AcDbBlockTableRecord
  2
*D49
340
0
  0
BLOCK_RECORD
  5
AD9E
330
1
100
AcDbSymbolTableRecord
100
AcDbBlockTableRecord
  2
*D50
340
0
  0
BLOCK_RECORD
  5
ADAC
330
1
100
AcDbSymbolTableRecord
100
AcDbBlockTableRecord
  2
*D51
340
0
  0
BLOCK_RECORD
  5
ADD8
330
1
100
AcDbSymbolTableRecord
100
AcDbBlockTableRecord
  2
*D52
340
0
  0
BLOCK_RECORD
  5
ADF7
330
1
100
AcDbSymbolTableRecord
100
AcDbBlockTableRecord
  2
*D53
340
0
  0
BLOCK_RECORD
  5
B00F
330
1
100
AcDbSymbolTableRecord
100
AcDbBlockTableRecord
  2
*D54
340
0
  0
BLOCK_RECORD
  5
B01D
330
1
100
AcDbSymbolTableRecord
100
AcDbBlockTableRecord
  2
*D55
340
0
  0
BLOCK_RECORD
  5
B0B3
330
1
100
AcDbSymbolTableRecord
100
AcDbBlockTableRecord
  2
*D56
340
0
  0
BLOCK_RECORD
  5
B0C0
330
1
100
AcDbSymbolTableRecord
100
AcDbBlockTableRecord
  2
*D57
340
0
  0
BLOCK_RECORD
  5
BB17
330
1
100
AcDbSymbolTableRecord
100
AcDbBlockTableRecord
  2
*D58
340
0
  0
ENDTAB
  0
ENDSEC
  0
SECTION
  2
BLOCKS
  0
BLOCK
  5
20
330
1F
100
AcDbEntity
  8
0
100
AcDbBlockBegin
  2
*MODEL_SPACE
 70
     0
 10
0.0
 20
0.0
 30
0.0
  3
*MODEL_SPACE
  1

  0
ENDBLK
  5
21
330
1F
100
AcDbEntity
  8
0
100
AcDbBlockEnd
  0
BLOCK
  5
1C
330
1B
100
AcDbEntity
 67
     1
  8
0
100
AcDbBlockBegin
  2
*PAPER_SPACE
 70
     0
 10
0.0
 20
0.0
 30
0.0
  3
*PAPER_SPACE
  1

  0
ENDBLK
  5
1D
330
1B
100
AcDbEntity
 67
     1
  8
0
100
AcDbBlockEnd
  0
BLOCK
  5
8E10
330
8E05
100
AcDbEntity
  8
0
370
     0
100
AcDbBlockBegin
  2
*D16
 70
     1
 10
0.0
 20
0.0
 30
0.0
  3
*D16
  1

  0
LINE
  5
9CC3
330
8E05
100
AcDbEntity
  8
Dimension
 62
     0
370
    -2
100
AcDbLine
 10
-31.02162953503967
 20
116.333590176546
 30
0.0
 11
-34.84773798562685
 21
116.333590176546
 31
0.0
  0
LINE
  5
9CC4
330
8E05
100
AcDbEntity
  8
Dimension
 62
     0
370
    -2
100
AcDbLine
 10
-31.02162953503968
 20
118.333590176546
 30
0.0
 11
-34.84773798562685
 21
118.333590176546
 31
0.0
  0
LINE
  5
9CC5
330
8E05
100
AcDbEntity
  8
Dimension
 62
     0
370
    -2
100
AcDbLine
 10
-34.34773798562685
 20
114.833590176546
 30
0.0
 11
-34.34773798562685
 21
113.333590176546
 31
0.0
  0
LINE
  5
9CC6
330
8E05
100
AcDbEntity
  8
Dimension
 62
     0
370
    -2
100
AcDbLine
 10
-34.34773798562685
 20
119.833590176546
 30
0.0
 11
-34.34773798562685
 21
133.3387886361664
 31
0.0
  0
SOLID
  5
9CC7
330
8E05
100
AcDbEntity
  8
Dimension
 62
     0
370
     0
100
AcDbTrace
 10
-34.59773798562685
 20
114.833590176546
 30
0.0
 11
-34.09773798562685
 21
114.833590176546
 31
0.0
 12
-34.34773798562685
 22
116.333590176546
 32
0.0
 13
-34.34773798562685
 23
116.333590176546
 33
0.0
  0
SOLID
  5
9CC8
330
8E05
100
AcDbEntity
  8
Dimension
 62
     0
370
     0
100
AcDbTrace
 10
-34.59773798562685
 20
119.833590176546
 30
0.0
 11
-34.09773798562685
 21
119.833590176546
 31
0.0
 12
-34.34773798562685
 22
118.333590176546
 32
0.0
 13
-34.34773798562685
 23
118.333590176546
 33
0.0
  0
MTEXT
  5
9CC9
330
8E05
100
AcDbEntity
  8
Dimension
 62
     0
370
     0
100
AcDbMText
 10
-36.38060292423533
 20
128.4343138749112
 30
0.0
 40
1.8
 41
0.0
 71
     5
 72
     1
  1
Ø 2{\H1.260000;\S-0.008^ -0.014;}
 11
0.0000000000000001
 21
1.0
 31
0.0
 73
     1
 44
1.0
1001
ACAD
1000
MTEXTBEGIN
1070
    73
1070
     1
1070
    44
1040
1.0
1070
    74
1070
     0
1000
MTEXTEND
  0
POINT
  5
9CCA
330
8E05
100
AcDbEntity
  8
Defpoints
 62
     0
370
     0
100
AcDbPoint
 10
-30.02162953503968
 20
116.333590176546
 30
0.0
  0
POINT
  5
9CCB
330
8E05
100
AcDbEntity
  8
Defpoints
 62
     0
370
     0
100
AcDbPoint
 10
-30.02162953503968
 20
118.333590176546
 30
0.0
  0
POINT
  5
9CCC
330
8E05
100
AcDbEntity
  8
Defpoints
 62
     0
370
     0
100
AcDbPoint
 10
-34.34773798562685
 20
118.333590176546
 30
0.0
  0
ENDBLK
  5
8E11
330
8E05
100
AcDbEntity
  8
0
370
     0
100
AcDbBlockEnd
  0
BLOCK
  5
8E5A
330
8E50
100
AcDbEntity
  8
0
370
     0
100
AcDbBlockBegin
  2
*D17
 70
     1
 10
0.0
 20
0.0
 30
0.0
  3
*D17
  1

  0
LINE
  5
9CCD
330
8E50
100
AcDbEntity
  8
Dimension
 62
     0
370
    -2
100
AcDbLine
 10
-21.82162953503962
 20
112.3335901765459
 30
0.0
 11
-41.55898028634294
 21
112.333590176546
 31
0.0
  0
LINE
  5
9CCE
330
8E50
100
AcDbEntity
  8
Dimension
 62
     0
370
    -2
100
AcDbLine
 10
-21.82162953503951
 20
122.3335901765459
 30
0.0
 11
-41.55898028634294
 21
122.333590176546
 31
0.0
  0
LINE
  5
9CCF
330
8E50
100
AcDbEntity
  8
Dimension
 62
     0
370
    -2
100
AcDbLine
 10
-41.05898028634294
 20
113.833590176546
 30
0.0
 11
-41.05898028634294
 21
120.833590176546
 31
0.0
  0
LINE
  5
9CD0
330
8E50
100
AcDbEntity
  8
Dimension
 62
     0
370
    -2
100
AcDbLine
 10
-41.05898028634294
 20
122.333590176546
 30
0.0
 11
-41.05898028634294
 21
135.0479148695882
 31
0.0
  0
SOLID
  5
9CD1
330
8E50
100
AcDbEntity
  8
Dimension
 62
     0
370
     0
100
AcDbTrace
 10
-41.30898028634294
 20
113.833590176546
 30
0.0
 11
-40.80898028634294
 21
113.833590176546
 31
0.0
 12
-41.05898028634294
 22
112.333590176546
 32
0.0
 13
-41.05898028634294
 23
112.333590176546
 33
0.0
  0
SOLID
  5
9CD2
330
8E50
100
AcDbEntity
  8
Dimension
 62
     0
370
     0
100
AcDbTrace
 10
-41.30898028634294
 20
120.833590176546
 30
0.0
 11
-40.80898028634294
 21
120.833590176546
 31
0.0
 12
-41.05898028634294
 22
122.333590176546
 32
0.0
 13
-41.05898028634294
 23
122.333590176546
 33
0.0
  0
MTEXT
  5
9CD3
330
8E50
100
AcDbEntity
  8
Dimension
 62
     0
370
     0
100
AcDbMText
 10
-43.09184522495142
 20
129.4407525230671
 30
0.0
 40
1.8
 41
0.0
 71
     5
 72
     1
  1
Ø 10{\H1.260000;\S-0.005^ -0.014;}
 11
0.0000000000000001
 21
1.0
 31
0.0
 73
     1
 44
1.0
1001
ACAD
1000
MTEXTBEGIN
1070
    73
1070
     1
1070
    44
1040
1.0
1070
    74
1070
     0
1000
MTEXTEND
  0
POINT
  5
9CD4
330
8E50
100
AcDbEntity
  8
Defpoints
 62
     0
370
     0
100
AcDbPoint
 10
-20.82162953503962
 20
112.3335901765459
 30
0.0
  0
POINT
  5
9CD5
330
8E50
100
AcDbEntity
  8
Defpoints
 62
     0
370
     0
100
AcDbPoint
 10
-20.82162953503951
 20
122.3335901765459
 30
0.0
  0
POINT
  5
9CD6
330
8E50
100
AcDbEntity
  8
Defpoints
 62
     0
370
     0
100
AcDbPoint
 10
-41.05898028634294
 20
122.333590176546
 30
0.0
  0
ENDBLK
  5
8E5B
330
8E50
100
AcDbEntity
  8
0
370
     0
100
AcDbBlockEnd
  0
BLOCK
  5
8EB3
330
8EA9
100
AcDbEntity
  8
0
370
     0
100
AcDbBlockBegin
  2
*D18
 70
     1
 10
0.0
 20
0.0
 30
0.0
  3
*D18
  1

  0
LINE
  5
9F26
330
8EA9
100
AcDbEntity
  8
Dimension
 62
     0
370
    -2
100
AcDbLine
 10
-2.221629535040406
 20
101.3335901765456
 30
0.0
 11
9.575968945484037
 21
101.3335901765456
 31
0.0
  0
LINE
  5
9F27
330
8EA9
100
AcDbEntity
  8
Dimension
 62
     0
370
    -2
100
AcDbLine
 10
-1.878577884280957
 20
133.3335901765455
 30
0.0
 11
9.575968945484044
 21
133.3335901765455
 31
0.0
  0
LINE
  5
9F28
330
8EA9
100
AcDbEntity
  8
Dimension
 62
     0
370
    -2
100
AcDbLine
 10
9.075968945484037
 20
102.8335901765456
 30
0.0
 11
9.075968945484042
 21
131.8335901765455
 31
0.0
  0
SOLID
  5
9F29
330
8EA9
100
AcDbEntity
  8
Dimension
 62
     0
370
     0
100
AcDbTrace
 10
8.825968945484037
 20
102.8335901765456
 30
0.0
 11
9.325968945484037
 21
102.8335901765456
 31
0.0
 12
9.075968945484037
 22
101.3335901765456
 32
0.0
 13
9.075968945484037
 23
101.3335901765456
 33
0.0
  0
SOLID
  5
9F2A
330
8EA9
100
AcDbEntity
  8
Dimension
 62
     0
370
     0
100
AcDbTrace
 10
8.825968945484042
 20
131.8335901765455
 30
0.0
 11
9.325968945484042
 21
131.8335901765455
 31
0.0
 12
9.075968945484044
 22
133.3335901765455
 32
0.0
 13
9.075968945484044
 23
133.3335901765455
 33
0.0
  0
MTEXT
  5
9F2B
330
8EA9
100
AcDbEntity
  8
Dimension
 62
     0
370
     0
100
AcDbMText
 10
7.606596503464921
 20
117.333590176546
 30
0.0
 40
1.8
 41
0.0
 71
     5
 72
     1
  1
Ø 32
 11
0.0000000000000001
 21
1.0
 31
0.0
 73
     1
 44
1.0
1001
ACAD
1000
MTEXTBEGIN
1070
    73
1070
     1
1070
    44
1040
1.0
1070
    74
1070
     0
1000
MTEXTEND
  0
POINT
  5
9F2C
330
8EA9
100
AcDbEntity
  8
Defpoints
 62
     0
370
     0
100
AcDbPoint
 10
-3.221629535040406
 20
101.3335901765456
 30
0.0
  0
POINT
  5
9F2D
330
8EA9
100
AcDbEntity
  8
Defpoints
 62
     0
370
     0
100
AcDbPoint
 10
-2.878577884280957
 20
133.3335901765455
 30
0.0
  0
POINT
  5
9F2E
330
8EA9
100
AcDbEntity
  8
Defpoints
 62
     0
370
     0
100
AcDbPoint
 10
9.075968945484044
 20
133.3335901765455
 30
0.0
  0
ENDBLK
  5
8EB4
330
8EA9
100
AcDbEntity
  8
0
370
     0
100
AcDbBlockEnd
  0
BLOCK
  5
9702
330
96F8
100
AcDbEntity
  8
0
370
     0
100
AcDbBlockBegin
  2
*D19
 70
     1
 10
0.0
 20
0.0
 30
0.0
  3
*D19
  1

  0
LINE
  5
9CE0
330
96F8
100
AcDbEntity
  8
Dimension
 62
     0
370
    -2
100
AcDbLine
 10
-30.32162953503952
 20
115.4139749342753
 30
0.0
 11
-30.32162953503953
 21
85.2240789333455
 31
0.0
  0
LINE
  5
9CE1
330
96F8
100
AcDbEntity
  8
Dimension
 62
     0
370
    -2
100
AcDbLine
 10
-19.8216295350395
 20
101.333590176546
 30
0.0
 11
-19.8216295350395
 21
85.2240789333455
 31
0.0
  0
LINE
  5
9CE2
330
96F8
100
AcDbEntity
  8
Dimension
 62
     0
370
    -2
100
AcDbLine
 10
-28.82162953503952
 20
85.72407893334551
 30
0.0
 11
-21.32162953503951
 21
85.72407893334551
 31
0.0
  0
SOLID
  5
9CE3
330
96F8
100
AcDbEntity
  8
Dimension
 62
     0
370
     0
100
AcDbTrace
 10
-28.82162953503952
 20
85.97407893334551
 30
0.0
 11
-28.82162953503952
 21
85.4740789333455
 31
0.0
 12
-30.32162953503953
 22
85.72407893334551
 32
0.0
 13
-30.32162953503953
 23
85.72407893334551
 33
0.0
  0
SOLID
  5
9CE4
330
96F8
100
AcDbEntity
  8
Dimension
 62
     0
370
     0
100
AcDbTrace
 10
-21.32162953503951
 20
85.97407893334551
 30
0.0
 11
-21.32162953503951
 21
85.4740789333455
 31
0.0
 12
-19.8216295350395
 22
85.72407893334551
 32
0.0
 13
-19.8216295350395
 23
85.72407893334551
 33
0.0
  0
MTEXT
  5
9CE5
330
96F8
100
AcDbEntity
  8
Dimension
 62
     0
370
     0
100
AcDbMText
 10
-25.07162953503951
 20
87.14311031124456
 30
0.0
 40
1.8
 41
0.0
 71
     5
 72
     1
  1
10.5{\H1.260000;±0.3}
 73
     1
 44
1.0
1001
ACAD
1000
MTEXTBEGIN
1070
    73
1070
     1
1070
    44
1040
1.0
1070
    74
1070
     0
1000
MTEXTEND
  0
POINT
  5
9CE6
330
96F8
100
AcDbEntity
  8
Defpoints
 62
     0
370
     0
100
AcDbPoint
 10
-30.32162953503952
 20
116.4139749342753
 30
0.0
  0
POINT
  5
9CE7
330
96F8
100
AcDbEntity
  8
Defpoints
 62
     0
370
     0
100
AcDbPoint
 10
-19.8216295350395
 20
102.333590176546
 30
0.0
  0
POINT
  5
9CE8
330
96F8
100
AcDbEntity
  8
Defpoints
 62
     0
370
     0
100
AcDbPoint
 10
-19.8216295350395
 20
85.72407893334551
 30
0.0
  0
ENDBLK
  5
9703
330
96F8
100
AcDbEntity
  8
0
370
     0
100
AcDbBlockEnd
  0
BLOCK
  5
972A
330
9720
100
AcDbEntity
  8
0
370
     0
100
AcDbBlockBegin
  2
*D20
 70
     1
 10
0.0
 20
0.0
 30
0.0
  3
*D20
  1

  0
LINE
  5
9CE9
330
9720
100
AcDbEntity
  8
Dimension
 62
     0
370
    -2
100
AcDbLine
 10
-19.8216295350395
 20
101.333590176546
 30
0.0
 11
-19.8216295350395
 21
85.2240789333455
 31
0.0
  0
LINE
  5
9CEA
330
9720
100
AcDbEntity
  8
Dimension
 62
     0
370
    -2
100
AcDbLine
 10
-2.421629535039528
 20
100.833590176546
 30
0.0
 11
-2.421629535039529
 21
85.2240789333455
 31
0.0
  0
LINE
  5
9CEB
330
9720
100
AcDbEntity
  8
Dimension
 62
     0
370
    -2
100
AcDbLine
 10
-18.3216295350395
 20
85.72407893334551
 30
0.0
 11
-3.921629535039529
 21
85.72407893334551
 31
0.0
  0
SOLID
  5
9CEC
330
9720
100
AcDbEntity
  8
Dimension
 62
     0
370
     0
100
AcDbTrace
 10
-18.3216295350395
 20
85.97407893334551
 30
0.0
 11
-18.3216295350395
 21
85.4740789333455
 31
0.0
 12
-19.8216295350395
 22
85.72407893334551
 32
0.0
 13
-19.8216295350395
 23
85.72407893334551
 33
0.0
  0
SOLID
  5
9CED
330
9720
100
AcDbEntity
  8
Dimension
 62
     0
370
     0
100
AcDbTrace
 10
-3.921629535039529
 20
85.97407893334551
 30
0.0
 11
-3.921629535039529
 21
85.4740789333455
 31
0.0
 12
-2.421629535039529
 22
85.72407893334551
 32
0.0
 13
-2.421629535039529
 23
85.72407893334551
 33
0.0
  0
MTEXT
  5
9CEE
330
9720
100
AcDbEntity
  8
Dimension
 62
     0
370
     0
100
AcDbMText
 10
-11.12162953503951
 20
87.1277624258421
 30
0.0
 40
1.8
 41
0.0
 71
     5
 72
     1
  1
17.4
 73
     1
 44
1.0
1001
ACAD
1000
MTEXTBEGIN
1070
    73
1070
     1
1070
    44
1040
1.0
1070
    74
1070
     0
1000
MTEXTEND
  0
POINT
  5
9CEF
330
9720
100
AcDbEntity
  8
Defpoints
 62
     0
370
     0
100
AcDbPoint
 10
-19.8216295350395
 20
102.333590176546
 30
0.0
  0
POINT
  5
9CF0
330
9720
100
AcDbEntity
  8
Defpoints
 62
     0
370
     0
100
AcDbPoint
 10
-2.421629535039528
 20
101.833590176546
 30
0.0
  0
POINT
  5
9CF1
330
9720
100
AcDbEntity
  8
Defpoints
 62
     0
370
     0
100
AcDbPoint
 10
-2.421629535039529
 20
85.72407893334551
 30
0.0
  0
ENDBLK
  5
972B
330
9720
100
AcDbEntity
  8
0
370
     0
100
AcDbBlockEnd
  0
BLOCK
  5
974A
330
973F
100
AcDbEntity
  8
0
370
     0
100
AcDbBlockBegin
  2
*D21
 70
     1
 10
0.0
 20
0.0
 30
0.0
  3
*D21
  1

  0
LINE
  5
9CF2
330
973F
100
AcDbEntity
  8
Dimension
 62
     0
370
    -2
100
AcDbLine
 10
-3.221629535039483
 20
100.333590176546
 30
0.0
 11
-3.221629535039483
 21
94.03053895380237
 31
0.0
  0
LINE
  5
9CF3
330
973F
100
AcDbEntity
  8
Dimension
 62
     0
370
    -2
100
AcDbLine
 10
-2.421629535039528
 20
100.833590176546
 30
0.0
 11
-2.421629535039528
 21
94.03053895380237
 31
0.0
  0
LINE
  5
9CF4
330
973F
100
AcDbEntity
  8
Dimension
 62
     0
370
    -2
100
AcDbLine
 10
-0.9216295350395288
 20
94.53053895380236
 30
0.0
 11
0.5783704649604711
 21
94.53053895380236
 31
0.0
  0
LINE
  5
9CF5
330
973F
100
AcDbEntity
  8
Dimension
 62
     0
370
    -2
100
AcDbLine
 10
-4.721629535039483
 20
94.53053895380236
 30
0.0
 11
-10.5023935186684
 21
94.53053895380236
 31
0.0
  0
SOLID
  5
9CF6
330
973F
100
AcDbEntity
  8
Dimension
 62
     0
370
     0
100
AcDbTrace
 10
-0.9216295350395288
 20
94.78053895380236
 30
0.0
 11
-0.9216295350395288
 21
94.28053895380235
 31
0.0
 12
-2.421629535039528
 22
94.53053895380236
 32
0.0
 13
-2.421629535039528
 23
94.53053895380236
 33
0.0
  0
SOLID
  5
9CF7
330
973F
100
AcDbEntity
  8
Dimension
 62
     0
370
     0
100
AcDbTrace
 10
-4.721629535039483
 20
94.78053895380236
 30
0.0
 11
-4.721629535039483
 21
94.28053895380235
 31
0.0
 12
-3.221629535039483
 22
94.53053895380236
 32
0.0
 13
-3.221629535039483
 23
94.53053895380236
 33
0.0
  0
MTEXT
  5
9CF8
330
973F
100
AcDbEntity
  8
Dimension
 62
     0
370
     0
100
AcDbMText
 10
-8.362011526853944
 20
95.94957033170141
 30
0.0
 40
1.8
 41
0.0
 71
     5
 72
     1
  1
0.8
 73
     1
 44
1.0
1001
ACAD
1000
MTEXTBEGIN
1070
    73
1070
     1
1070
    44
1040
1.0
1070
    74
1070
     0
1000
MTEXTEND
  0
POINT
  5
9CF9
330
973F
100
AcDbEntity
  8
Defpoints
 62
     0
370
     0
100
AcDbPoint
 10
-3.221629535039483
 20
101.333590176546
 30
0.0
  0
POINT
  5
9CFA
330
973F
100
AcDbEntity
  8
Defpoints
 62
     0
370
     0
100
AcDbPoint
 10
-2.421629535039528
 20
101.833590176546
 30
0.0
  0
POINT
  5
9CFB
330
973F
100
AcDbEntity
  8
Defpoints
 62
     0
370
     0
100
AcDbPoint
 10
-2.421629535039528
 20
94.53053895380236
 30
0.0
  0
ENDBLK
  5
974B
330
973F
100
AcDbEntity
  8
0
370
     0
100
AcDbBlockEnd
  0
BLOCK
  5
977E
330
9773
100
AcDbEntity
  8
0
370
     0
100
AcDbBlockBegin
  2
*D22
 70
     1
 10
0.0
 20
0.0
 30
0.0
  3
*D22
  1

  0
LINE
  5
9CFC
330
9773
100
AcDbEntity
  8
Dimension
 62
     0
370
    -2
100
AcDbLine
 10
-21.32162953503951
 20
111.4675647727615
 30
0.0
 11
-21.32162953503951
 21
94.04661248542081
 31
0.0
  0
LINE
  5
9CFD
330
9773
100
AcDbEntity
  8
Dimension
 62
     0
370
    -2
100
AcDbLine
 10
-19.8216295350395
 20
101.333590176546
 30
0.0
 11
-19.8216295350395
 21
94.04661248542081
 31
0.0
  0
LINE
  5
9CFE
330
9773
100
AcDbEntity
  8
Dimension
 62
     0
370
    -2
100
AcDbLine
 10
-22.8216295350395
 20
94.5466124854208
 30
0.0
 11
-24.32162953503951
 21
94.5466124854208
 31
0.0
  0
LINE
  5
9CFF
330
9773
100
AcDbEntity
  8
Dimension
 62
     0
370
    -2
100
AcDbLine
 10
-18.3216295350395
 20
94.5466124854208
 30
0.0
 11
-12.70048355959612
 21
94.5466124854208
 31
0.0
  0
SOLID
  5
9D00
330
9773
100
AcDbEntity
  8
Dimension
 62
     0
370
     0
100
AcDbTrace
 10
-22.8216295350395
 20
94.79661248542081
 30
0.0
 11
-22.8216295350395
 21
94.2966124854208
 31
0.0
 12
-21.32162953503951
 22
94.5466124854208
 32
0.0
 13
-21.32162953503951
 23
94.5466124854208
 33
0.0
  0
SOLID
  5
9D01
330
9773
100
AcDbEntity
  8
Dimension
 62
     0
370
     0
100
AcDbTrace
 10
-18.3216295350395
 20
94.79661248542081
 30
0.0
 11
-18.3216295350395
 21
94.2966124854208
 31
0.0
 12
-19.8216295350395
 22
94.5466124854208
 32
0.0
 13
-19.8216295350395
 23
94.5466124854208
 33
0.0
  0
MTEXT
  5
9D02
330
9773
100
AcDbEntity
  8
Dimension
 62
     0
370
     0
100
AcDbMText
 10
-14.76105654731781
 20
95.96564386331985
 30
0.0
 40
1.8
 41
0.0
 71
     5
 72
     1
  1
1.5
 73
     1
 44
1.0
1001
ACAD
1000
MTEXTBEGIN
1070
    73
1070
     1
1070
    44
1040
1.0
1070
    74
1070
     0
1000
MTEXTEND
  0
POINT
  5
9D03
330
9773
100
AcDbEntity
  8
Defpoints
 62
     0
370
     0
100
AcDbPoint
 10
-21.32162953503951
 20
112.4675647727615
 30
0.0
  0
POINT
  5
9D04
330
9773
100
AcDbEntity
  8
Defpoints
 62
     0
370
     0
100
AcDbPoint
 10
-19.8216295350395
 20
102.333590176546
 30
0.0
  0
POINT
  5
9D05
330
9773
100
AcDbEntity
  8
Defpoints
 62
     0
370
     0
100
AcDbPoint
 10
-19.8216295350395
 20
94.5466124854208
 30
0.0
  0
ENDBLK
  5
977F
330
9773
100
AcDbEntity
  8
0
370
     0
100
AcDbBlockEnd
  0
BLOCK
  5
98DE
330
98D3
100
AcDbEntity
  8
0
370
     0
100
AcDbBlockBegin
  2
*D23
 70
     1
 10
0.0
 20
0.0
 30
0.0
  3
*D23
  1

  0
LINE
  5
9D06
330
98D3
100
AcDbEntity
  8
Dimension
 62
     0
370
    -2
100
AcDbLine
 10
-2.421629535039528
 20
100.833590176546
 30
0.0
 11
-2.421629535039529
 21
85.30019534266122
 31
0.0
  0
LINE
  5
9D07
330
98D3
100
AcDbEntity
  8
Dimension
 62
     0
370
    -2
100
AcDbLine
 10
-1.121713471849432
 20
101.6629231283351
 30
0.0
 11
-1.121713471849433
 21
85.30019534266122
 31
0.0
  0
LINE
  5
9D08
330
98D3
100
AcDbEntity
  8
Dimension
 62
     0
370
    -2
100
AcDbLine
 10
-3.921629535039529
 20
85.80019534266122
 30
0.0
 11
-5.421629535039529
 21
85.80019534266122
 31
0.0
  0
LINE
  5
9D09
330
98D3
100
AcDbEntity
  8
Dimension
 62
     0
370
    -2
100
AcDbLine
 10
0.3782865281505667
 20
85.80019534266122
 30
0.0
 11
5.985926364439788
 21
85.80019534266122
 31
0.0
  0
SOLID
  5
9D0A
330
98D3
100
AcDbEntity
  8
Dimension
 62
     0
370
     0
100
AcDbTrace
 10
-3.921629535039529
 20
86.05019534266123
 30
0.0
 11
-3.921629535039529
 21
85.55019534266122
 31
0.0
 12
-2.421629535039529
 22
85.80019534266122
 32
0.0
 13
-2.421629535039529
 23
85.80019534266122
 33
0.0
  0
SOLID
  5
9D0B
330
98D3
100
AcDbEntity
  8
Dimension
 62
     0
370
     0
100
AcDbTrace
 10
0.3782865281505667
 20
86.05019534266123
 30
0.0
 11
0.3782865281505667
 21
85.55019534266122
 31
0.0
 12
-1.121713471849433
 22
85.80019534266122
 32
0.0
 13
-1.121713471849433
 23
85.80019534266122
 33
0.0
  0
MTEXT
  5
9D0C
330
98D3
100
AcDbEntity
  8
Dimension
 62
     0
370
     0
100
AcDbMText
 10
3.932106446295177
 20
87.21984063597636
 30
0.0
 40
1.8
 41
0.0
 71
     5
 72
     1
  1
1.3
 73
     1
 44
1.0
1001
ACAD
1000
MTEXTBEGIN
1070
    73
1070
     1
1070
    44
1040
1.0
1070
    74
1070
     0
1000
MTEXTEND
  0
POINT
  5
9D0D
330
98D3
100
AcDbEntity
  8
Defpoints
 62
     0
370
     0
100
AcDbPoint
 10
-2.421629535039528
 20
101.833590176546
 30
0.0
  0
POINT
  5
9D0E
330
98D3
100
AcDbEntity
  8
Defpoints
 62
     0
370
     0
100
AcDbPoint
 10
-1.121713471849432
 20
102.6629231283351
 30
0.0
  0
POINT
  5
9D0F
330
98D3
100
AcDbEntity
  8
Defpoints
 62
     0
370
     0
100
AcDbPoint
 10
-1.121713471849433
 20
85.80019534266122
 30
0.0
  0
ENDBLK
  5
98DF
330
98D3
100
AcDbEntity
  8
0
370
     0
100
AcDbBlockEnd
  0
BLOCK
  5
99CC
330
99C2
100
AcDbEntity
  8
0
370
     0
100
AcDbBlockBegin
  2
*D26
 70
     1
 10
0.0
 20
0.0
 30
0.0
  3
*D26
  1

  0
LINE
  5
9F2F
330
99C2
100
AcDbEntity
  8
Dimension
 62
     0
370
    -2
100
AcDbLine
 10
63.0113588475014
 20
101.3335901765456
 30
0.0
 11
74.80895732802584
 21
101.3335901765456
 31
0.0
  0
LINE
  5
9F30
330
99C2
100
AcDbEntity
  8
Dimension
 62
     0
370
    -2
100
AcDbLine
 10
63.36424957176911
 20
133.3335901765455
 30
0.0
 11
74.80895732802584
 21
133.3335901765455
 31
0.0
  0
LINE
  5
9F31
330
99C2
100
AcDbEntity
  8
Dimension
 62
     0
370
    -2
100
AcDbLine
 10
74.30895732802584
 20
102.8335901765456
 30
0.0
 11
74.30895732802584
 21
131.8335901765455
 31
0.0
  0
SOLID
  5
9F32
330
99C2
100
AcDbEntity
  8
Dimension
 62
     0
370
     0
100
AcDbTrace
 10
74.05895732802584
 20
102.8335901765456
 30
0.0
 11
74.55895732802584
 21
102.8335901765456
 31
0.0
 12
74.30895732802584
 22
101.3335901765456
 32
0.0
 13
74.30895732802584
 23
101.3335901765456
 33
0.0
  0
SOLID
  5
9F33
330
99C2
100
AcDbEntity
  8
Dimension
 62
     0
370
     0
100
AcDbTrace
 10
74.05895732802584
 20
131.8335901765455
 30
0.0
 11
74.55895732802584
 21
131.8335901765455
 31
0.0
 12
74.30895732802584
 22
133.3335901765455
 32
0.0
 13
74.30895732802584
 23
133.3335901765455
 33
0.0
  0
MTEXT
  5
9F34
330
99C2
100
AcDbEntity
  8
Dimension
 62
     0
370
     0
100
AcDbMText
 10
72.83958488600673
 20
117.333590176546
 30
0.0
 40
1.8
 41
0.0
 71
     5
 72
     1
  1
Ø 32
 11
0.0000000000000001
 21
1.0
 31
0.0
 73
     1
 44
1.0
1001
ACAD
1000
MTEXTBEGIN
1070
    73
1070
     1
1070
    44
1040
1.0
1070
    74
1070
     0
1000
MTEXTEND
  0
POINT
  5
9F35
330
99C2
100
AcDbEntity
  8
Defpoints
 62
     0
370
     0
100
AcDbPoint
 10
62.0113588475014
 20
101.3335901765456
 30
0.0
  0
POINT
  5
9F36
330
99C2
100
AcDbEntity
  8
Defpoints
 62
     0
370
     0
100
AcDbPoint
 10
62.36424957176911
 20
133.3335901765455
 30
0.0
  0
POINT
  5
9F37
330
99C2
100
AcDbEntity
  8
Defpoints
 62
     0
370
     0
100
AcDbPoint
 10
74.30895732802584
 20
133.3335901765455
 30
0.0
  0
ENDBLK
  5
99CD
330
99C2
100
AcDbEntity
  8
0
370
     0
100
AcDbBlockEnd
  0
BLOCK
  5
99D8
330
99CE
100
AcDbEntity
  8
0
370
     0
100
AcDbBlockBegin
  2
*D27
 70
     1
 10
0.0
 20
0.0
 30
0.0
  3
*D27
  1

  0
LINE
  5
9D19
330
99CE
100
AcDbEntity
  8
Dimension
 62
     0
370
    -2
100
AcDbLine
 10
34.91135884750228
 20
114.4139749342753
 30
0.0
 11
34.91135884750228
 21
85.2240789333455
 31
0.0
  0
LINE
  5
9D1A
330
99CE
100
AcDbEntity
  8
Dimension
 62
     0
370
    -2
100
AcDbLine
 10
45.4113588475023
 20
101.333590176546
 30
0.0
 11
45.4113588475023
 21
85.2240789333455
 31
0.0
  0
LINE
  5
9D1B
330
99CE
100
AcDbEntity
  8
Dimension
 62
     0
370
    -2
100
AcDbLine
 10
36.41135884750229
 20
85.72407893334551
 30
0.0
 11
43.91135884750229
 21
85.72407893334551
 31
0.0
  0
SOLID
  5
9D1C
330
99CE
100
AcDbEntity
  8
Dimension
 62
     0
370
     0
100
AcDbTrace
 10
36.41135884750229
 20
85.97407893334551
 30
0.0
 11
36.41135884750229
 21
85.4740789333455
 31
0.0
 12
34.91135884750228
 22
85.72407893334551
 32
0.0
 13
34.91135884750228
 23
85.72407893334551
 33
0.0
  0
SOLID
  5
9D1D
330
99CE
100
AcDbEntity
  8
Dimension
 62
     0
370
     0
100
AcDbTrace
 10
43.91135884750229
 20
85.97407893334551
 30
0.0
 11
43.91135884750229
 21
85.4740789333455
 31
0.0
 12
45.4113588475023
 22
85.72407893334551
 32
0.0
 13
45.4113588475023
 23
85.72407893334551
 33
0.0
  0
MTEXT
  5
9D1E
330
99CE
100
AcDbEntity
  8
Dimension
 62
     0
370
     0
100
AcDbMText
 10
40.16135884750229
 20
87.14311031124456
 30
0.0
 40
1.8
 41
0.0
 71
     5
 72
     1
  1
10.5{\H1.260000;±0.3}
 73
     1
 44
1.0
1001
ACAD
1000
MTEXTBEGIN
1070
    73
1070
     1
1070
    44
1040
1.0
1070
    74
1070
     0
1000
MTEXTEND
  0
POINT
  5
9D1F
330
99CE
100
AcDbEntity
  8
Defpoints
 62
     0
370
     0
100
AcDbPoint
 10
34.91135884750228
 20
115.4139749342753
 30
0.0
  0
POINT
  5
9D20
330
99CE
100
AcDbEntity
  8
Defpoints
 62
     0
370
     0
100
AcDbPoint
 10
45.4113588475023
 20
102.333590176546
 30
0.0
  0
POINT
  5
9D21
330
99CE
100
AcDbEntity
  8
Defpoints
 62
     0
370
     0
100
AcDbPoint
 10
45.4113588475023
 20
85.72407893334551
 30
0.0
  0
ENDBLK
  5
99D9
330
99CE
100
AcDbEntity
  8
0
370
     0
100
AcDbBlockEnd
  0
BLOCK
  5
99E4
330
99DA
100
AcDbEntity
  8
0
370
     0
100
AcDbBlockBegin
  2
*D28
 70
     1
 10
0.0
 20
0.0
 30
0.0
  3
*D28
  1

  0
LINE
  5
9D22
330
99DA
100
AcDbEntity
  8
Dimension
 62
     0
370
    -2
100
AcDbLine
 10
45.4113588475023
 20
101.333590176546
 30
0.0
 11
45.4113588475023
 21
85.2240789333455
 31
0.0
  0
LINE
  5
9D23
330
99DA
100
AcDbEntity
  8
Dimension
 62
     0
370
    -2
100
AcDbLine
 10
62.81135884750227
 20
100.833590176546
 30
0.0
 11
62.81135884750227
 21
85.2240789333455
 31
0.0
  0
LINE
  5
9D24
330
99DA
100
AcDbEntity
  8
Dimension
 62
     0
370
    -2
100
AcDbLine
 10
46.9113588475023
 20
85.72407893334551
 30
0.0
 11
61.31135884750228
 21
85.72407893334551
 31
0.0
  0
SOLID
  5
9D25
330
99DA
100
AcDbEntity
  8
Dimension
 62
     0
370
     0
100
AcDbTrace
 10
46.9113588475023
 20
85.97407893334551
 30
0.0
 11
46.9113588475023
 21
85.4740789333455
 31
0.0
 12
45.4113588475023
 22
85.72407893334551
 32
0.0
 13
45.4113588475023
 23
85.72407893334551
 33
0.0
  0
SOLID
  5
9D26
330
99DA
100
AcDbEntity
  8
Dimension
 62
     0
370
     0
100
AcDbTrace
 10
61.31135884750228
 20
85.97407893334551
 30
0.0
 11
61.31135884750228
 21
85.4740789333455
 31
0.0
 12
62.81135884750227
 22
85.72407893334551
 32
0.0
 13
62.81135884750227
 23
85.72407893334551
 33
0.0
  0
MTEXT
  5
9D27
330
99DA
100
AcDbEntity
  8
Dimension
 62
     0
370
     0
100
AcDbMText
 10
54.11135884750229
 20
87.1277624258421
 30
0.0
 40
1.8
 41
0.0
 71
     5
 72
     1
  1
17.4
 73
     1
 44
1.0
1001
ACAD
1000
MTEXTBEGIN
1070
    73
1070
     1
1070
    44
1040
1.0
1070
    74
1070
     0
1000
MTEXTEND
  0
POINT
  5
9D28
330
99DA
100
AcDbEntity
  8
Defpoints
 62
     0
370
     0
100
AcDbPoint
 10
45.4113588475023
 20
102.333590176546
 30
0.0
  0
POINT
  5
9D29
330
99DA
100
AcDbEntity
  8
Defpoints
 62
     0
370
     0
100
AcDbPoint
 10
62.81135884750227
 20
101.833590176546
 30
0.0
  0
POINT
  5
9D2A
330
99DA
100
AcDbEntity
  8
Defpoints
 62
     0
370
     0
100
AcDbPoint
 10
62.81135884750227
 20
85.72407893334551
 30
0.0
  0
ENDBLK
  5
99E5
330
99DA
100
AcDbEntity
  8
0
370
     0
100
AcDbBlockEnd
  0
BLOCK
  5
99F1
330
99E6
100
AcDbEntity
  8
0
370
     0
100
AcDbBlockBegin
  2
*D29
 70
     1
 10
0.0
 20
0.0
 30
0.0
  3
*D29
  1

  0
LINE
  5
9D2B
330
99E6
100
AcDbEntity
  8
Dimension
 62
     0
370
    -2
100
AcDbLine
 10
62.01135884750232
 20
100.333590176546
 30
0.0
 11
62.01135884750232
 21
94.03053895380237
 31
0.0
  0
LINE
  5
9D2C
330
99E6
100
AcDbEntity
  8
Dimension
 62
     0
370
    -2
100
AcDbLine
 10
62.81135884750227
 20
100.833590176546
 30
0.0
 11
62.81135884750227
 21
94.03053895380237
 31
0.0
  0
LINE
  5
9D2D
330
99E6
100
AcDbEntity
  8
Dimension
 62
     0
370
    -2
100
AcDbLine
 10
64.31135884750228
 20
94.53053895380236
 30
0.0
 11
65.81135884750228
 21
94.53053895380236
 31
0.0
  0
LINE
  5
9D2E
330
99E6
100
AcDbEntity
  8
Dimension
 62
     0
370
    -2
100
AcDbLine
 10
60.51135884750232
 20
94.53053895380236
 30
0.0
 11
54.7305948638734
 21
94.53053895380236
 31
0.0
  0
SOLID
  5
9D2F
330
99E6
100
AcDbEntity
  8
Dimension
 62
     0
370
     0
100
AcDbTrace
 10
64.31135884750228
 20
94.78053895380236
 30
0.0
 11
64.31135884750228
 21
94.28053895380235
 31
0.0
 12
62.81135884750227
 22
94.53053895380236
 32
0.0
 13
62.81135884750227
 23
94.53053895380236
 33
0.0
  0
SOLID
  5
9D30
330
99E6
100
AcDbEntity
  8
Dimension
 62
     0
370
     0
100
AcDbTrace
 10
60.51135884750232
 20
94.78053895380236
 30
0.0
 11
60.51135884750232
 21
94.28053895380235
 31
0.0
 12
62.01135884750232
 22
94.53053895380236
 32
0.0
 13
62.01135884750232
 23
94.53053895380236
 33
0.0
  0
MTEXT
  5
9D31
330
99E6
100
AcDbEntity
  8
Dimension
 62
     0
370
     0
100
AcDbMText
 10
56.87097685568786
 20
95.94957033170141
 30
0.0
 40
1.8
 41
0.0
 71
     5
 72
     1
  1
0.8
 73
     1
 44
1.0
1001
ACAD
1000
MTEXTBEGIN
1070
    73
1070
     1
1070
    44
1040
1.0
1070
    74
1070
     0
1000
MTEXTEND
  0
POINT
  5
9D32
330
99E6
100
AcDbEntity
  8
Defpoints
 62
     0
370
     0
100
AcDbPoint
 10
62.01135884750232
 20
101.333590176546
 30
0.0
  0
POINT
  5
9D33
330
99E6
100
AcDbEntity
  8
Defpoints
 62
     0
370
     0
100
AcDbPoint
 10
62.81135884750227
 20
101.833590176546
 30
0.0
  0
POINT
  5
9D34
330
99E6
100
AcDbEntity
  8
Defpoints
 62
     0
370
     0
100
AcDbPoint
 10
62.81135884750227
 20
94.53053895380236
 30
0.0
  0
ENDBLK
  5
99F2
330
99E6
100
AcDbEntity
  8
0
370
     0
100
AcDbBlockEnd
  0
BLOCK
  5
99FE
330
99F3
100
AcDbEntity
  8
0
370
     0
100
AcDbBlockBegin
  2
*D30
 70
     1
 10
0.0
 20
0.0
 30
0.0
  3
*D30
  1

  0
LINE
  5
9D35
330
99F3
100
AcDbEntity
  8
Dimension
 62
     0
370
    -2
100
AcDbLine
 10
43.91135884750229
 20
111.4675647727615
 30
0.0
 11
43.91135884750229
 21
94.04661248542081
 31
0.0
  0
LINE
  5
9D36
330
99F3
100
AcDbEntity
  8
Dimension
 62
     0
370
    -2
100
AcDbLine
 10
45.4113588475023
 20
101.333590176546
 30
0.0
 11
45.4113588475023
 21
94.04661248542081
 31
0.0
  0
LINE
  5
9D37
330
99F3
100
AcDbEntity
  8
Dimension
 62
     0
370
    -2
100
AcDbLine
 10
42.4113588475023
 20
94.5466124854208
 30
0.0
 11
40.91135884750229
 21
94.5466124854208
 31
0.0
  0
LINE
  5
9D38
330
99F3
100
AcDbEntity
  8
Dimension
 62
     0
370
    -2
100
AcDbLine
 10
46.9113588475023
 20
94.5466124854208
 30
0.0
 11
52.53250482294568
 21
94.5466124854208
 31
0.0
  0
SOLID
  5
9D39
330
99F3
100
AcDbEntity
  8
Dimension
 62
     0
370
     0
100
AcDbTrace
 10
42.4113588475023
 20
94.79661248542081
 30
0.0
 11
42.4113588475023
 21
94.2966124854208
 31
0.0
 12
43.91135884750229
 22
94.5466124854208
 32
0.0
 13
43.91135884750229
 23
94.5466124854208
 33
0.0
  0
SOLID
  5
9D3A
330
99F3
100
AcDbEntity
  8
Dimension
 62
     0
370
     0
100
AcDbTrace
 10
46.9113588475023
 20
94.79661248542081
 30
0.0
 11
46.9113588475023
 21
94.2966124854208
 31
0.0
 12
45.4113588475023
 22
94.5466124854208
 32
0.0
 13
45.4113588475023
 23
94.5466124854208
 33
0.0
  0
MTEXT
  5
9D3B
330
99F3
100
AcDbEntity
  8
Dimension
 62
     0
370
     0
100
AcDbMText
 10
50.47193183522399
 20
95.96564386331985
 30
0.0
 40
1.8
 41
0.0
 71
     5
 72
     1
  1
1.5
 73
     1
 44
1.0
1001
ACAD
1000
MTEXTBEGIN
1070
    73
1070
     1
1070
    44
1040
1.0
1070
    74
1070
     0
1000
MTEXTEND
  0
POINT
  5
9D3C
330
99F3
100
AcDbEntity
  8
Defpoints
 62
     0
370
     0
100
AcDbPoint
 10
43.91135884750229
 20
112.4675647727615
 30
0.0
  0
POINT
  5
9D3D
330
99F3
100
AcDbEntity
  8
Defpoints
 62
     0
370
     0
100
AcDbPoint
 10
45.4113588475023
 20
102.333590176546
 30
0.0
  0
POINT
  5
9D3E
330
99F3
100
AcDbEntity
  8
Defpoints
 62
     0
370
     0
100
AcDbPoint
 10
45.4113588475023
 20
94.5466124854208
 30
0.0
  0
ENDBLK
  5
99FF
330
99F3
100
AcDbEntity
  8
0
370
     0
100
AcDbBlockEnd
  0
BLOCK
  5
9A0B
330
9A00
100
AcDbEntity
  8
0
370
     0
100
AcDbBlockBegin
  2
*D31
 70
     1
 10
0.0
 20
0.0
 30
0.0
  3
*D31
  1

  0
LINE
  5
9D3F
330
9A00
100
AcDbEntity
  8
Dimension
 62
     0
370
    -2
100
AcDbLine
 10
62.81135884750227
 20
100.833590176546
 30
0.0
 11
62.81135884750227
 21
85.30019534266122
 31
0.0
  0
LINE
  5
9D40
330
9A00
100
AcDbEntity
  8
Dimension
 62
     0
370
    -2
100
AcDbLine
 10
64.11127491069237
 20
101.6629231283351
 30
0.0
 11
64.11127491069237
 21
85.30019534266122
 31
0.0
  0
LINE
  5
9D41
330
9A00
100
AcDbEntity
  8
Dimension
 62
     0
370
    -2
100
AcDbLine
 10
61.31135884750228
 20
85.80019534266122
 30
0.0
 11
59.81135884750227
 21
85.80019534266122
 31
0.0
  0
LINE
  5
9D42
330
9A00
100
AcDbEntity
  8
Dimension
 62
     0
370
    -2
100
AcDbLine
 10
65.61127491069237
 20
85.80019534266122
 30
0.0
 11
71.21891474698159
 21
85.80019534266122
 31
0.0
  0
SOLID
  5
9D43
330
9A00
100
AcDbEntity
  8
Dimension
 62
     0
370
     0
100
AcDbTrace
 10
61.31135884750228
 20
86.05019534266123
 30
0.0
 11
61.31135884750228
 21
85.55019534266122
 31
0.0
 12
62.81135884750227
 22
85.80019534266122
 32
0.0
 13
62.81135884750227
 23
85.80019534266122
 33
0.0
  0
SOLID
  5
9D44
330
9A00
100
AcDbEntity
  8
Dimension
 62
     0
370
     0
100
AcDbTrace
 10
65.61127491069237
 20
86.05019534266123
 30
0.0
 11
65.61127491069237
 21
85.55019534266122
 31
0.0
 12
64.11127491069237
 22
85.80019534266122
 32
0.0
 13
64.11127491069237
 23
85.80019534266122
 33
0.0
  0
MTEXT
  5
9D45
330
9A00
100
AcDbEntity
  8
Dimension
 62
     0
370
     0
100
AcDbMText
 10
69.16509482883698
 20
87.21984063597636
 30
0.0
 40
1.8
 41
0.0
 71
     5
 72
     1
  1
1.3
 73
     1
 44
1.0
1001
ACAD
1000
MTEXTBEGIN
1070
    73
1070
     1
1070
    44
1040
1.0
1070
    74
1070
     0
1000
MTEXTEND
  0
POINT
  5
9D46
330
9A00
100
AcDbEntity
  8
Defpoints
 62
     0
370
     0
100
AcDbPoint
 10
62.81135884750227
 20
101.833590176546
 30
0.0
  0
POINT
  5
9D47
330
9A00
100
AcDbEntity
  8
Defpoints
 62
     0
370
     0
100
AcDbPoint
 10
64.11127491069237
 20
102.6629231283351
 30
0.0
  0
POINT
  5
9D48
330
9A00
100
AcDbEntity
  8
Defpoints
 62
     0
370
     0
100
AcDbPoint
 10
64.11127491069237
 20
85.80019534266122
 30
0.0
  0
ENDBLK
  5
9A0C
330
9A00
100
AcDbEntity
  8
0
370
     0
100
AcDbBlockEnd
  0
BLOCK
  5
9AE6
330
9ADB
100
AcDbEntity
  8
0
370
     0
100
AcDbBlockBegin
  2
*D32
 70
     1
 10
0.0
 20
0.0
 30
0.0
  3
*D32
  1

  0
LINE
  5
9D49
330
9ADB
100
AcDbEntity
  8
Dimension
 62
     0
370
    -2
100
AcDbLine
 10
34.21135884750214
 20
115.3335901765459
 30
0.0
 11
30.38525039691495
 21
115.333590176546
 31
0.0
  0
LINE
  5
9D4A
330
9ADB
100
AcDbEntity
  8
Dimension
 62
     0
370
    -2
100
AcDbLine
 10
34.2113588475023
 20
119.3335901765459
 30
0.0
 11
30.38525039691495
 21
119.333590176546
 31
0.0
  0
LINE
  5
9D4B
330
9ADB
100
AcDbEntity
  8
Dimension
 62
     0
370
    -2
100
AcDbLine
 10
30.88525039691495
 20
116.8335901765459
 30
0.0
 11
30.88525039691495
 21
117.8335901765459
 31
0.0
  0
LINE
  5
9D4C
330
9ADB
100
AcDbEntity
  8
Dimension
 62
     0
370
    -2
100
AcDbLine
 10
30.88525039691495
 20
119.333590176546
 30
0.0
 11
30.88525039691496
 21
133.3387886361664
 31
0.0
  0
SOLID
  5
9D4D
330
9ADB
100
AcDbEntity
  8
Dimension
 62
     0
370
     0
100
AcDbTrace
 10
30.63525039691495
 20
116.8335901765459
 30
0.0
 11
31.13525039691495
 21
116.8335901765459
 31
0.0
 12
30.88525039691495
 22
115.333590176546
 32
0.0
 13
30.88525039691495
 23
115.333590176546
 33
0.0
  0
SOLID
  5
9D4E
330
9ADB
100
AcDbEntity
  8
Dimension
 62
     0
370
     0
100
AcDbTrace
 10
30.63525039691495
 20
117.8335901765459
 30
0.0
 11
31.13525039691495
 21
117.8335901765459
 31
0.0
 12
30.88525039691495
 22
119.333590176546
 32
0.0
 13
30.88525039691495
 23
119.333590176546
 33
0.0
  0
MTEXT
  5
9D4F
330
9ADB
100
AcDbEntity
  8
Dimension
 62
     0
370
     0
100
AcDbMText
 10
28.85238545830647
 20
128.4343138749112
 30
0.0
 40
1.8
 41
0.0
 71
     5
 72
     1
  1
Ø 4{\H1.260000;\S-0.008^ -0.014;}
 11
0.0000000000000001
 21
1.0
 31
0.0
 73
     1
 44
1.0
1001
ACAD
1000
MTEXTBEGIN
1070
    73
1070
     1
1070
    44
1040
1.0
1070
    74
1070
     0
1000
MTEXTEND
  0
POINT
  5
9D50
330
9ADB
100
AcDbEntity
  8
Defpoints
 62
     0
370
     0
100
AcDbPoint
 10
35.21135884750214
 20
115.3335901765459
 30
0.0
  0
POINT
  5
9D51
330
9ADB
100
AcDbEntity
  8
Defpoints
 62
     0
370
     0
100
AcDbPoint
 10
35.2113588475023
 20
119.3335901765459
 30
0.0
  0
POINT
  5
9D52
330
9ADB
100
AcDbEntity
  8
Defpoints
 62
     0
370
     0
100
AcDbPoint
 10
30.88525039691495
 20
119.333590176546
 30
0.0
  0
ENDBLK
  5
9AE7
330
9ADB
100
AcDbEntity
  8
0
370
     0
100
AcDbBlockEnd
  0
BLOCK
  5
9AF3
330
9AE8
100
AcDbEntity
  8
0
370
     0
100
AcDbBlockBegin
  2
*D33
 70
     1
 10
0.0
 20
0.0
 30
0.0
  3
*D33
  1

  0
LINE
  5
9D53
330
9AE8
100
AcDbEntity
  8
Dimension
 62
     0
370
    -2
100
AcDbLine
 10
43.41135884750218
 20
112.3335901765459
 30
0.0
 11
23.67400809619886
 21
112.333590176546
 31
0.0
  0
LINE
  5
9D54
330
9AE8
100
AcDbEntity
  8
Dimension
 62
     0
370
    -2
100
AcDbLine
 10
43.41135884750229
 20
122.3335901765459
 30
0.0
 11
23.67400809619886
 21
122.333590176546
 31
0.0
  0
LINE
  5
9D55
330
9AE8
100
AcDbEntity
  8
Dimension
 62
     0
370
    -2
100
AcDbLine
 10
24.17400809619886
 20
113.833590176546
 30
0.0
 11
24.17400809619886
 21
120.833590176546
 31
0.0
  0
LINE
  5
9D56
330
9AE8
100
AcDbEntity
  8
Dimension
 62
     0
370
    -2
100
AcDbLine
 10
24.17400809619886
 20
122.333590176546
 30
0.0
 11
24.17400809619886
 21
135.0479148695882
 31
0.0
  0
SOLID
  5
9D57
330
9AE8
100
AcDbEntity
  8
Dimension
 62
     0
370
     0
100
AcDbTrace
 10
23.92400809619886
 20
113.833590176546
 30
0.0
 11
24.42400809619886
 21
113.833590176546
 31
0.0
 12
24.17400809619886
 22
112.333590176546
 32
0.0
 13
24.17400809619886
 23
112.333590176546
 33
0.0
  0
SOLID
  5
9D58
330
9AE8
100
AcDbEntity
  8
Dimension
 62
     0
370
     0
100
AcDbTrace
 10
23.92400809619886
 20
120.833590176546
 30
0.0
 11
24.42400809619886
 21
120.833590176546
 31
0.0
 12
24.17400809619886
 22
122.333590176546
 32
0.0
 13
24.17400809619886
 23
122.333590176546
 33
0.0
  0
MTEXT
  5
9D59
330
9AE8
100
AcDbEntity
  8
Dimension
 62
     0
370
     0
100
AcDbMText
 10
22.14114315759038
 20
129.4407525230671
 30
0.0
 40
1.8
 41
0.0
 71
     5
 72
     1
  1
Ø 10{\H1.260000;\S-0.005^ -0.014;}
 11
0.0000000000000001
 21
1.0
 31
0.0
 73
     1
 44
1.0
1001
ACAD
1000
MTEXTBEGIN
1070
    73
1070
     1
1070
    44
1040
1.0
1070
    74
1070
     0
1000
MTEXTEND
  0
POINT
  5
9D5A
330
9AE8
100
AcDbEntity
  8
Defpoints
 62
     0
370
     0
100
AcDbPoint
 10
44.41135884750218
 20
112.3335901765459
 30
0.0
  0
POINT
  5
9D5B
330
9AE8
100
AcDbEntity
  8
Defpoints
 62
     0
370
     0
100
AcDbPoint
 10
44.4113588475023
 20
122.3335901765459
 30
0.0
  0
POINT
  5
9D5C
330
9AE8
100
AcDbEntity
  8
Defpoints
 62
     0
370
     0
100
AcDbPoint
 10
24.17400809619886
 20
122.333590176546
 30
0.0
  0
ENDBLK
  5
9AF4
330
9AE8
100
AcDbEntity
  8
0
370
     0
100
AcDbBlockEnd
  0
BLOCK
  5
9D9B
330
9D8F
100
AcDbEntity
  8
0
370
     0
100
AcDbBlockBegin
  2
*D34
 70
     1
 10
0.0
 20
0.0
 30
0.0
  3
*D34
  1

  0
LINE
  5
9EFE
330
9D8F
100
AcDbEntity
  8
Dimension
 62
     0
370
    -2
100
AcDbLine
 10
-66.15215917784107
 20
133.9067469090976
 30
0.0
 11
-61.71137998784839
 21
138.3475260990903
 31
0.0
  0
LINE
  5
9EFF
330
9D8F
100
AcDbEntity
  8
Dimension
 62
     0
370
    -2
100
AcDbLine
 10
-82.72531591039273
 20
138.1735123080737
 30
0.0
 11
-82.72531591039271
 21
147.0517833570474
 31
0.0
  0
ARC
  5
9F00
330
9D8F
100
AcDbEntity
  8
Dimension
 62
     0
370
    -2
100
AcDbCircle
 10
-82.72531591039275
 20
117.333590176546
 30
0.0
 40
29.21819318050139
100
AcDbArc
 50
47.94176677883984
 51
87.05823322116009
  0
SOLID
  5
9F01
330
9D8F
100
AcDbEntity
  8
Dimension
 62
     0
370
     0
100
AcDbTrace
 10
-62.98028930468392
 20
139.2083134878062
 30
0.0
 11
-63.32465085871704
 21
138.8458012533866
 31
0.0
 12
-62.06493337844166
 22
137.993972708497
 32
0.0
 13
-62.06493337844166
 23
137.993972708497
 33
0.0
  0
SOLID
  5
9F02
330
9D8F
100
AcDbEntity
  8
Dimension
 62
     0
370
     0
100
AcDbTrace
 10
-81.23222739721112
 20
146.2633623248651
 30
0.0
 11
-81.21939292802665
 21
146.763197574123
 31
0.0
 12
-82.72531591039273
 22
146.5517833570474
 32
0.0
 13
-82.72531591039273
 23
146.5517833570474
 33
0.0
  0
MTEXT
  5
9F03
330
9D8F
100
AcDbEntity
  8
Dimension
 62
     0
370
     0
100
AcDbMText
 10
-71.00236726979571
 20
145.6352917756785
 30
0.0
 40
1.8
 41
0.0
 71
     5
 72
     1
  1
45°
 11
0.9238795325112864
 21
-0.3826834323650904
 31
0.0
 73
     1
 44
1.0
1001
ACAD
1000
MTEXTBEGIN
1070
    73
1070
     1
1070
    44
1040
1.0
1070
    74
1070
     0
1000
MTEXTEND
  0
POINT
  5
9F04
330
9D8F
100
AcDbEntity
  8
Defpoints
 62
     0
370
     0
100
AcDbPoint
 10
-68.11621932014202
 20
142.6372877235414
 30
0.0
  0
POINT
  5
9F05
330
9D8F
100
AcDbEntity
  8
Defpoints
 62
     0
370
     0
100
AcDbPoint
 10
-82.72531591039273
 20
137.1735123080737
 30
0.0
  0
POINT
  5
9F06
330
9D8F
100
AcDbEntity
  8
Defpoints
 62
     0
370
     0
100
AcDbPoint
 10
-82.72531591039273
 20
117.333590176546
 30
0.0
  0
POINT
  5
9F07
330
9D8F
100
AcDbEntity
  8
Defpoints
 62
     0
370
     0
100
AcDbPoint
 10
-66.85926595902762
 20
133.1996401279111
 30
0.0
  0
POINT
  5
9F08
330
9D8F
100
AcDbEntity
  8
Defpoints
 62
     0
370
     0
100
AcDbPoint
 10
-82.72531591039273
 20
97.49366804501827
 30
0.0
  0
ENDBLK
  5
9D9C
330
9D8F
100
AcDbEntity
  8
0
370
     0
100
AcDbBlockEnd
  0
BLOCK
  5
9DB4
330
9DAA
100
AcDbEntity
  8
0
370
     0
100
AcDbBlockBegin
  2
*D35
 70
     1
 10
0.0
 20
0.0
 30
0.0
  3
*D35
  1

  0
LINE
  5
9F09
330
9DAA
100
AcDbEntity
  8
Dimension
 62
     0
370
    -2
100
AcDbLine
 10
-60.58553539891331
 20
122.7709741313425
 30
0.0
 11
-50.99275141349027
 21
113.1781901459194
 31
0.0
  0
LINE
  5
9F0A
330
9DAA
100
AcDbEntity
  8
Dimension
 62
     0
370
    -2
100
AcDbLine
 10
-85.68782613103575
 20
97.66868339922014
 30
0.0
 11
-76.09504214561271
 21
88.07589941379708
 31
0.0
  0
LINE
  5
9F0B
330
9DAA
100
AcDbEntity
  8
Dimension
 62
     0
370
    -2
100
AcDbLine
 10
-52.40696497586337
 20
112.4710833647329
 30
0.0
 11
-75.38793536442615
 21
89.49011297617017
 31
0.0
  0
SOLID
  5
9F0C
330
9DAA
100
AcDbEntity
  8
Dimension
 62
     0
370
     0
100
AcDbTrace
 10
-52.58374167116
 20
112.6478600600295
 30
0.0
 11
-52.23018828056673
 21
112.2943066694362
 31
0.0
 12
-51.34630480408354
 22
113.5317435365127
 32
0.0
 13
-51.34630480408354
 23
113.5317435365127
 33
0.0
  0
SOLID
  5
9F0D
330
9DAA
100
AcDbEntity
  8
Dimension
 62
     0
370
     0
100
AcDbTrace
 10
-75.56471205972279
 20
89.6668896714668
 30
0.0
 11
-75.21115866912952
 21
89.31333628087353
 31
0.0
 12
-76.44859553620598
 22
88.42945280439035
 32
0.0
 13
-76.44859553620598
 23
88.42945280439035
 33
0.0
  0
MTEXT
  5
9F0E
330
9DAA
100
AcDbEntity
  8
Dimension
 62
     0
370
     0
100
AcDbMText
 10
-64.90129098392746
 20
101.9844389842342
 30
0.0
 40
1.8
 41
0.0
 71
     5
 72
     1
  1
35.5
 11
0.7071067811865488
 21
0.7071067811865463
 31
0.0
 73
     1
 44
1.0
1001
ACAD
1000
MTEXTBEGIN
1070
    73
1070
     1
1070
    44
1040
1.0
1070
    74
1070
     0
1000
MTEXTEND
  0
POINT
  5
9F0F
330
9DAA
100
AcDbEntity
  8
Defpoints
 62
     0
370
     0
100
AcDbPoint
 10
-61.29264218009985
 20
123.478080912529
 30
0.0
  0
POINT
  5
9F10
330
9DAA
100
AcDbEntity
  8
Defpoints
 62
     0
370
     0
100
AcDbPoint
 10
-86.39493291222228
 20
98.37579018040671
 30
0.0
  0
POINT
  5
9F11
330
9DAA
100
AcDbEntity
  8
Defpoints
 62
     0
370
     0
100
AcDbPoint
 10
-76.44859553620598
 20
88.42945280439035
 30
0.0
  0
ENDBLK
  5
9DB5
330
9DAA
100
AcDbEntity
  8
0
370
     0
100
AcDbBlockEnd
  0
BLOCK
  5
9E06
330
9DFB
100
AcDbEntity
  8
0
370
     0
100
AcDbBlockBegin
  2
*D36
 70
     1
 10
0.0
 20
0.0
 30
0.0
  3
*D36
  1

  0
LINE
  5
9F12
330
9DFB
100
AcDbEntity
  8
Dimension
 62
     0
370
    -2
100
AcDbLine
 10
-66.00224053533077
 20
125.0764094305387
 30
0.0
 11
-67.51184045518037
 21
123.5668095106891
 31
0.0
  0
LINE
  5
9F13
330
9DFB
100
AcDbEntity
  8
Dimension
 62
     0
370
    -2
100
AcDbLine
 10
-64.206189311117
 20
123.2803582063248
 30
0.0
 11
-65.71578923096661
 21
121.7707582864753
 31
0.0
  0
LINE
  5
9F14
330
9DFB
100
AcDbEntity
  8
Dimension
 62
     0
370
    -2
100
AcDbLine
 10
-68.21894723636692
 20
124.9810230730622
 30
0.0
 11
-69.27960740814672
 21
126.0416832448421
 31
0.0
  0
LINE
  5
9F15
330
9DFB
100
AcDbEntity
  8
Dimension
 62
     0
370
    -2
100
AcDbLine
 10
-64.30157566859353
 20
121.0636515052887
 30
0.0
 11
-57.30949264612863
 21
114.0715684828236
 31
0.0
  0
SOLID
  5
9F16
330
9DFB
100
AcDbEntity
  8
Dimension
 62
     0
370
     0
100
AcDbTrace
 10
-68.04217054107027
 20
125.1577997683589
 30
0.0
 11
-68.39572393166355
 21
124.8042463777656
 31
0.0
 12
-67.1582870645871
 22
123.9203629012824
 32
0.0
 13
-67.1582870645871
 23
123.9203629012824
 33
0.0
  0
SOLID
  5
9F17
330
9DFB
100
AcDbEntity
  8
Dimension
 62
     0
370
     0
100
AcDbTrace
 10
-64.12479897329689
 20
121.2404282005854
 30
0.0
 11
-64.47835236389017
 21
120.8868748099921
 31
0.0
 12
-65.36223584037333
 22
122.1243116770685
 32
0.0
 13
-65.36223584037333
 23
122.1243116770685
 33
0.0
  0
MTEXT
  5
9F18
330
9DFB
100
AcDbEntity
  8
Dimension
 62
     0
370
     0
100
AcDbMText
 10
-58.32095439247797
 20
117.0898436492308
 30
0.0
 40
1.8
 41
0.0
 71
     5
 72
     1
  1
2.54
 11
0.7071067811865363
 21
-0.7071067811865588
 31
0.0
 73
     1
 44
1.0
1001
ACAD
1000
MTEXTBEGIN
1070
    73
1070
     1
1070
    44
1040
1.0
1070
    74
1070
     0
1000
MTEXTEND
  0
POINT
  5
9F19
330
9DFB
100
AcDbEntity
  8
Defpoints
 62
     0
370
     0
100
AcDbPoint
 10
-65.29513375414421
 20
125.7835162117252
 30
0.0
  0
POINT
  5
9F1A
330
9DFB
100
AcDbEntity
  8
Defpoints
 62
     0
370
     0
100
AcDbPoint
 10
-63.49908252993044
 20
123.9874649875114
 30
0.0
  0
POINT
  5
9F1B
330
9DFB
100
AcDbEntity
  8
Defpoints
 62
     0
370
     0
100
AcDbPoint
 10
-65.36223584037333
 20
122.1243116770685
 30
0.0
  0
ENDBLK
  5
9E07
330
9DFB
100
AcDbEntity
  8
0
370
     0
100
AcDbBlockEnd
  0
BLOCK
  5
9E99
330
9E93
100
AcDbEntity
  8
0
370
     0
100
AcDbBlockBegin
  2
*D38
 70
     1
 10
0.0
 20
0.0
 30
0.0
  3
*D38
  1

  0
LINE
  5
9F1C
330
9E93
100
AcDbEntity
  8
Dimension
 62
     0
370
    -2
100
AcDbLine
 10
-97.60288282728794
 20
135.3063364981987
 30
0.0
 11
-91.9713644816591
 21
128.5032180046243
 31
0.0
  0
MTEXT
  5
9F1D
330
9E93
100
AcDbEntity
  8
Dimension
 62
     0
370
     0
100
AcDbMText
 10
-94.70608356176438
 20
134.1112022531103
 30
0.0
 40
1.8
 41
0.0
 71
     5
 72
     1
  1
\U+220526
 11
0.6376585221563032
 21
-0.7703191605571287
 31
0.0
 73
     1
 44
1.0
1001
ACAD
1000
MTEXTBEGIN
1070
    73
1070
     1
1070
    44
1040
1.0
1070
    74
1070
     0
1000
MTEXTEND
  0
SOLID
  5
9F1E
330
9E93
100
AcDbEntity
  8
Dimension
 62
     0
370
     0
100
AcDbTrace
 10
-91.77878469151982
 20
128.6626326351634
 30
0.0
 11
-92.16394427179839
 21
128.3438033740853
 31
0.0
 12
-91.01487669842462
 22
127.3477392637886
 32
0.0
 13
-91.01487669842462
 23
127.3477392637886
 33
0.0
  0
POINT
  5
9F1F
330
9E93
100
AcDbEntity
  8
Defpoints
 62
     0
370
     0
100
AcDbPoint
 10
-91.01487669842462
 20
127.3477392637886
 30
0.0
  0
POINT
  5
9F20
330
9E93
100
AcDbEntity
  8
Defpoints
 62
     0
370
     0
100
AcDbPoint
 10
-74.43575512236077
 20
107.3194410893033
 30
0.0
  0
ENDBLK
  5
9E9A
330
9E93
100
AcDbEntity
  8
0
370
     0
100
AcDbBlockEnd
  0
BLOCK
  5
9EAC
330
9EA6
100
AcDbEntity
  8
0
370
     0
100
AcDbBlockBegin
  2
*D39
 70
     1
 10
0.0
 20
0.0
 30
0.0
  3
*D39
  1

  0
LINE
  5
9F21
330
9EA6
100
AcDbEntity
  8
Dimension
 62
     0
370
    -2
100
AcDbLine
 10
-105.9246627541857
 20
128.217526535235
 30
0.0
 11
-97.57153846469664
 21
119.3037328820319
 31
0.0
  0
MTEXT
  5
9F22
330
9EA6
100
AcDbEntity
  8
Dimension
 62
     0
370
     0
100
AcDbMText
 10
-102.0705849496582
 20
126.1800156490915
 30
0.0
 40
1.8
 41
0.0
 71
     5
 72
     1
  1
M2 x 6
 11
0.6837861312236705
 21
-0.7296824835133195
 31
0.0
 73
     1
 44
1.0
1001
ACAD
1000
MTEXTBEGIN
1070
    73
1070
     1
1070
    44
1040
1.0
1070
    74
1070
     0
1000
MTEXTEND
  0
SOLID
  5
9F23
330
9EA6
100
AcDbEntity
  8
Dimension
 62
     0
370
     0
100
AcDbTrace
 10
-97.38911784381832
 20
119.4746794148379
 30
0.0
 11
-97.75395908557499
 21
119.132786349226
 31
0.0
 12
-96.54585926786115
 22
118.209209156762
 32
0.0
 13
-96.54585926786115
 23
118.209209156762
 33
0.0
  0
POINT
  5
9F24
330
9EA6
100
AcDbEntity
  8
Defpoints
 62
     0
370
     0
100
AcDbPoint
 10
-96.54585926786115
 20
118.209209156762
 30
0.0
  0
POINT
  5
9F25
330
9EA6
100
AcDbEntity
  8
Defpoints
 62
     0
370
     0
100
AcDbPoint
 10
-94.90477255292431
 20
116.45797119633
 30
0.0
  0
ENDBLK
  5
9EAD
330
9EA6
100
AcDbEntity
  8
0
370
     0
100
AcDbBlockEnd
  0
BLOCK
  5
AA2B
330
AA21
100
AcDbEntity
  8
0
370
     0
100
AcDbBlockBegin
  2
*D41
 70
     1
 10
0.0
 20
0.0
 30
0.0
  3
*D41
  1

  0
LINE
  5
BD48
330
AA21
100
AcDbEntity
  8
Dimension
 62
     0
370
    -2
100
AcDbLine
 10
-65.86647156240736
 20
205.4302909727263
 30
0.0
 11
-37.33597951922741
 21
205.4302909727263
 31
0.0
  0
LINE
  5
BD49
330
AA21
100
AcDbEntity
  8
Dimension
 62
     0
370
    -2
100
AcDbLine
 10
-65.95949646398733
 20
183.4297392335063
 30
0.0
 11
-37.33597951922741
 21
183.4297392335062
 31
0.0
  0
LINE
  5
BD4A
330
AA21
100
AcDbEntity
  8
Dimension
 62
     0
370
    -2
100
AcDbLine
 10
-37.83597951922741
 20
203.9302909727263
 30
0.0
 11
-37.83597951922741
 21
184.9297392335062
 31
0.0
  0
SOLID
  5
BD4B
330
AA21
100
AcDbEntity
  8
Dimension
 62
     0
370
     0
100
AcDbTrace
 10
-38.08597951922741
 20
203.9302909727263
 30
0.0
 11
-37.58597951922741
 21
203.9302909727263
 31
0.0
 12
-37.83597951922741
 22
205.4302909727263
 32
0.0
 13
-37.83597951922741
 23
205.4302909727263
 33
0.0
  0
SOLID
  5
BD4C
330
AA21
100
AcDbEntity
  8
Dimension
 62
     0
370
     0
100
AcDbTrace
 10
-38.08597951922741
 20
184.9297392335062
 30
0.0
 11
-37.58597951922741
 21
184.9297392335062
 31
0.0
 12
-37.83597951922741
 22
183.4297392335062
 32
0.0
 13
-37.83597951922741
 23
183.4297392335062
 33
0.0
  0
MTEXT
  5
BD4D
330
AA21
100
AcDbEntity
  8
Dimension
 62
     0
370
     0
100
AcDbMText
 10
-40.20948111085999
 20
194.4300151031162
 30
0.0
 40
2.2
 41
0.0
 71
     5
 72
     1
  1
Ø 22{\H1.540000;\S+0^ -0.04;}
 11
0.0000000000000001
 21
1.0
 31
0.0
 73
     1
 44
1.0
1001
ACAD
1000
MTEXTBEGIN
1070
    73
1070
     1
1070
    44
1040
1.0
1070
    74
1070
     0
1000
MTEXTEND
  0
POINT
  5
BD4E
330
AA21
100
AcDbEntity
  8
Defpoints
 62
     0
370
     0
100
AcDbPoint
 10
-67.36647156240735
 20
205.4302909727263
 30
0.0
  0
POINT
  5
BD4F
330
AA21
100
AcDbEntity
  8
Defpoints
 62
     0
370
     0
100
AcDbPoint
 10
-67.45949646398734
 20
183.4297392335063
 30
0.0
  0
POINT
  5
BD50
330
AA21
100
AcDbEntity
  8
Defpoints
 62
     0
370
     0
100
AcDbPoint
 10
-37.83597951922741
 20
183.4297392335062
 30
0.0
  0
ENDBLK
  5
AA2C
330
AA21
100
AcDbEntity
  8
0
370
     0
100
AcDbBlockEnd
  0
BLOCK
  5
AA89
330
AA7F
100
AcDbEntity
  8
0
370
     0
100
AcDbBlockBegin
  2
*D42
 70
     1
 10
0.0
 20
0.0
 30
0.0
  3
*D42
  1

  0
LINE
  5
BD51
330
AA7F
100
AcDbEntity
  8
Dimension
 62
     0
370
    -2
100
AcDbLine
 10
-50.40619749124733
 20
209.9297089747863
 30
0.0
 11
-29.45259154841801
 21
209.9297089747863
 31
0.0
  0
LINE
  5
BD52
330
AA7F
100
AcDbEntity
  8
Dimension
 62
     0
370
    -2
100
AcDbLine
 10
-50.40619749124733
 20
178.9297089746063
 30
0.0
 11
-29.45259154841802
 21
178.9297089746063
 31
0.0
  0
LINE
  5
BD53
330
AA7F
100
AcDbEntity
  8
Dimension
 62
     0
370
    -2
100
AcDbLine
 10
-29.952591548418
 20
208.4297089747863
 30
0.0
 11
-29.95259154841802
 21
180.4297089746063
 31
0.0
  0
SOLID
  5
BD54
330
AA7F
100
AcDbEntity
  8
Dimension
 62
     0
370
     0
100
AcDbTrace
 10
-30.20259154841801
 20
208.4297089747863
 30
0.0
 11
-29.70259154841801
 21
208.4297089747863
 31
0.0
 12
-29.952591548418
 22
209.9297089747863
 32
0.0
 13
-29.952591548418
 23
209.9297089747863
 33
0.0
  0
SOLID
  5
BD55
330
AA7F
100
AcDbEntity
  8
Dimension
 62
     0
370
     0
100
AcDbTrace
 10
-30.20259154841801
 20
180.4297089746063
 30
0.0
 11
-29.70259154841802
 21
180.4297089746063
 31
0.0
 12
-29.95259154841802
 22
178.9297089746063
 32
0.0
 13
-29.95259154841802
 23
178.9297089746063
 33
0.0
  0
MTEXT
  5
BD56
330
AA7F
100
AcDbEntity
  8
Dimension
 62
     0
370
     0
100
AcDbMText
 10
-31.87660246246988
 20
194.4297089746963
 30
0.0
 40
2.2
 41
0.0
 71
     5
 72
     1
  1
31{\H1.540000;±0.1}
 11
0.0000000000000001
 21
1.0
 31
0.0
 73
     1
 44
1.0
1001
ACAD
1000
MTEXTBEGIN
1070
    73
1070
     1
1070
    44
1040
1.0
1070
    74
1070
     0
1000
MTEXTEND
  0
POINT
  5
BD57
330
AA7F
100
AcDbEntity
  8
Defpoints
 62
     0
370
     0
100
AcDbPoint
 10
-51.90619749124732
 20
209.9297089747863
 30
0.0
  0
POINT
  5
BD58
330
AA7F
100
AcDbEntity
  8
Defpoints
 62
     0
370
     0
100
AcDbPoint
 10
-51.90619749124732
 20
178.9297089746063
 30
0.0
  0
POINT
  5
BD59
330
AA7F
100
AcDbEntity
  8
Defpoints
 62
     0
370
     0
100
AcDbPoint
 10
-29.95259154841802
 20
178.9297089746063
 30
0.0
  0
ENDBLK
  5
AA8A
330
AA7F
100
AcDbEntity
  8
0
370
     0
100
AcDbBlockEnd
  0
BLOCK
  5
AAB1
330
AAA7
100
AcDbEntity
  8
0
370
     0
100
AcDbBlockBegin
  2
*D43
 70
     1
 10
0.0
 20
0.0
 30
0.0
  3
*D43
  1

  0
LINE
  5
BD5A
330
AAA7
100
AcDbEntity
  8
Dimension
 62
     0
370
    -2
100
AcDbLine
 10
-48.40619749140734
 20
213.9297089751263
 30
0.0
 11
-20.70090029609479
 21
213.9297089751263
 31
0.0
  0
LINE
  5
BD5B
330
AAA7
100
AcDbEntity
  8
Dimension
 62
     0
370
    -2
100
AcDbLine
 10
-48.40619749140734
 20
174.9297089742662
 30
0.0
 11
-20.7009002960948
 21
174.9297089742662
 31
0.0
  0
LINE
  5
BD5C
330
AAA7
100
AcDbEntity
  8
Dimension
 62
     0
370
    -2
100
AcDbLine
 10
-21.2009002960948
 20
212.4297089751263
 30
0.0
 11
-21.2009002960948
 21
176.4297089742663
 31
0.0
  0
SOLID
  5
BD5D
330
AAA7
100
AcDbEntity
  8
Dimension
 62
     0
370
     0
100
AcDbTrace
 10
-21.45090029609479
 20
212.4297089751263
 30
0.0
 11
-20.9509002960948
 21
212.4297089751263
 31
0.0
 12
-21.2009002960948
 22
213.9297089751263
 32
0.0
 13
-21.2009002960948
 23
213.9297089751263
 33
0.0
  0
SOLID
  5
BD5E
330
AAA7
100
AcDbEntity
  8
Dimension
 62
     0
370
     0
100
AcDbTrace
 10
-21.4509002960948
 20
176.4297089742663
 30
0.0
 11
-20.9509002960948
 21
176.4297089742663
 31
0.0
 12
-21.2009002960948
 22
174.9297089742662
 32
0.0
 13
-21.2009002960948
 23
174.9297089742662
 33
0.0
  0
MTEXT
  5
BD5F
330
AAA7
100
AcDbEntity
  8
Dimension
 62
     0
370
     0
100
AcDbMText
 10
-22.82491121014667
 20
194.4297089746962
 30
0.0
 40
2.2
 41
0.0
 71
     5
 72
     1
  1
39
 11
0.0000000000000001
 21
1.0
 31
0.0
 73
     1
 44
1.0
1001
ACAD
1000
MTEXTBEGIN
1070
    73
1070
     1
1070
    44
1040
1.0
1070
    74
1070
     0
1000
MTEXTEND
  0
POINT
  5
BD60
330
AAA7
100
AcDbEntity
  8
Defpoints
 62
     0
370
     0
100
AcDbPoint
 10
-49.90619749140734
 20
213.9297089751263
 30
0.0
  0
POINT
  5
BD61
330
AAA7
100
AcDbEntity
  8
Defpoints
 62
     0
370
     0
100
AcDbPoint
 10
-49.90619749140734
 20
174.9297089742662
 30
0.0
  0
POINT
  5
BD62
330
AAA7
100
AcDbEntity
  8
Defpoints
 62
     0
370
     0
100
AcDbPoint
 10
-21.2009002960948
 20
174.9297089742662
 30
0.0
  0
ENDBLK
  5
AAB2
330
AAA7
100
AcDbEntity
  8
0
370
     0
100
AcDbBlockEnd
  0
BLOCK
  5
AAFE
330
AAF4
100
AcDbEntity
  8
0
370
     0
100
AcDbBlockBegin
  2
*D44
 70
     1
 10
0.0
 20
0.0
 30
0.0
  3
*D44
  1

  0
LINE
  5
BD63
330
AAF4
100
AcDbEntity
  8
Dimension
 62
     0
370
    -2
100
AcDbLine
 10
-82.90619749142734
 20
211.4297089747863
 30
0.0
 11
-82.90619749142734
 21
229.7623195846678
 31
0.0
  0
LINE
  5
BD64
330
AAF4
100
AcDbEntity
  8
Dimension
 62
     0
370
    -2
100
AcDbLine
 10
-51.90619749124732
 20
211.4297089747863
 30
0.0
 11
-51.90619749124732
 21
229.7623195846678
 31
0.0
  0
LINE
  5
BD65
330
AAF4
100
AcDbEntity
  8
Dimension
 62
     0
370
    -2
100
AcDbLine
 10
-81.40619749142734
 20
229.2623195846678
 30
0.0
 11
-53.40619749124733
 21
229.2623195846678
 31
0.0
  0
SOLID
  5
BD66
330
AAF4
100
AcDbEntity
  8
Dimension
 62
     0
370
     0
100
AcDbTrace
 10
-81.40619749142734
 20
229.5123195846678
 30
0.0
 11
-81.40619749142734
 21
229.0123195846678
 31
0.0
 12
-82.90619749142734
 22
229.2623195846678
 32
0.0
 13
-82.90619749142734
 23
229.2623195846678
 33
0.0
  0
SOLID
  5
BD67
330
AAF4
100
AcDbEntity
  8
Dimension
 62
     0
370
     0
100
AcDbTrace
 10
-53.40619749124733
 20
229.5123195846678
 30
0.0
 11
-53.40619749124733
 21
229.0123195846678
 31
0.0
 12
-51.90619749124732
 22
229.2623195846678
 32
0.0
 13
-51.90619749124732
 23
229.2623195846678
 33
0.0
  0
MTEXT
  5
BD68
330
AAF4
100
AcDbEntity
  8
Dimension
 62
     0
370
     0
100
AcDbMText
 10
-67.40619749133734
 20
231.1863304987197
 30
0.0
 40
2.2
 41
0.0
 71
     5
 72
     1
  1
31{\H1.540000;±0.1}
 73
     1
 44
1.0
1001
ACAD
1000
MTEXTBEGIN
1070
    73
1070
     1
1070
    44
1040
1.0
1070
    74
1070
     0
1000
MTEXTEND
  0
POINT
  5
BD69
330
AAF4
100
AcDbEntity
  8
Defpoints
 62
     0
370
     0
100
AcDbPoint
 10
-82.90619749142734
 20
209.9297089747863
 30
0.0
  0
POINT
  5
BD6A
330
AAF4
100
AcDbEntity
  8
Defpoints
 62
     0
370
     0
100
AcDbPoint
 10
-51.90619749124732
 20
209.9297089747863
 30
0.0
  0
POINT
  5
BD6B
330
AAF4
100
AcDbEntity
  8
Defpoints
 62
     0
370
     0
100
AcDbPoint
 10
-51.90619749124732
 20
229.2623195846678
 30
0.0
  0
ENDBLK
  5
AAFF
330
AAF4
100
AcDbEntity
  8
0
370
     0
100
AcDbBlockEnd
  0
BLOCK
  5
AB15
330
AB0A
100
AcDbEntity
  8
0
370
     0
100
AcDbBlockBegin
  2
*D45
 70
     1
 10
0.0
 20
0.0
 30
0.0
  3
*D45
  1

  0
LINE
  5
BD6C
330
AB0A
100
AcDbEntity
  8
Dimension
 62
     0
370
    -2
100
AcDbLine
 10
-84.49219749188735
 20
211.4297089747863
 30
0.0
 11
-84.49219749188735
 21
221.2294330224654
 31
0.0
  0
LINE
  5
BD6D
330
AB0A
100
AcDbEntity
  8
Dimension
 62
     0
370
    -2
100
AcDbLine
 10
-81.32019749096734
 20
211.4297089747863
 30
0.0
 11
-81.32019749096734
 21
221.2294330224654
 31
0.0
  0
LINE
  5
BD6E
330
AB0A
100
AcDbEntity
  8
Dimension
 62
     0
370
    -2
100
AcDbLine
 10
-85.99219749188735
 20
220.7294330224654
 30
0.0
 11
-87.49219749188736
 21
220.7294330224654
 31
0.0
  0
LINE
  5
BD6F
330
AB0A
100
AcDbEntity
  8
Dimension
 62
     0
370
    -2
100
AcDbLine
 10
-79.82019749096735
 20
220.7294330224654
 30
0.0
 11
-72.81842395754306
 21
220.7294330224654
 31
0.0
  0
SOLID
  5
BD70
330
AB0A
100
AcDbEntity
  8
Dimension
 62
     0
370
     0
100
AcDbTrace
 10
-85.99219749188735
 20
220.9794330224654
 30
0.0
 11
-85.99219749188735
 21
220.4794330224654
 31
0.0
 12
-84.49219749188735
 22
220.7294330224654
 32
0.0
 13
-84.49219749188735
 23
220.7294330224654
 33
0.0
  0
SOLID
  5
BD71
330
AB0A
100
AcDbEntity
  8
Dimension
 62
     0
370
     0
100
AcDbTrace
 10
-79.82019749096735
 20
220.9794330224654
 30
0.0
 11
-79.82019749096735
 21
220.4794330224654
 31
0.0
 12
-81.32019749096734
 22
220.7294330224654
 32
0.0
 13
-81.32019749096734
 23
220.7294330224654
 33
0.0
  0
MTEXT
  5
BD72
330
AB0A
100
AcDbEntity
  8
Dimension
 62
     0
370
     0
100
AcDbMText
 10
-75.5693107242552
 20
222.6534439365173
 30
0.0
 40
2.2
 41
0.0
 71
     5
 72
     1
  1
M3
 73
     1
 44
1.0
1001
ACAD
1000
MTEXTBEGIN
1070
    73
1070
     1
1070
    44
1040
1.0
1070
    74
1070
     0
1000
MTEXTEND
  0
POINT
  5
BD73
330
AB0A
100
AcDbEntity
  8
Defpoints
 62
     0
370
     0
100
AcDbPoint
 10
-84.49219749188735
 20
209.9297089747863
 30
0.0
  0
POINT
  5
BD74
330
AB0A
100
AcDbEntity
  8
Defpoints
 62
     0
370
     0
100
AcDbPoint
 10
-81.32019749096734
 20
209.9297089747863
 30
0.0
  0
POINT
  5
BD75
330
AB0A
100
AcDbEntity
  8
Defpoints
 62
     0
370
     0
100
AcDbPoint
 10
-81.32019749096734
 20
220.7294330224654
 30
0.0
  0
ENDBLK
  5
AB16
330
AB0A
100
AcDbEntity
  8
0
370
     0
100
AcDbBlockEnd
  0
BLOCK
  5
AB2D
330
AB22
100
AcDbEntity
  8
0
370
     0
100
AcDbBlockBegin
  2
*D46
 70
     1
 10
0.0
 20
0.0
 30
0.0
  3
*D46
  1

  0
LINE
  5
BD76
330
AB22
100
AcDbEntity
  8
Dimension
 62
     0
370
    -2
100
AcDbLine
 10
-57.10619749294733
 20
169.9297089742863
 30
0.0
 11
-20.7009002960948
 21
169.9297089742863
 31
0.0
  0
LINE
  5
BD77
330
AB22
100
AcDbEntity
  8
Dimension
 62
     0
370
    -2
100
AcDbLine
 10
-48.40619749140734
 20
174.9297089742662
 30
0.0
 11
-20.7009002960948
 21
174.9297089742662
 31
0.0
  0
LINE
  5
BD78
330
AB22
100
AcDbEntity
  8
Dimension
 62
     0
370
    -2
100
AcDbLine
 10
-21.2009002960948
 20
171.4297089742863
 30
0.0
 11
-21.2009002960948
 21
173.4297089742663
 31
0.0
  0
SOLID
  5
BD79
330
AB22
100
AcDbEntity
  8
Dimension
 62
     0
370
     0
100
AcDbTrace
 10
-21.4509002960948
 20
171.4297089742863
 30
0.0
 11
-20.9509002960948
 21
171.4297089742863
 31
0.0
 12
-21.2009002960948
 22
169.9297089742863
 32
0.0
 13
-21.2009002960948
 23
169.9297089742863
 33
0.0
  0
SOLID
  5
BD7A
330
AB22
100
AcDbEntity
  8
Dimension
 62
     0
370
     0
100
AcDbTrace
 10
-21.4509002960948
 20
173.4297089742663
 30
0.0
 11
-20.9509002960948
 21
173.4297089742663
 31
0.0
 12
-21.2009002960948
 22
174.9297089742662
 32
0.0
 13
-21.2009002960948
 23
174.9297089742662
 33
0.0
  0
MTEXT
  5
BD7B
330
AB22
100
AcDbEntity
  8
Dimension
 62
     0
370
     0
100
AcDbMText
 10
-22.81965882269783
 20
172.4297089742763
 30
0.0
 40
2.2
 41
0.0
 71
     5
 72
     1
  1
5
 11
0.0000000000000001
 21
1.0
 31
0.0
 73
     1
 44
1.0
1001
ACAD
1000
MTEXTBEGIN
1070
    73
1070
     1
1070
    44
1040
1.0
1070
    74
1070
     0
1000
MTEXTEND
  0
POINT
  5
BD7C
330
AB22
100
AcDbEntity
  8
Defpoints
 62
     0
370
     0
100
AcDbPoint
 10
-58.60619749294733
 20
169.9297089742863
 30
0.0
  0
POINT
  5
BD7D
330
AB22
100
AcDbEntity
  8
Defpoints
 62
     0
370
     0
100
AcDbPoint
 10
-49.90619749140734
 20
174.9297089742662
 30
0.0
  0
POINT
  5
BD7E
330
AB22
100
AcDbEntity
  8
Defpoints
 62
     0
370
     0
100
AcDbPoint
 10
-21.2009002960948
 20
174.9297089742662
 30
0.0
  0
ENDBLK
  5
AB2E
330
AB22
100
AcDbEntity
  8
0
370
     0
100
AcDbBlockEnd
  0
BLOCK
  5
AB75
330
AB6A
100
AcDbEntity
  8
0
370
     0
100
AcDbBlockBegin
  2
*D47
 70
     1
 10
0.0
 20
0.0
 30
0.0
  3
*D47
  1

  0
LINE
  5
BE19
330
AB6A
100
AcDbEntity
  8
Dimension
 62
     0
370
    -2
100
AcDbLine
 10
-72.47991495754735
 20
166.0600951654388
 30
0.0
 11
-72.47991495754735
 21
161.4794258121243
 31
0.0
  0
LINE
  5
BE1A
330
AB6A
100
AcDbEntity
  8
Dimension
 62
     0
370
    -2
100
AcDbLine
 10
-70.56058077488734
 20
165.9996243954785
 30
0.0
 11
-70.56058077488734
 21
161.4794258121243
 31
0.0
  0
LINE
  5
BE1B
330
AB6A
100
AcDbEntity
  8
Dimension
 62
     0
370
    -2
100
AcDbLine
 10
-73.97991495754735
 20
161.9794258121243
 30
0.0
 11
-75.47991495754735
 21
161.9794258121243
 31
0.0
  0
LINE
  5
BE1C
330
AB6A
100
AcDbEntity
  8
Dimension
 62
     0
370
    -2
100
AcDbLine
 10
-69.06058077488734
 20
161.9794258121243
 30
0.0
 11
-64.50341842836619
 21
161.9794258121243
 31
0.0
  0
SOLID
  5
BE1D
330
AB6A
100
AcDbEntity
  8
Dimension
 62
     0
370
     0
100
AcDbTrace
 10
-73.97991495754735
 20
162.2294258121243
 30
0.0
 11
-73.97991495754735
 21
161.7294258121243
 31
0.0
 12
-72.47991495754735
 22
161.9794258121243
 32
0.0
 13
-72.47991495754735
 23
161.9794258121243
 33
0.0
  0
SOLID
  5
BE1E
330
AB6A
100
AcDbEntity
  8
Dimension
 62
     0
370
     0
100
AcDbTrace
 10
-69.06058077488734
 20
162.2294258121243
 30
0.0
 11
-69.06058077488734
 21
161.7294258121243
 31
0.0
 12
-70.56058077488734
 22
161.9794258121243
 32
0.0
 13
-70.56058077488734
 23
161.9794258121243
 33
0.0
  0
MTEXT
  5
BE1F
330
AB6A
100
AcDbEntity
  8
Dimension
 62
     0
370
     0
100
AcDbMText
 10
-66.03199960162676
 20
163.8839278585091
 30
0.0
 40
2.2
 41
0.0
 71
     5
 72
     1
  1
2
 73
     1
 44
1.0
1001
ACAD
1000
MTEXTBEGIN
1070
    73
1070
     1
1070
    44
1040
1.0
1070
    74
1070
     0
1000
MTEXTEND
  0
POINT
  5
BE20
330
AB6A
100
AcDbEntity
  8
Defpoints
 62
     0
370
     0
100
AcDbPoint
 10
-72.47991495754735
 20
167.5600951654388
 30
0.0
  0
POINT
  5
BE21
330
AB6A
100
AcDbEntity
  8
Defpoints
 62
     0
370
     0
100
AcDbPoint
 10
-70.56058077488734
 20
167.4996243954786
 30
0.0
  0
POINT
  5
BE22
330
AB6A
100
AcDbEntity
  8
Defpoints
 62
     0
370
     0
100
AcDbPoint
 10
-70.56058077488734
 20
161.9794258121243
 30
0.0
  0
ENDBLK
  5
AB76
330
AB6A
100
AcDbEntity
  8
0
370
     0
100
AcDbBlockEnd
  0
BLOCK
  5
ABB4
330
ABAA
100
AcDbEntity
  8
0
370
     0
100
AcDbBlockBegin
  2
*D49
 70
     1
 10
0.0
 20
0.0
 30
0.0
  3
*D49
  1

  0
LINE
  5
BD89
330
ABAA
100
AcDbEntity
  8
Dimension
 62
     0
370
    -2
100
AcDbLine
 10
-76.20619749226733
 20
168.4297089742863
 30
0.0
 11
-76.20619749226733
 21
152.9128747646124
 31
0.0
  0
LINE
  5
BD8A
330
ABAA
100
AcDbEntity
  8
Dimension
 62
     0
370
    -2
100
AcDbLine
 10
-58.60619749294733
 20
168.4297089742863
 30
0.0
 11
-58.60619749294733
 21
152.9128747646124
 31
0.0
  0
LINE
  5
BD8B
330
ABAA
100
AcDbEntity
  8
Dimension
 62
     0
370
    -2
100
AcDbLine
 10
-74.70619749226734
 20
153.4128747646124
 30
0.0
 11
-60.10619749294733
 21
153.4128747646124
 31
0.0
  0
SOLID
  5
BD8C
330
ABAA
100
AcDbEntity
  8
Dimension
 62
     0
370
     0
100
AcDbTrace
 10
-74.70619749226734
 20
153.6628747646124
 30
0.0
 11
-74.70619749226734
 21
153.1628747646124
 31
0.0
 12
-76.20619749226733
 22
153.4128747646124
 32
0.0
 13
-76.20619749226733
 23
153.4128747646124
 33
0.0
  0
SOLID
  5
BD8D
330
ABAA
100
AcDbEntity
  8
Dimension
 62
     0
370
     0
100
AcDbTrace
 10
-60.10619749294733
 20
153.6628747646124
 30
0.0
 11
-60.10619749294733
 21
153.1628747646124
 31
0.0
 12
-58.60619749294733
 22
153.4128747646124
 32
0.0
 13
-58.60619749294733
 23
153.4128747646124
 33
0.0
  0
MTEXT
  5
BD8E
330
ABAA
100
AcDbEntity
  8
Dimension
 62
     0
370
     0
100
AcDbMText
 10
-67.40619749260734
 20
155.0361353376001
 30
0.0
 40
2.2
 41
0.0
 71
     5
 72
     1
  1
17.6
 73
     1
 44
1.0
1001
ACAD
1000
MTEXTBEGIN
1070
    73
1070
     1
1070
    44
1040
1.0
1070
    74
1070
     0
1000
MTEXTEND
  0
POINT
  5
BD8F
330
ABAA
100
AcDbEntity
  8
Defpoints
 62
     0
370
     0
100
AcDbPoint
 10
-76.20619749226733
 20
169.9297089742863
 30
0.0
  0
POINT
  5
BD90
330
ABAA
100
AcDbEntity
  8
Defpoints
 62
     0
370
     0
100
AcDbPoint
 10
-58.60619749294733
 20
169.9297089742863
 30
0.0
  0
POINT
  5
BD91
330
ABAA
100
AcDbEntity
  8
Defpoints
 62
     0
370
     0
100
AcDbPoint
 10
-58.60619749294733
 20
153.4128747646124
 30
0.0
  0
ENDBLK
  5
ABB5
330
ABAA
100
AcDbEntity
  8
0
370
     0
100
AcDbBlockEnd
  0
BLOCK
  5
ADA9
330
AD9E
100
AcDbEntity
  8
0
370
     0
100
AcDbBlockBegin
  2
*D50
 70
     1
 10
0.0
 20
0.0
 30
0.0
  3
*D50
  1

  0
LINE
  5
BD9C
330
AD9E
100
AcDbEntity
  8
Dimension
 62
     0
370
    -2
100
AcDbLine
 10
63.67870256687263
 20
173.4297327156463
 30
0.0
 11
63.67870256687263
 21
152.9128747646124
 31
0.0
  0
LINE
  5
BD9D
330
AD9E
100
AcDbEntity
  8
Dimension
 62
     0
370
    -2
100
AcDbLine
 10
65.67870256687263
 20
179.5097089742663
 30
0.0
 11
65.67870256687263
 21
152.9128747646124
 31
0.0
  0
LINE
  5
BD9E
330
AD9E
100
AcDbEntity
  8
Dimension
 62
     0
370
    -2
100
AcDbLine
 10
62.17870256687263
 20
153.4128747646124
 30
0.0
 11
60.67870256687263
 21
153.4128747646124
 31
0.0
  0
LINE
  5
BD9F
330
AD9E
100
AcDbEntity
  8
Dimension
 62
     0
370
    -2
100
AcDbLine
 10
67.17870256687263
 20
153.4128747646124
 30
0.0
 11
71.73586491339378
 21
153.4128747646124
 31
0.0
  0
SOLID
  5
BDA0
330
AD9E
100
AcDbEntity
  8
Dimension
 62
     0
370
     0
100
AcDbTrace
 10
62.17870256687263
 20
153.6628747646124
 30
0.0
 11
62.17870256687263
 21
153.1628747646124
 31
0.0
 12
63.67870256687263
 22
153.4128747646124
 32
0.0
 13
63.67870256687263
 23
153.4128747646124
 33
0.0
  0
SOLID
  5
BDA1
330
AD9E
100
AcDbEntity
  8
Dimension
 62
     0
370
     0
100
AcDbTrace
 10
67.17870256687263
 20
153.6628747646124
 30
0.0
 11
67.17870256687263
 21
153.1628747646124
 31
0.0
 12
65.67870256687263
 22
153.4128747646124
 32
0.0
 13
65.67870256687263
 23
153.4128747646124
 33
0.0
  0
MTEXT
  5
BDA2
330
AD9E
100
AcDbEntity
  8
Dimension
 62
     0
370
     0
100
AcDbMText
 10
70.2072837401332
 20
155.3173768109971
 30
0.0
 40
2.2
 41
0.0
 71
     5
 72
     1
  1
2
 73
     1
 44
1.0
1001
ACAD
1000
MTEXTBEGIN
1070
    73
1070
     1
1070
    44
1040
1.0
1070
    74
1070
     0
1000
MTEXTEND
  0
POINT
  5
BDA3
330
AD9E
100
AcDbEntity
  8
Defpoints
 62
     0
370
     0
100
AcDbPoint
 10
63.67870256687263
 20
174.9297327156463
 30
0.0
  0
POINT
  5
BDA4
330
AD9E
100
AcDbEntity
  8
Defpoints
 62
     0
370
     0
100
AcDbPoint
 10
65.67870256687263
 20
181.0097089742663
 30
0.0
  0
POINT
  5
BDA5
330
AD9E
100
AcDbEntity
  8
Defpoints
 62
     0
370
     0
100
AcDbPoint
 10
65.67870256687263
 20
153.4128747646124
 30
0.0
  0
ENDBLK
  5
ADAA
330
AD9E
100
AcDbEntity
  8
0
370
     0
100
AcDbBlockEnd
  0
BLOCK
  5
ADB7
330
ADAC
100
AcDbEntity
  8
0
370
     0
100
AcDbBlockBegin
  2
*D51
 70
     1
 10
0.0
 20
0.0
 30
0.0
  3
*D51
  1

  0
LINE
  5
BD92
330
ADAC
100
AcDbEntity
  8
Dimension
 62
     0
370
    -2
100
AcDbLine
 10
63.67870256687263
 20
215.4296852337463
 30
0.0
 11
63.67870256687263
 21
221.2294330224654
 31
0.0
  0
LINE
  5
BD93
330
ADAC
100
AcDbEntity
  8
Dimension
 62
     0
370
    -2
100
AcDbLine
 10
65.17870256687263
 20
197.9634013170063
 30
0.0
 11
65.17870256687263
 21
221.2294330224654
 31
0.0
  0
LINE
  5
BD94
330
ADAC
100
AcDbEntity
  8
Dimension
 62
     0
370
    -2
100
AcDbLine
 10
62.17870256687263
 20
220.7294330224654
 30
0.0
 11
60.67870256687263
 21
220.7294330224654
 31
0.0
  0
LINE
  5
BD95
330
ADAC
100
AcDbEntity
  8
Dimension
 62
     0
370
    -2
100
AcDbLine
 10
66.67870256687263
 20
220.7294330224654
 30
0.0
 11
73.59343653685899
 21
220.7294330224654
 31
0.0
  0
SOLID
  5
BD96
330
ADAC
100
AcDbEntity
  8
Dimension
 62
     0
370
     0
100
AcDbTrace
 10
62.17870256687263
 20
220.9794330224654
 30
0.0
 11
62.17870256687263
 21
220.4794330224654
 31
0.0
 12
63.67870256687263
 22
220.7294330224654
 32
0.0
 13
63.67870256687263
 23
220.7294330224654
 33
0.0
  0
SOLID
  5
BD97
330
ADAC
100
AcDbEntity
  8
Dimension
 62
     0
370
     0
100
AcDbTrace
 10
66.67870256687263
 20
220.9794330224654
 30
0.0
 11
66.67870256687263
 21
220.4794330224654
 31
0.0
 12
65.17870256687263
 22
220.7294330224654
 32
0.0
 13
65.17870256687263
 23
220.7294330224654
 33
0.0
  0
MTEXT
  5
BD98
330
ADAC
100
AcDbEntity
  8
Dimension
 62
     0
370
     0
100
AcDbMText
 10
70.8860695518658
 20
222.6526935954531
 30
0.0
 40
2.2
 41
0.0
 71
     5
 72
     1
  1
1.5
 73
     1
 44
1.0
1001
ACAD
1000
MTEXTBEGIN
1070
    73
1070
     1
1070
    44
1040
1.0
1070
    74
1070
     0
1000
MTEXTEND
  0
POINT
  5
BD99
330
ADAC
100
AcDbEntity
  8
Defpoints
 62
     0
370
     0
100
AcDbPoint
 10
63.67870256687263
 20
213.9296852337463
 30
0.0
  0
POINT
  5
BD9A
330
ADAC
100
AcDbEntity
  8
Defpoints
 62
     0
370
     0
100
AcDbPoint
 10
65.17870256687263
 20
196.4634013170062
 30
0.0
  0
POINT
  5
BD9B
330
ADAC
100
AcDbEntity
  8
Defpoints
 62
     0
370
     0
100
AcDbPoint
 10
65.17870256687263
 20
220.7294330224654
 30
0.0
  0
ENDBLK
  5
ADB8
330
ADAC
100
AcDbEntity
  8
0
370
     0
100
AcDbBlockEnd
  0
BLOCK
  5
ADE2
330
ADD8
100
AcDbEntity
  8
0
370
     0
100
AcDbBlockBegin
  2
*D52
 70
     1
 10
0.0
 20
0.0
 30
0.0
  3
*D52
  1

  0
LINE
  5
BDA6
330
ADD8
100
AcDbEntity
  8
Dimension
 62
     0
370
    -2
100
AcDbLine
 10
37.27870256789268
 20
173.4297089742663
 30
0.0
 11
37.27870256789268
 21
152.9128747646124
 31
0.0
  0
LINE
  5
BDA7
330
ADD8
100
AcDbEntity
  8
Dimension
 62
     0
370
    -2
100
AcDbLine
 10
63.67870256687263
 20
173.4297327156463
 30
0.0
 11
63.67870256687263
 21
152.9128747646124
 31
0.0
  0
LINE
  5
BDA8
330
ADD8
100
AcDbEntity
  8
Dimension
 62
     0
370
    -2
100
AcDbLine
 10
38.77870256789268
 20
153.4128747646124
 30
0.0
 11
62.17870256687263
 21
153.4128747646124
 31
0.0
  0
SOLID
  5
BDA9
330
ADD8
100
AcDbEntity
  8
Dimension
 62
     0
370
     0
100
AcDbTrace
 10
38.77870256789268
 20
153.6628747646124
 30
0.0
 11
38.77870256789268
 21
153.1628747646124
 31
0.0
 12
37.27870256789268
 22
153.4128747646124
 32
0.0
 13
37.27870256789268
 23
153.4128747646124
 33
0.0
  0
SOLID
  5
BDAA
330
ADD8
100
AcDbEntity
  8
Dimension
 62
     0
370
     0
100
AcDbTrace
 10
62.17870256687263
 20
153.6628747646124
 30
0.0
 11
62.17870256687263
 21
153.1628747646124
 31
0.0
 12
63.67870256687263
 22
153.4128747646124
 32
0.0
 13
63.67870256687263
 23
153.4128747646124
 33
0.0
  0
MTEXT
  5
BDAB
330
ADD8
100
AcDbEntity
  8
Dimension
 62
     0
370
     0
100
AcDbMText
 10
50.47870256738265
 20
155.3361353376001
 30
0.0
 40
2.2
 41
0.0
 71
     5
 72
     1
  1
26.4
 73
     1
 44
1.0
1001
ACAD
1000
MTEXTBEGIN
1070
    73
1070
     1
1070
    44
1040
1.0
1070
    74
1070
     0
1000
MTEXTEND
  0
POINT
  5
BDAC
330
ADD8
100
AcDbEntity
  8
Defpoints
 62
     0
370
     0
100
AcDbPoint
 10
37.27870256789268
 20
174.9297089742663
 30
0.0
  0
POINT
  5
BDAD
330
ADD8
100
AcDbEntity
  8
Defpoints
 62
     0
370
     0
100
AcDbPoint
 10
63.67870256687263
 20
174.9297327156463
 30
0.0
  0
POINT
  5
BDAE
330
ADD8
100
AcDbEntity
  8
Defpoints
 62
     0
370
     0
100
AcDbPoint
 10
63.67870256687263
 20
153.4128747646124
 30
0.0
  0
ENDBLK
  5
ADE3
330
ADD8
100
AcDbEntity
  8
0
370
     0
100
AcDbBlockEnd
  0
BLOCK
  5
AE01
330
ADF7
100
AcDbEntity
  8
0
370
     0
100
AcDbBlockBegin
  2
*D53
 70
     1
 10
0.0
 20
0.0
 30
0.0
  3
*D53
  1

  0
LINE
  5
BDAF
330
ADF7
100
AcDbEntity
  8
Dimension
 62
     0
370
    -2
100
AcDbLine
 10
16.77870256721266
 20
190.8960166323863
 30
0.0
 11
16.77870256721266
 21
152.9128747646124
 31
0.0
  0
LINE
  5
BDB0
330
ADF7
100
AcDbEntity
  8
Dimension
 62
     0
370
    -2
100
AcDbLine
 10
37.27870256789268
 20
173.4297089742663
 30
0.0
 11
37.27870256789268
 21
152.9128747646124
 31
0.0
  0
LINE
  5
BDB1
330
ADF7
100
AcDbEntity
  8
Dimension
 62
     0
370
    -2
100
AcDbLine
 10
18.27870256721266
 20
153.4128747646124
 30
0.0
 11
35.77870256789268
 21
153.4128747646124
 31
0.0
  0
SOLID
  5
BDB2
330
ADF7
100
AcDbEntity
  8
Dimension
 62
     0
370
     0
100
AcDbTrace
 10
18.27870256721266
 20
153.6628747646124
 30
0.0
 11
18.27870256721266
 21
153.1628747646124
 31
0.0
 12
16.77870256721266
 22
153.4128747646124
 32
0.0
 13
16.77870256721266
 23
153.4128747646124
 33
0.0
  0
SOLID
  5
BDB3
330
ADF7
100
AcDbEntity
  8
Dimension
 62
     0
370
     0
100
AcDbTrace
 10
35.77870256789268
 20
153.6628747646124
 30
0.0
 11
35.77870256789268
 21
153.1628747646124
 31
0.0
 12
37.27870256789268
 22
153.4128747646124
 32
0.0
 13
37.27870256789268
 23
153.4128747646124
 33
0.0
  0
MTEXT
  5
BDB4
330
ADF7
100
AcDbEntity
  8
Dimension
 62
     0
370
     0
100
AcDbMText
 10
27.02870256755267
 20
155.3361353376001
 30
0.0
 40
2.2
 41
0.0
 71
     5
 72
     1
  1
20.5
 73
     1
 44
1.0
1001
ACAD
1000
MTEXTBEGIN
1070
    73
1070
     1
1070
    44
1040
1.0
1070
    74
1070
     0
1000
MTEXTEND
  0
POINT
  5
BDB5
330
ADF7
100
AcDbEntity
  8
Defpoints
 62
     0
370
     0
100
AcDbPoint
 10
16.77870256721266
 20
192.3960166323863
 30
0.0
  0
POINT
  5
BDB6
330
ADF7
100
AcDbEntity
  8
Defpoints
 62
     0
370
     0
100
AcDbPoint
 10
37.27870256789268
 20
174.9297089742663
 30
0.0
  0
POINT
  5
BDB7
330
ADF7
100
AcDbEntity
  8
Defpoints
 62
     0
370
     0
100
AcDbPoint
 10
37.27870256789268
 20
153.4128747646124
 30
0.0
  0
ENDBLK
  5
AE02
330
ADF7
100
AcDbEntity
  8
0
370
     0
100
AcDbBlockEnd
  0
BLOCK
  5
B01A
330
B00F
100
AcDbEntity
  8
0
370
     0
100
AcDbBlockBegin
  2
*D54
 70
     1
 10
0.0
 20
0.0
 30
0.0
  3
*D54
  1

  0
LINE
  5
BDB8
330
B00F
100
AcDbEntity
  8
Dimension
 62
     0
370
    -2
100
AcDbLine
 10
37.27870256789268
 20
173.4297089742663
 30
0.0
 11
37.27870256789268
 21
169.4962992701241
 31
0.0
  0
LINE
  5
BDB9
330
B00F
100
AcDbEntity
  8
Dimension
 62
     0
370
    -2
100
AcDbLine
 10
36.57870256637267
 20
184.9172198066663
 30
0.0
 11
36.57870256637267
 21
169.4962992701241
 31
0.0
  0
LINE
  5
BDBA
330
B00F
100
AcDbEntity
  8
Dimension
 62
     0
370
    -2
100
AcDbLine
 10
38.77870256789268
 20
169.9962992701241
 30
0.0
 11
40.27870256789268
 21
169.9962992701241
 31
0.0
  0
LINE
  5
BDBB
330
B00F
100
AcDbEntity
  8
Dimension
 62
     0
370
    -2
100
AcDbLine
 10
35.07870256637267
 20
169.9962992701241
 30
0.0
 11
27.97338196609982
 21
169.9962992701241
 31
0.0
  0
SOLID
  5
BDBC
330
B00F
100
AcDbEntity
  8
Dimension
 62
     0
370
     0
100
AcDbTrace
 10
38.77870256789268
 20
170.2462992701241
 30
0.0
 11
38.77870256789268
 21
169.7462992701241
 31
0.0
 12
37.27870256789268
 22
169.9962992701241
 32
0.0
 13
37.27870256789268
 23
169.9962992701241
 33
0.0
  0
SOLID
  5
BDBD
330
B00F
100
AcDbEntity
  8
Dimension
 62
     0
370
     0
100
AcDbTrace
 10
35.07870256637267
 20
170.2462992701241
 30
0.0
 11
35.07870256637267
 21
169.7462992701241
 31
0.0
 12
36.57870256637267
 22
169.9962992701241
 32
0.0
 13
36.57870256637267
 23
169.9962992701241
 33
0.0
  0
MTEXT
  5
BDBE
330
B00F
100
AcDbEntity
  8
Dimension
 62
     0
370
     0
100
AcDbMText
 10
30.77604226623625
 20
171.9195598431118
 30
0.0
 40
2.2
 41
0.0
 71
     5
 72
     1
  1
0.7
 73
     1
 44
1.0
1001
ACAD
1000
MTEXTBEGIN
1070
    73
1070
     1
1070
    44
1040
1.0
1070
    74
1070
     0
1000
MTEXTEND
  0
POINT
  5
BDBF
330
B00F
100
AcDbEntity
  8
Defpoints
 62
     0
370
     0
100
AcDbPoint
 10
37.27870256789268
 20
174.9297089742663
 30
0.0
  0
POINT
  5
BDC0
330
B00F
100
AcDbEntity
  8
Defpoints
 62
     0
370
     0
100
AcDbPoint
 10
36.57870256637267
 20
186.4172198066663
 30
0.0
  0
POINT
  5
BDC1
330
B00F
100
AcDbEntity
  8
Defpoints
 62
     0
370
     0
100
AcDbPoint
 10
36.57870256637267
 20
169.9962992701241
 30
0.0
  0
ENDBLK
  5
B01B
330
B00F
100
AcDbEntity
  8
0
370
     0
100
AcDbBlockEnd
  0
BLOCK
  5
B028
330
B01D
100
AcDbEntity
  8
0
370
     0
100
AcDbBlockBegin
  2
*D55
 70
     1
 10
0.0
 20
0.0
 30
0.0
  3
*D55
  1

  0
LINE
  5
BDC2
330
B01D
100
AcDbEntity
  8
Dimension
 62
     0
370
    -2
100
AcDbLine
 10
37.27870256789268
 20
173.4297089742663
 30
0.0
 11
37.27870256789268
 21
161.4794258121243
 31
0.0
  0
LINE
  5
BDC3
330
B01D
100
AcDbEntity
  8
Dimension
 62
     0
370
    -2
100
AcDbLine
 10
34.17870256775268
 20
185.2297089759463
 30
0.0
 11
34.17870256775268
 21
161.4794258121243
 31
0.0
  0
LINE
  5
BDC4
330
B01D
100
AcDbEntity
  8
Dimension
 62
     0
370
    -2
100
AcDbLine
 10
38.77870256789268
 20
161.9794258121243
 30
0.0
 11
40.27870256789268
 21
161.9794258121243
 31
0.0
  0
LINE
  5
BDC5
330
B01D
100
AcDbEntity
  8
Dimension
 62
     0
370
    -2
100
AcDbLine
 10
32.67870256775268
 20
161.9794258121243
 30
0.0
 11
31.17870256775268
 21
161.9794258121243
 31
0.0
  0
SOLID
  5
BDC6
330
B01D
100
AcDbEntity
  8
Dimension
 62
     0
370
     0
100
AcDbTrace
 10
38.77870256789268
 20
162.2294258121243
 30
0.0
 11
38.77870256789268
 21
161.7294258121243
 31
0.0
 12
37.27870256789268
 22
161.9794258121243
 32
0.0
 13
37.27870256789268
 23
161.9794258121243
 33
0.0
  0
SOLID
  5
BDC7
330
B01D
100
AcDbEntity
  8
Dimension
 62
     0
370
     0
100
AcDbTrace
 10
32.67870256775268
 20
162.2294258121243
 30
0.0
 11
32.67870256775268
 21
161.7294258121243
 31
0.0
 12
34.17870256775268
 22
161.9794258121243
 32
0.0
 13
34.17870256775268
 23
161.9794258121243
 33
0.0
  0
MTEXT
  5
BDC8
330
B01D
100
AcDbEntity
  8
Dimension
 62
     0
370
     0
100
AcDbMText
 10
35.72870256782268
 20
163.9034367261762
 30
0.0
 40
2.2
 41
0.0
 71
     5
 72
     1
  1
3
 73
     1
 44
1.0
1001
ACAD
1000
MTEXTBEGIN
1070
    73
1070
     1
1070
    44
1040
1.0
1070
    74
1070
     0
1000
MTEXTEND
  0
POINT
  5
BDC9
330
B01D
100
AcDbEntity
  8
Defpoints
 62
     0
370
     0
100
AcDbPoint
 10
37.27870256789268
 20
174.9297089742663
 30
0.0
  0
POINT
  5
BDCA
330
B01D
100
AcDbEntity
  8
Defpoints
 62
     0
370
     0
100
AcDbPoint
 10
34.17870256775268
 20
186.7297089759463
 30
0.0
  0
POINT
  5
BDCB
330
B01D
100
AcDbEntity
  8
Defpoints
 62
     0
370
     0
100
AcDbPoint
 10
34.17870256775268
 20
161.9794258121243
 30
0.0
  0
ENDBLK
  5
B029
330
B01D
100
AcDbEntity
  8
0
370
     0
100
AcDbBlockEnd
  0
BLOCK
  5
B0BD
330
B0B3
100
AcDbEntity
  8
0
370
     0
100
AcDbBlockBegin
  2
*D56
 70
     1
 10
0.0
 20
0.0
 30
0.0
  3
*D56
  1

  0
LINE
  5
BDD6
330
B0B3
100
AcDbEntity
  8
Dimension
 62
     0
370
    -2
100
AcDbLine
 10
32.97870256719267
 20
202.4297089754263
 30
0.0
 11
-3.567667210516103
 21
202.4297089754263
 31
0.0
  0
LINE
  5
BDD7
330
B0B3
100
AcDbEntity
  8
Dimension
 62
     0
370
    -2
100
AcDbLine
 10
32.97870256719267
 20
186.4297089739662
 30
0.0
 11
-3.567667210516107
 21
186.4297089739662
 31
0.0
  0
LINE
  5
BDD8
330
B0B3
100
AcDbEntity
  8
Dimension
 62
     0
370
    -2
100
AcDbLine
 10
-3.067667210516103
 20
200.9297089754263
 30
0.0
 11
-3.067667210516106
 21
187.9297089739662
 31
0.0
  0
SOLID
  5
BDD9
330
B0B3
100
AcDbEntity
  8
Dimension
 62
     0
370
     0
100
AcDbTrace
 10
-3.317667210516103
 20
200.9297089754263
 30
0.0
 11
-2.817667210516103
 21
200.9297089754263
 31
0.0
 12
-3.067667210516102
 22
202.4297089754263
 32
0.0
 13
-3.067667210516102
 23
202.4297089754263
 33
0.0
  0
SOLID
  5
BDDA
330
B0B3
100
AcDbEntity
  8
Dimension
 62
     0
370
     0
100
AcDbTrace
 10
-3.317667210516106
 20
187.9297089739662
 30
0.0
 11
-2.817667210516106
 21
187.9297089739662
 31
0.0
 12
-3.067667210516106
 22
186.4297089739662
 32
0.0
 13
-3.067667210516106
 23
186.4297089739662
 33
0.0
  0
MTEXT
  5
BDDB
330
B0B3
100
AcDbEntity
  8
Dimension
 62
     0
370
     0
100
AcDbMText
 10
-4.752455750761702
 20
194.4297089746962
 30
0.0
 40
2.2
 41
0.0
 71
     5
 72
     1
  1
Ø 16
 11
0.0000000000000001
 21
1.0
 31
0.0
 73
     1
 44
1.0
1001
ACAD
1000
MTEXTBEGIN
1070
    73
1070
     1
1070
    44
1040
1.0
1070
    74
1070
     0
1000
MTEXTEND
  0
POINT
  5
BDDC
330
B0B3
100
AcDbEntity
  8
Defpoints
 62
     0
370
     0
100
AcDbPoint
 10
34.47870256719267
 20
202.4297089754263
 30
0.0
  0
POINT
  5
BDDD
330
B0B3
100
AcDbEntity
  8
Defpoints
 62
     0
370
     0
100
AcDbPoint
 10
34.47870256719267
 20
186.4297089739662
 30
0.0
  0
POINT
  5
BDDE
330
B0B3
100
AcDbEntity
  8
Defpoints
 62
     0
370
     0
100
AcDbPoint
 10
-3.067667210516106
 20
186.4297089739662
 30
0.0
  0
ENDBLK
  5
B0BE
330
B0B3
100
AcDbEntity
  8
0
370
     0
100
AcDbBlockEnd
  0
BLOCK
  5
B0CB
330
B0C0
100
AcDbEntity
  8
0
370
     0
100
AcDbBlockBegin
  2
*D57
 70
     1
 10
0.0
 20
0.0
 30
0.0
  3
*D57
  1

  0
LINE
  5
BDCC
330
B0C0
100
AcDbEntity
  8
Dimension
 62
     0
370
    -2
100
AcDbLine
 10
16.27870256619266
 20
191.9297089747063
 30
0.0
 11
6.537503563916162
 21
191.9297089747063
 31
0.0
  0
LINE
  5
BDCD
330
B0C0
100
AcDbEntity
  8
Dimension
 62
     0
370
    -2
100
AcDbLine
 10
16.27870256619266
 20
196.9297089746863
 30
0.0
 11
6.537503563916163
 21
196.9297089746863
 31
0.0
  0
LINE
  5
BDCE
330
B0C0
100
AcDbEntity
  8
Dimension
 62
     0
370
    -2
100
AcDbLine
 10
7.037503563916162
 20
193.4297089747063
 30
0.0
 11
7.037503563916163
 21
195.4297089746863
 31
0.0
  0
LINE
  5
BDCF
330
B0C0
100
AcDbEntity
  8
Dimension
 62
     0
370
    -2
100
AcDbLine
 10
7.037503563916163
 20
196.9297089746863
 30
0.0
 11
7.037503563916168
 21
216.2922167502639
 31
0.0
  0
SOLID
  5
BDD0
330
B0C0
100
AcDbEntity
  8
Dimension
 62
     0
370
     0
100
AcDbTrace
 10
6.787503563916162
 20
193.4297089747063
 30
0.0
 11
7.287503563916162
 21
193.4297089747063
 31
0.0
 12
7.037503563916162
 22
191.9297089747063
 32
0.0
 13
7.037503563916162
 23
191.9297089747063
 33
0.0
  0
SOLID
  5
BDD1
330
B0C0
100
AcDbEntity
  8
Dimension
 62
     0
370
     0
100
AcDbTrace
 10
6.787503563916163
 20
195.4297089746863
 30
0.0
 11
7.287503563916163
 21
195.4297089746863
 31
0.0
 12
7.037503563916163
 22
196.9297089746863
 32
0.0
 13
7.037503563916163
 23
196.9297089746863
 33
0.0
  0
MTEXT
  5
BDD2
330
B0C0
100
AcDbEntity
  8
Dimension
 62
     0
370
     0
100
AcDbMText
 10
4.364001972283571
 20
210.108969819841
 30
0.0
 40
2.2
 41
0.0
 71
     5
 72
     1
  1
Ø 5{\H1.540000;\S-0.008^ -0.016;}
 11
0.0000000000000001
 21
1.0
 31
0.0
 73
     1
 44
1.0
1001
ACAD
1000
MTEXTBEGIN
1070
    73
1070
     1
1070
    44
1040
1.0
1070
    74
1070
     0
1000
MTEXTEND
  0
POINT
  5
BDD3
330
B0C0
100
AcDbEntity
  8
Defpoints
 62
     0
370
     0
100
AcDbPoint
 10
17.77870256619266
 20
191.9297089747063
 30
0.0
  0
POINT
  5
BDD4
330
B0C0
100
AcDbEntity
  8
Defpoints
 62
     0
370
     0
100
AcDbPoint
 10
17.77870256619266
 20
196.9297089746863
 30
0.0
  0
POINT
  5
BDD5
330
B0C0
100
AcDbEntity
  8
Defpoints
 62
     0
370
     0
100
AcDbPoint
 10
7.037503563916163
 20
196.9297089746863
 30
0.0
  0
ENDBLK
  5
B0CC
330
B0C0
100
AcDbEntity
  8
0
370
     0
100
AcDbBlockEnd
  0
BLOCK
  5
BB22
330
BB17
100
AcDbEntity
  8
0
370
     0
100
AcDbBlockBegin
  2
*D58
 70
     1
 10
0.0
 20
0.0
 30
0.0
  3
*D58
  1

  0
LINE
  5
BDDF
330
BB17
100
AcDbEntity
  8
Dimension
 62
     0
370
    -2
100
AcDbLine
 10
37.27870256789268
 20
215.4297089751263
 30
0.0
 11
37.27870256789268
 21
221.2294330224654
 31
0.0
  0
LINE
  5
BDE0
330
BB17
100
AcDbEntity
  8
Dimension
 62
     0
370
    -2
100
AcDbLine
 10
39.27870256839265
 20
215.4297089751263
 30
0.0
 11
39.27870256839265
 21
221.2294330224654
 31
0.0
  0
LINE
  5
BDE1
330
BB17
100
AcDbEntity
  8
Dimension
 62
     0
370
    -2
100
AcDbLine
 10
35.77870256789268
 20
220.7294330224654
 30
0.0
 11
34.27870256789268
 21
220.7294330224654
 31
0.0
  0
LINE
  5
BDE2
330
BB17
100
AcDbEntity
  8
Dimension
 62
     0
370
    -2
100
AcDbLine
 10
40.77870256839264
 20
220.7294330224654
 30
0.0
 11
45.33586491491379
 21
220.7294330224654
 31
0.0
  0
SOLID
  5
BDE3
330
BB17
100
AcDbEntity
  8
Dimension
 62
     0
370
     0
100
AcDbTrace
 10
35.77870256789268
 20
220.9794330224654
 30
0.0
 11
35.77870256789268
 21
220.4794330224654
 31
0.0
 12
37.27870256789268
 22
220.7294330224654
 32
0.0
 13
37.27870256789268
 23
220.7294330224654
 33
0.0
  0
SOLID
  5
BDE4
330
BB17
100
AcDbEntity
  8
Dimension
 62
     0
370
     0
100
AcDbTrace
 10
40.77870256839264
 20
220.9794330224654
 30
0.0
 11
40.77870256839264
 21
220.4794330224654
 31
0.0
 12
39.27870256839265
 22
220.7294330224654
 32
0.0
 13
39.27870256839265
 23
220.7294330224654
 33
0.0
  0
MTEXT
  5
BDE5
330
BB17
100
AcDbEntity
  8
Dimension
 62
     0
370
     0
100
AcDbMText
 10
43.80728374165322
 20
222.6339350688501
 30
0.0
 40
2.2
 41
0.0
 71
     5
 72
     1
  1
2
 73
     1
 44
1.0
1001
ACAD
1000
MTEXTBEGIN
1070
    73
1070
     1
1070
    44
1040
1.0
1070
    74
1070
     0
1000
MTEXTEND
  0
POINT
  5
BDE6
330
BB17
100
AcDbEntity
  8
Defpoints
 62
     0
370
     0
100
AcDbPoint
 10
37.27870256789268
 20
213.9297089751263
 30
0.0
  0
POINT
  5
BDE7
330
BB17
100
AcDbEntity
  8
Defpoints
 62
     0
370
     0
100
AcDbPoint
 10
39.27870256839265
 20
213.9297089751263
 30
0.0
  0
POINT
  5
BDE8
330
BB17
100
AcDbEntity
  8
Defpoints
 62
     0
370
     0
100
AcDbPoint
 10
39.27870256839265
 20
220.7294330224654
 30
0.0
  0
ENDBLK
  5
BB23
330
BB17
100
AcDbEntity
  8
0
370
     0
100
AcDbBlockEnd
  0
ENDSEC
  0
SECTION
  2
ENTITIES
  0
MTEXT
  5
89A8
330
1F
100
AcDbEntity
  8
0
370
     0
100
AcDbMText
 10
27.64306083773131
 20
144.1062770400615
 30
0.0
 40
3.0
 41
35.5035005017393
 71
     1
 72
     5
  1
{\fArial|b1|i0|c0|p34;P430 258  . . .  01}
 73
     1
 44
1.0
1001
ACAD
1000
ACAD_MTEXT_DEFINED_HEIGHT_BEGIN
1070
    46
1040
0.0
1000
ACAD_MTEXT_DEFINED_HEIGHT_END
1000
MTEXTBEGIN
1070
    73
1070
     1
1070
    44
1040
1.0
1070
    74
1070
     0
1000
MTEXTEND
  0
LINE
  5
A681
330
1F
100
AcDbEntity
  8
0
100
AcDbLine
 10
-86.90619749176732
 20
176.9297089747663
 30
0.0
 11
-86.90619749176732
 21
211.9297089746263
 31
0.0
  0
LINE
  5
A682
330
1F
100
AcDbEntity
  8
0
100
AcDbLine
 10
-84.20141068712736
 20
179.0351747377663
 30
0.0
 11
-84.18241523870733
 21
178.6848242751463
 31
0.0
  0
LINE
  5
A683
330
1F
100
AcDbEntity
  8
0
100
AcDbLine
 10
-81.58526293492736
 20
178.9824892170263
 30
0.0
 11
-81.64568889230734
 21
179.3281709259663
 31
0.0
  0
LINE
  5
A684
330
1F
100
AcDbEntity
  8
0
100
AcDbLine
 10
-81.61098429572735
 20
179.0351747377663
 30
0.0
 11
-81.68640990814735
 21
179.3778367448463
 31
0.0
  0
LINE
  5
A685
330
1F
100
AcDbEntity
  8
0
100
AcDbLine
 10
-84.22245080252734
 20
178.8067005261863
 30
0.0
 11
-84.14371255512733
 21
178.4647247559863
 31
0.0
  0
LINE
  5
A686
330
1F
100
AcDbEntity
  8
0
100
AcDbLine
 10
-84.18241523870733
 20
178.6848242751463
 30
0.0
 11
-84.07038349426732
 21
178.3523259129663
 31
0.0
  0
LINE
  5
A687
330
1F
100
AcDbEntity
  8
0
100
AcDbLine
 10
-80.39332794196733
 20
182.4739115718863
 30
0.0
 11
-80.28129619752736
 21
182.1414132097063
 31
0.0
  0
LINE
  5
A688
330
1F
100
AcDbEntity
  8
0
100
AcDbLine
 10
-81.64568889230734
 20
179.3281709259663
 30
0.0
 11
-81.79493565756734
 21
179.6457753072663
 31
0.0
  0
LINE
  5
A689
330
1F
100
AcDbEntity
  8
0
100
AcDbLine
 10
-81.68640990814735
 20
179.3778367448463
 30
0.0
 11
-81.85075805036735
 21
179.6878302295063
 31
0.0
  0
LINE
  5
A68A
330
1F
100
AcDbEntity
  8
0
100
AcDbLine
 10
-84.14371255512733
 20
178.4647247559863
 30
0.0
 11
-83.97777372266734
 21
178.1555137538863
 31
0.0
  0
LINE
  5
A68B
330
1F
100
AcDbEntity
  8
0
100
AcDbLine
 10
-84.07038349426732
 20
178.3523259129663
 30
0.0
 11
-83.87348257488733
 21
178.0619187823263
 31
0.0
  0
LINE
  5
A68C
330
1F
100
AcDbEntity
  8
0
100
AcDbLine
 10
-84.16728576426734
 20
210.2433275652263
 30
0.0
 11
-84.20522094620734
 21
209.8945193144063
 31
0.0
  0
LINE
  5
A68D
330
1F
100
AcDbEntity
  8
0
100
AcDbLine
 10
-80.37819846752734
 20
206.4542402684863
 30
0.0
 11
-80.41613364946732
 21
206.1054320176663
 31
0.0
  0
LINE
  5
A68E
330
1F
100
AcDbEntity
  8
0
100
AcDbLine
 10
-81.61791565600735
 20
178.6330883892863
 30
0.0
 11
-81.58526293492736
 21
178.9824892170263
 31
0.0
  0
LINE
  5
A68F
330
1F
100
AcDbEntity
  8
0
100
AcDbLine
 10
-77.82882835926733
 20
182.4221756860263
 30
0.0
 11
-77.79617563818735
 21
182.7715765137663
 31
0.0
  0
LINE
  5
A690
330
1F
100
AcDbEntity
  8
0
100
AcDbLine
 10
-81.61047601378735
 20
209.6674882419263
 30
0.0
 11
-81.58713609602733
 21
210.0176344809263
 31
0.0
  0
LINE
  5
A691
330
1F
100
AcDbEntity
  8
0
100
AcDbLine
 10
-77.82138871958733
 20
205.8784009451863
 30
0.0
 11
-77.79804879928732
 21
206.2285471841863
 31
0.0
  0
LINE
  5
A692
330
1F
100
AcDbEntity
  8
0
100
AcDbLine
 10
-81.62997974668735
 20
178.6848242751463
 30
0.0
 11
-81.61098429572735
 21
179.0351747377663
 31
0.0
  0
LINE
  5
A693
330
1F
100
AcDbEntity
  8
0
100
AcDbLine
 10
-77.84089244994735
 20
182.4739115718863
 30
0.0
 11
-77.82189699898734
 21
182.8242620345063
 31
0.0
  0
LINE
  5
A694
330
1F
100
AcDbEntity
  8
0
100
AcDbLine
 10
-84.20844023110735
 20
179.1573439981263
 30
0.0
 11
-84.22245080252734
 21
178.8067005261863
 31
0.0
  0
LINE
  5
A695
330
1F
100
AcDbEntity
  8
0
100
AcDbLine
 10
-80.41935293436734
 20
182.9464312948663
 30
0.0
 11
-80.43336350578732
 21
182.5957878229263
 31
0.0
  0
LINE
  5
A696
330
1F
100
AcDbEntity
  8
0
100
AcDbLine
 10
-81.61859363788734
 20
209.7542764554463
 30
0.0
 11
-81.61859363788734
 21
210.1051414915863
 31
0.0
  0
LINE
  5
A697
330
1F
100
AcDbEntity
  8
0
100
AcDbLine
 10
-77.82950634368734
 20
205.9651891612463
 30
0.0
 11
-77.82950634368734
 21
206.3160541973863
 31
0.0
  0
LINE
  5
A698
330
1F
100
AcDbEntity
  8
0
100
AcDbLine
 10
-76.20619749226733
 20
174.9297089742663
 30
0.0
 11
-76.20619749226733
 21
169.9297089742863
 31
0.0
  0
LINE
  5
A699
330
1F
100
AcDbEntity
  8
0
100
AcDbLine
 10
-80.41232339038733
 20
182.8242620345063
 30
0.0
 11
-80.39332794196733
 21
182.4739115718863
 31
0.0
  0
LINE
  5
A69A
330
1F
100
AcDbEntity
  8
0
100
AcDbLine
 10
-81.62470995788735
 20
210.1383993829063
 30
0.0
 11
-81.62565795192733
 21
210.1508847757663
 31
0.0
  0
LINE
  5
A69B
330
1F
100
AcDbEntity
  8
0
100
AcDbLine
 10
-80.23768314022735
 20
182.5363571264463
 30
0.0
 11
-80.21757564678734
 21
182.3012005634863
 31
0.0
  0
LINE
  5
A69C
330
1F
100
AcDbEntity
  8
0
100
AcDbLine
 10
-80.23768314022735
 20
205.8763571240263
 30
0.0
 11
-80.21757564678734
 21
205.6412005636063
 31
0.0
  0
LINE
  5
A69D
330
1F
100
AcDbEntity
  8
0
100
AcDbLine
 10
-84.22806896248733
 20
209.9121114026663
 30
0.0
 11
-84.17686664680735
 21
209.5649436286263
 31
0.0
  0
LINE
  5
A69E
330
1F
100
AcDbEntity
  8
0
100
AcDbLine
 10
-80.43898166574734
 20
206.1230241059263
 30
0.0
 11
-80.38777935006734
 21
205.7758563318863
 31
0.0
  0
LINE
  5
A69F
330
1F
100
AcDbEntity
  8
0
100
AcDbLine
 10
-84.20522094620734
 20
209.8945193144063
 30
0.0
 11
-84.14845730052736
 21
209.5482763899263
 31
0.0
  0
LINE
  5
A6A0
330
1F
100
AcDbEntity
  8
0
100
AcDbLine
 10
-80.41613364946732
 20
206.1054320176663
 30
0.0
 11
-80.35937000378735
 21
205.7591890931863
 31
0.0
  0
LINE
  5
A6A1
330
1F
100
AcDbEntity
  8
0
100
AcDbLine
 10
-77.79617563818735
 20
182.7715765137663
 30
0.0
 11
-77.85660159556733
 21
183.1172582227063
 31
0.0
  0
LINE
  5
A6A2
330
1F
100
AcDbEntity
  8
0
100
AcDbLine
 10
-81.58713609602733
 20
210.0176344809263
 30
0.0
 11
-81.65674286562733
 21
210.3615851138263
 31
0.0
  0
LINE
  5
A6A3
330
1F
100
AcDbEntity
  8
0
100
AcDbLine
 10
-77.79804879928732
 20
206.2285471841863
 30
0.0
 11
-77.86765557142735
 21
206.5724978170863
 31
0.0
  0
LINE
  5
A6A4
330
1F
100
AcDbEntity
  8
0
100
AcDbLine
 10
-77.82189699898734
 20
182.8242620345063
 30
0.0
 11
-77.89732261140733
 21
183.1669240415863
 31
0.0
  0
LINE
  5
A6A5
330
1F
100
AcDbEntity
  8
0
100
AcDbLine
 10
-80.43336350578732
 20
182.5957878229263
 30
0.0
 11
-80.35462525838733
 21
182.2538120527262
 31
0.0
  0
LINE
  5
A6A6
330
1F
100
AcDbEntity
  8
0
100
AcDbLine
 10
-81.61859363788734
 20
210.1051414915863
 30
0.0
 11
-81.71245997796734
 21
210.4432174956463
 31
0.0
  0
LINE
  5
A6A7
330
1F
100
AcDbEntity
  8
0
100
AcDbLine
 10
-77.82950634368734
 20
206.3160541973863
 30
0.0
 11
-77.92337268376735
 21
206.6541301989063
 31
0.0
  0
LINE
  5
A6A8
330
1F
100
AcDbEntity
  8
0
100
AcDbLine
 10
-81.62565795192733
 20
210.1508847757663
 30
0.0
 11
-81.67520135550734
 21
210.3269157775263
 31
0.0
  0
LINE
  5
A6A9
330
1F
100
AcDbEntity
  8
0
100
AcDbLine
 10
-80.21757564678734
 20
182.3012005634863
 30
0.0
 11
-80.15008522804734
 21
182.0693652384863
 31
0.0
  0
LINE
  5
A6AA
330
1F
100
AcDbEntity
  8
0
100
AcDbLine
 10
-80.21757564678734
 20
205.6412005636063
 30
0.0
 11
-80.15008522804734
 21
205.4093652360663
 31
0.0
  0
LINE
  5
A6AB
330
1F
100
AcDbEntity
  8
0
100
AcDbLine
 10
-84.17686664680735
 20
209.5649436286263
 30
0.0
 11
-84.03612756582734
 21
209.2434787775263
 31
0.0
  0
LINE
  5
A6AC
330
1F
100
AcDbEntity
  8
0
100
AcDbLine
 10
-80.38777935006734
 20
205.7758563318863
 30
0.0
 11
-80.24704026908734
 21
205.4543914807863
 31
0.0
  0
LINE
  5
A6AD
330
1F
100
AcDbEntity
  8
0
100
AcDbLine
 10
-84.14845730052736
 20
209.5482763899263
 30
0.0
 11
-84.00113289616735
 21
209.2298399097063
 31
0.0
  0
LINE
  5
A6AE
330
1F
100
AcDbEntity
  8
0
100
AcDbLine
 10
-80.35937000378735
 20
205.7591890931863
 30
0.0
 11
-80.21204559942734
 21
205.4407526129663
 31
0.0
  0
LINE
  5
A6AF
330
1F
100
AcDbEntity
  8
0
100
AcDbLine
 10
-77.85660159556733
 20
183.1172582227063
 30
0.0
 11
-78.00584836082734
 21
183.4348626040063
 31
0.0
  0
LINE
  5
A6B0
330
1F
100
AcDbEntity
  8
0
100
AcDbLine
 10
-81.65674286562733
 20
210.3615851138263
 30
0.0
 11
-81.81439153432734
 21
210.6751039127463
 31
0.0
  0
LINE
  5
A6B1
330
1F
100
AcDbEntity
  8
0
100
AcDbLine
 10
-80.15008522804734
 20
182.0693652384863
 30
0.0
 11
-80.03644049724732
 21
181.8500969013063
 31
0.0
  0
LINE
  5
A6B2
330
1F
100
AcDbEntity
  8
0
100
AcDbLine
 10
-80.15008522804734
 20
205.4093652360663
 30
0.0
 11
-80.08892911464732
 21
205.2913694522463
 31
0.0
  0
LINE
  5
A6B3
330
1F
100
AcDbEntity
  8
0
100
AcDbLine
 10
-77.89732261140733
 20
183.1669240415863
 30
0.0
 11
-78.06167075616733
 21
183.4769175262463
 31
0.0
  0
LINE
  5
A6B4
330
1F
100
AcDbEntity
  8
0
100
AcDbLine
 10
-80.35462525838733
 20
182.2538120527262
 30
0.0
 11
-80.18868642592734
 21
181.9446010506263
 31
0.0
  0
LINE
  5
A6B5
330
1F
100
AcDbEntity
  8
0
100
AcDbLine
 10
-80.28129619752736
 20
182.1414132097063
 30
0.0
 11
-80.08439527814733
 21
181.8510060790663
 31
0.0
  0
LINE
  5
A6B6
330
1F
100
AcDbEntity
  8
0
100
AcDbLine
 10
-80.03644049724732
 20
181.8500969013063
 30
0.0
 11
-79.92337799286733
 21
181.7077514862263
 31
0.0
  0
LINE
  5
A6B7
330
1F
100
AcDbEntity
  8
0
100
AcDbLine
 10
-81.79493565756734
 20
179.6457753072663
 30
0.0
 11
-82.02248666804734
 21
179.9129226038063
 31
0.0
  0
LINE
  5
A6B8
330
1F
100
AcDbEntity
  8
0
100
AcDbLine
 10
-78.00584836082734
 20
183.4348626040063
 30
0.0
 11
-78.23339937130734
 21
183.7020099005463
 31
0.0
  0
LINE
  5
A6B9
330
1F
100
AcDbEntity
  8
0
100
AcDbLine
 10
-81.85075805036735
 20
179.6878302295063
 30
0.0
 11
-82.09204774812736
 21
179.9425566644263
 31
0.0
  0
LINE
  5
A6BA
330
1F
100
AcDbEntity
  8
0
100
AcDbLine
 10
-78.06167075616733
 20
183.4769175262463
 30
0.0
 11
-78.30296045138732
 21
183.7316439611663
 31
0.0
  0
LINE
  5
A6BB
330
1F
100
AcDbEntity
  8
0
100
AcDbLine
 10
-83.97777372266734
 20
178.1555137538863
 30
0.0
 11
-83.83324902568734
 21
178.0030810945663
 31
0.0
  0
LINE
  5
A6BC
330
1F
100
AcDbEntity
  8
0
100
AcDbLine
 10
-80.18868642592734
 20
181.9446010506263
 30
0.0
 11
-80.04416172894735
 21
181.7921683913063
 31
0.0
  0
LINE
  5
A6BD
330
1F
100
AcDbEntity
  8
0
100
AcDbLine
 10
-83.87348257488733
 20
178.0619187823263
 30
0.0
 11
-83.71319011670733
 21
177.9257651404863
 31
0.0
  0
LINE
  5
A6BE
330
1F
100
AcDbEntity
  8
0
100
AcDbLine
 10
-80.08439527814733
 20
181.8510060790663
 30
0.0
 11
-79.92410281996734
 21
181.7148524372263
 31
0.0
  0
LINE
  5
A6BF
330
1F
100
AcDbEntity
  8
0
100
AcDbLine
 10
-83.84098459568733
 20
177.9949218703462
 30
0.0
 11
-83.56210516868733
 21
177.7819115292863
 31
0.0
  0
LINE
  5
A6C0
330
1F
100
AcDbEntity
  8
0
100
AcDbLine
 10
-83.82508275296734
 20
178.0108237130663
 30
0.0
 11
-83.54576153106734
 21
177.7984892406063
 31
0.0
  0
LINE
  5
A6C1
330
1F
100
AcDbEntity
  8
0
100
AcDbLine
 10
-84.05399493674734
 20
210.5856166520463
 30
0.0
 11
-84.18612658002734
 21
210.2605191767663
 31
0.0
  0
LINE
  5
A6C2
330
1F
100
AcDbEntity
  8
0
100
AcDbLine
 10
-80.26490764000731
 20
206.7965293553063
 30
0.0
 11
-80.39703928328734
 21
206.4714318800263
 31
0.0
  0
LINE
  5
A6C3
330
1F
100
AcDbEntity
  8
0
100
AcDbLine
 10
-84.03741722796736
 20
210.5692730144263
 30
0.0
 11
-84.16728576426734
 21
210.2433275652263
 31
0.0
  0
LINE
  5
A6C4
330
1F
100
AcDbEntity
  8
0
100
AcDbLine
 10
-80.24832993122734
 20
206.7801857176863
 30
0.0
 11
-80.37819846752734
 21
206.4542402684863
 31
0.0
  0
LINE
  5
A6C5
330
1F
100
AcDbEntity
  8
0
100
AcDbLine
 10
-81.72511799176735
 20
209.3358191948263
 30
0.0
 11
-81.61047601378735
 21
209.6674882419263
 31
0.0
  0
LINE
  5
A6C6
330
1F
100
AcDbEntity
  8
0
100
AcDbLine
 10
-81.72103681120734
 20
209.3967038990663
 30
0.0
 11
-81.68454548972732
 21
209.5069155328463
 31
0.0
  0
LINE
  5
A6C7
330
1F
100
AcDbEntity
  8
0
100
AcDbLine
 10
-81.71245997796734
 20
209.4162004539263
 30
0.0
 11
-81.61859363788734
 21
209.7542764554463
 31
0.0
  0
LINE
  5
A6C8
330
1F
100
AcDbEntity
  8
0
100
AcDbLine
 10
-77.92337268376735
 20
205.6271131571863
 30
0.0
 11
-77.82950634368734
 21
205.9651891612463
 31
0.0
  0
LINE
  5
A6C9
330
1F
100
AcDbEntity
  8
0
100
AcDbLine
 10
-84.12598507724736
 20
179.3778367448463
 30
0.0
 11
-84.20141068712736
 21
179.0351747377663
 31
0.0
  0
LINE
  5
A6CA
330
1F
100
AcDbEntity
  8
0
100
AcDbLine
 10
-84.18612658002734
 20
210.2605191767663
 30
0.0
 11
-84.22806896248733
 21
209.9121114026663
 31
0.0
  0
LINE
  5
A6CB
330
1F
100
AcDbEntity
  8
0
100
AcDbLine
 10
-80.39703928328734
 20
206.4714318800263
 30
0.0
 11
-80.43898166574734
 21
206.1230241059263
 31
0.0
  0
LINE
  5
A6CC
330
1F
100
AcDbEntity
  8
0
100
AcDbLine
 10
-81.62696594270732
 20
209.7357507597063
 30
0.0
 11
-81.61590229198735
 21
209.8289477234263
 31
0.0
  0
LINE
  5
A6CD
330
1F
100
AcDbEntity
  8
0
100
AcDbLine
 10
-80.21219749142733
 20
206.0997089734863
 30
0.0
 11
-80.23768314022735
 21
205.8763571240263
 31
0.0
  0
LINE
  5
A6CE
330
1F
100
AcDbEntity
  8
0
100
AcDbLine
 10
-80.21219749142733
 20
182.7597089759063
 30
0.0
 11
-80.23768314022735
 21
182.5363571264463
 31
0.0
  0
LINE
  5
A6CF
330
1F
100
AcDbEntity
  8
0
100
AcDbLine
 10
-68.10619747182733
 20
178.7453222929863
 30
0.0
 11
-67.79619749238733
 21
185.7384547506863
 31
0.0
  0
LINE
  5
A6D0
330
1F
100
AcDbEntity
  8
0
100
AcDbLine
 10
-66.70619751338733
 20
210.1140956564063
 30
0.0
 11
-67.01619749282733
 21
203.1209631987063
 31
0.0
  0
LINE
  5
A6D1
330
1F
100
AcDbEntity
  8
0
100
AcDbLine
 10
-69.90619749132733
 20
213.9297089751263
 30
0.0
 11
-69.90619749132733
 21
213.6297089756863
 31
0.0
  0
LINE
  5
A6D2
330
1F
100
AcDbEntity
  8
0
100
AcDbLine
 10
-69.90619749132733
 20
175.2297089737063
 30
0.0
 11
-69.90619749132733
 21
174.9297089742663
 31
0.0
  0
LINE
  5
A6D3
330
1F
100
AcDbEntity
  8
0
100
AcDbLine
 10
-64.90619749134734
 20
174.9297089742663
 30
0.0
 11
-64.90619749134734
 21
175.2297089737063
 31
0.0
  0
LINE
  5
A6D4
330
1F
100
AcDbEntity
  8
0
100
AcDbLine
 10
-64.90619749134734
 20
213.6297089756863
 30
0.0
 11
-64.90619749134734
 21
213.9297089751263
 31
0.0
  0
LINE
  5
A6D5
330
1F
100
AcDbEntity
  8
0
100
AcDbLine
 10
-68.10619747182733
 20
210.1140956564063
 30
0.0
 11
-67.79619749238733
 21
203.1209631987063
 31
0.0
  0
LINE
  5
A6D6
330
1F
100
AcDbEntity
  8
0
100
AcDbLine
 10
-66.70619751338733
 20
178.7453222929863
 30
0.0
 11
-67.01619749282733
 21
185.7384547506863
 31
0.0
  0
LINE
  5
A6D7
330
1F
100
AcDbEntity
  8
0
100
AcDbLine
 10
-57.01434618338734
 20
182.6308707652063
 30
0.0
 11
-56.94473941378735
 21
182.2869201323063
 31
0.0
  0
LINE
  5
A6D8
330
1F
100
AcDbEntity
  8
0
100
AcDbLine
 10
-65.66506607774733
 20
185.9057156963263
 30
0.0
 11
-64.26003305088733
 21
179.0481734576663
 31
0.0
  0
LINE
  5
A6D9
330
1F
100
AcDbEntity
  8
0
100
AcDbLine
 10
-69.14732890492735
 20
202.9537022530663
 30
0.0
 11
-70.55236193178735
 21
209.8112444917263
 31
0.0
  0
LINE
  5
A6DA
330
1F
100
AcDbEntity
  8
0
100
AcDbLine
 10
-56.98288864152733
 20
182.5433637520063
 30
0.0
 11
-56.88902230144734
 21
182.2052877504863
 31
0.0
  0
LINE
  5
A6DB
330
1F
100
AcDbEntity
  8
0
100
AcDbLine
 10
-56.87757564666734
 20
182.3012005634863
 30
0.0
 11
-56.81008522792734
 21
182.0693652384863
 31
0.0
  0
LINE
  5
A6DC
330
1F
100
AcDbEntity
  8
0
100
AcDbLine
 10
-62.90633505470734
 20
179.3883917586863
 30
0.0
 11
-64.91264307408733
 21
186.0947112924263
 31
0.0
  0
LINE
  5
A6DD
330
1F
100
AcDbEntity
  8
0
100
AcDbLine
 10
-71.90605992796733
 20
209.4710261907063
 30
0.0
 11
-69.89975190858735
 21
202.7647066569663
 31
0.0
  0
LINE
  5
A6DE
330
1F
100
AcDbEntity
  8
0
100
AcDbLine
 10
-54.42461563260735
 20
183.0835616175063
 30
0.0
 11
-54.56535471358733
 21
183.4050264686063
 31
0.0
  0
LINE
  5
A6DF
330
1F
100
AcDbEntity
  8
0
100
AcDbLine
 10
-60.98042486284734
 20
180.1049251490863
 30
0.0
 11
-63.84754663684734
 21
186.4908171067663
 31
0.0
  0
LINE
  5
A6E0
330
1F
100
AcDbEntity
  8
0
100
AcDbLine
 10
-73.83197011982733
 20
208.7544928003063
 30
0.0
 11
-70.96484834582733
 21
202.3686008426263
 31
0.0
  0
LINE
  5
A6E1
330
1F
100
AcDbEntity
  8
0
100
AcDbLine
 10
-54.45302497888736
 20
183.1002288562063
 30
0.0
 11
-54.60034938324733
 21
183.4186653364263
 31
0.0
  0
LINE
  5
A6E2
330
1F
100
AcDbEntity
  8
0
100
AcDbLine
 10
-77.86765557142735
 20
206.5724978170863
 30
0.0
 11
-78.02530424012735
 21
206.8860166160063
 31
0.0
  0
LINE
  5
A6E3
330
1F
100
AcDbEntity
  8
0
100
AcDbLine
 10
-56.94473941378735
 20
182.2869201323063
 30
0.0
 11
-56.78709074508734
 21
181.9734013333863
 31
0.0
  0
LINE
  5
A6E4
330
1F
100
AcDbEntity
  8
0
100
AcDbLine
 10
-53.15565211704734
 20
178.4978328355663
 30
0.0
 11
-52.99800344834733
 21
178.1843140366463
 31
0.0
  0
LINE
  5
A6E5
330
1F
100
AcDbEntity
  8
0
100
AcDbLine
 10
-56.81008522792734
 20
182.0693652384863
 30
0.0
 11
-56.78066857860733
 21
182.0126081841063
 31
0.0
  0
LINE
  5
A6E6
330
1F
100
AcDbEntity
  8
0
100
AcDbLine
 10
-81.70333177930734
 20
210.4183947817663
 30
0.0
 11
-81.83449159318735
 21
210.6646557192663
 31
0.0
  0
LINE
  5
A6E7
330
1F
100
AcDbEntity
  8
0
100
AcDbLine
 10
-53.10906320590731
 20
178.4410231676263
 30
0.0
 11
-52.97790338948733
 21
178.1947622301263
 31
0.0
  0
LINE
  5
A6E8
330
1F
100
AcDbEntity
  8
0
100
AcDbLine
 10
-59.73354462102733
 20
180.7322499599663
 30
0.0
 11
-63.15447252896735
 21
186.8393970700062
 31
0.0
  0
LINE
  5
A6E9
330
1F
100
AcDbEntity
  8
0
100
AcDbLine
 10
-75.07885036418733
 20
208.1271679894263
 30
0.0
 11
-71.65792245624732
 21
202.0200208819263
 31
0.0
  0
LINE
  5
A6EA
330
1F
100
AcDbEntity
  8
0
100
AcDbLine
 10
-81.71245997796734
 20
210.4432174956463
 30
0.0
 11
-81.89334980160735
 21
210.7438587206263
 31
0.0
  0
LINE
  5
A6EB
330
1F
100
AcDbEntity
  8
0
100
AcDbLine
 10
-77.92337268376735
 20
206.6541301989063
 30
0.0
 11
-78.10426250486734
 21
206.9547714238863
 31
0.0
  0
LINE
  5
A6EC
330
1F
100
AcDbEntity
  8
0
100
AcDbLine
 10
-56.88902230144734
 20
182.2052877504863
 30
0.0
 11
-56.70813247780734
 21
181.9046465255063
 31
0.0
  0
LINE
  5
A6ED
330
1F
100
AcDbEntity
  8
0
100
AcDbLine
 10
-53.09993500470733
 20
178.4162004537463
 30
0.0
 11
-52.91904518106733
 21
178.1155592287663
 31
0.0
  0
LINE
  5
A6EE
330
1F
100
AcDbEntity
  8
0
100
AcDbLine
 10
-84.03612756582734
 20
209.2434787775263
 30
0.0
 11
-83.81576879648733
 21
208.9703686303263
 31
0.0
  0
LINE
  5
A6EF
330
1F
100
AcDbEntity
  8
0
100
AcDbLine
 10
-80.24704026908734
 20
205.4543914807863
 30
0.0
 11
-80.02668149974732
 21
205.1812813335863
 31
0.0
  0
LINE
  5
A6F0
330
1F
100
AcDbEntity
  8
0
100
AcDbLine
 10
-84.00113289616735
 20
209.2298399097063
 30
0.0
 11
-83.77398768370733
 21
208.9624238913263
 31
0.0
  0
LINE
  5
A6F1
330
1F
100
AcDbEntity
  8
0
100
AcDbLine
 10
-80.21204559942734
 20
205.4407526129663
 30
0.0
 11
-79.98490038696735
 21
205.1733365945863
 31
0.0
  0
LINE
  5
A6F2
330
1F
100
AcDbEntity
  8
0
100
AcDbLine
 10
-81.83449159318735
 20
210.6646557192663
 30
0.0
 11
-82.02676116546735
 21
210.8864179148063
 31
0.0
  0
LINE
  5
A6F3
330
1F
100
AcDbEntity
  8
0
100
AcDbLine
 10
-52.97790338948733
 20
178.1947622301263
 30
0.0
 11
-52.78563381974731
 21
177.9730000345863
 31
0.0
  0
LINE
  5
A6F4
330
1F
100
AcDbEntity
  8
0
100
AcDbLine
 10
-56.78709074508734
 20
181.9734013333863
 30
0.0
 11
-56.55250877584734
 21
181.7124062394263
 31
0.0
  0
LINE
  5
A6F5
330
1F
100
AcDbEntity
  8
0
100
AcDbLine
 10
-52.99800344834733
 20
178.1843140366463
 30
0.0
 11
-52.76342147910733
 21
177.9233189426863
 31
0.0
  0
LINE
  5
A6F6
330
1F
100
AcDbEntity
  8
0
100
AcDbLine
 10
-81.81439153432734
 20
210.6751039127463
 30
0.0
 11
-82.04897350610734
 21
210.9360990067063
 31
0.0
  0
LINE
  5
A6F7
330
1F
100
AcDbEntity
  8
0
100
AcDbLine
 10
-80.05189729894732
 20
181.7840091670863
 30
0.0
 11
-79.77301787194733
 21
181.5709988260263
 31
0.0
  0
LINE
  5
A6F8
330
1F
100
AcDbEntity
  8
0
100
AcDbLine
 10
-80.03599545622734
 20
181.7999110098063
 30
0.0
 11
-79.75667423432733
 21
181.5875765373463
 31
0.0
  0
LINE
  5
A6F9
330
1F
100
AcDbEntity
  8
0
100
AcDbLine
 10
-82.02248666804734
 20
179.9129226038063
 30
0.0
 11
-82.31230771146732
 21
180.1107884742663
 31
0.0
  0
LINE
  5
A6FA
330
1F
100
AcDbEntity
  8
0
100
AcDbLine
 10
-78.23339937130734
 20
183.7020099005463
 30
0.0
 11
-78.52322041472735
 21
183.8998757710063
 31
0.0
  0
LINE
  5
A6FB
330
1F
100
AcDbEntity
  8
0
100
AcDbLine
 10
-82.09204774812736
 20
179.9425566644263
 30
0.0
 11
-82.39268897056735
 21
180.1234464880663
 31
0.0
  0
LINE
  5
A6FC
330
1F
100
AcDbEntity
  8
0
100
AcDbLine
 10
-78.30296045138732
 20
183.7316439611663
 30
0.0
 11
-78.60360167382734
 21
183.9125337848063
 31
0.0
  0
LINE
  5
A6FD
330
1F
100
AcDbEntity
  8
0
100
AcDbLine
 10
-82.14421514442733
 20
179.9823642607063
 30
0.0
 11
-82.33085459334734
 21
180.0903694523663
 31
0.0
  0
LINE
  5
A6FE
330
1F
100
AcDbEntity
  8
0
100
AcDbLine
 10
-83.56210516868733
 20
177.7819115292863
 30
0.0
 11
-83.23700769340735
 21
177.6497798860063
 31
0.0
  0
LINE
  5
A6FF
330
1F
100
AcDbEntity
  8
0
100
AcDbLine
 10
-83.54576153106734
 20
177.7984892406063
 30
0.0
 11
-83.21981608186735
 21
177.6686207017663
 31
0.0
  0
LINE
  5
A700
330
1F
100
AcDbEntity
  8
0
100
AcDbLine
 10
-83.77398768370733
 20
210.8969940582463
 30
0.0
 11
-83.91014132554733
 21
210.7367016000663
 31
0.0
  0
LINE
  5
A701
330
1F
100
AcDbEntity
  8
0
100
AcDbLine
 10
-83.84098459568733
 20
210.8644960790463
 30
0.0
 11
-84.05399493674734
 21
210.5856166520463
 31
0.0
  0
LINE
  5
A702
330
1F
100
AcDbEntity
  8
0
100
AcDbLine
 10
-80.05189729894732
 20
207.0754087823063
 30
0.0
 11
-80.26490764000731
 21
206.7965293553063
 31
0.0
  0
LINE
  5
A703
330
1F
100
AcDbEntity
  8
0
100
AcDbLine
 10
-83.82508275296734
 20
210.8485942363263
 30
0.0
 11
-84.03741722796736
 21
210.5692730144263
 31
0.0
  0
LINE
  5
A704
330
1F
100
AcDbEntity
  8
0
100
AcDbLine
 10
-80.03599545622734
 20
207.0595069395863
 30
0.0
 11
-80.24832993122734
 21
206.7801857176863
 31
0.0
  0
LINE
  5
A705
330
1F
100
AcDbEntity
  8
0
100
AcDbLine
 10
-81.92298386222734
 20
209.0459981514063
 30
0.0
 11
-81.72511799176735
 21
209.3358191948263
 31
0.0
  0
LINE
  5
A706
330
1F
100
AcDbEntity
  8
0
100
AcDbLine
 10
-78.13389656802735
 20
205.2569108546663
 30
0.0
 11
-77.93603069502734
 21
205.5467318980863
 31
0.0
  0
LINE
  5
A707
330
1F
100
AcDbEntity
  8
0
100
AcDbLine
 10
-81.89334980160735
 20
209.1155592289463
 30
0.0
 11
-81.71245997796734
 21
209.4162004539263
 31
0.0
  0
LINE
  5
A708
330
1F
100
AcDbEntity
  8
0
100
AcDbLine
 10
-78.10426250486734
 20
205.3264719322063
 30
0.0
 11
-77.92337268376735
 21
205.6271131571863
 31
0.0
  0
LINE
  5
A709
330
1F
100
AcDbEntity
  8
0
100
AcDbLine
 10
-81.85354220532733
 20
209.1677266277863
 30
0.0
 11
-81.74553701620732
 21
209.3543660767063
 31
0.0
  0
LINE
  5
A70A
330
1F
100
AcDbEntity
  8
0
100
AcDbLine
 10
-81.74134620924736
 20
178.3045887110063
 30
0.0
 11
-81.61791565600735
 21
178.6330883892863
 31
0.0
  0
LINE
  5
A70B
330
1F
100
AcDbEntity
  8
0
100
AcDbLine
 10
-77.95225891250734
 20
182.0936760052063
 30
0.0
 11
-77.82882835926733
 21
182.4221756860263
 31
0.0
  0
LINE
  5
A70C
330
1F
100
AcDbEntity
  8
0
100
AcDbLine
 10
-77.93603069502734
 20
205.5467318980863
 30
0.0
 11
-77.82138871958733
 21
205.8784009451863
 31
0.0
  0
LINE
  5
A70D
330
1F
100
AcDbEntity
  8
0
100
AcDbLine
 10
-81.74201148858733
 20
178.3523259129663
 30
0.0
 11
-81.62997974668735
 21
178.6848242751463
 31
0.0
  0
LINE
  5
A70E
330
1F
100
AcDbEntity
  8
0
100
AcDbLine
 10
-77.95292419184733
 20
182.1414132097063
 30
0.0
 11
-77.84089244994735
 21
182.4739115718863
 31
0.0
  0
LINE
  5
A70F
330
1F
100
AcDbEntity
  8
0
100
AcDbLine
 10
-84.10266808552734
 20
179.4919473345063
 30
0.0
 11
-84.20844023110735
 21
179.1573439981263
 31
0.0
  0
LINE
  5
A710
330
1F
100
AcDbEntity
  8
0
100
AcDbLine
 10
-80.31358078878733
 20
183.2810346312463
 30
0.0
 11
-80.41935293436734
 21
182.9464312948663
 31
0.0
  0
LINE
  5
A711
330
1F
100
AcDbEntity
  8
0
100
AcDbLine
 10
-80.33689778050733
 20
183.1669240415863
 30
0.0
 11
-80.41232339038733
 21
182.8242620345063
 31
0.0
  0
LINE
  5
A712
330
1F
100
AcDbEntity
  8
0
100
AcDbLine
 10
-65.66506607774733
 20
202.9537022530663
 30
0.0
 11
-64.26003305088733
 21
209.8112444917263
 31
0.0
  0
LINE
  5
A713
330
1F
100
AcDbEntity
  8
0
100
AcDbLine
 10
-69.14732890492735
 20
185.9057156963263
 30
0.0
 11
-70.55236193178735
 21
179.0481734576663
 31
0.0
  0
LINE
  5
A714
330
1F
100
AcDbEntity
  8
0
100
AcDbLine
 10
-54.43419651514734
 20
182.4051776809063
 30
0.0
 11
-54.39626133320735
 21
182.7539859317262
 31
0.0
  0
LINE
  5
A715
330
1F
100
AcDbEntity
  8
0
100
AcDbLine
 10
-56.98356662340734
 20
206.4372422633663
 30
0.0
 11
-57.01621934448735
 21
206.0878414356263
 31
0.0
  0
LINE
  5
A716
330
1F
100
AcDbEntity
  8
0
100
AcDbLine
 10
-53.19447932666733
 20
210.2263295601063
 30
0.0
 11
-53.22713204774735
 21
209.8769287323663
 31
0.0
  0
LINE
  5
A717
330
1F
100
AcDbEntity
  8
0
100
AcDbLine
 10
-56.99100626562733
 20
182.9810170042063
 30
0.0
 11
-57.01434618338734
 21
182.6308707652063
 31
0.0
  0
LINE
  5
A718
330
1F
100
AcDbEntity
  8
0
100
AcDbLine
 10
-53.20191896888733
 20
179.1919297074662
 30
0.0
 11
-53.22525888664734
 21
178.8417834684663
 31
0.0
  0
LINE
  5
A719
330
1F
100
AcDbEntity
  8
0
100
AcDbLine
 10
-56.97150253526735
 20
206.3855063775063
 30
0.0
 11
-56.99049798368733
 21
206.0351559148863
 31
0.0
  0
LINE
  5
A71A
330
1F
100
AcDbEntity
  8
0
100
AcDbLine
 10
-53.18241523852734
 20
210.1745936742463
 30
0.0
 11
-53.20141068694733
 21
209.8242432116263
 31
0.0
  0
LINE
  5
A71B
330
1F
100
AcDbEntity
  8
0
100
AcDbLine
 10
-54.39304204830733
 20
205.9129866545263
 30
0.0
 11
-54.37903147688735
 21
206.2636301264663
 31
0.0
  0
LINE
  5
A71C
330
1F
100
AcDbEntity
  8
0
100
AcDbLine
 10
-50.60395475156733
 20
209.7020739512663
 30
0.0
 11
-50.58994418014734
 21
210.0527174232063
 31
0.0
  0
LINE
  5
A71D
330
1F
100
AcDbEntity
  8
0
100
AcDbLine
 10
-58.60619749294733
 20
169.9297089742863
 30
0.0
 11
-58.60619749294733
 21
174.9297089742663
 31
0.0
  0
LINE
  5
A71E
330
1F
100
AcDbEntity
  8
0
100
AcDbLine
 10
-56.98288864152733
 20
182.8942287881463
 30
0.0
 11
-56.98288864152733
 21
182.5433637520063
 31
0.0
  0
LINE
  5
A71F
330
1F
100
AcDbEntity
  8
0
100
AcDbLine
 10
-53.19380134478734
 20
179.1051414939463
 30
0.0
 11
-53.19380134478734
 21
178.7542764578063
 31
0.0
  0
LINE
  5
A720
330
1F
100
AcDbEntity
  8
0
100
AcDbLine
 10
-54.40007159228733
 20
206.0351559148863
 30
0.0
 11
-54.41906704324734
 21
206.3855063775063
 31
0.0
  0
LINE
  5
A721
330
1F
100
AcDbEntity
  8
0
100
AcDbLine
 10
-50.61098429554732
 20
209.8242432116263
 30
0.0
 11
-50.62997974650733
 21
210.1745936742463
 31
0.0
  0
LINE
  5
A722
330
1F
100
AcDbEntity
  8
0
100
AcDbLine
 10
-53.18768502478736
 20
178.7210185664863
 30
0.0
 11
-53.18673703328733
 21
178.7085331736263
 31
0.0
  0
LINE
  5
A723
330
1F
100
AcDbEntity
  8
0
100
AcDbLine
 10
-56.89768314010734
 20
182.5363571264463
 30
0.0
 11
-56.87757564666734
 21
182.3012005634863
 31
0.0
  0
LINE
  5
A724
330
1F
100
AcDbEntity
  8
0
100
AcDbLine
 10
-56.89768314010734
 20
205.8763571240263
 30
0.0
 11
-56.87757564666734
 21
205.6412005636063
 31
0.0
  0
LINE
  5
A725
330
1F
100
AcDbEntity
  8
0
100
AcDbLine
 10
-54.37341331692732
 20
182.7363938434663
 30
0.0
 11
-54.42461563260735
 21
183.0835616175063
 31
0.0
  0
LINE
  5
A726
330
1F
100
AcDbEntity
  8
0
100
AcDbLine
 10
-50.58432602272734
 20
178.9473065467262
 30
0.0
 11
-50.63552833586732
 21
179.2944743207663
 31
0.0
  0
LINE
  5
A727
330
1F
100
AcDbEntity
  8
0
100
AcDbLine
 10
-54.39626133320735
 20
182.7539859317262
 30
0.0
 11
-54.45302497888736
 21
183.1002288562063
 31
0.0
  0
LINE
  5
A728
330
1F
100
AcDbEntity
  8
0
100
AcDbLine
 10
-50.60717403646734
 20
178.9648986349863
 30
0.0
 11
-50.66393768214732
 21
179.3111415594663
 31
0.0
  0
LINE
  5
A729
330
1F
100
AcDbEntity
  8
0
100
AcDbLine
 10
-57.01621934448735
 20
206.0878414356263
 30
0.0
 11
-56.95579338710735
 21
205.7421597266863
 31
0.0
  0
LINE
  5
A72A
330
1F
100
AcDbEntity
  8
0
100
AcDbLine
 10
-53.22713204774735
 20
209.8769287323663
 30
0.0
 11
-53.16670609290733
 21
209.5312470234263
 31
0.0
  0
LINE
  5
A72B
330
1F
100
AcDbEntity
  8
0
100
AcDbLine
 10
-53.22525888664734
 20
178.8417834684663
 30
0.0
 11
-53.15565211704734
 21
178.4978328355663
 31
0.0
  0
LINE
  5
A72C
330
1F
100
AcDbEntity
  8
0
100
AcDbLine
 10
-56.99049798368733
 20
206.0351559148863
 30
0.0
 11
-56.91507237380733
 21
205.6924939078063
 31
0.0
  0
LINE
  5
A72D
330
1F
100
AcDbEntity
  8
0
100
AcDbLine
 10
-53.20141068694733
 20
209.8242432116263
 30
0.0
 11
-53.12598507706735
 21
209.4815812045463
 31
0.0
  0
LINE
  5
A72E
330
1F
100
AcDbEntity
  8
0
100
AcDbLine
 10
-54.37903147688735
 20
206.2636301264663
 30
0.0
 11
-54.45776972428735
 21
206.6056058966663
 31
0.0
  0
LINE
  5
A72F
330
1F
100
AcDbEntity
  8
0
100
AcDbLine
 10
-50.58994418014734
 20
210.0527174232063
 30
0.0
 11
-50.66868242754734
 21
210.3946931934063
 31
0.0
  0
LINE
  5
A730
330
1F
100
AcDbEntity
  8
0
100
AcDbLine
 10
-53.19380134478734
 20
178.7542764578063
 30
0.0
 11
-53.09993500470733
 21
178.4162004537463
 31
0.0
  0
LINE
  5
A731
330
1F
100
AcDbEntity
  8
0
100
AcDbLine
 10
-53.18673703328733
 20
178.7085331736263
 30
0.0
 11
-53.13719362970733
 21
178.5325021718662
 31
0.0
  0
LINE
  5
A732
330
1F
100
AcDbEntity
  8
0
100
AcDbLine
 10
-56.87757564666734
 20
205.6412005636063
 30
0.0
 11
-56.86102105950735
 21
205.5843341444463
 31
0.0
  0
LINE
  5
A733
330
1F
100
AcDbEntity
  8
0
100
AcDbLine
 10
-54.41906704324734
 20
206.3855063775063
 30
0.0
 11
-54.53109878514735
 21
206.7180047396863
 31
0.0
  0
LINE
  5
A734
330
1F
100
AcDbEntity
  8
0
100
AcDbLine
 10
-50.63552833586732
 20
179.2944743207663
 30
0.0
 11
-50.77626741684733
 21
179.6159391718662
 31
0.0
  0
LINE
  5
A735
330
1F
100
AcDbEntity
  8
0
100
AcDbLine
 10
-50.66393768214732
 20
179.3111415594663
 30
0.0
 11
-50.81126208650733
 21
179.6295780396863
 31
0.0
  0
LINE
  5
A736
330
1F
100
AcDbEntity
  8
0
100
AcDbLine
 10
-56.95579338710735
 20
205.7421597266863
 30
0.0
 11
-56.80654662184733
 21
205.4245553453863
 31
0.0
  0
LINE
  5
A737
330
1F
100
AcDbEntity
  8
0
100
AcDbLine
 10
-53.16670609290733
 20
209.5312470234263
 30
0.0
 11
-53.01745932510733
 21
209.2136426421263
 31
0.0
  0
LINE
  5
A738
330
1F
100
AcDbEntity
  8
0
100
AcDbLine
 10
-56.91507237380733
 20
205.6924939078063
 30
0.0
 11
-56.75072422904733
 21
205.3825004231463
 31
0.0
  0
LINE
  5
A739
330
1F
100
AcDbEntity
  8
0
100
AcDbLine
 10
-54.45776972428735
 20
206.6056058966663
 30
0.0
 11
-54.62370855674734
 21
206.9148168987663
 31
0.0
  0
LINE
  5
A73A
330
1F
100
AcDbEntity
  8
0
100
AcDbLine
 10
-54.56535471358733
 20
183.4050264686063
 30
0.0
 11
-54.78571348292735
 21
183.6781366158063
 31
0.0
  0
LINE
  5
A73B
330
1F
100
AcDbEntity
  8
0
100
AcDbLine
 10
-50.77626741684733
 20
179.6159391718662
 30
0.0
 11
-50.99662618618731
 21
179.8890493190663
 31
0.0
  0
LINE
  5
A73C
330
1F
100
AcDbEntity
  8
0
100
AcDbLine
 10
-54.60034938324733
 20
183.4186653364263
 30
0.0
 11
-54.82749459570732
 21
183.6860813548063
 31
0.0
  0
LINE
  5
A73D
330
1F
100
AcDbEntity
  8
0
100
AcDbLine
 10
-50.81126208650733
 20
179.6295780396863
 30
0.0
 11
-51.03840729896734
 21
179.8969940580663
 31
0.0
  0
LINE
  5
A73E
330
1F
100
AcDbEntity
  8
0
100
AcDbLine
 10
-78.02530424012735
 20
206.8860166160063
 30
0.0
 11
-78.25988620936732
 21
207.1470117099663
 31
0.0
  0
LINE
  5
A73F
330
1F
100
AcDbEntity
  8
0
100
AcDbLine
 10
-50.78472613754732
 20
177.8082376209063
 30
0.0
 11
-50.98731222970733
 21
178.0108237130663
 31
0.0
  0
LINE
  5
A740
330
1F
100
AcDbEntity
  8
0
100
AcDbLine
 10
-54.57381343428733
 20
181.5973249151063
 30
0.0
 11
-54.77639952644733
 21
181.7999110098063
 31
0.0
  0
LINE
  5
A741
330
1F
100
AcDbEntity
  8
0
100
AcDbLine
 10
-84.02766884766734
 20
211.0511803284863
 30
0.0
 11
-83.82508275296734
 21
210.8485942363263
 31
0.0
  0
LINE
  5
A742
330
1F
100
AcDbEntity
  8
0
100
AcDbLine
 10
-80.23858155092733
 20
207.2620930342863
 30
0.0
 11
-80.03599545622734
 21
207.0595069395863
 31
0.0
  0
LINE
  5
A743
330
1F
100
AcDbEntity
  8
0
100
AcDbLine
 10
-52.91904518106733
 20
178.1155592287663
 30
0.0
 11
-52.66431874614733
 21
177.8742695335463
 31
0.0
  0
LINE
  5
A744
330
1F
100
AcDbEntity
  8
0
100
AcDbLine
 10
-56.70813247780734
 20
181.9046465255063
 30
0.0
 11
-56.45340604288733
 21
181.6633568302863
 31
0.0
  0
LINE
  5
A745
330
1F
100
AcDbEntity
  8
0
100
AcDbLine
 10
-78.10426250486734
 20
206.9547714238863
 30
0.0
 11
-78.35898893978733
 21
207.1960611191063
 31
0.0
  0
LINE
  5
A746
330
1F
100
AcDbEntity
  8
0
100
AcDbLine
 10
-81.89334980160735
 20
210.7438587206263
 30
0.0
 11
-82.14807623652735
 21
210.9851484158463
 31
0.0
  0
LINE
  5
A747
330
1F
100
AcDbEntity
  8
0
100
AcDbLine
 10
-50.99662618618731
 20
179.8890493190663
 30
0.0
 11
-51.28107722764733
 21
180.0945602593263
 31
0.0
  0
LINE
  5
A748
330
1F
100
AcDbEntity
  8
0
100
AcDbLine
 10
-54.78571348292735
 20
183.6781366158063
 30
0.0
 11
-55.07016452438733
 21
183.8836475535263
 31
0.0
  0
LINE
  5
A749
330
1F
100
AcDbEntity
  8
0
100
AcDbLine
 10
-80.02668149974732
 20
205.1812813335863
 30
0.0
 11
-79.74223046082733
 21
204.9757703958663
 31
0.0
  0
LINE
  5
A74A
330
1F
100
AcDbEntity
  8
0
100
AcDbLine
 10
-83.81576879648733
 20
208.9703686303263
 30
0.0
 11
-83.53131775756734
 21
208.7648576900663
 31
0.0
  0
LINE
  5
A74B
330
1F
100
AcDbEntity
  8
0
100
AcDbLine
 10
-51.03840729896734
 20
179.8969940580663
 30
0.0
 11
-51.32881442960735
 21
180.0938949774463
 31
0.0
  0
LINE
  5
A74C
330
1F
100
AcDbEntity
  8
0
100
AcDbLine
 10
-54.82749459570732
 20
183.6860813548063
 30
0.0
 11
-55.11790172634732
 21
183.8829822741863
 31
0.0
  0
LINE
  5
A74D
330
1F
100
AcDbEntity
  8
0
100
AcDbLine
 10
-79.98490038696735
 20
205.1733365945863
 30
0.0
 11
-79.69449325886734
 21
204.9764356752063
 31
0.0
  0
LINE
  5
A74E
330
1F
100
AcDbEntity
  8
0
100
AcDbLine
 10
-83.77398768370733
 20
208.9624238913263
 30
0.0
 11
-83.48358055306732
 21
208.7655229719463
 31
0.0
  0
LINE
  5
A74F
330
1F
100
AcDbEntity
  8
0
100
AcDbLine
 10
-52.76342147910733
 20
177.9233189426863
 30
0.0
 11
-52.46843585114731
 21
177.7332383805063
 31
0.0
  0
LINE
  5
A750
330
1F
100
AcDbEntity
  8
0
100
AcDbLine
 10
-56.55250877584734
 20
181.7124062394263
 30
0.0
 11
-56.25752314788735
 21
181.5223256772463
 31
0.0
  0
LINE
  5
A751
330
1F
100
AcDbEntity
  8
0
100
AcDbLine
 10
-52.66431874614733
 20
177.8742695335463
 30
0.0
 11
-52.35432526148733
 21
177.7099213913263
 31
0.0
  0
LINE
  5
A752
330
1F
100
AcDbEntity
  8
0
100
AcDbLine
 10
-56.45340604288733
 20
181.6633568302863
 30
0.0
 11
-56.14341255822734
 21
181.4990086855263
 31
0.0
  0
LINE
  5
A753
330
1F
100
AcDbEntity
  8
0
100
AcDbLine
 10
-54.97871462854732
 20
183.7995456389263
 30
0.0
 11
-55.03541069244732
 21
183.8293609056863
 31
0.0
  0
LINE
  5
A754
330
1F
100
AcDbEntity
  8
0
100
AcDbLine
 10
-79.77301787194733
 20
181.5709988260263
 30
0.0
 11
-79.44792039666734
 21
181.4388671827463
 31
0.0
  0
LINE
  5
A755
330
1F
100
AcDbEntity
  8
0
100
AcDbLine
 10
-79.75667423432733
 20
181.5875765373463
 30
0.0
 11
-79.43072878512734
 21
181.4577079985063
 31
0.0
  0
LINE
  5
A756
330
1F
100
AcDbEntity
  8
0
100
AcDbLine
 10
-82.31230771146732
 20
180.1107884742663
 30
0.0
 11
-82.64397675856733
 21
180.2254304522463
 31
0.0
  0
LINE
  5
A757
330
1F
100
AcDbEntity
  8
0
100
AcDbLine
 10
-78.52322041472735
 20
183.8998757710063
 30
0.0
 11
-78.85488946182732
 21
184.0145177489863
 31
0.0
  0
LINE
  5
A758
330
1F
100
AcDbEntity
  8
0
100
AcDbLine
 10
-82.37319241824735
 20
180.1148696548263
 30
0.0
 11
-82.48340405202734
 21
180.1513609763063
 31
0.0
  0
LINE
  5
A759
330
1F
100
AcDbEntity
  8
0
100
AcDbLine
 10
-78.54080922638735
 20
183.8794059618063
 30
0.0
 11
-78.60328075244734
 21
183.8983081287263
 31
0.0
  0
LINE
  5
A75A
330
1F
100
AcDbEntity
  8
0
100
AcDbLine
 10
-83.48358055306732
 20
211.0938949776263
 30
0.0
 11
-83.77398768370733
 21
210.8969940582463
 31
0.0
  0
LINE
  5
A75B
330
1F
100
AcDbEntity
  8
0
100
AcDbLine
 10
-82.19013115876734
 20
208.8184471409263
 30
0.0
 11
-81.92298386222734
 21
209.0459981514063
 31
0.0
  0
LINE
  5
A75C
330
1F
100
AcDbEntity
  8
0
100
AcDbLine
 10
-82.14807623652735
 20
208.8742695337263
 30
0.0
 11
-81.89334980160735
 21
209.1155592289463
 31
0.0
  0
LINE
  5
A75D
330
1F
100
AcDbEntity
  8
0
100
AcDbLine
 10
-78.35898893978733
 20
205.0851822369863
 30
0.0
 11
-78.10426250486734
 21
205.3264719322063
 31
0.0
  0
LINE
  5
A75E
330
1F
100
AcDbEntity
  8
0
100
AcDbLine
 10
-83.68039271214735
 20
211.0012852060263
 30
0.0
 11
-83.83282537146731
 21
210.8567605090463
 31
0.0
  0
LINE
  5
A75F
330
1F
100
AcDbEntity
  8
0
100
AcDbLine
 10
-79.89130541540735
 20
207.2121979092863
 30
0.0
 11
-80.04373807472735
 21
207.0676732123063
 31
0.0
  0
LINE
  5
A760
330
1F
100
AcDbEntity
  8
0
100
AcDbLine
 10
-79.98490038696735
 20
207.1079067615063
 30
0.0
 11
-80.12105402880735
 21
206.9476143033263
 31
0.0
  0
LINE
  5
A761
330
1F
100
AcDbEntity
  8
0
100
AcDbLine
 10
-81.93891240796734
 20
178.0619187823263
 30
0.0
 11
-81.74201148858733
 21
178.3523259129663
 31
0.0
  0
LINE
  5
A762
330
1F
100
AcDbEntity
  8
0
100
AcDbLine
 10
-78.14982511122733
 20
181.8510060790663
 30
0.0
 11
-77.95292419184733
 21
182.1414132097063
 31
0.0
  0
LINE
  5
A763
330
1F
100
AcDbEntity
  8
0
100
AcDbLine
 10
-83.91258752334733
 20
179.7869329599262
 30
0.0
 11
-84.10266808552734
 21
179.4919473345063
 31
0.0
  0
LINE
  5
A764
330
1F
100
AcDbEntity
  8
0
100
AcDbLine
 10
-80.12350022660735
 20
183.5760202566663
 30
0.0
 11
-80.31358078878733
 21
183.2810346312463
 31
0.0
  0
LINE
  5
A765
330
1F
100
AcDbEntity
  8
0
100
AcDbLine
 10
-75.07885036418733
 20
180.7322499599663
 30
0.0
 11
-71.65792245624732
 21
186.8393970700062
 31
0.0
  0
LINE
  5
A766
330
1F
100
AcDbEntity
  8
0
100
AcDbLine
 10
-59.73354462102733
 20
208.1271679894263
 30
0.0
 11
-63.15447252896735
 21
202.0200208819263
 31
0.0
  0
LINE
  5
A767
330
1F
100
AcDbEntity
  8
0
100
AcDbLine
 10
-83.96163693248736
 20
179.6878302295063
 30
0.0
 11
-84.12598507724736
 21
179.3778367448463
 31
0.0
  0
LINE
  5
A768
330
1F
100
AcDbEntity
  8
0
100
AcDbLine
 10
-80.17254963574734
 20
183.4769175262463
 30
0.0
 11
-80.33689778050733
 21
183.1669240415863
 31
0.0
  0
LINE
  5
A769
330
1F
100
AcDbEntity
  8
0
100
AcDbLine
 10
-63.84754663684734
 20
202.3686008426263
 30
0.0
 11
-60.98042486284734
 21
208.7544928003063
 31
0.0
  0
LINE
  5
A76A
330
1F
100
AcDbEntity
  8
0
100
AcDbLine
 10
-73.83197011982733
 20
180.1049251490863
 30
0.0
 11
-70.96484834582733
 21
186.4908171067663
 31
0.0
  0
LINE
  5
A76B
330
1F
100
AcDbEntity
  8
0
100
AcDbLine
 10
-56.86013607270735
 20
206.7657419441863
 30
0.0
 11
-56.98356662340734
 21
206.4372422633663
 31
0.0
  0
LINE
  5
A76C
330
1F
100
AcDbEntity
  8
0
100
AcDbLine
 10
-53.07104877596734
 20
210.5548292383863
 30
0.0
 11
-53.19447932666733
 21
210.2263295601063
 31
0.0
  0
LINE
  5
A76D
330
1F
100
AcDbEntity
  8
0
100
AcDbLine
 10
-56.85947079082734
 20
206.7180047396863
 30
0.0
 11
-56.97150253526735
 21
206.3855063775063
 31
0.0
  0
LINE
  5
A76E
330
1F
100
AcDbEntity
  8
0
100
AcDbLine
 10
-53.07038349408734
 20
210.5070920364263
 30
0.0
 11
-53.18241523852734
 21
210.1745936742463
 31
0.0
  0
LINE
  5
A76F
330
1F
100
AcDbEntity
  8
0
100
AcDbLine
 10
-54.49881419388734
 20
205.5783833181463
 30
0.0
 11
-54.39304204830733
 21
205.9129866545263
 31
0.0
  0
LINE
  5
A770
330
1F
100
AcDbEntity
  8
0
100
AcDbLine
 10
-71.90605992796733
 20
179.3883917586863
 30
0.0
 11
-69.89975190858735
 21
186.0947112924263
 31
0.0
  0
LINE
  5
A771
330
1F
100
AcDbEntity
  8
0
100
AcDbLine
 10
-62.90633505470734
 20
209.4710261907063
 30
0.0
 11
-64.91264307408733
 21
202.7647066569663
 31
0.0
  0
LINE
  5
A772
330
1F
100
AcDbEntity
  8
0
100
AcDbLine
 10
-54.47549720470732
 20
205.6924939078063
 30
0.0
 11
-54.40007159228733
 21
206.0351559148863
 31
0.0
  0
LINE
  5
A773
330
1F
100
AcDbEntity
  8
0
100
AcDbLine
 10
-50.68640990796734
 20
209.4815812045463
 30
0.0
 11
-50.61098429554732
 21
209.8242432116263
 31
0.0
  0
LINE
  5
A774
330
1F
100
AcDbEntity
  8
0
100
AcDbLine
 10
-54.41535570192735
 20
182.3879860693663
 30
0.0
 11
-54.37341331692732
 21
182.7363938434663
 31
0.0
  0
LINE
  5
A775
330
1F
100
AcDbEntity
  8
0
100
AcDbLine
 10
-53.18542904250733
 20
179.1236671896863
 30
0.0
 11
-53.19649269068733
 21
179.0304702259663
 31
0.0
  0
LINE
  5
A776
330
1F
100
AcDbEntity
  8
0
100
AcDbLine
 10
-56.87219749130733
 20
206.0997089734863
 30
0.0
 11
-56.89768314010734
 21
205.8763571240263
 31
0.0
  0
LINE
  5
A777
330
1F
100
AcDbEntity
  8
0
100
AcDbLine
 10
-56.87219749130733
 20
182.7597089759063
 30
0.0
 11
-56.89768314010734
 21
182.5363571264463
 31
0.0
  0
LINE
  5
A778
330
1F
100
AcDbEntity
  8
0
100
AcDbLine
 10
-50.64510921840732
 20
178.6160903841663
 30
0.0
 11
-50.60717403646734
 21
178.9648986349863
 31
0.0
  0
LINE
  5
A779
330
1F
100
AcDbEntity
  8
0
100
AcDbLine
 10
-47.90619749090734
 20
211.9297089746263
 30
0.0
 11
-47.90619749090734
 21
176.9297089747663
 31
0.0
  0
LINE
  5
A77A
330
1F
100
AcDbEntity
  8
0
100
AcDbLine
 10
-50.62997974650733
 20
210.1745936742463
 30
0.0
 11
-50.74201148840734
 21
210.5070920364263
 31
0.0
  0
LINE
  5
A77B
330
1F
100
AcDbEntity
  8
0
100
AcDbLine
 10
-53.12598507706735
 20
209.4815812045463
 30
0.0
 11
-52.96163693230733
 21
209.1715877198863
 31
0.0
  0
LINE
  5
A77C
330
1F
100
AcDbEntity
  8
0
100
AcDbLine
 10
-50.66868242754734
 20
210.3946931934063
 30
0.0
 11
-50.83462126000734
 21
210.7039041955063
 31
0.0
  0
LINE
  5
A77D
330
1F
100
AcDbEntity
  8
0
100
AcDbLine
 10
-54.53109878514735
 20
206.7180047396863
 30
0.0
 11
-54.72799970452735
 21
207.0084118703263
 31
0.0
  0
LINE
  5
A77E
330
1F
100
AcDbEntity
  8
0
100
AcDbLine
 10
-50.74201148840734
 20
210.5070920364263
 30
0.0
 11
-50.93891240778734
 21
210.7974991670663
 31
0.0
  0
LINE
  5
A77F
330
1F
100
AcDbEntity
  8
0
100
AcDbLine
 10
-56.80654662184733
 20
205.4245553453863
 30
0.0
 11
-56.57899561136733
 21
205.1574080488463
 31
0.0
  0
LINE
  5
A780
330
1F
100
AcDbEntity
  8
0
100
AcDbLine
 10
-53.01745932510733
 20
209.2136426421263
 30
0.0
 11
-52.78990831462732
 21
208.9464953455863
 31
0.0
  0
LINE
  5
A781
330
1F
100
AcDbEntity
  8
0
100
AcDbLine
 10
-56.75072422904733
 20
205.3825004231463
 30
0.0
 11
-56.50943453382734
 21
205.1277739882263
 31
0.0
  0
LINE
  5
A782
330
1F
100
AcDbEntity
  8
0
100
AcDbLine
 10
-52.96163693230733
 20
209.1715877198863
 30
0.0
 11
-52.72034723708734
 21
208.9168612849663
 31
0.0
  0
LINE
  5
A783
330
1F
100
AcDbEntity
  8
0
100
AcDbLine
 10
-54.62370855674734
 20
206.9148168987663
 30
0.0
 11
-54.76823325372734
 21
207.0672495580863
 31
0.0
  0
LINE
  5
A784
330
1F
100
AcDbEntity
  8
0
100
AcDbLine
 10
-50.83462126000734
 20
210.7039041955063
 30
0.0
 11
-50.97914595952733
 21
210.8563368548263
 31
0.0
  0
LINE
  5
A785
330
1F
100
AcDbEntity
  8
0
100
AcDbLine
 10
-54.72799970452735
 20
207.0084118703263
 30
0.0
 11
-54.88829216270733
 21
207.1445655121663
 31
0.0
  0
LINE
  5
A786
330
1F
100
AcDbEntity
  8
0
100
AcDbLine
 10
-54.67223104796733
 20
206.9378088365263
 30
0.0
 11
-54.82327875704735
 21
207.0578051853063
 31
0.0
  0
LINE
  5
A787
330
1F
100
AcDbEntity
  8
0
100
AcDbLine
 10
-54.76049768372735
 20
207.0754087823063
 30
0.0
 11
-55.03937711072734
 21
207.2884191233663
 31
0.0
  0
LINE
  5
A788
330
1F
100
AcDbEntity
  8
0
100
AcDbLine
 10
-56.57899561136733
 20
205.1574080488463
 30
0.0
 11
-56.28917456794733
 21
204.9595421783863
 31
0.0
  0
LINE
  5
A789
330
1F
100
AcDbEntity
  8
0
100
AcDbLine
 10
-78.25988620936732
 20
207.1470117099663
 30
0.0
 11
-78.55487183478732
 21
207.3370922721463
 31
0.0
  0
LINE
  5
A78A
330
1F
100
AcDbEntity
  8
0
100
AcDbLine
 10
-82.04897350610734
 20
210.9360990067063
 30
0.0
 11
-82.34395913152736
 21
211.1261795688863
 31
0.0
  0
LINE
  5
A78B
330
1F
100
AcDbEntity
  8
0
100
AcDbLine
 10
-53.70873847660735
 20
186.7570561043863
 30
0.0
 11
-59.81588558664734
 21
190.1779840097863
 31
0.0
  0
LINE
  5
A78C
330
1F
100
AcDbEntity
  8
0
100
AcDbLine
 10
-81.10365650606736
 20
202.1023618450063
 30
0.0
 11
-74.99650939856735
 21
198.6814339396063
 31
0.0
  0
LINE
  5
A78D
330
1F
100
AcDbEntity
  8
0
100
AcDbLine
 10
-78.35898893978733
 20
207.1960611191063
 30
0.0
 11
-78.66898242444733
 21
207.3604092638663
 31
0.0
  0
LINE
  5
A78E
330
1F
100
AcDbEntity
  8
0
100
AcDbLine
 10
-82.14807623652735
 20
210.9851484158463
 30
0.0
 11
-82.45806972118733
 21
211.1494965580663
 31
0.0
  0
LINE
  5
A78F
330
1F
100
AcDbEntity
  8
0
100
AcDbLine
 10
-78.25013933782734
 20
207.1034833362662
 30
0.0
 11
-78.37541069256733
 21
207.1693609058063
 31
0.0
  0
LINE
  5
A790
330
1F
100
AcDbEntity
  8
0
100
AcDbLine
 10
-81.73098131948734
 20
200.8554816031863
 30
0.0
 11
-75.34508935926734
 21
197.9883598291863
 31
0.0
  0
LINE
  5
A791
330
1F
100
AcDbEntity
  8
0
100
AcDbLine
 10
-53.08141366572733
 20
188.0039363462063
 30
0.0
 11
-59.46730562340736
 21
190.8710581202063
 31
0.0
  0
LINE
  5
A792
330
1F
100
AcDbEntity
  8
0
100
AcDbLine
 10
-51.28107722764733
 20
180.0945602593263
 30
0.0
 11
-51.60957690592733
 21
180.2179908100263
 31
0.0
  0
LINE
  5
A793
330
1F
100
AcDbEntity
  8
0
100
AcDbLine
 10
-55.07016452438733
 20
183.8836475535263
 30
0.0
 11
-55.39866420266733
 21
184.0070781067663
 31
0.0
  0
LINE
  5
A794
330
1F
100
AcDbEntity
  8
0
100
AcDbLine
 10
-51.32881442960735
 20
180.0938949774463
 30
0.0
 11
-51.66131279432732
 21
180.2059267193462
 31
0.0
  0
LINE
  5
A795
330
1F
100
AcDbEntity
  8
0
100
AcDbLine
 10
-55.11790172634732
 20
183.8829822741863
 30
0.0
 11
-55.45040009106734
 21
183.9950140160863
 31
0.0
  0
LINE
  5
A796
330
1F
100
AcDbEntity
  8
0
100
AcDbLine
 10
-52.46843585114731
 20
177.7332383805063
 30
0.0
 11
-52.13383251476733
 21
177.6274662349263
 31
0.0
  0
LINE
  5
A797
330
1F
100
AcDbEntity
  8
0
100
AcDbLine
 10
-56.25752314788735
 20
181.5223256772463
 30
0.0
 11
-55.92291981150734
 21
181.4165535316663
 31
0.0
  0
LINE
  5
A798
330
1F
100
AcDbEntity
  8
0
100
AcDbLine
 10
-55.03541069244732
 20
183.8293609056863
 30
0.0
 11
-55.26328075232735
 21
183.8983081287263
 31
0.0
  0
LINE
  5
A799
330
1F
100
AcDbEntity
  8
0
100
AcDbLine
 10
-82.45806972118733
 20
208.7099213889664
 30
0.0
 11
-82.14807623652735
 21
208.8742695337263
 31
0.0
  0
LINE
  5
A79A
330
1F
100
AcDbEntity
  8
0
100
AcDbLine
 10
-83.37118171004732
 20
211.1672240384863
 30
0.0
 11
-83.68039271214735
 21
211.0012852060263
 31
0.0
  0
LINE
  5
A79B
330
1F
100
AcDbEntity
  8
0
100
AcDbLine
 10
-79.69449325886734
 20
207.3048076808863
 30
0.0
 11
-79.98490038696735
 21
207.1079067615063
 31
0.0
  0
LINE
  5
A79C
330
1F
100
AcDbEntity
  8
0
100
AcDbLine
 10
-78.40104386202733
 20
205.0293598441863
 30
0.0
 11
-78.13389656802735
 21
205.2569108546663
 31
0.0
  0
LINE
  5
A79D
330
1F
100
AcDbEntity
  8
0
100
AcDbLine
 10
-84.02766884766734
 20
177.8082376209063
 30
0.0
 11
-83.82508275296734
 21
178.0108237130663
 31
0.0
  0
LINE
  5
A79E
330
1F
100
AcDbEntity
  8
0
100
AcDbLine
 10
-80.23858155092733
 20
181.5973249151063
 30
0.0
 11
-80.03599545622734
 21
181.7999110098063
 31
0.0
  0
LINE
  5
A79F
330
1F
100
AcDbEntity
  8
0
100
AcDbLine
 10
-50.78472613754732
 20
211.0511803284863
 30
0.0
 11
-50.98731222970733
 21
210.8485942363263
 31
0.0
  0
LINE
  5
A7A0
330
1F
100
AcDbEntity
  8
0
100
AcDbLine
 10
-54.57381343428733
 20
207.2620930342863
 30
0.0
 11
-54.77639952644733
 21
207.0595069395863
 31
0.0
  0
LINE
  5
A7A1
330
1F
100
AcDbEntity
  8
0
100
AcDbLine
 10
-83.72034723726732
 20
179.9425566644263
 30
0.0
 11
-83.96163693248736
 21
179.6878302295063
 31
0.0
  0
LINE
  5
A7A2
330
1F
100
AcDbEntity
  8
0
100
AcDbLine
 10
-79.93125994052736
 20
183.7316439611663
 30
0.0
 11
-80.17254963574734
 21
183.4769175262463
 31
0.0
  0
LINE
  5
A7A3
330
1F
100
AcDbEntity
  8
0
100
AcDbLine
 10
-54.88113504468734
 20
205.1277739882263
 30
0.0
 11
-54.63984534692733
 21
205.3825004231463
 31
0.0
  0
LINE
  5
A7A4
330
1F
100
AcDbEntity
  8
0
100
AcDbLine
 10
-51.09204774794733
 20
208.9168612849663
 30
0.0
 11
-50.85075805272734
 21
209.1715877198863
 31
0.0
  0
LINE
  5
A7A5
330
1F
100
AcDbEntity
  8
0
100
AcDbLine
 10
-81.94685714696735
 20
178.0201376695463
 30
0.0
 11
-81.74134620924736
 21
178.3045887110063
 31
0.0
  0
LINE
  5
A7A6
330
1F
100
AcDbEntity
  8
0
100
AcDbLine
 10
-78.15776985022734
 20
181.8092249662863
 30
0.0
 11
-77.95225891250734
 21
182.0936760052063
 31
0.0
  0
LINE
  5
A7A7
330
1F
100
AcDbEntity
  8
0
100
AcDbLine
 10
-56.65462513498733
 20
207.0501929831063
 30
0.0
 11
-56.86013607270735
 21
206.7657419441863
 31
0.0
  0
LINE
  5
A7A8
330
1F
100
AcDbEntity
  8
0
100
AcDbLine
 10
-52.86553783824735
 20
210.8392802798463
 30
0.0
 11
-53.07104877596734
 21
210.5548292383863
 31
0.0
  0
LINE
  5
A7A9
330
1F
100
AcDbEntity
  8
0
100
AcDbLine
 10
-56.66256987144734
 20
207.0084118703263
 30
0.0
 11
-56.85947079082734
 21
206.7180047396863
 31
0.0
  0
LINE
  5
A7AA
330
1F
100
AcDbEntity
  8
0
100
AcDbLine
 10
-52.87348257470734
 20
210.7974991670663
 30
0.0
 11
-53.07038349408734
 21
210.5070920364263
 31
0.0
  0
LINE
  5
A7AB
330
1F
100
AcDbEntity
  8
0
100
AcDbLine
 10
-54.68889475606736
 20
205.2833976927263
 30
0.0
 11
-54.49881419388734
 21
205.5783833181463
 31
0.0
  0
LINE
  5
A7AC
330
1F
100
AcDbEntity
  8
0
100
AcDbLine
 10
-50.89980745932734
 20
209.0724849894663
 30
0.0
 11
-50.70972689714733
 21
209.3674706148863
 31
0.0
  0
LINE
  5
A7AD
330
1F
100
AcDbEntity
  8
0
100
AcDbLine
 10
-54.63984534692733
 20
205.3825004231463
 30
0.0
 11
-54.47549720470732
 21
205.6924939078063
 31
0.0
  0
LINE
  5
A7AE
330
1F
100
AcDbEntity
  8
0
100
AcDbLine
 10
-50.85075805272734
 20
209.1715877198863
 30
0.0
 11
-50.68640990796734
 21
209.4815812045463
 31
0.0
  0
LINE
  5
A7AF
330
1F
100
AcDbEntity
  8
0
100
AcDbLine
 10
-54.54748734266735
 20
182.0628885940863
 30
0.0
 11
-54.41535570192735
 21
182.3879860693663
 31
0.0
  0
LINE
  5
A7B0
330
1F
100
AcDbEntity
  8
0
100
AcDbLine
 10
-54.56406505398735
 20
182.0792322317063
 30
0.0
 11
-54.43419651514734
 21
182.4051776809063
 31
0.0
  0
LINE
  5
A7B1
330
1F
100
AcDbEntity
  8
0
100
AcDbLine
 10
-56.87636428764733
 20
183.3126860513063
 30
0.0
 11
-56.99100626562733
 21
182.9810170042063
 31
0.0
  0
LINE
  5
A7B2
330
1F
100
AcDbEntity
  8
0
100
AcDbLine
 10
-53.08727699344735
 20
179.5235987545663
 30
0.0
 11
-53.20191896888733
 21
179.1919297074662
 31
0.0
  0
LINE
  5
A7B3
330
1F
100
AcDbEntity
  8
0
100
AcDbLine
 10
-53.09135817400733
 20
179.4627140503263
 30
0.0
 11
-53.12784949294734
 21
179.3525024165463
 31
0.0
  0
LINE
  5
A7B4
330
1F
100
AcDbEntity
  8
0
100
AcDbLine
 10
-50.70972689714733
 20
209.3674706148863
 30
0.0
 11
-50.60395475156733
 21
209.7020739512663
 31
0.0
  0
LINE
  5
A7B5
330
1F
100
AcDbEntity
  8
0
100
AcDbLine
 10
-56.88902230144734
 20
183.2323047922063
 30
0.0
 11
-56.98288864152733
 21
182.8942287881463
 31
0.0
  0
LINE
  5
A7B6
330
1F
100
AcDbEntity
  8
0
100
AcDbLine
 10
-53.09993500470733
 20
179.4432174954662
 30
0.0
 11
-53.19380134478734
 21
179.1051414939463
 31
0.0
  0
LINE
  5
A7B7
330
1F
100
AcDbEntity
  8
0
100
AcDbLine
 10
-50.62626840518735
 20
178.5988987726263
 30
0.0
 11
-50.58432602272734
 21
178.9473065467262
 31
0.0
  0
LINE
  5
A7B8
330
1F
100
AcDbEntity
  8
0
100
AcDbLine
 10
-52.86290643126733
 20
209.0502726488263
 30
0.0
 11
-52.62967205902734
 21
208.8502253933463
 31
0.0
  0
LINE
  5
A7B9
330
1F
100
AcDbEntity
  8
0
100
AcDbLine
 10
-50.93891240778734
 20
210.7974991670663
 30
0.0
 11
-51.09920486596735
 21
210.9336528089063
 31
0.0
  0
LINE
  5
A7BA
330
1F
100
AcDbEntity
  8
0
100
AcDbLine
 10
-50.97141038698734
 20
210.8644960790463
 30
0.0
 11
-51.25028981398734
 21
211.0775064201063
 31
0.0
  0
LINE
  5
A7BB
330
1F
100
AcDbEntity
  8
0
100
AcDbLine
 10
-54.77639952644733
 20
207.0595069395863
 30
0.0
 11
-55.05572074834734
 21
207.2718414120463
 31
0.0
  0
LINE
  5
A7BC
330
1F
100
AcDbEntity
  8
0
100
AcDbLine
 10
-50.98731222970733
 20
210.8485942363263
 30
0.0
 11
-51.26663345160733
 21
211.0609287087863
 31
0.0
  0
LINE
  5
A7BD
330
1F
100
AcDbEntity
  8
0
100
AcDbLine
 10
-52.78990831462732
 20
208.9464953455863
 30
0.0
 11
-52.50008727120735
 21
208.7486294751263
 31
0.0
  0
LINE
  5
A7BE
330
1F
100
AcDbEntity
  8
0
100
AcDbLine
 10
-56.50943453382734
 20
205.1277739882263
 30
0.0
 11
-56.20879330884733
 21
204.9468841645863
 31
0.0
  0
LINE
  5
A7BF
330
1F
100
AcDbEntity
  8
0
100
AcDbLine
 10
-52.72034723708734
 20
208.9168612849663
 30
0.0
 11
-52.41970601210732
 21
208.7359714613263
 31
0.0
  0
LINE
  5
A7C3
330
1F
100
AcDbEntity
  8
0
100
AcDbLine
 10
-54.82327875704735
 20
207.0578051853063
 30
0.0
 11
-55.03541069244732
 21
207.1693609058063
 31
0.0
  0
LINE
  5
A7C4
330
1F
100
AcDbEntity
  8
0
100
AcDbLine
 10
-52.62967205902734
 20
208.8502253933463
 30
0.0
 11
-52.37277685018733
 21
208.7190743907263
 31
0.0
  0
LINE
  5
A7C5
330
1F
100
AcDbEntity
  8
0
100
AcDbLine
 10
-55.03937711072734
 20
207.2884191233663
 30
0.0
 11
-55.36447458600733
 21
207.4205507666463
 31
0.0
  0
LINE
  5
A7C6
330
1F
100
AcDbEntity
  8
0
100
AcDbLine
 10
-79.74223046082733
 20
204.9757703958663
 30
0.0
 11
-79.41373078254736
 21
204.8523398426263
 31
0.0
  0
LINE
  5
A7C7
330
1F
100
AcDbEntity
  8
0
100
AcDbLine
 10
-83.53131775756734
 20
208.7648576900663
 30
0.0
 11
-83.20281807674735
 21
208.6414271393663
 31
0.0
  0
LINE
  5
A7C8
330
1F
100
AcDbEntity
  8
0
100
AcDbLine
 10
-56.28917456794733
 20
204.9595421783863
 30
0.0
 11
-55.95750552084735
 21
204.8449002004063
 31
0.0
  0
LINE
  5
A7C9
330
1F
100
AcDbEntity
  8
0
100
AcDbLine
 10
-79.69449325886734
 20
204.9764356752063
 30
0.0
 11
-79.36199489414732
 21
204.8644039333063
 31
0.0
  0
LINE
  5
A7CA
330
1F
100
AcDbEntity
  8
0
100
AcDbLine
 10
-83.48358055306732
 20
208.7655229719463
 30
0.0
 11
-83.15108219088733
 21
208.6534912300463
 31
0.0
  0
LINE
  5
A7CB
330
1F
100
AcDbEntity
  8
0
100
AcDbLine
 10
-78.55487183478732
 20
207.3370922721463
 30
0.0
 11
-78.88947517116733
 21
207.4428644177263
 31
0.0
  0
LINE
  5
A7CC
330
1F
100
AcDbEntity
  8
0
100
AcDbLine
 10
-82.34395913152736
 20
211.1261795688863
 30
0.0
 11
-82.67856246790733
 21
211.2319517144663
 31
0.0
  0
LINE
  5
A7D0
330
1F
100
AcDbEntity
  8
0
100
AcDbLine
 10
-78.37541069256733
 20
207.1693609058063
 30
0.0
 11
-78.60328075244734
 21
207.2383081288463
 31
0.0
  0
LINE
  5
A7D1
330
1F
100
AcDbEntity
  8
0
100
AcDbLine
 10
-82.44751470734735
 20
198.9295714113263
 30
0.0
 11
-75.74119517360734
 21
196.9232633919463
 31
0.0
  0
LINE
  5
A7D2
330
1F
100
AcDbEntity
  8
0
100
AcDbLine
 10
-83.15108219088733
 20
211.2059267195263
 30
0.0
 11
-83.48358055306732
 21
211.0938949776263
 31
0.0
  0
LINE
  5
A7D3
330
1F
100
AcDbEntity
  8
0
100
AcDbLine
 10
-82.50773554006732
 20
208.6692003756663
 30
0.0
 11
-82.19013115876734
 21
208.8184471409263
 31
0.0
  0
LINE
  5
A7D4
330
1F
100
AcDbEntity
  8
0
100
AcDbLine
 10
-78.71864824332732
 20
204.8801130789263
 30
0.0
 11
-78.40104386202733
 21
205.0293598441863
 31
0.0
  0
LINE
  5
A7D5
330
1F
100
AcDbEntity
  8
0
100
AcDbLine
 10
-78.66898242444733
 20
204.9208340947663
 30
0.0
 11
-78.35898893978733
 21
205.0851822369863
 31
0.0
  0
LINE
  5
A7D6
330
1F
100
AcDbEntity
  8
0
100
AcDbLine
 10
-79.58209441584734
 20
207.3781367417463
 30
0.0
 11
-79.89130541540735
 21
207.2121979092863
 31
0.0
  0
LINE
  5
A7D7
330
1F
100
AcDbEntity
  8
0
100
AcDbLine
 10
-51.39268897038732
 20
208.7359714613263
 30
0.0
 11
-51.09204774794733
 21
208.9168612849663
 31
0.0
  0
LINE
  5
A7D8
330
1F
100
AcDbEntity
  8
0
100
AcDbLine
 10
-55.18177626712733
 20
204.9468841645863
 30
0.0
 11
-54.88113504468734
 21
205.1277739882263
 31
0.0
  0
LINE
  5
A7D9
330
1F
100
AcDbEntity
  8
0
100
AcDbLine
 10
-52.59242768850734
 20
211.0596390491863
 30
0.0
 11
-52.86553783824735
 21
210.8392802798463
 31
0.0
  0
LINE
  5
A7DA
330
1F
100
AcDbEntity
  8
0
100
AcDbLine
 10
-56.38151498524734
 20
207.2705517524463
 30
0.0
 11
-56.65462513498733
 21
207.0501929831063
 31
0.0
  0
LINE
  5
A7DB
330
1F
100
AcDbEntity
  8
0
100
AcDbLine
 10
-78.43087999742732
 20
181.5888661969463
 30
0.0
 11
-78.15776985022734
 21
181.8092249662863
 31
0.0
  0
LINE
  5
A7DC
330
1F
100
AcDbEntity
  8
0
100
AcDbLine
 10
-82.21996729416733
 20
177.7997789002063
 30
0.0
 11
-81.94685714696735
 21
178.0201376695463
 31
0.0
  0
LINE
  5
A7DD
330
1F
100
AcDbEntity
  8
0
100
AcDbLine
 10
-52.60606655886732
 20
211.0246443795263
 30
0.0
 11
-52.87348257470734
 21
210.7974991670663
 31
0.0
  0
LINE
  5
A7DE
330
1F
100
AcDbEntity
  8
0
100
AcDbLine
 10
-56.39515385560733
 20
207.2355570827863
 30
0.0
 11
-56.66256987144734
 21
207.0084118703263
 31
0.0
  0
LINE
  5
A7DF
330
1F
100
AcDbEntity
  8
0
100
AcDbLine
 10
-78.41724112960733
 20
181.6238608666063
 30
0.0
 11
-78.14982511122733
 21
181.8510060790663
 31
0.0
  0
LINE
  5
A7E0
330
1F
100
AcDbEntity
  8
0
100
AcDbLine
 10
-82.20632842634733
 20
177.8347735698663
 30
0.0
 11
-81.93891240796734
 21
178.0619187823263
 31
0.0
  0
LINE
  5
A7E1
330
1F
100
AcDbEntity
  8
0
100
AcDbLine
 10
-83.64114423590734
 20
180.0014148728463
 30
0.0
 11
-83.86290643144736
 21
179.8091453005663
 31
0.0
  0
LINE
  5
A7E2
330
1F
100
AcDbEntity
  8
0
100
AcDbLine
 10
-79.86250513264735
 20
183.8106022284462
 30
0.0
 11
-80.12350022660735
 21
183.5760202566663
 31
0.0
  0
LINE
  5
A7E3
330
1F
100
AcDbEntity
  8
0
100
AcDbLine
 10
-83.65159242938734
 20
180.0215149317063
 30
0.0
 11
-83.91258752334733
 21
179.7869329599262
 31
0.0
  0
LINE
  5
A7E4
330
1F
100
AcDbEntity
  8
0
100
AcDbLine
 10
-51.16080255582733
 20
208.8379030176863
 30
0.0
 11
-50.89980745932734
 21
209.0724849894663
 31
0.0
  0
LINE
  5
A7E5
330
1F
100
AcDbEntity
  8
0
100
AcDbLine
 10
-54.94988985256734
 20
205.0488157209463
 30
0.0
 11
-54.68889475606736
 21
205.2833976927263
 31
0.0
  0
LINE
  5
A7E6
330
1F
100
AcDbEntity
  8
0
100
AcDbLine
 10
-54.82749459570732
 20
181.7515111878863
 30
0.0
 11
-54.69134095386732
 21
181.9118036460663
 31
0.0
  0
LINE
  5
A7E7
330
1F
100
AcDbEntity
  8
0
100
AcDbLine
 10
-54.76049768372735
 20
181.7840091670863
 30
0.0
 11
-54.54748734266735
 21
182.0628885940863
 31
0.0
  0
LINE
  5
A7E8
330
1F
100
AcDbEntity
  8
0
100
AcDbLine
 10
-54.77639952644733
 20
181.7999110098063
 30
0.0
 11
-54.56406505398735
 21
182.0792322317063
 31
0.0
  0
LINE
  5
A7E9
330
1F
100
AcDbEntity
  8
0
100
AcDbLine
 10
-56.67849841718734
 20
183.6025070947263
 30
0.0
 11
-56.87636428764733
 21
183.3126860513063
 31
0.0
  0
LINE
  5
A7EA
330
1F
100
AcDbEntity
  8
0
100
AcDbLine
 10
-52.88941112044733
 20
179.8134197979863
 30
0.0
 11
-53.08727699344735
 21
179.5235987545663
 31
0.0
  0
LINE
  5
A7EB
330
1F
100
AcDbEntity
  8
0
100
AcDbLine
 10
-56.70813247780734
 20
183.5329460171863
 30
0.0
 11
-56.88902230144734
 21
183.2323047922063
 31
0.0
  0
LINE
  5
A7EC
330
1F
100
AcDbEntity
  8
0
100
AcDbLine
 10
-52.91904518106733
 20
179.7438587204463
 30
0.0
 11
-53.09993500470733
 21
179.4432174954662
 31
0.0
  0
LINE
  5
A7ED
330
1F
100
AcDbEntity
  8
0
100
AcDbLine
 10
-52.95885277734734
 20
179.6916913216063
 30
0.0
 11
-53.06685796900734
 21
179.5050518726863
 31
0.0
  0
LINE
  5
A7EE
330
1F
100
AcDbEntity
  8
0
100
AcDbLine
 10
-50.75840004592731
 20
178.2738012973463
 30
0.0
 11
-50.62626840518735
 21
178.5988987726263
 31
0.0
  0
LINE
  5
A7EF
330
1F
100
AcDbEntity
  8
0
100
AcDbLine
 10
-50.77497775724734
 20
178.2901449349663
 30
0.0
 11
-50.64510921840732
 21
178.6160903841663
 31
0.0
  0
LINE
  5
A7F0
330
1F
100
AcDbEntity
  8
0
100
AcDbLine
 10
16.77870256721266
 20
192.3960166323863
 30
0.0
 11
16.77870256721266
 21
196.4634013170062
 31
0.0
  0
LINE
  5
A7F1
330
1F
100
AcDbEntity
  8
0
100
AcDbLine
 10
17.77870256619266
 20
191.9297089747063
 30
0.0
 11
17.77870256619266
 21
196.9297089746863
 31
0.0
  0
LINE
  5
A7F2
330
1F
100
AcDbEntity
  8
0
100
AcDbLine
 10
34.17870256775268
 20
186.7297089759463
 30
0.0
 11
34.47870256719267
 21
186.4297089739662
 31
0.0
  0
LINE
  5
A7F9
330
1F
100
AcDbEntity
  8
0
100
AcDbLine
 10
17.77870256619266
 20
191.9297089747063
 30
0.0
 11
16.77870256721266
 21
192.3960166323863
 31
0.0
  0
LINE
  5
A7FA
330
1F
100
AcDbEntity
  8
0
100
AcDbLine
 10
-51.25028981398734
 20
211.0775064201063
 30
0.0
 11
-51.57538728926732
 21
211.2096380633863
 31
0.0
  0
LINE
  5
A7FB
330
1F
100
AcDbEntity
  8
0
100
AcDbLine
 10
-55.05572074834734
 20
207.2718414120463
 30
0.0
 11
-55.38166619754733
 21
207.4017099508863
 31
0.0
  0
LINE
  5
A7FC
330
1F
100
AcDbEntity
  8
0
100
AcDbLine
 10
-51.26663345160733
 20
211.0609287087863
 30
0.0
 11
-51.59257890080732
 21
211.1907972476263
 31
0.0
  0
LINE
  5
A7FD
330
1F
100
AcDbEntity
  8
0
100
AcDbLine
 10
-52.50008727120735
 20
208.7486294751263
 30
0.0
 11
-52.16841822410732
 21
208.6339874971463
 31
0.0
  0
LINE
  5
A7FE
330
1F
100
AcDbEntity
  8
0
100
AcDbLine
 10
-55.03541069244732
 20
207.1693609058063
 30
0.0
 11
-55.26328075232735
 21
207.2383081288463
 31
0.0
  0
LINE
  5
A7FF
330
1F
100
AcDbEntity
  8
0
100
AcDbLine
 10
-82.85341724900735
 20
208.6087744182863
 30
0.0
 11
-82.50773554006732
 21
208.6692003756663
 31
0.0
  0
LINE
  5
A800
330
1F
100
AcDbEntity
  8
0
100
AcDbLine
 10
-82.80073172826735
 20
208.6344957790863
 30
0.0
 11
-82.45806972118733
 21
208.7099213889664
 31
0.0
  0
LINE
  5
A801
330
1F
100
AcDbEntity
  8
0
100
AcDbLine
 10
-79.01164443152734
 20
204.8454084823463
 30
0.0
 11
-78.66898242444733
 21
204.9208340947663
 31
0.0
  0
LINE
  5
A802
330
1F
100
AcDbEntity
  8
0
100
AcDbLine
 10
-83.02920593984735
 20
211.2459622858863
 30
0.0
 11
-83.37118171004732
 21
211.1672240384863
 31
0.0
  0
LINE
  5
A803
330
1F
100
AcDbEntity
  8
0
100
AcDbLine
 10
-79.24011864310734
 20
207.4568749891463
 30
0.0
 11
-79.58209441584734
 21
207.3781367417463
 31
0.0
  0
LINE
  5
A804
330
1F
100
AcDbEntity
  8
0
100
AcDbLine
 10
-51.74472337934734
 20
208.6405638822663
 30
0.0
 11
-51.45194591054735
 21
208.7131680296663
 31
0.0
  0
LINE
  5
A805
330
1F
100
AcDbEntity
  8
0
100
AcDbLine
 10
-51.73076497444734
 20
208.6421051212463
 30
0.0
 11
-51.39268897038732
 21
208.7359714613263
 31
0.0
  0
LINE
  5
A806
330
1F
100
AcDbEntity
  8
0
100
AcDbLine
 10
-79.36199489414732
 20
207.4168394227863
 30
0.0
 11
-79.69449325886734
 21
207.3048076808863
 31
0.0
  0
LINE
  5
A807
330
1F
100
AcDbEntity
  8
0
100
AcDbLine
 10
-52.27096283740732
 20
211.2003781301663
 30
0.0
 11
-52.59242768850734
 21
211.0596390491863
 31
0.0
  0
LINE
  5
A808
330
1F
100
AcDbEntity
  8
0
100
AcDbLine
 10
-56.06005013414733
 20
207.4112908334263
 30
0.0
 11
-56.38151498524734
 21
207.2705517524463
 31
0.0
  0
LINE
  5
A809
330
1F
100
AcDbEntity
  8
0
100
AcDbLine
 10
-81.73098131948734
 20
188.0039363462063
 30
0.0
 11
-75.34508935926734
 21
190.8710581202063
 31
0.0
  0
LINE
  5
A80A
330
1F
100
AcDbEntity
  8
0
100
AcDbLine
 10
-53.08141366572733
 20
200.8554816031863
 30
0.0
 11
-59.46730562340736
 21
197.9883598291863
 31
0.0
  0
LINE
  5
A80B
330
1F
100
AcDbEntity
  8
0
100
AcDbLine
 10
-52.28763007610732
 20
211.1719687838863
 30
0.0
 11
-52.60606655886732
 21
211.0246443795263
 31
0.0
  0
LINE
  5
A80C
330
1F
100
AcDbEntity
  8
0
100
AcDbLine
 10
-56.07671737284732
 20
207.3828814871463
 30
0.0
 11
-56.39515385560733
 21
207.2355570827863
 31
0.0
  0
LINE
  5
A80D
330
1F
100
AcDbEntity
  8
0
100
AcDbLine
 10
-51.47432135474733
 20
208.6802543489863
 30
0.0
 11
-51.16080255582733
 21
208.8379030176863
 31
0.0
  0
LINE
  5
A80E
330
1F
100
AcDbEntity
  8
0
100
AcDbLine
 10
-55.26340865148734
 20
204.8911670522463
 30
0.0
 11
-54.94988985256734
 21
205.0488157209463
 31
0.0
  0
LINE
  5
A80F
330
1F
100
AcDbEntity
  8
0
100
AcDbLine
 10
-79.54898633372732
 20
183.9682508971463
 30
0.0
 11
-79.86250513264735
 21
183.8106022284462
 31
0.0
  0
LINE
  5
A810
330
1F
100
AcDbEntity
  8
0
100
AcDbLine
 10
-51.40744636276733
 20
208.7343252873263
 30
0.0
 11
-51.29644578974733
 21
208.7923097738463
 31
0.0
  0
LINE
  5
A811
330
1F
100
AcDbEntity
  8
0
100
AcDbLine
 10
-83.39488330094736
 20
180.1325746892663
 30
0.0
 11
-83.64114423590734
 21
180.0014148728463
 31
0.0
  0
LINE
  5
A812
330
1F
100
AcDbEntity
  8
0
100
AcDbLine
 10
-53.70873847660735
 20
202.1023618450063
 30
0.0
 11
-59.81588558664734
 21
198.6814339396063
 31
0.0
  0
LINE
  5
A813
330
1F
100
AcDbEntity
  8
0
100
AcDbLine
 10
-81.10365650606736
 20
186.7570561043863
 30
0.0
 11
-74.99650939856735
 21
190.1779840097863
 31
0.0
  0
LINE
  5
A814
330
1F
100
AcDbEntity
  8
0
100
AcDbLine
 10
-79.63061871554734
 20
183.9125337848063
 30
0.0
 11
-79.93125994052736
 21
183.7316439611663
 31
0.0
  0
LINE
  5
A815
330
1F
100
AcDbEntity
  8
0
100
AcDbLine
 10
-83.41970601228736
 20
180.1234464880663
 30
0.0
 11
-83.72034723726732
 21
179.9425566644263
 31
0.0
  0
LINE
  5
A816
330
1F
100
AcDbEntity
  8
0
100
AcDbLine
 10
-56.41135112064734
 20
183.8300581052063
 30
0.0
 11
-56.67849841718734
 21
183.6025070947263
 31
0.0
  0
LINE
  5
A817
330
1F
100
AcDbEntity
  8
0
100
AcDbLine
 10
-52.62226382390733
 20
180.0409708084663
 30
0.0
 11
-52.88941112044733
 21
179.8134197979863
 31
0.0
  0
LINE
  5
A818
330
1F
100
AcDbEntity
  8
0
100
AcDbLine
 10
-56.45340604288733
 20
183.7742357124063
 30
0.0
 11
-56.70813247780734
 21
183.5329460171863
 31
0.0
  0
LINE
  5
A819
330
1F
100
AcDbEntity
  8
0
100
AcDbLine
 10
-52.66431874614733
 20
179.9851484156663
 30
0.0
 11
-52.91904518106733
 21
179.7438587204463
 31
0.0
  0
LINE
  5
A81A
330
1F
100
AcDbEntity
  8
0
100
AcDbLine
 10
-54.92108956726733
 20
181.6472200401062
 30
0.0
 11
-54.76865690794733
 21
181.7917447370863
 31
0.0
  0
LINE
  5
A81B
330
1F
100
AcDbEntity
  8
0
100
AcDbLine
 10
-51.13200227052733
 20
177.8581327433663
 30
0.0
 11
-50.97956961120733
 21
178.0026574403463
 31
0.0
  0
LINE
  5
A81C
330
1F
100
AcDbEntity
  8
0
100
AcDbLine
 10
-51.03840729896734
 20
177.9624238911463
 30
0.0
 11
-50.90225365712734
 21
178.1227163493263
 31
0.0
  0
LINE
  5
A81D
330
1F
100
AcDbEntity
  8
0
100
AcDbLine
 10
-50.97141038698734
 20
177.9949218703462
 30
0.0
 11
-50.75840004592731
 21
178.2738012973463
 31
0.0
  0
LINE
  5
A81E
330
1F
100
AcDbEntity
  8
0
100
AcDbLine
 10
-50.98731222970733
 20
178.0108237130663
 30
0.0
 11
-50.77497775724734
 21
178.2901449349663
 31
0.0
  0
LINE
  5
A828
330
1F
100
AcDbEntity
  8
0
100
AcDbLine
 10
62.07880686141265
 20
179.1779542903062
 30
0.0
 11
62.52870256817266
 21
178.8628881157663
 31
0.0
  0
LINE
  5
A83B
330
1F
100
AcDbEntity
  8
0
100
AcDbLine
 10
44.27870256837263
 20
209.8813351922863
 30
0.0
 11
61.27871493353268
 21
209.7041360597663
 31
0.0
  0
LINE
  5
A83C
330
1F
100
AcDbEntity
  8
0
100
AcDbLine
 10
-84.90619749126734
 20
213.9297089751263
 30
0.0
 11
-49.90619749140734
 21
213.9297089751263
 31
0.0
  0
LINE
  5
A83D
330
1F
100
AcDbEntity
  8
0
100
AcDbLine
 10
37.27870256789268
 20
213.9297089751263
 30
0.0
 11
39.27870256839265
 21
213.9297089751263
 31
0.0
  0
LINE
  5
A83E
330
1F
100
AcDbEntity
  8
0
100
AcDbLine
 10
39.27870256839265
 20
213.9297089751263
 30
0.0
 11
63.67870256687263
 21
213.9297089751263
 31
0.0
  0
LINE
  5
A83F
330
1F
100
AcDbEntity
  8
0
100
AcDbLine
 10
62.87870256667265
 20
213.8927508753063
 30
0.0
 11
44.27870256837263
 21
213.8927508753063
 31
0.0
  0
LINE
  5
A840
330
1F
100
AcDbEntity
  8
0
100
AcDbLine
 10
-69.90619749132733
 20
213.6297089756863
 30
0.0
 11
-64.90619749134734
 21
213.6297089756863
 31
0.0
  0
LINE
  5
A841
330
1F
100
AcDbEntity
  8
0
100
AcDbLine
 10
62.87870256667265
 20
213.6049216262263
 30
0.0
 11
44.27870256837263
 21
213.6049216262263
 31
0.0
  0
LINE
  5
A844
330
1F
100
AcDbEntity
  8
0
100
AcDbLine
 10
62.87870256667265
 20
213.0243090765063
 30
0.0
 11
44.27870256837263
 21
213.0243090765063
 31
0.0
  0
LINE
  5
A84A
330
1F
100
AcDbEntity
  8
0
100
AcDbLine
 10
62.87870256667265
 20
212.1779208454863
 30
0.0
 11
44.27870256837263
 21
212.1779208454863
 31
0.0
  0
LINE
  5
A84B
330
1F
100
AcDbEntity
  8
0
100
AcDbLine
 10
37.27870256789268
 20
211.9297089746263
 30
0.0
 11
39.27870256839265
 21
211.9297089746263
 31
0.0
  0
LINE
  5
A851
330
1F
100
AcDbEntity
  8
0
100
AcDbLine
 10
62.87870256667265
 20
211.0511890959063
 30
0.0
 11
44.27870256837263
 21
211.0511890959063
 31
0.0
  0
LINE
  5
A852
330
1F
100
AcDbEntity
  8
0
100
AcDbLine
 10
61.27871493353268
 20
209.7041360597663
 30
0.0
 11
62.87870256667265
 21
209.7041360597663
 31
0.0
  0
LINE
  5
A853
330
1F
100
AcDbEntity
  8
0
100
AcDbLine
 10
44.27870256837263
 20
209.6230248046663
 30
0.0
 11
62.87870256667265
 21
209.6230248046663
 31
0.0
  0
LINE
  5
A854
330
1F
100
AcDbEntity
  8
0
100
AcDbLine
 10
-52.08163001058733
 20
208.6421051212463
 30
0.0
 11
-51.73076497444734
 21
208.6421051212463
 31
0.0
  0
LINE
  5
A855
330
1F
100
AcDbEntity
  8
0
100
AcDbLine
 10
-52.05450398660733
 20
208.6389905326063
 30
0.0
 11
-51.77618074086734
 21
208.6398998602263
 31
0.0
  0
LINE
  5
A856
330
1F
100
AcDbEntity
  8
0
100
AcDbLine
 10
-82.80073172826735
 20
211.2249221704863
 30
0.0
 11
-83.15108219088733
 21
211.2059267195263
 31
0.0
  0
LINE
  5
A857
330
1F
100
AcDbEntity
  8
0
100
AcDbLine
 10
-79.01164443152734
 20
207.4358348737463
 30
0.0
 11
-79.36199489414732
 21
207.4168394227863
 31
0.0
  0
LINE
  5
A858
330
1F
100
AcDbEntity
  8
0
100
AcDbLine
 10
-78.83960621832733
 20
207.2613205771063
 30
0.0
 11
-79.07619749266735
 21
207.2357089747863
 31
0.0
  0
LINE
  5
A859
330
1F
100
AcDbEntity
  8
0
100
AcDbLine
 10
-55.49960621820734
 20
207.2613205771063
 30
0.0
 11
-55.73619749254735
 21
207.2357089747863
 31
0.0
  0
LINE
  5
A85A
330
1F
100
AcDbEntity
  8
0
100
AcDbLine
 10
-51.92379506336732
 20
211.2515804458463
 30
0.0
 11
-52.27096283740732
 21
211.2003781301663
 31
0.0
  0
LINE
  5
A85B
330
1F
100
AcDbEntity
  8
0
100
AcDbLine
 10
-55.71288236010733
 20
207.4624931491063
 30
0.0
 11
-56.06005013414733
 21
207.4112908334263
 31
0.0
  0
LINE
  5
A85C
330
1F
100
AcDbEntity
  8
0
100
AcDbLine
 10
-51.94138715162734
 20
211.2287324295663
 30
0.0
 11
-52.28763007610732
 21
211.1719687838863
 31
0.0
  0
LINE
  5
A85D
330
1F
100
AcDbEntity
  8
0
100
AcDbLine
 10
-55.73047444836735
 20
207.4396451328263
 30
0.0
 11
-56.07671737284732
 21
207.3828814871463
 31
0.0
  0
LINE
  5
A85E
330
1F
100
AcDbEntity
  8
0
100
AcDbLine
 10
-79.06432995226734
 20
204.8196871215463
 30
0.0
 11
-78.71864824332732
 21
204.8801130789263
 31
0.0
  0
LINE
  5
A85F
330
1F
100
AcDbEntity
  8
0
100
AcDbLine
 10
-51.81827198510735
 20
208.6106475793863
 30
0.0
 11
-51.47432135474733
 21
208.6802543489863
 31
0.0
  0
LINE
  5
A860
330
1F
100
AcDbEntity
  8
0
100
AcDbLine
 10
-55.60735928184735
 20
204.8215602826463
 30
0.0
 11
-55.26340865148734
 21
204.8911670522463
 31
0.0
  0
LINE
  5
A861
330
1F
100
AcDbEntity
  8
0
100
AcDbLine
 10
-55.51985227118734
 20
204.8530178245063
 30
0.0
 11
-55.18177626712733
 21
204.9468841645863
 31
0.0
  0
LINE
  5
A862
330
1F
100
AcDbEntity
  8
0
100
AcDbLine
 10
-52.36488027532733
 20
198.9295714113263
 30
0.0
 11
-59.07119980906734
 21
196.9232633919463
 31
0.0
  0
LINE
  5
A863
330
1F
100
AcDbEntity
  8
0
100
AcDbLine
 10
-82.44751470734735
 20
189.9298465380663
 30
0.0
 11
-75.74119517360734
 21
191.9361545574463
 31
0.0
  0
LINE
  5
A864
330
1F
100
AcDbEntity
  8
0
100
AcDbLine
 10
-78.75234484852734
 20
181.4481271159663
 30
0.0
 11
-78.43087999742732
 21
181.5888661969463
 31
0.0
  0
LINE
  5
A865
330
1F
100
AcDbEntity
  8
0
100
AcDbLine
 10
-82.54143214526733
 20
177.6590398192263
 30
0.0
 11
-82.21996729416733
 21
177.7997789002063
 31
0.0
  0
LINE
  5
A866
330
1F
100
AcDbEntity
  8
0
100
AcDbLine
 10
-78.73567761236734
 20
181.4765364622463
 30
0.0
 11
-78.41724112960733
 21
181.6238608666063
 31
0.0
  0
LINE
  5
A867
330
1F
100
AcDbEntity
  8
0
100
AcDbLine
 10
-82.52476490910735
 20
177.6874491655062
 30
0.0
 11
-82.20632842634733
 21
177.8347735698663
 31
0.0
  0
LINE
  5
A868
330
1F
100
AcDbEntity
  8
0
100
AcDbLine
 10
-56.09374673934735
 20
183.9793048704663
 30
0.0
 11
-56.41135112064734
 21
183.8300581052063
 31
0.0
  0
LINE
  5
A869
330
1F
100
AcDbEntity
  8
0
100
AcDbLine
 10
-83.33807363046734
 20
180.1791636004063
 30
0.0
 11
-83.65159242938734
 21
180.0215149317063
 31
0.0
  0
LINE
  5
A86A
330
1F
100
AcDbEntity
  8
0
100
AcDbLine
 10
-56.14341255822734
 20
183.9385838546263
 30
0.0
 11
-56.45340604288733
 21
183.7742357124063
 31
0.0
  0
LINE
  5
A86B
330
1F
100
AcDbEntity
  8
0
100
AcDbLine
 10
-55.23030056936732
 20
181.4812812076463
 30
0.0
 11
-54.92108956726733
 21
181.6472200401062
 31
0.0
  0
LINE
  5
A86C
330
1F
100
AcDbEntity
  8
0
100
AcDbLine
 10
-55.11790172634732
 20
181.5546102685063
 30
0.0
 11
-54.82749459570732
 21
181.7515111878863
 31
0.0
  0
LINE
  5
A86D
330
1F
100
AcDbEntity
  8
0
100
AcDbLine
 10
-51.32881442960735
 20
177.7655229717663
 30
0.0
 11
-51.03840729896734
 21
177.9624238911463
 31
0.0
  0
LINE
  5
A86E
330
1F
100
AcDbEntity
  8
0
100
AcDbLine
 10
34.17870256775268
 20
186.7297089759463
 30
0.0
 11
34.17870256775268
 21
202.1297089734463
 31
0.0
  0
LINE
  5
A86F
330
1F
100
AcDbEntity
  8
0
100
AcDbLine
 10
34.47870256719267
 20
186.4297089739662
 30
0.0
 11
34.47870256719267
 21
202.4297089754263
 31
0.0
  0
LINE
  5
A870
330
1F
100
AcDbEntity
  8
0
100
AcDbLine
 10
36.57870256637267
 20
202.4421981427262
 30
0.0
 11
36.57870256637267
 21
200.8421981423263
 31
0.0
  0
LINE
  5
A871
330
1F
100
AcDbEntity
  8
0
100
AcDbLine
 10
36.57870256637267
 20
188.0172198070662
 30
0.0
 11
36.57870256637267
 21
186.4172198066663
 31
0.0
  0
LINE
  5
A872
330
1F
100
AcDbEntity
  8
0
100
AcDbLine
 10
37.27870256789268
 20
213.9297089751263
 30
0.0
 11
37.27870256789268
 21
174.9297089742663
 31
0.0
  0
LINE
  5
A873
330
1F
100
AcDbEntity
  8
0
100
AcDbLine
 10
39.27870256839265
 20
213.9297089751263
 30
0.0
 11
39.27870256839265
 21
174.9297089742663
 31
0.0
  0
LINE
  5
A879
330
1F
100
AcDbEntity
  8
0
100
AcDbLine
 10
39.27870256839265
 20
213.9297089751263
 30
0.0
 11
39.27870256839265
 21
174.9297089742663
 31
0.0
  0
LINE
  5
A880
330
1F
100
AcDbEntity
  8
0
100
AcDbLine
 10
65.17870256687263
 20
196.4634013170062
 30
0.0
 11
64.47870256707268
 21
196.7898166767928
 31
0.0
  0
LINE
  5
A887
330
1F
100
AcDbEntity
  8
0
100
AcDbLine
 10
-52.35620176014734
 20
208.7106124213663
 30
0.0
 11
-52.10774521870735
 21
208.6511415674863
 31
0.0
  0
LINE
  5
A88E
330
1F
100
AcDbEntity
  8
0
100
AcDbLine
 10
-51.57538728926732
 20
211.2096380633863
 30
0.0
 11
-51.92379506336732
 21
211.2515804458463
 31
0.0
  0
LINE
  5
A88F
330
1F
100
AcDbEntity
  8
0
100
AcDbLine
 10
-55.36447458600733
 20
207.4205507666463
 30
0.0
 11
-55.71288236010733
 21
207.4624931491063
 31
0.0
  0
LINE
  5
A890
330
1F
100
AcDbEntity
  8
0
100
AcDbLine
 10
-51.59257890080732
 20
211.1907972476263
 30
0.0
 11
-51.94138715162734
 21
211.2287324295663
 31
0.0
  0
LINE
  5
A891
330
1F
100
AcDbEntity
  8
0
100
AcDbLine
 10
-55.38166619754733
 20
207.4017099508863
 30
0.0
 11
-55.73047444836735
 21
207.4396451328263
 31
0.0
  0
LINE
  5
A892
330
1F
100
AcDbEntity
  8
0
100
AcDbLine
 10
-55.26328075232735
 20
207.2383081288463
 30
0.0
 11
-55.49960621820734
 21
207.2613205771063
 31
0.0
  0
LINE
  5
A893
330
1F
100
AcDbEntity
  8
0
100
AcDbLine
 10
-78.60328075244734
 20
207.2383081288463
 30
0.0
 11
-78.83960621832733
 21
207.2613205771063
 31
0.0
  0
LINE
  5
A894
330
1F
100
AcDbEntity
  8
0
100
AcDbLine
 10
-83.20281807674735
 20
208.6414271393663
 30
0.0
 11
-82.85341724900735
 21
208.6087744182863
 31
0.0
  0
LINE
  5
A895
330
1F
100
AcDbEntity
  8
0
100
AcDbLine
 10
-79.41373078254736
 20
204.8523398426263
 30
0.0
 11
-79.06432995226734
 21
204.8196871215463
 31
0.0
  0
LINE
  5
A896
330
1F
100
AcDbEntity
  8
0
100
AcDbLine
 10
-52.16841822410732
 20
208.6339874971463
 30
0.0
 11
-51.81827198510735
 21
208.6106475793863
 31
0.0
  0
LINE
  5
A897
330
1F
100
AcDbEntity
  8
0
100
AcDbLine
 10
-55.95750552084735
 20
204.8449002004063
 30
0.0
 11
-55.60735928184735
 21
204.8215602826463
 31
0.0
  0
LINE
  5
A898
330
1F
100
AcDbEntity
  8
0
100
AcDbLine
 10
-83.15108219088733
 20
208.6534912300463
 30
0.0
 11
-82.80073172826735
 21
208.6344957790863
 31
0.0
  0
LINE
  5
A899
330
1F
100
AcDbEntity
  8
0
100
AcDbLine
 10
-79.36199489414732
 20
204.8644039333063
 30
0.0
 11
-79.01164443152734
 21
204.8454084823463
 31
0.0
  0
LINE
  5
A89A
330
1F
100
AcDbEntity
  8
0
100
AcDbLine
 10
-82.67856246790733
 20
211.2319517144663
 30
0.0
 11
-83.02920593984735
 21
211.2459622858863
 31
0.0
  0
LINE
  5
A89B
330
1F
100
AcDbEntity
  8
0
100
AcDbLine
 10
-78.88947517116733
 20
207.4428644177263
 30
0.0
 11
-79.24011864310734
 21
207.4568749891463
 31
0.0
  0
LINE
  5
A89C
330
1F
100
AcDbEntity
  8
0
100
AcDbLine
 10
44.27870256837263
 20
205.7017570109463
 30
0.0
 11
61.2787025688126
 21
205.5590758332663
 31
0.0
  0
LINE
  5
A89D
330
1F
100
AcDbEntity
  8
0
100
AcDbLine
 10
44.27870256837263
 20
205.3073011907663
 30
0.0
 11
61.27870260437266
 21
205.1649722247263
 31
0.0
  0
LINE
  5
A89E
330
1F
100
AcDbEntity
  8
0
100
AcDbLine
 10
44.27870256837263
 20
201.8854942523263
 30
0.0
 11
61.2787025688126
 21
201.7912758682463
 31
0.0
  0
LINE
  5
A89F
330
1F
100
AcDbEntity
  8
0
100
AcDbLine
 10
44.27870256837263
 20
201.5020664466663
 30
0.0
 11
61.27870260945264
 21
201.4081012421663
 31
0.0
  0
LINE
  5
A8A0
330
1F
100
AcDbEntity
  8
0
100
AcDbLine
 10
44.27870256837263
 20
197.6533577585263
 30
0.0
 11
61.2787025688126
 21
197.6048063849663
 31
0.0
  0
LINE
  5
A8A1
330
1F
100
AcDbEntity
  8
0
100
AcDbLine
 10
44.27870256837263
 20
197.3139224252062
 30
0.0
 11
61.27870260945264
 21
197.2656430196063
 31
0.0
  0
LINE
  5
A8A2
330
1F
100
AcDbEntity
  8
0
100
AcDbLine
 10
44.27870256837263
 20
206.6531763247663
 30
0.0
 11
62.87870256667265
 21
206.6531763247663
 31
0.0
  0
LINE
  5
A8A3
330
1F
100
AcDbEntity
  8
0
100
AcDbLine
 10
61.2787025688126
 20
205.5590758332663
 30
0.0
 11
62.87870256667265
 21
205.5590758332663
 31
0.0
  0
LINE
  5
A8A4
330
1F
100
AcDbEntity
  8
0
100
AcDbLine
 10
-67.39064963952734
 20
205.4302909727263
 30
0.0
 11
-67.36647156240735
 21
205.4302909727263
 31
0.0
  0
LINE
  5
A8A5
330
1F
100
AcDbEntity
  8
0
100
AcDbLine
 10
61.27870263993265
 20
205.1649589252863
 30
0.0
 11
62.87870256667265
 21
205.1649589252863
 31
0.0
  0
LINE
  5
A8A6
330
1F
100
AcDbEntity
  8
0
100
AcDbLine
 10
-55.87071730732734
 20
204.8530178245063
 30
0.0
 11
-55.51985227118734
 21
204.8530178245063
 31
0.0
  0
LINE
  5
A8A7
330
1F
100
AcDbEntity
  8
0
100
AcDbLine
 10
44.27870256837263
 20
204.6265907843463
 30
0.0
 11
62.87870256667265
 21
204.6265907843463
 31
0.0
  0
LINE
  5
A8AC
330
1F
100
AcDbEntity
  8
0
100
AcDbLine
 10
63.67870256687263
 20
202.6297089742063
 30
0.0
 11
64.47870256707267
 21
202.6297089742063
 31
0.0
  0
LINE
  5
A8AE
330
1F
100
AcDbEntity
  8
0
100
AcDbLine
 10
44.27870256837263
 20
202.5075165617463
 30
0.0
 11
62.87870256667265
 21
202.5075165617463
 31
0.0
  0
LINE
  5
A8B0
330
1F
100
AcDbEntity
  8
0
100
AcDbLine
 10
37.27870256789268
 20
202.4421981427262
 30
0.0
 11
36.57870256637267
 21
202.4421981427262
 31
0.0
  0
LINE
  5
A8B1
330
1F
100
AcDbEntity
  8
0
100
AcDbLine
 10
34.47870256719267
 20
202.4297089754263
 30
0.0
 11
36.57870256637267
 21
202.4297089754263
 31
0.0
  0
LINE
  5
A8B2
330
1F
100
AcDbEntity
  8
0
100
AcDbLine
 10
61.2787025688126
 20
201.7912758682463
 30
0.0
 11
62.87870256667265
 21
201.7912758682463
 31
0.0
  0
LINE
  5
A8B3
330
1F
100
AcDbEntity
  8
0
100
AcDbLine
 10
61.27870264501268
 20
201.4080850928463
 30
0.0
 11
62.87870256667265
 21
201.4080850928463
 31
0.0
  0
LINE
  5
A8B4
330
1F
100
AcDbEntity
  8
0
100
AcDbLine
 10
37.27870256789268
 20
200.8421981423263
 30
0.0
 11
36.57870256637267
 21
200.8421981423263
 31
0.0
  0
LINE
  5
A8B5
330
1F
100
AcDbEntity
  8
0
100
AcDbLine
 10
44.27870256837263
 20
200.3025998362063
 30
0.0
 11
62.87870256667265
 21
200.3025998362063
 31
0.0
  0
LINE
  5
A8BB
330
1F
100
AcDbEntity
  8
0
100
AcDbLine
 10
39.27870256839265
 20
198.8738061837663
 30
0.0
 11
44.27870256837263
 21
198.8738061837663
 31
0.0
  0
LINE
  5
A8BE
330
1F
100
AcDbEntity
  8
0
100
AcDbLine
 10
44.27870256837263
 20
197.9738900943463
 30
0.0
 11
62.87870256667265
 21
197.9738900943463
 31
0.0
  0
LINE
  5
A8BF
330
1F
100
AcDbEntity
  8
0
100
AcDbLine
 10
61.2787025688126
 20
197.6048063849663
 30
0.0
 11
62.87870256667265
 21
197.6048063849663
 31
0.0
  0
LINE
  5
A8C0
330
1F
100
AcDbEntity
  8
0
100
AcDbLine
 10
61.27870264501268
 20
197.2656256739463
 30
0.0
 11
62.87870256667265
 21
197.2656256739463
 31
0.0
  0
LINE
  5
A8C2
330
1F
100
AcDbEntity
  8
0
100
AcDbLine
 10
34.17870256775268
 20
196.9297089746863
 30
0.0
 11
17.77870256619266
 21
196.9297089746863
 31
0.0
  0
LINE
  5
A8C3
330
1F
100
AcDbEntity
  8
0
100
AcDbLine
 10
-51.72181080962733
 20
195.1297089551863
 30
0.0
 11
-58.71494326732733
 21
194.8197089757463
 31
0.0
  0
LINE
  5
A8C4
330
1F
100
AcDbEntity
  8
0
100
AcDbLine
 10
-76.09745171534735
 20
194.0397089736463
 30
0.0
 11
-83.09058417304735
 21
193.7297089942063
 31
0.0
  0
LINE
  5
A8C5
330
1F
100
AcDbEntity
  8
0
100
AcDbLine
 10
-79.20503570082735
 20
184.0378576667463
 30
0.0
 11
-79.54898633372732
 21
183.9682508971463
 31
0.0
  0
LINE
  5
A8C6
330
1F
100
AcDbEntity
  8
0
100
AcDbLine
 10
-82.99412299756733
 20
180.2487703700063
 30
0.0
 11
-83.33807363046734
 21
180.1791636004063
 31
0.0
  0
LINE
  5
A8C7
330
1F
100
AcDbEntity
  8
0
100
AcDbLine
 10
-75.93019076970733
 20
192.6885775611063
 30
0.0
 11
-82.78773300836732
 21
191.2835445342463
 31
0.0
  0
LINE
  5
A8C8
330
1F
100
AcDbEntity
  8
0
100
AcDbLine
 10
-58.88220421296733
 20
196.1708403882863
 30
0.0
 11
-52.02466197430732
 21
197.5758734151463
 31
0.0
  0
LINE
  5
A8C9
330
1F
100
AcDbEntity
  8
0
100
AcDbLine
 10
-55.80075055114733
 20
184.0140094670463
 30
0.0
 11
-56.14341255822734
 21
183.9385838546263
 31
0.0
  0
LINE
  5
A8CA
330
1F
100
AcDbEntity
  8
0
100
AcDbLine
 10
-79.29254271402732
 20
184.0064001248863
 30
0.0
 11
-79.63061871554734
 21
183.9125337848063
 31
0.0
  0
LINE
  5
A8CB
330
1F
100
AcDbEntity
  8
0
100
AcDbLine
 10
-83.08163001076735
 20
180.2173128281463
 30
0.0
 11
-83.41970601228736
 21
180.1234464880663
 31
0.0
  0
LINE
  5
A8CC
330
1F
100
AcDbEntity
  8
0
100
AcDbLine
 10
-83.12737329240736
 20
180.2102485166463
 30
0.0
 11
-83.30340429416734
 21
180.1607051130663
 31
0.0
  0
LINE
  5
A8CD
330
1F
100
AcDbEntity
  8
0
100
AcDbLine
 10
-55.45040009106734
 20
181.4425785266062
 30
0.0
 11
-55.11790172634732
 21
181.5546102685063
 31
0.0
  0
LINE
  5
A8CE
330
1F
100
AcDbEntity
  8
0
100
AcDbLine
 10
17.77870256619266
 20
196.9297089746863
 30
0.0
 11
16.77870256721266
 21
196.4634013170062
 31
0.0
  0
LINE
  5
A8CF
330
1F
100
AcDbEntity
  8
0
100
AcDbLine
 10
-52.30465944514733
 20
180.1902175737263
 30
0.0
 11
-52.62226382390733
 21
180.0409708084663
 31
0.0
  0
LINE
  5
A8D0
330
1F
100
AcDbEntity
  8
0
100
AcDbLine
 10
-52.35432526148733
 20
180.1494965604263
 30
0.0
 11
-52.66431874614733
 21
179.9851484156663
 31
0.0
  0
LINE
  5
A8D1
330
1F
100
AcDbEntity
  8
0
100
AcDbLine
 10
-51.44121327262732
 20
177.6921939109063
 30
0.0
 11
-51.13200227052733
 21
177.8581327433663
 31
0.0
  0
LINE
  5
A8D2
330
1F
100
AcDbEntity
  8
0
100
AcDbLine
 10
34.17870256775268
 20
202.1297089734463
 30
0.0
 11
34.47870256719267
 21
202.4297089754263
 31
0.0
  0
LINE
  5
A8D3
330
1F
100
AcDbEntity
  8
0
100
AcDbLine
 10
44.27870256837263
 20
213.9297089751263
 30
0.0
 11
44.27870256837263
 21
174.9297089742663
 31
0.0
  0
LINE
  5
A8D4
330
1F
100
AcDbEntity
  8
0
100
AcDbLine
 10
-52.41970601210732
 20
208.7359714613263
 30
0.0
 11
-52.08163001058733
 21
208.6421051212463
 31
0.0
  0
LINE
  5
A8D5
330
1F
100
AcDbEntity
  8
0
100
AcDbLine
 10
-56.20879330884733
 20
204.9468841645863
 30
0.0
 11
-55.87071730732734
 21
204.8530178245063
 31
0.0
  0
LINE
  5
A8D6
330
1F
100
AcDbEntity
  8
0
100
AcDbLine
 10
-82.45806972118733
 20
211.1494965580663
 30
0.0
 11
-82.80073172826735
 21
211.2249221704863
 31
0.0
  0
LINE
  5
A8D7
330
1F
100
AcDbEntity
  8
0
100
AcDbLine
 10
-78.66898242444733
 20
207.3604092638663
 30
0.0
 11
-79.01164443152734
 21
207.4358348737463
 31
0.0
  0
LINE
  5
A8DE
330
1F
100
AcDbEntity
  8
0
100
AcDbLine
 10
-83.09058417304735
 20
195.1297089551863
 30
0.0
 11
-76.09745171534735
 21
194.8197089757463
 31
0.0
  0
LINE
  5
A8DF
330
1F
100
AcDbEntity
  8
0
100
AcDbLine
 10
-51.72181080962733
 20
193.7297089942063
 30
0.0
 11
-58.71494326732733
 21
194.0397089736463
 31
0.0
  0
LINE
  5
A8E0
330
1F
100
AcDbEntity
  8
0
100
AcDbLine
 10
62.87870256667265
 20
195.9050207395863
 30
0.0
 11
44.27870256837263
 21
195.9049861752663
 31
0.0
  0
LINE
  5
A8E1
330
1F
100
AcDbEntity
  8
0
100
AcDbLine
 10
44.27870256837263
 20
195.6297089737263
 30
0.0
 11
62.87870256667265
 21
195.6297089737263
 31
0.0
  0
LINE
  5
A8E8
330
1F
100
AcDbEntity
  8
0
100
AcDbLine
 10
62.87870256667265
 20
193.2297089756663
 30
0.0
 11
44.27870256837263
 21
193.2297089756663
 31
0.0
  0
LINE
  5
A8E9
330
1F
100
AcDbEntity
  8
0
100
AcDbLine
 10
44.27870256837263
 20
192.9544314718663
 30
0.0
 11
62.87870256667265
 21
192.9543972098063
 31
0.0
  0
LINE
  5
A8EB
330
1F
100
AcDbEntity
  8
0
100
AcDbLine
 10
34.17870256775268
 20
191.9297089747063
 30
0.0
 11
17.77870256619266
 21
191.9297089747063
 31
0.0
  0
LINE
  5
A8EC
330
1F
100
AcDbEntity
  8
0
100
AcDbLine
 10
61.27869033363265
 20
191.5937922754462
 30
0.0
 11
62.87870256667265
 21
191.5937922754462
 31
0.0
  0
LINE
  5
A8ED
330
1F
100
AcDbEntity
  8
0
100
AcDbLine
 10
61.27869025743263
 20
191.2546115644263
 30
0.0
 11
62.87870256667265
 21
191.2546115644263
 31
0.0
  0
LINE
  5
A8EE
330
1F
100
AcDbEntity
  8
0
100
AcDbLine
 10
62.87870256667265
 20
190.8855278550463
 30
0.0
 11
44.27870256837263
 21
190.8855278550463
 31
0.0
  0
LINE
  5
A8F1
330
1F
100
AcDbEntity
  8
0
100
AcDbLine
 10
39.27870256839265
 20
189.9856117656263
 30
0.0
 11
44.27870256837263
 21
189.9856117656263
 31
0.0
  0
LINE
  5
A8F7
330
1F
100
AcDbEntity
  8
0
100
AcDbLine
 10
62.87870256667265
 20
188.5568181131863
 30
0.0
 11
44.27870256837263
 21
188.5568181131863
 31
0.0
  0
LINE
  5
A8F8
330
1F
100
AcDbEntity
  8
0
100
AcDbLine
 10
37.27870256789268
 20
188.0172198070662
 30
0.0
 11
36.57870256637267
 21
188.0172198070662
 31
0.0
  0
LINE
  5
A8F9
330
1F
100
AcDbEntity
  8
0
100
AcDbLine
 10
61.27869033363265
 20
187.4513328565463
 30
0.0
 11
62.87870256667265
 21
187.4513328565463
 31
0.0
  0
LINE
  5
A8FA
330
1F
100
AcDbEntity
  8
0
100
AcDbLine
 10
61.27869025743263
 20
187.0681420811463
 30
0.0
 11
62.87870256667265
 21
187.0681420811463
 31
0.0
  0
LINE
  5
A8FB
330
1F
100
AcDbEntity
  8
0
100
AcDbLine
 10
34.47870256719267
 20
186.4297089739662
 30
0.0
 11
36.57870256637267
 21
186.4297089739662
 31
0.0
  0
LINE
  5
A8FC
330
1F
100
AcDbEntity
  8
0
100
AcDbLine
 10
37.27870256789268
 20
186.4172198066663
 30
0.0
 11
36.57870256637267
 21
186.4172198066663
 31
0.0
  0
LINE
  5
A8FE
330
1F
100
AcDbEntity
  8
0
100
AcDbLine
 10
62.87870256667265
 20
186.3519013876463
 30
0.0
 11
44.27870256837263
 21
186.3519013876463
 31
0.0
  0
LINE
  5
A900
330
1F
100
AcDbEntity
  8
0
100
AcDbLine
 10
63.67870256687263
 20
186.2297089751862
 30
0.0
 11
64.47870256707267
 21
186.2297089751862
 31
0.0
  0
LINE
  5
A905
330
1F
100
AcDbEntity
  8
0
100
AcDbLine
 10
62.87870256667265
 20
184.2328271650463
 30
0.0
 11
44.27870256837263
 21
184.2328271650463
 31
0.0
  0
LINE
  5
A906
330
1F
100
AcDbEntity
  8
0
100
AcDbLine
 10
-78.94167767788736
 20
184.0064001248863
 30
0.0
 11
-79.29254271402732
 21
184.0064001248863
 31
0.0
  0
LINE
  5
A907
330
1F
100
AcDbEntity
  8
0
100
AcDbLine
 10
61.27869029807266
 20
191.5937746580063
 30
0.0
 11
44.27870256837263
 21
191.5454952574863
 31
0.0
  0
LINE
  5
A908
330
1F
100
AcDbEntity
  8
0
100
AcDbLine
 10
61.27869025743263
 20
191.2546115644263
 30
0.0
 11
44.27870256837263
 21
191.2060602213463
 31
0.0
  0
LINE
  5
A909
330
1F
100
AcDbEntity
  8
0
100
AcDbLine
 10
61.27869029807266
 20
187.4513164532263
 30
0.0
 11
44.27870256837263
 21
187.3573512868263
 31
0.0
  0
LINE
  5
A90A
330
1F
100
AcDbEntity
  8
0
100
AcDbLine
 10
61.27869025743263
 20
187.0681420811463
 30
0.0
 11
44.27870256837263
 21
186.9739237605663
 31
0.0
  0
LINE
  5
A90B
330
1F
100
AcDbEntity
  8
0
100
AcDbLine
 10
-55.80075055114733
 20
181.4235830756463
 30
0.0
 11
-55.45040009106734
 21
181.4425785266062
 31
0.0
  0
LINE
  5
A90C
330
1F
100
AcDbEntity
  8
0
100
AcDbLine
 10
-83.11488789954735
 20
180.2111965081463
 30
0.0
 11
-83.12737329240736
 21
180.2102485166463
 31
0.0
  0
LINE
  5
A90D
330
1F
100
AcDbEntity
  8
0
100
AcDbLine
 10
-78.83960621832733
 20
183.9213205769863
 30
0.0
 11
-79.07619749266735
 21
183.8957089746663
 31
0.0
  0
LINE
  5
A90E
330
1F
100
AcDbEntity
  8
0
100
AcDbLine
 10
-55.49960621820734
 20
183.9213205769863
 30
0.0
 11
-55.73619749254735
 21
183.8957089746663
 31
0.0
  0
LINE
  5
A90F
330
1F
100
AcDbEntity
  8
0
100
AcDbLine
 10
-79.09951262256734
 20
181.3969248002863
 30
0.0
 11
-78.75234484852734
 21
181.4481271159663
 31
0.0
  0
LINE
  5
A910
330
1F
100
AcDbEntity
  8
0
100
AcDbLine
 10
-82.88859991930735
 20
177.6078375035463
 30
0.0
 11
-82.54143214526733
 21
177.6590398192263
 31
0.0
  0
LINE
  5
A911
330
1F
100
AcDbEntity
  8
0
100
AcDbLine
 10
-79.08192053430735
 20
181.4197728165663
 30
0.0
 11
-78.73567761236734
 21
181.4765364622463
 31
0.0
  0
LINE
  5
A912
330
1F
100
AcDbEntity
  8
0
100
AcDbLine
 10
-82.87100783104733
 20
177.6306855198263
 30
0.0
 11
-82.52476490910735
 21
177.6874491655062
 31
0.0
  0
LINE
  5
A913
330
1F
100
AcDbEntity
  8
0
100
AcDbLine
 10
-55.74806503294735
 20
184.0397308278463
 30
0.0
 11
-56.09374673934735
 21
183.9793048704663
 31
0.0
  0
LINE
  5
A914
330
1F
100
AcDbEntity
  8
0
100
AcDbLine
 10
-51.95897773620735
 20
180.2506435311063
 30
0.0
 11
-52.30465944514733
 21
180.1902175737263
 31
0.0
  0
LINE
  5
A915
330
1F
100
AcDbEntity
  8
0
100
AcDbLine
 10
-52.01166325440732
 20
180.2249221703062
 30
0.0
 11
-52.35432526148733
 21
180.1494965604263
 31
0.0
  0
LINE
  5
A916
330
1F
100
AcDbEntity
  8
0
100
AcDbLine
 10
-55.57227633956734
 20
181.4025429602463
 30
0.0
 11
-55.23030056936732
 21
181.4812812076463
 31
0.0
  0
LINE
  5
A917
330
1F
100
AcDbEntity
  8
0
100
AcDbLine
 10
-51.78318904282733
 20
177.6134556635063
 30
0.0
 11
-51.44121327262732
 21
177.6921939109063
 31
0.0
  0
LINE
  5
A918
330
1F
100
AcDbEntity
  8
0
100
AcDbLine
 10
-51.66131279432732
 20
177.6534912298663
 30
0.0
 11
-51.32881442960735
 21
177.7655229717663
 31
0.0
  0
LINE
  5
A919
330
1F
100
AcDbEntity
  8
0
100
AcDbLine
 10
61.27843223407262
 20
193.2091920240663
 30
0.0
 11
61.27871487765265
 21
193.2297089756663
 31
0.0
  0
LINE
  5
A91A
330
1F
100
AcDbEntity
  8
0
100
AcDbLine
 10
61.2787025688126
 20
197.6048063849663
 30
0.0
 11
61.27825186105264
 21
197.4788126593063
 31
0.0
  0
LINE
  5
A91B
330
1F
100
AcDbEntity
  8
0
100
AcDbLine
 10
61.27849845695266
 20
209.6230248046663
 30
0.0
 11
61.27871493353268
 21
209.7041360597663
 31
0.0
  0
LINE
  5
A91C
330
1F
100
AcDbEntity
  8
0
100
AcDbLine
 10
61.2787025688126
 20
201.7912758682463
 30
0.0
 11
61.27825186105264
 21
201.6259825818663
 31
0.0
  0
LINE
  5
A91D
330
1F
100
AcDbEntity
  8
0
100
AcDbLine
 10
61.27870395565264
 20
195.9050207395863
 30
0.0
 11
61.27825181025264
 21
195.7089706414663
 31
0.0
  0
LINE
  5
A91E
330
1F
100
AcDbEntity
  8
0
100
AcDbLine
 10
61.2787025688126
 20
205.5590758332663
 30
0.0
 11
61.27828834053264
 21
205.3669773553863
 31
0.0
  0
LINE
  5
A91F
330
1F
100
AcDbEntity
  8
0
100
AcDbLine
 10
61.27823954967266
 20
191.3806052646863
 30
0.0
 11
61.27869033363265
 21
191.5937922754462
 31
0.0
  0
LINE
  5
A920
330
1F
100
AcDbEntity
  8
0
100
AcDbLine
 10
61.27823954967266
 20
187.2334353421263
 30
0.0
 11
61.27869033363265
 21
187.4513328565463
 31
0.0
  0
LINE
  5
A921
330
1F
100
AcDbEntity
  8
0
100
AcDbLine
 10
61.27891600755265
 20
184.2328271650463
 30
0.0
 11
61.27827715691262
 21
183.4924405584463
 31
0.0
  0
LINE
  5
A922
330
1F
100
AcDbEntity
  8
0
100
AcDbLine
 10
61.27832142657263
 20
193.0615091825263
 30
0.0
 11
61.27843223407262
 21
193.2091920240663
 31
0.0
  0
LINE
  5
A923
330
1F
100
AcDbEntity
  8
0
100
AcDbLine
 10
61.2787025688126
 20
179.2363931447263
 30
0.0
 11
61.2787025688126
 21
169.9297089742863
 31
0.0
  0
LINE
  5
A924
330
1F
100
AcDbEntity
  8
0
100
AcDbLine
 10
61.27869038443265
 20
195.9050207395863
 30
0.0
 11
61.27870261707267
 21
197.2656256739463
 31
0.0
  0
LINE
  5
A925
330
1F
100
AcDbEntity
  8
0
100
AcDbLine
 10
61.27870271867266
 20
192.9543972098063
 30
0.0
 11
61.27869030569264
 21
191.5937922754462
 31
0.0
  0
LINE
  5
A926
330
1F
100
AcDbEntity
  8
0
100
AcDbLine
 10
61.27878714573262
 20
188.5568181131863
 30
0.0
 11
61.27869030569264
 21
187.4513328565463
 31
0.0
  0
LINE
  5
A927
330
1F
100
AcDbEntity
  8
0
100
AcDbLine
 10
62.07870256647265
 20
169.9297089742863
 30
0.0
 11
62.07870256647265
 21
179.2363931447263
 31
0.0
  0
LINE
  5
A928
330
1F
100
AcDbEntity
  8
0
100
AcDbLine
 10
62.52870256817266
 20
179.2363931447263
 30
0.0
 11
62.52870256817266
 21
178.8628881157663
 31
0.0
  0
LINE
  5
A929
330
1F
100
AcDbEntity
  8
0
100
AcDbLine
 10
62.87870256667265
 20
213.9296852337463
 30
0.0
 11
62.87870256667265
 21
174.9297327156463
 31
0.0
  0
LINE
  5
A92A
330
1F
100
AcDbEntity
  8
0
100
AcDbLine
 10
63.67870256687263
 20
213.9296852337463
 30
0.0
 11
63.67870256687263
 21
174.9297327156463
 31
0.0
  0
LINE
  5
A92B
330
1F
100
AcDbEntity
  8
0
100
AcDbLine
 10
64.47870256707267
 20
202.6297089742063
 30
0.0
 11
64.47870256707267
 21
186.2297089751862
 31
0.0
  0
LINE
  5
A92C
330
1F
100
AcDbEntity
  8
0
100
AcDbLine
 10
61.27877412315263
 20
200.3025998362063
 30
0.0
 11
61.27870261707267
 21
201.4080850928463
 31
0.0
  0
LINE
  5
A92D
330
1F
100
AcDbEntity
  8
0
100
AcDbLine
 10
61.27828834053264
 20
205.3669773553863
 30
0.0
 11
61.27891869487263
 21
204.6265907843463
 31
0.0
  0
LINE
  5
A92E
330
1F
100
AcDbEntity
  8
0
100
AcDbLine
 10
61.27868634837262
 20
183.3003421161263
 30
0.0
 11
61.27827715691262
 21
183.4924405584463
 31
0.0
  0
LINE
  5
A92F
330
1F
100
AcDbEntity
  8
0
100
AcDbLine
 10
61.27825186105264
 20
197.4788126593063
 30
0.0
 11
61.27870264501268
 21
197.2656256739463
 31
0.0
  0
LINE
  5
A930
330
1F
100
AcDbEntity
  8
0
100
AcDbLine
 10
61.27825186105264
 20
201.6259825818663
 30
0.0
 11
61.27870264501268
 21
201.4080850928463
 31
0.0
  0
LINE
  5
A931
330
1F
100
AcDbEntity
  8
0
100
AcDbLine
 10
61.27868684621262
 20
187.0681420811463
 30
0.0
 11
61.27823954967266
 21
187.2334353421263
 31
0.0
  0
LINE
  5
A932
330
1F
100
AcDbEntity
  8
0
100
AcDbLine
 10
61.27825181025264
 20
195.7089706414663
 30
0.0
 11
61.27841992269265
 21
195.6502259126263
 31
0.0
  0
LINE
  5
A933
330
1F
100
AcDbEntity
  8
0
100
AcDbLine
 10
61.27869641185265
 20
191.2546115644263
 30
0.0
 11
61.27823954967266
 21
191.3806052646863
 31
0.0
  0
LINE
  5
A934
330
1F
100
AcDbEntity
  8
0
100
AcDbLine
 10
61.27871626703267
 20
192.9543972098063
 30
0.0
 11
61.27832142657263
 21
193.0615091825263
 31
0.0
  0
LINE
  5
A935
330
1F
100
AcDbEntity
  8
0
100
AcDbLine
 10
61.27841992269265
 20
195.6502259126263
 30
0.0
 11
61.2787025688126
 21
195.6297089737263
 31
0.0
  0
LINE
  5
A936
330
1F
100
AcDbEntity
  8
0
100
AcDbLine
 10
-52.25224189252734
 20
190.3251243124063
 30
0.0
 11
-59.00878235960735
 21
192.1551938399663
 31
0.0
  0
LINE
  5
A93A
330
1F
100
AcDbEntity
  8
0
100
AcDbLine
 10
-75.93019076970733
 20
196.1708403882863
 30
0.0
 11
-82.78773300836732
 21
197.5758734151463
 31
0.0
  0
LINE
  5
A93B
330
1F
100
AcDbEntity
  8
0
100
AcDbLine
 10
-58.83954766632735
 20
192.9123063338663
 30
0.0
 11
-51.94757585974736
 21
191.6872643059263
 31
0.0
  0
LINE
  5
A93F
330
1F
100
AcDbEntity
  8
0
100
AcDbLine
 10
-79.44792039666734
 20
181.4388671827463
 30
0.0
 11
-79.09951262256734
 21
181.3969248002863
 31
0.0
  0
LINE
  5
A940
330
1F
100
AcDbEntity
  8
0
100
AcDbLine
 10
-79.43072878512734
 20
181.4577079985063
 30
0.0
 11
-79.08192053430735
 21
181.4197728165663
 31
0.0
  0
LINE
  5
A941
330
1F
100
AcDbEntity
  8
0
100
AcDbLine
 10
-55.26328075232735
 20
183.8983081287263
 30
0.0
 11
-55.49960621820734
 21
183.9213205769863
 31
0.0
  0
LINE
  5
A942
330
1F
100
AcDbEntity
  8
0
100
AcDbLine
 10
-78.60328075244734
 20
183.8983081287263
 30
0.0
 11
-78.83960621832733
 21
183.9213205769863
 31
0.0
  0
LINE
  5
A943
330
1F
100
AcDbEntity
  8
0
100
AcDbLine
 10
-55.39866420266733
 20
184.0070781067663
 30
0.0
 11
-55.74806503294735
 21
184.0397308278463
 31
0.0
  0
LINE
  5
A944
330
1F
100
AcDbEntity
  8
0
100
AcDbLine
 10
-51.60957690592733
 20
180.2179908100263
 30
0.0
 11
-51.95897773620735
 21
180.2506435311063
 31
0.0
  0
LINE
  5
A948
330
1F
100
AcDbEntity
  8
0
100
AcDbLine
 10
-78.85488946182732
 20
184.0145177489863
 30
0.0
 11
-79.20503570082735
 21
184.0378576667463
 31
0.0
  0
LINE
  5
A949
330
1F
100
AcDbEntity
  8
0
100
AcDbLine
 10
-82.64397675856733
 20
180.2254304522463
 30
0.0
 11
-82.99412299756733
 21
180.2487703700063
 31
0.0
  0
LINE
  5
A94A
330
1F
100
AcDbEntity
  8
0
100
AcDbLine
 10
-55.45040009106734
 20
183.9950140160863
 30
0.0
 11
-55.80075055114733
 21
184.0140094670463
 31
0.0
  0
LINE
  5
A94B
330
1F
100
AcDbEntity
  8
0
100
AcDbLine
 10
-51.66131279432732
 20
180.2059267193462
 30
0.0
 11
-52.01166325440732
 21
180.2249221703062
 31
0.0
  0
LINE
  5
A94F
330
1F
100
AcDbEntity
  8
0
100
AcDbLine
 10
-55.92291981150734
 20
181.4165535316663
 30
0.0
 11
-55.57227633956734
 21
181.4025429602463
 31
0.0
  0
LINE
  5
A950
330
1F
100
AcDbEntity
  8
0
100
AcDbLine
 10
-52.13383251476733
 20
177.6274662349263
 30
0.0
 11
-51.78318904282733
 21
177.6134556635063
 31
0.0
  0
LINE
  5
A951
330
1F
100
AcDbEntity
  8
0
100
AcDbLine
 10
61.27869145631269
 20
183.6944590241063
 30
0.0
 11
62.87870256667265
 21
183.6944590241063
 31
0.0
  0
LINE
  5
A952
330
1F
100
AcDbEntity
  8
0
100
AcDbLine
 10
-67.45949646398734
 20
183.4297392335063
 30
0.0
 11
-67.43531838686735
 21
183.4297392335063
 31
0.0
  0
LINE
  5
A953
330
1F
100
AcDbEntity
  8
0
100
AcDbLine
 10
61.27869138519264
 20
183.3003421161263
 30
0.0
 11
62.87870256667265
 21
183.3003421161263
 31
0.0
  0
LINE
  5
A954
330
1F
100
AcDbEntity
  8
0
100
AcDbLine
 10
62.87870256667265
 20
182.2062416246263
 30
0.0
 11
44.27870256837263
 21
182.2062416246263
 31
0.0
  0
LINE
  5
A955
330
1F
100
AcDbEntity
  8
0
100
AcDbLine
 10
-82.73076497462733
 20
180.2173128281463
 30
0.0
 11
-83.08163001076735
 21
180.2173128281463
 31
0.0
  0
LINE
  5
A956
330
1F
100
AcDbEntity
  8
0
100
AcDbLine
 10
62.87870256667265
 20
179.2363931447263
 30
0.0
 11
44.27870256837263
 21
179.2363931447263
 31
0.0
  0
LINE
  5
A957
330
1F
100
AcDbEntity
  8
0
100
AcDbLine
 10
62.52870256817266
 20
178.8628881157663
 30
0.0
 11
62.87870256667265
 21
178.8628881157663
 31
0.0
  0
LINE
  5
A958
330
1F
100
AcDbEntity
  8
0
100
AcDbLine
 10
62.07870256647265
 20
178.6981122985063
 30
0.0
 11
61.2787025688126
 21
178.6981122985063
 31
0.0
  0
LINE
  5
A959
330
1F
100
AcDbEntity
  8
0
100
AcDbLine
 10
61.2787025688126
 20
177.8082288560263
 30
0.0
 11
44.27870256837263
 21
177.8082288560263
 31
0.0
  0
LINE
  5
A95F
330
1F
100
AcDbEntity
  8
0
100
AcDbLine
 10
61.2787025688126
 20
177.0282722523663
 30
0.0
 11
62.07870256647265
 21
177.0282722523663
 31
0.0
  0
LINE
  5
A960
330
1F
100
AcDbEntity
  8
0
100
AcDbLine
 10
37.27870256789268
 20
176.9297089747663
 30
0.0
 11
39.27870256839265
 21
176.9297089747663
 31
0.0
  0
LINE
  5
A961
330
1F
100
AcDbEntity
  8
0
100
AcDbLine
 10
61.2787025688126
 20
176.6814971039063
 30
0.0
 11
44.27870256837263
 21
176.6814971039063
 31
0.0
  0
LINE
  5
A967
330
1F
100
AcDbEntity
  8
0
100
AcDbLine
 10
61.2787025688126
 20
175.8351088728863
 30
0.0
 11
44.27870256837263
 21
175.8351088728863
 31
0.0
  0
LINE
  5
A96A
330
1F
100
AcDbEntity
  8
0
100
AcDbLine
 10
61.2787025688126
 20
175.2544963231662
 30
0.0
 11
44.27870256837263
 21
175.2544963231662
 31
0.0
  0
LINE
  5
A96B
330
1F
100
AcDbEntity
  8
0
100
AcDbLine
 10
-64.90619749134734
 20
175.2297089737063
 30
0.0
 11
-69.90619749132733
 21
175.2297089737063
 31
0.0
  0
LINE
  5
A96C
330
1F
100
AcDbEntity
  8
0
100
AcDbLine
 10
61.2787025688126
 20
174.9666670740863
 30
0.0
 11
44.27870256837263
 21
174.9666670740863
 31
0.0
  0
LINE
  5
A96D
330
1F
100
AcDbEntity
  8
0
100
AcDbLine
 10
63.67870256687263
 20
174.9297089742663
 30
0.0
 11
62.87870256667265
 21
174.9297089742663
 31
0.0
  0
LINE
  5
A96E
330
1F
100
AcDbEntity
  8
0
100
AcDbLine
 10
-84.90619749126734
 20
174.9297089742663
 30
0.0
 11
-49.90619749140734
 21
174.9297089742663
 31
0.0
  0
LINE
  5
A96F
330
1F
100
AcDbEntity
  8
0
100
AcDbLine
 10
37.27870256789268
 20
174.9297089742663
 30
0.0
 11
39.27870256839265
 21
174.9297089742663
 31
0.0
  0
LINE
  5
A970
330
1F
100
AcDbEntity
  8
0
100
AcDbLine
 10
39.27870256839265
 20
174.9297089742663
 30
0.0
 11
61.2787025688126
 21
174.9297089742663
 31
0.0
  0
LINE
  5
A971
330
1F
100
AcDbEntity
  8
0
100
AcDbLine
 10
61.27869142075264
 20
183.6944454782863
 30
0.0
 11
44.27870256837263
 21
183.5521165528863
 31
0.0
  0
LINE
  5
A972
330
1F
100
AcDbEntity
  8
0
100
AcDbLine
 10
61.27869138519264
 20
183.3003421161263
 30
0.0
 11
44.27870256837263
 21
183.1576610121063
 31
0.0
  0
LINE
  5
A973
330
1F
100
AcDbEntity
  8
0
100
AcDbLine
 10
61.2787025688126
 20
179.1552818896263
 30
0.0
 11
44.27870256837263
 21
178.9780828739463
 31
0.0
  0
LINE
  5
A974
330
1F
100
AcDbEntity
  8
0
100
AcDbLine
 10
-52.01166325440732
 20
177.6344957789063
 30
0.0
 11
-51.66131279432732
 21
177.6534912298663
 31
0.0
  0
LINE
  5
A979
330
1F
100
AcDbEntity
  8
0
100
AcDbLine
 10
65.17870256687263
 20
192.3960166323863
 30
0.0
 11
64.47870256707268
 21
192.0696012725998
 31
0.0
  0
LINE
  5
A97B
330
1F
100
AcDbEntity
  8
0
100
AcDbLine
 10
-78.60360167382734
 20
183.9125337848063
 30
0.0
 11
-78.94167767788736
 21
184.0064001248863
 31
0.0
  0
LINE
  5
A97C
330
1F
100
AcDbEntity
  8
0
100
AcDbLine
 10
-56.14341255822734
 20
181.4990086855263
 30
0.0
 11
-55.80075055114733
 21
181.4235830756463
 31
0.0
  0
LINE
  5
A97D
330
1F
100
AcDbEntity
  8
0
100
AcDbLine
 10
-52.35432526148733
 20
177.7099213913263
 30
0.0
 11
-52.01166325440732
 21
177.6344957789063
 31
0.0
  0
LINE
  5
A97E
330
1F
100
AcDbEntity
  8
0
100
AcDbLine
 10
-83.23700769340735
 20
177.6497798860063
 30
0.0
 11
-82.88859991930735
 21
177.6078375035463
 31
0.0
  0
LINE
  5
A97F
330
1F
100
AcDbEntity
  8
0
100
AcDbLine
 10
-82.71223927888735
 20
180.2089405258663
 30
0.0
 11
-82.80543624260735
 21
180.2200041740463
 31
0.0
  0
LINE
  5
A980
330
1F
100
AcDbEntity
  8
0
100
AcDbLine
 10
-83.21981608186735
 20
177.6686207017663
 30
0.0
 11
-82.87100783104733
 21
177.6306855198263
 31
0.0
  0
LINE
  5
A981
330
1F
100
AcDbEntity
  8
0
100
AcDbLine
 10
-76.20619749226733
 20
169.9297089742863
 30
0.0
 11
-58.60619749294733
 21
169.9297089742863
 31
0.0
  0
LINE
  5
A982
330
1F
100
AcDbEntity
  8
0
100
AcDbLine
 10
61.2787025688126
 20
169.9297089742863
 30
0.0
 11
62.07870256647265
 21
169.9297089742863
 31
0.0
  0
LINE
  5
A983
330
1F
100
AcDbEntity
  8
0
100
AcDbLine
 10
65.17870256687263
 20
192.3960166323863
 30
0.0
 11
65.17870256687263
 21
196.4634013170062
 31
0.0
  0
LINE
  5
A984
330
1F
100
AcDbEntity
  8
0
100
AcDbLine
 10
-82.39268897056735
 20
180.1234464880663
 30
0.0
 11
-82.73076497462733
 21
180.2173128281463
 31
0.0
  0
CIRCLE
  5
A985
330
1F
100
AcDbEntity
  8
Centerline
370
     0
100
AcDbCircle
 10
-67.40619749260734
 20
194.4297089759663
 30
0.0
 40
11.0
  0
ARC
  5
A986
330
1F
100
AcDbEntity
  8
0
100
AcDbCircle
 10
-79.07619749266735
 20
182.7597089759063
 30
0.0
 40
1.135999998759999
100
AcDbArc
 50
89.99999999950007
 51
180.0000000001009
  0
ARC
  5
A987
330
1F
100
AcDbEntity
  8
0
100
AcDbCircle
 10
-55.73619749254735
 20
182.7597089759063
 30
0.0
 40
1.135999998759999
100
AcDbArc
 50
89.99999999950007
 51
180.0000000001009
  0
ARC
  5
A988
330
1F
100
AcDbEntity
  8
0
100
AcDbCircle
 10
-79.07619749266735
 20
206.0997089734863
 30
0.0
 40
1.135999998759999
100
AcDbArc
 50
89.99999999950007
 51
180.0000000001009
  0
ARC
  5
A989
330
1F
100
AcDbEntity
  8
0
100
AcDbCircle
 10
-55.73619749254735
 20
206.0997089734863
 30
0.0
 40
1.135999998759999
100
AcDbArc
 50
89.99999999950007
 51
180.0000000001009
  0
CIRCLE
  5
A98A
330
1F
100
AcDbEntity
  8
0
100
AcDbCircle
 10
-67.40619749260734
 20
194.4297089759663
 30
0.0
 40
2.500000001259999
  0
CIRCLE
  5
A98B
330
1F
100
AcDbEntity
  8
0
100
AcDbCircle
 10
-67.40619749260734
 20
194.4297089759663
 30
0.0
 40
2.033692341039999
  0
CIRCLE
  5
A98C
330
1F
100
AcDbEntity
  8
0
100
AcDbCircle
 10
-67.40619749260734
 20
194.4297089759663
 30
0.0
 40
2.700000000039999
  0
CIRCLE
  5
A98D
330
1F
100
AcDbEntity
  8
0
100
AcDbCircle
 10
-67.40619749260734
 20
194.4297089759663
 30
0.0
 40
7.999999999459999
  0
CIRCLE
  5
A98E
330
1F
100
AcDbEntity
  8
0
100
AcDbCircle
 10
-67.40619749260734
 20
194.4297089759663
 30
0.0
 40
7.700000000019999
  0
CIRCLE
  5
A98F
330
1F
100
AcDbEntity
  8
0
100
AcDbCircle
 10
-66.23888959862734
 20
171.4910365272663
 30
0.0
 40
0.4499999991600001
  0
CIRCLE
  5
A990
330
1F
100
AcDbEntity
  8
0
100
AcDbCircle
 10
-64.25181420778733
 20
171.5136169291463
 30
0.0
 40
0.4499999991600001
  0
CIRCLE
  5
A991
330
1F
100
AcDbEntity
  8
0
100
AcDbCircle
 10
-66.23888959862734
 20
173.1910365257863
 30
0.0
 40
0.4499999991600001
  0
CIRCLE
  5
A992
330
1F
100
AcDbEntity
  8
0
100
AcDbCircle
 10
-64.25181420778733
 20
173.2136169276663
 30
0.0
 40
0.4499999991600001
  0
ARC
  5
A993
330
1F
100
AcDbEntity
  8
0
100
AcDbCircle
 10
-67.29608818526734
 20
194.4297089759663
 30
0.0
 40
8.809999999979998
100
AcDbArc
 50
177.462808329902
 51
182.5371916701012
  0
ARC
  5
A994
330
1F
100
AcDbEntity
  8
0
100
AcDbCircle
 10
-49.90619749140734
 20
176.9297089747663
 30
0.0
 40
2.0000000005
100
AcDbArc
 50
270.0
 51
0.0
  0
ARC
  5
A995
330
1F
100
AcDbEntity
  8
0
100
AcDbCircle
 10
-49.90619749140734
 20
211.9297089746263
 30
0.0
 40
2.0000000005
100
AcDbArc
 50
0.0
 51
90.00000000000003
  0
ARC
  5
A996
330
1F
100
AcDbEntity
  8
0
100
AcDbCircle
 10
-84.90619749126734
 20
211.9297089746263
 30
0.0
 40
2.0000000005
100
AcDbArc
 50
90.00000000000003
 51
180.0
  0
ARC
  5
A997
330
1F
100
AcDbEntity
  8
0
100
AcDbCircle
 10
-84.90619749126734
 20
176.9297089747663
 30
0.0
 40
2.0000000005
100
AcDbArc
 50
180.0
 51
270.0
  0
CIRCLE
  5
A998
330
1F
100
AcDbEntity
  8
0
100
AcDbCircle
 10
-73.60619749288733
 20
211.0297089737663
 30
0.0
 40
0.8000000002
  0
CIRCLE
  5
A999
330
1F
100
AcDbEntity
  8
0
100
AcDbCircle
 10
-50.80619749226733
 20
200.6297089737063
 30
0.0
 40
0.8000000002
  0
CIRCLE
  5
A99A
330
1F
100
AcDbEntity
  8
0
100
AcDbCircle
 10
-61.20619749232734
 20
177.8297089756263
 30
0.0
 40
0.8000000002
  0
CIRCLE
  5
A99B
330
1F
100
AcDbEntity
  8
0
100
AcDbCircle
 10
-84.00619749294733
 20
188.2297089756863
 30
0.0
 40
0.8000000002
  0
ARC
  5
A99C
330
1F
100
AcDbEntity
  8
0
100
AcDbCircle
 10
-67.45567116556734
 20
194.3313415222063
 30
0.0
 40
8.809999999979998
100
AcDbArc
 50
60.77649143509964
 51
65.82350856489823
  0
ARC
  5
A99D
330
1F
100
AcDbEntity
  8
0
100
AcDbCircle
 10
-67.43302148518734
 20
194.3229181811663
 30
0.0
 40
8.809999999979998
100
AcDbArc
 50
73.37649143509993
 51
78.423508564899
  0
ARC
  5
A99E
330
1F
100
AcDbEntity
  8
0
100
AcDbCircle
 10
-67.37937349748733
 20
194.3229181811663
 30
0.0
 40
8.809999999979998
100
AcDbArc
 50
101.576491435101
 51
106.6235085649001
  0
ARC
  5
A99F
330
1F
100
AcDbEntity
  8
0
100
AcDbCircle
 10
-67.29940669780734
 20
194.4028849808463
 30
0.0
 40
8.809999999979998
100
AcDbArc
 50
163.3764914351017
 51
168.4235085648993
  0
ARC
  5
A9A0
330
1F
100
AcDbEntity
  8
0
100
AcDbCircle
 10
-67.29940669780734
 20
194.4565329685463
 30
0.0
 40
8.809999999979998
100
AcDbArc
 50
191.5764914351006
 51
196.6235085648982
  0
ARC
  5
A9A1
330
1F
100
AcDbEntity
  8
0
100
AcDbCircle
 10
-67.51298828486733
 20
194.4028849808463
 30
0.0
 40
8.809999999979998
100
AcDbArc
 50
11.57649143510068
 51
16.62350856489826
  0
ARC
  5
A9A2
330
1F
100
AcDbEntity
  8
0
100
AcDbCircle
 10
-67.51365386138735
 20
194.4537283183263
 30
0.0
 40
8.809999999979998
100
AcDbArc
 50
344.8764914351002
 51
349.9235085649003
  0
ARC
  5
A9A3
330
1F
100
AcDbEntity
  8
0
100
AcDbCircle
 10
-67.43302148518734
 20
194.5364997682263
 30
0.0
 40
8.809999999979998
100
AcDbArc
 50
281.576491435101
 51
286.6235085649001
  0
ARC
  5
A9A4
330
1F
100
AcDbEntity
  8
0
100
AcDbCircle
 10
-67.37937349748733
 20
194.5364997682263
 30
0.0
 40
8.809999999979998
100
AcDbArc
 50
253.3764914350999
 51
258.423508564899
  0
CIRCLE
  5
A9A5
330
1F
100
AcDbEntity
  8
0
100
AcDbCircle
 10
-74.61868665916734
 20
187.2172198068663
 30
0.0
 40
0.8000000002
  0
CIRCLE
  5
A9A6
330
1F
100
AcDbEntity
  8
0
100
AcDbCircle
 10
-74.61868665916734
 20
201.6421981425263
 30
0.0
 40
0.8000000002
  0
CIRCLE
  5
A9A7
330
1F
100
AcDbEntity
  8
0
100
AcDbCircle
 10
-60.19370832350734
 20
201.6421981425263
 30
0.0
 40
0.8000000002
  0
CIRCLE
  5
A9A8
330
1F
100
AcDbEntity
  8
0
100
AcDbCircle
 10
-60.19370832350734
 20
187.2172198068663
 30
0.0
 40
0.8000000002
  0
CIRCLE
  5
A9A9
330
1F
100
AcDbEntity
  8
0
100
AcDbCircle
 10
-79.11711019468734
 20
182.7187962713463
 30
0.0
 40
1.586000000459999
  0
CIRCLE
  5
A9AA
330
1F
100
AcDbEntity
  8
0
100
AcDbCircle
 10
-79.11711019468734
 20
206.1406216780463
 30
0.0
 40
1.586000000459999
  0
CIRCLE
  5
A9AB
330
1F
100
AcDbEntity
  8
0
100
AcDbCircle
 10
-55.69528478798734
 20
206.1406216780463
 30
0.0
 40
1.586000000459999
  0
CIRCLE
  5
A9AC
330
1F
100
AcDbEntity
  8
0
100
AcDbCircle
 10
-55.69528478798734
 20
182.7187962713463
 30
0.0
 40
1.586000000459999
  0
CIRCLE
  5
A9AD
330
1F
100
AcDbEntity
  8
0
100
AcDbCircle
 10
-82.90619749142734
 20
178.9297089746063
 30
0.0
 40
1.586000000459999
  0
CIRCLE
  5
A9AE
330
1F
100
AcDbEntity
  8
0
100
AcDbCircle
 10
-82.90619749142734
 20
209.9297089747863
 30
0.0
 40
1.586000000459999
  0
CIRCLE
  5
A9AF
330
1F
100
AcDbEntity
  8
0
100
AcDbCircle
 10
-51.90619749124732
 20
209.9297089747863
 30
0.0
 40
1.586000000459999
  0
CIRCLE
  5
A9B0
330
1F
100
AcDbEntity
  8
0
100
AcDbCircle
 10
-51.90619749124732
 20
178.9297089746063
 30
0.0
 40
1.586000000459999
  0
ARC
  5
A9B1
330
1F
100
AcDbEntity
  8
0
100
AcDbCircle
 10
-67.40619749260734
 20
194.4297089759663
 30
0.0
 40
15.69999889712
100
AcDbArc
 50
11.55992079800093
 51
16.65543603579867
  0
ARC
  5
A9B2
330
1F
100
AcDbEntity
  8
0
100
AcDbCircle
 10
-67.40619749260734
 20
194.4297089759663
 30
0.0
 40
13.89999896906
100
AcDbArc
 50
73.3445639642001
 51
78.44255081589881
  0
ARC
  5
A9B3
330
1F
100
AcDbEntity
  8
0
100
AcDbCircle
 10
-67.40619749260734
 20
194.4297089759663
 30
0.0
 40
15.69999889712
100
AcDbArc
 50
101.5599207980012
 51
106.6554360357999
  0
ARC
  5
A9B4
330
1F
100
AcDbEntity
  8
0
100
AcDbCircle
 10
-67.40619749260734
 20
194.4297089759663
 30
0.0
 40
15.69999889712
100
AcDbArc
 50
344.8445639642002
 51
349.9400792019986
  0
ARC
  5
A9B5
330
1F
100
AcDbEntity
  8
0
100
AcDbCircle
 10
-67.40619749260734
 20
194.4297089759663
 30
0.0
 40
13.89999896144
100
AcDbArc
 50
357.4423338293011
 51
2.557666170702113
  0
ARC
  5
A9B6
330
1F
100
AcDbEntity
  8
0
100
AcDbCircle
 10
-67.40619749260734
 20
194.4297089759663
 30
0.0
 40
13.89999896906
100
AcDbArc
 50
253.3445639642001
 51
258.4425508159004
  0
ARC
  5
A9B7
330
1F
100
AcDbEntity
  8
0
100
AcDbCircle
 10
-67.40619749260734
 20
194.4297089759663
 30
0.0
 40
13.89999896906
100
AcDbArc
 50
240.7445639641994
 51
245.8425508158992
  0
ARC
  5
A9B8
330
1F
100
AcDbEntity
  8
0
100
AcDbCircle
 10
-67.40619749260734
 20
194.4297089759663
 30
0.0
 40
13.89999896906
100
AcDbArc
 50
281.5574491840997
 51
286.6554360357999
  0
ARC
  5
A9B9
330
1F
100
AcDbEntity
  8
0
100
AcDbCircle
 10
-67.40619749260734
 20
194.4297089759663
 30
0.0
 40
13.89999896906
100
AcDbArc
 50
114.1574491841008
 51
119.2554360358006
  0
ARC
  5
A9BA
330
1F
100
AcDbEntity
  8
0
100
AcDbCircle
 10
-67.40619749260734
 20
194.4297089759663
 30
0.0
 40
15.69999889712
100
AcDbArc
 50
281.5599207980012
 51
286.6554360357999
  0
ARC
  5
A9BB
330
1F
100
AcDbEntity
  8
0
100
AcDbCircle
 10
-67.40619749260734
 20
194.4297089759663
 30
0.0
 40
13.89999896906
100
AcDbArc
 50
294.1574491841008
 51
299.2554360358007
  0
ARC
  5
A9BC
330
1F
100
AcDbEntity
  8
0
100
AcDbCircle
 10
-67.40619749260734
 20
194.4297089759663
 30
0.0
 40
13.89999896144
100
AcDbArc
 50
267.4423338292996
 51
272.5576661707004
  0
ARC
  5
A9BD
330
1F
100
AcDbEntity
  8
0
100
AcDbCircle
 10
-67.40619749260734
 20
194.4297089759663
 30
0.0
 40
13.89999896906
100
AcDbArc
 50
344.8445639642002
 51
349.942550815898
  0
ARC
  5
A9BE
330
1F
100
AcDbEntity
  8
0
100
AcDbCircle
 10
-67.40619749260734
 20
194.4297089759663
 30
0.0
 40
13.89999896906
100
AcDbArc
 50
330.7445639641994
 51
335.8425508159012
  0
ARC
  5
A9BF
330
1F
100
AcDbEntity
  8
0
100
AcDbCircle
 10
-67.40619749260734
 20
194.4297089759663
 30
0.0
 40
15.69999889712
100
AcDbArc
 50
253.3445639642001
 51
258.4400792019988
  0
ARC
  5
A9C0
330
1F
100
AcDbEntity
  8
0
100
AcDbCircle
 10
-67.40619749260734
 20
194.4297089759663
 30
0.0
 40
13.89999896906
100
AcDbArc
 50
11.55744918409962
 51
16.65543603579867
  0
ARC
  5
A9C1
330
1F
100
AcDbEntity
  8
0
100
AcDbCircle
 10
-67.40619749260734
 20
194.4297089759663
 30
0.0
 40
13.89999896906
100
AcDbArc
 50
24.15744918409881
 51
29.2554360358006
  0
ARC
  5
A9C2
330
1F
100
AcDbEntity
  8
0
100
AcDbCircle
 10
-67.40619749260734
 20
194.4297089759663
 30
0.0
 40
13.89999896906
100
AcDbArc
 50
191.5574491840995
 51
196.6554360358018
  0
ARC
  5
A9C3
330
1F
100
AcDbEntity
  8
0
100
AcDbCircle
 10
-67.40619749260734
 20
194.4297089759663
 30
0.0
 40
13.89999896906
100
AcDbArc
 50
204.1574491841017
 51
209.2554360358006
  0
ARC
  5
A9C4
330
1F
100
AcDbEntity
  8
0
100
AcDbCircle
 10
-67.40619749260734
 20
194.4297089759663
 30
0.0
 40
15.69999888696
100
AcDbArc
 50
177.4445639636986
 51
182.5554360363014
  0
ARC
  5
A9C5
330
1F
100
AcDbEntity
  8
0
100
AcDbCircle
 10
-67.40619749260734
 20
194.4297089759663
 30
0.0
 40
13.89999896906
100
AcDbArc
 50
163.3445639641982
 51
168.4425508158972
  0
ARC
  5
A9C6
330
1F
100
AcDbEntity
  8
0
100
AcDbCircle
 10
-67.40619749260734
 20
194.4297089759663
 30
0.0
 40
13.89999896906
100
AcDbArc
 50
150.7445639641994
 51
155.8425508159011
  0
ARC
  5
A9C7
330
1F
100
AcDbEntity
  8
0
100
AcDbCircle
 10
-67.40619749260734
 20
194.4297089759663
 30
0.0
 40
13.89999896906
100
AcDbArc
 50
101.5574491841012
 51
106.6554360357999
  0
ARC
  5
A9C8
330
1F
100
AcDbEntity
  8
0
100
AcDbCircle
 10
-67.40619749260734
 20
194.4297089759663
 30
0.0
 40
15.69999889712
100
AcDbArc
 50
60.74456396419938
 51
65.84007920200007
  0
ARC
  5
A9C9
330
1F
100
AcDbEntity
  8
0
100
AcDbCircle
 10
-67.40619749260734
 20
194.4297089759663
 30
0.0
 40
15.69999889712
100
AcDbArc
 50
163.3445639641982
 51
168.4400792019991
  0
ARC
  5
A9CA
330
1F
100
AcDbEntity
  8
0
100
AcDbCircle
 10
-67.40619749260734
 20
194.4297089759663
 30
0.0
 40
13.89999896144
100
AcDbArc
 50
177.4423338292978
 51
182.5576661707021
  0
ARC
  5
A9CB
330
1F
100
AcDbEntity
  8
0
100
AcDbCircle
 10
-67.40619749260734
 20
194.4297089759663
 30
0.0
 40
15.69999889712
100
AcDbArc
 50
73.3445639642001
 51
78.44007920199884
  0
ARC
  5
A9CC
330
1F
100
AcDbEntity
  8
0
100
AcDbCircle
 10
-67.40619749260734
 20
194.4297089759663
 30
0.0
 40
15.69999889712
100
AcDbArc
 50
191.5599207980009
 51
196.6554360358018
  0
ARC
  5
A9CD
330
1F
100
AcDbEntity
  8
0
100
AcDbCircle
 10
-67.40619749260734
 20
194.4297089759663
 30
0.0
 40
13.89999896144
100
AcDbArc
 50
87.44233382929957
 51
92.55766617070044
  0
ARC
  5
A9CE
330
1F
100
AcDbEntity
  8
0
100
AcDbCircle
 10
-67.40619749260734
 20
194.4297089759663
 30
0.0
 40
13.89999896906
100
AcDbArc
 50
60.74456396419938
 51
65.84255081589922
  0
CIRCLE
  5
A9D2
330
1F
100
AcDbEntity
  8
0
100
AcDbCircle
 10
-62.33248002512732
 20
171.5361973310263
 30
0.0
 40
0.4499999991600001
  0
CIRCLE
  5
A9D3
330
1F
100
AcDbEntity
  8
0
100
AcDbCircle
 10
-60.34540463428735
 20
171.5587777329063
 30
0.0
 40
0.4499999991600001
  0
CIRCLE
  5
A9D4
330
1F
100
AcDbEntity
  8
0
100
AcDbCircle
 10
-62.33248002512732
 20
173.2361973295463
 30
0.0
 40
0.4499999991600001
  0
CIRCLE
  5
A9D5
330
1F
100
AcDbEntity
  8
0
100
AcDbCircle
 10
-60.34540463428735
 20
173.2587777339662
 30
0.0
 40
0.4499999991600001
  0
CIRCLE
  5
A9D6
330
1F
100
AcDbEntity
  8
0
100
AcDbCircle
 10
-68.57350538658733
 20
171.4910365272663
 30
0.0
 40
0.4499999991600001
  0
CIRCLE
  5
A9D7
330
1F
100
AcDbEntity
  8
0
100
AcDbCircle
 10
-70.56058077488734
 20
171.5136169291463
 30
0.0
 40
0.4499999991600001
  0
CIRCLE
  5
A9D8
330
1F
100
AcDbEntity
  8
0
100
AcDbCircle
 10
-68.57350538658733
 20
173.1910365257863
 30
0.0
 40
0.4499999991600001
  0
CIRCLE
  5
A9D9
330
1F
100
AcDbEntity
  8
0
100
AcDbCircle
 10
-70.56058077488734
 20
173.2136169276663
 30
0.0
 40
0.4499999991600001
  0
CIRCLE
  5
A9DA
330
1F
100
AcDbEntity
  8
0
100
AcDbCircle
 10
-72.47991495754735
 20
171.5361973310263
 30
0.0
 40
0.4499999991600001
  0
CIRCLE
  5
A9DB
330
1F
100
AcDbEntity
  8
0
100
AcDbCircle
 10
-74.46699034838733
 20
171.5587777329063
 30
0.0
 40
0.4499999991600001
  0
CIRCLE
  5
A9DC
330
1F
100
AcDbEntity
  8
0
100
AcDbCircle
 10
-72.47991495754735
 20
173.2361973295463
 30
0.0
 40
0.4499999991600001
  0
CIRCLE
  5
A9DD
330
1F
100
AcDbEntity
  8
0
100
AcDbCircle
 10
-74.46699034838733
 20
173.2587777339662
 30
0.0
 40
0.4499999991600001
  0
ARC
  5
A9DE
330
1F
100
AcDbEntity
  8
0
100
AcDbCircle
 10
-67.35672381710734
 20
194.3313415222063
 30
0.0
 40
8.809999999979998
100
AcDbArc
 50
114.1764914351018
 51
119.2235085649004
  0
ARC
  5
A9DF
330
1F
100
AcDbEntity
  8
0
100
AcDbCircle
 10
-67.40619749260734
 20
194.4297089759663
 30
0.0
 40
15.69999953974
100
AcDbArc
 50
114.1599207980011
 51
119.2554360358006
  0
ARC
  5
A9E0
330
1F
100
AcDbEntity
  8
0
100
AcDbCircle
 10
-67.40619749260734
 20
194.3195996686263
 30
0.0
 40
8.809999999979998
100
AcDbArc
 50
87.4628083299004
 51
92.53719167010133
  0
ARC
  5
A9E1
330
1F
100
AcDbEntity
  8
0
100
AcDbCircle
 10
-67.40619749260734
 20
194.4297089759663
 30
0.0
 40
15.69999953974
100
AcDbArc
 50
87.44456396370022
 51
92.55543603629982
  0
ARC
  5
A9E2
330
1F
100
AcDbEntity
  8
0
100
AcDbCircle
 10
-67.51630679740734
 20
194.4297089759663
 30
0.0
 40
8.809999999979998
100
AcDbArc
 50
357.4628083298987
 51
2.537191670101253
  0
ARC
  5
A9E3
330
1F
100
AcDbEntity
  8
0
100
AcDbCircle
 10
-67.40619749260734
 20
194.4297089759663
 30
0.0
 40
15.69999953974
100
AcDbArc
 50
357.4445639637019
 51
2.55543603629815
  0
ARC
  5
A9E4
330
1F
100
AcDbEntity
  8
0
100
AcDbCircle
 10
-67.35672381710734
 20
194.5280764271863
 30
0.0
 40
8.809999999979998
100
AcDbArc
 50
240.7764914350996
 51
245.8235085649008
  0
ARC
  5
A9E5
330
1F
100
AcDbEntity
  8
0
100
AcDbCircle
 10
-67.40619749260734
 20
194.4297089759663
 30
0.0
 40
15.69999953974
100
AcDbArc
 50
240.7445639641994
 51
245.840079202
  0
ARC
  5
A9E6
330
1F
100
AcDbEntity
  8
0
100
AcDbCircle
 10
-67.45567116556734
 20
194.5280764271863
 30
0.0
 40
8.809999999979998
100
AcDbArc
 50
294.1764914350992
 51
299.2235085649004
  0
ARC
  5
A9E7
330
1F
100
AcDbEntity
  8
0
100
AcDbCircle
 10
-67.40619749260734
 20
194.4297089759663
 30
0.0
 40
15.69999953974
100
AcDbArc
 50
294.1599207980006
 51
299.2554360358007
  0
ARC
  5
A9E8
330
1F
100
AcDbEntity
  8
0
100
AcDbCircle
 10
-67.40619749260734
 20
194.5398182807663
 30
0.0
 40
8.809999999979998
100
AcDbArc
 50
267.4628083299004
 51
272.5371916701013
  0
ARC
  5
A9E9
330
1F
100
AcDbEntity
  8
0
100
AcDbCircle
 10
-67.40619749260734
 20
194.4297089759663
 30
0.0
 40
15.69999953974
100
AcDbArc
 50
267.4445639637003
 51
272.5554360362997
  0
ARC
  5
A9EA
330
1F
100
AcDbEntity
  8
0
100
AcDbCircle
 10
-67.50456494382735
 20
194.4791826489263
 30
0.0
 40
8.809999999979998
100
AcDbArc
 50
330.7764914350984
 51
335.8235085648987
  0
ARC
  5
A9EB
330
1F
100
AcDbEntity
  8
0
100
AcDbCircle
 10
-67.40619749260734
 20
194.4297089759663
 30
0.0
 40
15.69999953974
100
AcDbArc
 50
330.7445639641994
 51
335.8400792020012
  0
ARC
  5
A9EC
330
1F
100
AcDbEntity
  8
0
100
AcDbCircle
 10
-67.50456494382735
 20
194.3802353004663
 30
0.0
 40
8.809999999979998
100
AcDbArc
 50
24.17649143510129
 51
29.22350856490157
  0
ARC
  5
A9ED
330
1F
100
AcDbEntity
  8
0
100
AcDbCircle
 10
-67.40619749260734
 20
194.4297089759663
 30
0.0
 40
15.69999953974
100
AcDbArc
 50
24.15992079799878
 51
29.2554360358006
  0
ARC
  5
A9EE
330
1F
100
AcDbEntity
  8
0
100
AcDbCircle
 10
-67.30783003884733
 20
194.4791826489263
 30
0.0
 40
8.809999999979998
100
AcDbArc
 50
204.1764914351013
 51
209.2235085649016
  0
ARC
  5
A9EF
330
1F
100
AcDbEntity
  8
0
100
AcDbCircle
 10
-67.40619749260734
 20
194.4297089759663
 30
0.0
 40
15.69999953974
100
AcDbArc
 50
204.1599207979988
 51
209.2554360358006
  0
ARC
  5
A9F0
330
1F
100
AcDbEntity
  8
0
100
AcDbCircle
 10
-67.30783003884733
 20
194.3802353004663
 30
0.0
 40
8.809999999979998
100
AcDbArc
 50
150.7764914350984
 51
155.8235085648987
  0
ARC
  5
A9F1
330
1F
100
AcDbEntity
  8
0
100
AcDbCircle
 10
-67.40619749260734
 20
194.4297089759663
 30
0.0
 40
15.69999953974
100
AcDbArc
 50
150.7445639641994
 51
155.8400792020012
  0
LINE
  5
A9F8
330
1F
100
AcDbEntity
  8
0
370
     0
100
AcDbLine
 10
63.67870256687263
 20
180.0097089742663
 30
0.0
 11
64.67870256687269
 21
180.0097089742663
 31
0.0
  0
LINE
  5
A9F9
330
1F
100
AcDbEntity
  8
0
370
     0
100
AcDbLine
 10
63.67870256687263
 20
185.5097089750063
 30
0.0
 11
64.67870256687263
 21
185.5097089750062
 31
0.0
  0
LINE
  5
A9FA
330
1F
100
AcDbEntity
  8
0
370
     0
100
AcDbLine
 10
65.67870256687263
 20
181.0097089742663
 30
0.0
 11
65.67870256687263
 21
184.5097089750062
 31
0.0
  0
ARC
  5
A9FB
330
1F
100
AcDbEntity
  8
0
370
     0
100
AcDbCircle
 10
64.67870256687263
 20
181.0097089742663
 30
0.0
 40
1.0
100
AcDbArc
 50
270.0000000000017
 51
0.0000000000032569
  0
ARC
  5
A9FC
330
1F
100
AcDbEntity
  8
0
370
     0
100
AcDbCircle
 10
64.67870256687263
 20
184.5097089750062
 30
0.0
 40
1.0
100
AcDbArc
 50
0.0000000000032569
 51
90.0
  0
LINE
  5
A9FD
330
1F
100
AcDbEntity
  8
0
370
     0
100
AcDbLine
 10
63.67870256687263
 20
203.3497089743863
 30
0.0
 11
64.67870256687269
 21
203.3497089743864
 31
0.0
  0
LINE
  5
A9FE
330
1F
100
AcDbEntity
  8
0
370
     0
100
AcDbLine
 10
63.67870256687263
 20
208.8497089751264
 30
0.0
 11
64.67870256687263
 21
208.8497089751263
 31
0.0
  0
LINE
  5
A9FF
330
1F
100
AcDbEntity
  8
0
370
     0
100
AcDbLine
 10
65.67870256687263
 20
204.3497089743864
 30
0.0
 11
65.67870256687263
 21
207.8497089751263
 31
0.0
  0
ARC
  5
AA00
330
1F
100
AcDbEntity
  8
0
370
     0
100
AcDbCircle
 10
64.67870256687263
 20
204.3497089743864
 30
0.0
 40
1.0
100
AcDbArc
 50
270.0000000000017
 51
0.0000000000032569
  0
ARC
  5
AA01
330
1F
100
AcDbEntity
  8
0
370
     0
100
AcDbCircle
 10
64.67870256687263
 20
207.8497089751263
 30
0.0
 40
1.0
100
AcDbArc
 50
0.0000000000032569
 51
90.0
  0
MTEXT
  5
AA1E
330
1F
100
AcDbEntity
  8
Dimension
370
     0
100
AcDbMText
 10
-75.2499351782709
 20
168.9906545105957
 30
0.0
 40
1.399999999999999
 41
19.46659665877985
 71
     1
 72
     5
  1
1  2  3  4  5  6  7  8
 73
     1
 44
1.0
1001
ACAD
1000
ACAD_MTEXT_DEFINED_HEIGHT_BEGIN
1070
    46
1040
0.0
1000
ACAD_MTEXT_DEFINED_HEIGHT_END
1000
MTEXTBEGIN
1070
    73
1070
     1
1070
    44
1040
1.0
1070
    74
1070
     0
1000
MTEXTEND
  0
DIMENSION
  5
AA20
330
1F
100
AcDbEntity
  8
Dimension
370
     0
100
AcDbDimension
  2
*D41
 10
-37.83597951922741
 20
183.4297392335062
 30
0.0
 11
-40.20948111085999
 21
194.4300151031162
 31
0.0
 70
    32
 71
     5
 42
22.00055173922004
  3
STANDARD
100
AcDbAlignedDimension
 13
-67.36647156240735
 23
205.4302909727263
 33
0.0
 14
-67.45949646398734
 24
183.4297392335063
 34
0.0
 50
90.0
100
AcDbRotatedDimension
1001
ACAD
1000
DSTYLE
1002
{
1070
   284
1070
     8
1070
    47
1040
0.0
1070
    48
1040
0.04000000004
1070
   147
1040
0.5
1070
    72
1070
     0
1070
    71
1070
     1
1070
     3
1000
Ø <>
1070
   271
1070
     0
1002
}
  0
DIMENSION
  5
AA7E
330
1F
100
AcDbEntity
  8
Dimension
370
     0
100
AcDbDimension
  2
*D42
 10
-29.95259154841802
 20
178.9297089746063
 30
0.0
 11
-31.87660246246988
 21
194.4297089746963
 31
0.0
 70
    32
 71
     5
 42
31.00000000018003
  3
STANDARD
100
AcDbAlignedDimension
 13
-51.90619749124732
 23
209.9297089747863
 33
0.0
 14
-51.90619749124732
 24
178.9297089746063
 34
0.0
 50
90.0
100
AcDbRotatedDimension
1001
ACAD
1000
DSTYLE
1002
{
1070
   284
1070
     8
1070
    47
1040
0.1
1070
    48
1040
0.1
1070
   271
1070
     0
1002
}
  0
DIMENSION
  5
AAA6
330
1F
100
AcDbEntity
  8
Dimension
370
     0
100
AcDbDimension
  2
*D43
 10
-21.2009002960948
 20
174.9297089742662
 30
0.0
 11
-22.82491121014667
 21
194.4297089746962
 31
0.0
 70
    32
 71
     5
 42
39.00000000086001
  3
STANDARD
100
AcDbAlignedDimension
 13
-49.90619749140734
 23
213.9297089751263
 33
0.0
 14
-49.90619749140734
 24
174.9297089742662
 34
0.0
 50
90.0
100
AcDbRotatedDimension
1001
ACAD
1000
DSTYLE
1002
{
1070
   147
1040
0.5
1070
    72
1070
     0
1070
    71
1070
     0
1070
   271
1070
     0
1002
}
  0
LWPOLYLINE
  5
AAF2
330
1F
100
AcDbEntity
  8
Dimension
370
     0
100
AcDbPolyline
 90
        4
 70
     1
 43
0.0
 10
-23.73566730611492
 20
192.1681201970048
 10
-21.66941995219326
 20
192.1681201970048
 10
-21.66941995219326
 20
190.2326874081332
 10
-23.73566730611492
 20
190.2326874081332
  0
DIMENSION
  5
AAF3
330
1F
100
AcDbEntity
  8
Dimension
370
     0
100
AcDbDimension
  2
*D44
 10
-51.90619749124732
 20
229.2623195846678
 30
0.0
 11
-67.40619749133734
 21
231.1863304987197
 31
0.0
 70
    32
 71
     5
 42
31.00000000018003
  3
STANDARD
100
AcDbAlignedDimension
 13
-82.90619749142734
 23
209.9297089747863
 33
0.0
 14
-51.90619749124732
 24
209.9297089747863
 34
0.0
100
AcDbRotatedDimension
1001
ACAD
1000
DSTYLE
1002
{
1070
    47
1040
0.1
1070
    48
1040
0.1
1070
   271
1070
     0
1070
   284
1070
     8
1002
}
  0
DIMENSION
  5
AB09
330
1F
100
AcDbEntity
  8
Dimension
370
     0
100
AcDbDimension
  2
*D45
 10
-81.32019749096734
 20
220.7294330224654
 30
0.0
 11
-75.5693107242552
 21
222.6534439365173
 31
0.0
 70
    32
  1
M3
 71
     5
 42
3.172000000920007
  3
STANDARD
100
AcDbAlignedDimension
 13
-84.49219749188735
 23
209.9297089747863
 33
0.0
 14
-81.32019749096734
 24
209.9297089747863
 34
0.0
100
AcDbRotatedDimension
  0
DIMENSION
  5
AB21
330
1F
100
AcDbEntity
  8
Dimension
370
     0
100
AcDbDimension
  2
*D46
 10
-21.2009002960948
 20
174.9297089742662
 30
0.0
 11
-21.20090029609483
 21
172.4297089742763
 31
0.0
 70
   160
 71
     5
 42
4.999999999979962
  3
STANDARD
100
AcDbAlignedDimension
 13
-58.60619749294733
 23
169.9297089742863
 33
0.0
 14
-49.90619749140734
 24
174.9297089742662
 34
0.0
 50
90.0
100
AcDbRotatedDimension
1001
ACAD
1000
DSTYLE
1002
{
1070
   147
1040
0.5
1070
    72
1070
     0
1070
    71
1070
     0
1070
   271
1070
     0
1002
}
  0
DIMENSION
  5
AB69
330
1F
100
AcDbEntity
  8
Dimension
370
     0
100
AcDbDimension
  2
*D47
 10
-70.56058077488734
 20
161.9794258121243
 30
0.0
 11
-66.03199960162676
 21
163.8839278585091
 31
0.0
 70
    32
 71
     5
 42
1.919334182660008
  3
STANDARD
100
AcDbAlignedDimension
 13
-72.47991495754735
 23
167.5600951654388
 33
0.0
 14
-70.56058077488734
 24
167.4996243954786
 34
0.0
100
AcDbRotatedDimension
1001
ACAD
1000
DSTYLE
1002
{
1070
    71
1070
     0
1070
   271
1070
     0
1002
}
  0
LINE
  5
ABA6
330
1F
100
AcDbEntity
  8
Dimension
370
     0
100
AcDbLine
 10
-72.47991495754735
 20
169.5126080989989
 30
0.0
 11
-72.47991495754735
 21
174.4128374230416
 31
0.0
  0
LINE
  5
ABA8
330
1F
100
AcDbEntity
  8
Dimension
370
     0
100
AcDbLine
 10
-70.56058077488734
 20
169.5126080989988
 30
0.0
 11
-70.56058077488734
 21
174.4128374230416
 31
0.0
  0
DIMENSION
  5
ABA9
330
1F
100
AcDbEntity
  8
Dimension
370
     0
100
AcDbDimension
  2
*D49
 10
-58.60619749294733
 20
153.4128747646124
 30
0.0
 11
-67.40619749260734
 21
155.0361353376001
 31
0.0
 70
    32
 71
     5
 42
17.59999999932
  3
STANDARD
100
AcDbAlignedDimension
 13
-76.20619749226733
 23
169.9297089742863
 33
0.0
 14
-58.60619749294733
 24
169.9297089742863
 34
0.0
100
AcDbRotatedDimension
1001
ACAD
1000
DSTYLE
1002
{
1070
   147
1040
0.5
1070
    72
1070
     0
1070
    71
1070
     0
1070
   271
1070
     1
1002
}
  0
DIMENSION
  5
AD9D
330
1F
100
AcDbEntity
  8
Dimension
370
     0
100
AcDbDimension
  2
*D50
 10
65.67870256687263
 20
153.4128747646124
 30
0.0
 11
70.2072837401332
 21
155.3173768109971
 31
0.0
 70
    32
 71
     5
 42
2.0
  3
STANDARD
100
AcDbAlignedDimension
 13
63.67870256687263
 23
174.9297327156463
 33
0.0
 14
65.67870256687263
 24
181.0097089742663
 34
0.0
100
AcDbRotatedDimension
1001
ACAD
1000
DSTYLE
1002
{
1070
    71
1070
     0
1070
   271
1070
     0
1002
}
  0
DIMENSION
  5
ADAB
330
1F
100
AcDbEntity
  8
Dimension
370
     0
100
AcDbDimension
  2
*D51
 10
65.17870256687263
 20
220.7294330224654
 30
0.0
 11
70.8860695518658
 21
222.6526935954531
 31
0.0
 70
    32
 71
     5
 42
1.5
  3
STANDARD
100
AcDbAlignedDimension
 13
63.67870256687263
 23
213.9296852337463
 33
0.0
 14
65.17870256687263
 24
196.4634013170062
 34
0.0
100
AcDbRotatedDimension
1001
ACAD
1000
DSTYLE
1002
{
1070
    71
1070
     0
1070
   271
1070
     1
1002
}
  0
DIMENSION
  5
ADD7
330
1F
100
AcDbEntity
  8
Dimension
370
     0
100
AcDbDimension
  2
*D52
 10
63.67870256687263
 20
153.4128747646124
 30
0.0
 11
50.47870256738265
 21
155.3361353376001
 31
0.0
 70
    32
 71
     5
 42
26.39999999897995
  3
STANDARD
100
AcDbAlignedDimension
 13
37.27870256789268
 23
174.9297089742663
 33
0.0
 14
63.67870256687263
 24
174.9297327156463
 34
0.0
100
AcDbRotatedDimension
1001
ACAD
1000
DSTYLE
1002
{
1070
    71
1070
     0
1070
   271
1070
     1
1002
}
  0
DIMENSION
  5
ADF6
330
1F
100
AcDbEntity
  8
Dimension
370
     0
100
AcDbDimension
  2
*D53
 10
37.27870256789268
 20
153.4128747646124
 30
0.0
 11
27.02870256755267
 21
155.3361353376001
 31
0.0
 70
    32
 71
     5
 42
20.50000000068002
  3
STANDARD
100
AcDbAlignedDimension
 13
16.77870256721266
 23
192.3960166323863
 33
0.0
 14
37.27870256789268
 24
174.9297089742663
 34
0.0
100
AcDbRotatedDimension
1001
ACAD
1000
DSTYLE
1002
{
1070
    71
1070
     0
1070
   271
1070
     1
1002
}
  0
DIMENSION
  5
B00E
330
1F
100
AcDbEntity
  8
Dimension
370
     0
100
AcDbDimension
  2
*D54
 10
36.57870256637267
 20
169.9962992701241
 30
0.0
 11
30.77604226623625
 21
171.9195598431118
 31
0.0
 70
    32
 71
     5
 42
0.7000000015200101
  3
STANDARD
100
AcDbAlignedDimension
 13
37.27870256789268
 23
174.9297089742663
 33
0.0
 14
36.57870256637267
 24
186.4172198066663
 34
0.0
100
AcDbRotatedDimension
1001
ACAD
1000
DSTYLE
1002
{
1070
    71
1070
     0
1070
   271
1070
     1
1002
}
  0
DIMENSION
  5
B01C
330
1F
100
AcDbEntity
  8
Dimension
370
     0
100
AcDbDimension
  2
*D55
 10
34.17870256775268
 20
161.9794258121243
 30
0.0
 11
35.72870256782268
 21
163.9034367261762
 31
0.0
 70
    32
 71
     5
 42
3.100000000139999
  3
STANDARD
100
AcDbAlignedDimension
 13
37.27870256789268
 23
174.9297089742663
 33
0.0
 14
34.17870256775268
 24
186.7297089759463
 34
0.0
100
AcDbRotatedDimension
1001
ACAD
1000
DSTYLE
1002
{
1070
    71
1070
     0
1070
   271
1070
     0
1002
}
  0
DIMENSION
  5
B0B2
330
1F
100
AcDbEntity
  8
Dimension
370
     0
100
AcDbDimension
  2
*D56
 10
-3.067667210516106
 20
186.4297089739662
 30
0.0
 11
-4.752455750761702
 21
194.4297089746962
 31
0.0
 70
    32
 71
     5
 42
16.00000000146002
  3
STANDARD
100
AcDbAlignedDimension
 13
34.47870256719267
 23
202.4297089754263
 33
0.0
 14
34.47870256719267
 24
186.4297089739662
 34
0.0
 50
90.0
100
AcDbRotatedDimension
1001
ACAD
1000
DSTYLE
1002
{
1070
   147
1040
0.5
1070
    72
1070
     0
1070
    71
1070
     0
1070
     3
1000
Ø <>
1070
    47
1040
0.0
1070
    48
1040
0.04000000004
1070
   271
1070
     0
1070
   284
1070
     8
1002
}
  0
DIMENSION
  5
B0BF
330
1F
100
AcDbEntity
  8
Dimension
370
     0
100
AcDbDimension
  2
*D57
 10
7.037503563916163
 20
196.9297089746863
 30
0.0
 11
7.037503563916132
 21
210.108969819841
 31
0.0
 70
   160
 71
     5
 42
4.999999999979991
  3
STANDARD
100
AcDbAlignedDimension
 13
17.77870256619266
 23
191.9297089747063
 33
0.0
 14
17.77870256619266
 24
196.9297089746863
 34
0.0
 50
90.0
100
AcDbRotatedDimension
1001
ACAD
1000
DSTYLE
1002
{
1070
   272
1070
     3
1070
     3
1000
Ø <>
1070
    47
1040
-0.008
1070
    48
1040
0.016
1070
   271
1070
     0
1070
   284
1070
     8
1002
}
  0
DIMENSION
  5
BB16
330
1F
100
AcDbEntity
  8
Dimension
370
     0
100
AcDbDimension
  2
*D58
 10
39.27870256839265
 20
220.7294330224654
 30
0.0
 11
43.80728374165322
 21
222.6339350688501
 31
0.0
 70
    32
 71
     5
 42
2.000000000499966
  3
STANDARD
100
AcDbAlignedDimension
 13
37.27870256789268
 23
213.9297089751263
 33
0.0
 14
39.27870256839265
 24
213.9297089751263
 34
0.0
100
AcDbRotatedDimension
1001
ACAD
1000
DSTYLE
1002
{
1070
    71
1070
     0
1070
   271
1070
     0
1002
}
  0
ENDSEC
  0
SECTION
  2
OBJECTS
  0
DICTIONARY
  5
C
330
0
100
AcDbDictionary
281
     1
  3
ACAD_COLOR
350
9AB
  3
ACAD_GROUP
350
D
  3
ACAD_LAYOUT
350
1A
  3
ACAD_MATERIAL
350
9AA
  3
ACAD_MLINESTYLE
350
17
  3
ACAD_PLOTSETTINGS
350
19
  3
ACAD_PLOTSTYLENAME
350
E
  3
ACAD_TABLESTYLE
350
1079
  3
ACDBHEADERROUNDTRIPXREC
350
BE27
  3
AcDbVariableDictionary
350
1081
  3
ASE_INDEX_DICTIONARY
350
A67E
  0
DICTIONARY
  5
46EE
330
2
100
AcDbDictionary
280
     1
281
     1
  3
ACAD_LAYERFILTERS
360
8E02
  3
ACAD_LAYERSTATES
360
8A6F
  3
ACLYDICTIONARY
360
8E01
  0
DICTIONARY
  5
467E
330
1F
100
AcDbDictionary
280
     1
281
     1
  3
ACAD_SORTENTS
360
467F
  0
DICTIONARY
  5
9AB
102
{ACAD_REACTORS
330
C
102
}
330
C
100
AcDbDictionary
281
     1
  0
DICTIONARY
  5
D
102
{ACAD_REACTORS
330
C
102
}
330
C
100
AcDbDictionary
281
     1
  0
DICTIONARY
  5
1A
102
{ACAD_REACTORS
330
C
102
}
330
C
100
AcDbDictionary
281
     1
  3
Layout1
350
1E
  3
Model
350
22
  0
DICTIONARY
  5
9AA
102
{ACAD_REACTORS
330
C
102
}
330
C
100
AcDbDictionary
281
     1
  0
DICTIONARY
  5
17
102
{ACAD_REACTORS
330
C
102
}
330
C
100
AcDbDictionary
281
     1
  3
Standard
350
18
  0
DICTIONARY
  5
19
102
{ACAD_REACTORS
330
C
102
}
330
C
100
AcDbDictionary
281
     1
  0
ACDBDICTIONARYWDFLT
  5
E
102
{ACAD_REACTORS
330
C
102
}
330
C
100
AcDbDictionary
281
     1
  3
Normal
350
F
100
AcDbDictionaryWithDefault
340
F
  0
DICTIONARY
  5
1079
102
{ACAD_REACTORS
330
C
102
}
330
C
100
AcDbDictionary
281
     1
  3
Standard
350
107A
  0
DICTIONARY
  5
BE27
102
{ACAD_REACTORS
330
C
102
}
330
C
100
AcDbDictionary
281
     1
  0
DICTIONARY
  5
1081
102
{ACAD_REACTORS
330
C
102
}
330
C
100
AcDbDictionary
281
     1
  3
CTABLESTYLE
350
1082
  3
DIMASSOC
350
BE24
  3
PROJECTNAME
350
BE25
  0
DICTIONARY
  5
A67E
102
{ACAD_REACTORS
330
C
102
}
330
C
100
AcDbDictionary
281
     1
  3
ASEBlockHierarchyIndexRecord
350
A67F
1001
DCO15
1040
1631607615.931
  0
DICTIONARY
  5
8E02
102
{ACAD_REACTORS
330
46EE
102
}
330
46EE
100
AcDbDictionary
281
     1
  0
DICTIONARY
  5
8A6F
102
{ACAD_REACTORS
330
46EE
102
}
330
46EE
100
AcDbDictionary
281
     1
  0
DICTIONARY
  5
8E01
102
{ACAD_REACTORS
330
46EE
102
}
330
46EE
100
AcDbDictionary
281
     1
1001
ACAD
1000
<All
  0
SORTENTSTABLE
  5
467F
102
{ACAD_REACTORS
330
467E
102
}
330
467E
100
AcDbSortentsTable
330
1F
331
A8F7
  5
A8F7
331
A7CC
  5
A7CC
331
A756
  5
A756
331
A701
  5
A701
331
A6C2
  5
A6C2
331
A68B
  5
A68B
331
A709
  5
A709
331
A6CA
  5
A6CA
331
A693
  5
A693
331
A711
  5
A711
331
A6D2
  5
A6D2
331
A69B
  5
A69B
331
A6DA
  5
A6DA
331
A8F9
  5
A8F9
331
A9ED
  5
A9EE
331
A9B6
  5
A9B7
331
A940
  5
A941
331
A9BE
  5
A9BF
331
A97F
  5
A980
331
A948
  5
A949
331
A909
  5
A909
331
A9FD
  5
A9FE
331
A9C6
  5
A9C7
331
A987
  5
A988
331
A950
  5
A951
331
A911
  5
A911
331
A9CE
  5
A9CF
331
A98F
  5
A990
331
A8C0
  5
A8C0
331
A84A
  5
A84A
331
A80B
  5
A80B
331
A7D4
  5
A7D4
331
A795
  5
A795
331
A75E
  5
A75E
331
A71F
  5
A71F
331
A8C8
  5
A8C8
331
A852
  5
A852
331
A813
  5
A813
331
A7DC
  5
A7DC
331
A79D
  5
A79D
331
A766
  5
A766
331
A727
  5
A727
331
A8D0
  5
A8D0
331
A891
  5
A891
331
A85A
  5
A85A
331
A81B
  5
A81B
331
A7E4
  5
A7E4
331
A7A5
  5
A7A5
331
A76E
  5
A76E
331
A72F
  5
A72F
331
A899
  5
A899
331
A862
  5
A862
331
A7EC
  5
A7EC
331
A7AD
  5
A7AD
331
A776
  5
A776
331
A737
  5
A737
331
A6E2
  5
A6E2
331
A6A3
  5
A6A3
331
A6EA
  5
A6EA
331
A6AB
  5
A6AB
331
A6F2
  5
A6F2
331
A6B3
  5
A6B3
331
A6FA
  5
A6FA
331
A6BB
  5
A6BB
331
A684
  5
A684
331
A958
  5
A959
331
A919
  5
A919
331
A9D6
  5
A9D7
331
A997
  5
A998
331
A960
  5
A961
331
A921
  5
A921
331
A9DE
  5
A9DF
331
A99F
  5
A9A0
331
A929
  5
A929
331
A9E6
  5
A9E7
331
A9A7
  5
A9A8
331
A931
  5
A932
331
A9AF
  5
A9B0
331
A8E0
  5
A8E0
331
A8A1
  5
A8A1
331
A86A
  5
A86A
331
A7B5
  5
A7B5
331
A77E
  5
A77E
331
A73F
  5
A73F
331
A8E8
  5
A8E8
331
A872
  5
A872
331
A7FC
  5
A7FC
331
A7BD
  5
A7BD
331
A786
  5
A786
331
A747
  5
A747
331
A8B1
  5
A8B1
331
A83B
  5
A83B
331
A804
  5
A804
331
A7C5
  5
A7C5
331
A78E
  5
A78E
331
A74F
  5
A74F
331
A757
  5
A757
331
A702
  5
A702
331
A6C3
  5
A6C3
331
A68C
  5
A68C
331
A70A
  5
A70A
331
A6CB
  5
A6CB
331
A694
  5
A694
331
A712
  5
A712
331
A6D3
  5
A6D3
331
A69C
  5
A69C
331
A6DB
  5
A6DB
331
A970
  5
A971
331
A8FA
  5
A8FA
331
A9EE
  5
A9EF
331
A9B7
  5
A9B8
331
A941
  5
A942
331
A9BF
  5
A9C0
331
A980
  5
A981
331
A949
  5
A94A
331
A90A
  5
A90A
331
A9FE
  5
A9FF
331
A9C7
  5
A9C8
331
A988
  5
A989
331
A951
  5
A952
331
A912
  5
A912
331
A718
  5
A718
331
A84B
  5
A84B
331
A80C
  5
A80C
331
A7D5
  5
A7D5
331
A796
  5
A796
331
A75F
  5
A75F
331
A720
  5
A720
331
A8C9
  5
A8C9
331
A853
  5
A853
331
A814
  5
A814
331
A7DD
  5
A7DD
331
A79E
  5
A79E
331
A767
  5
A767
331
A728
  5
A728
331
A8D1
  5
A8D1
331
A892
  5
A892
331
A85B
  5
A85B
331
A81C
  5
A81C
331
A7E5
  5
A7E5
331
A7A6
  5
A7A6
331
A76F
  5
A76F
331
A730
  5
A730
331
A89A
  5
A89A
331
A863
  5
A863
331
A7ED
  5
A7ED
331
A7AE
  5
A7AE
331
A777
  5
A777
331
A6E3
  5
A6E3
331
A6A4
  5
A6A4
331
A6EB
  5
A6EB
331
A6AC
  5
A6AC
331
A6F3
  5
A6F3
331
A6B4
  5
A6B4
331
A6FB
  5
A6FB
331
A6BC
  5
A6BC
331
A685
  5
A685
331
A990
  5
A991
331
A959
  5
A95A
331
A91A
  5
A91A
331
A9D7
  5
A9D8
331
A998
  5
A999
331
A961
  5
A962
331
A922
  5
A922
331
A9DF
  5
A9E0
331
A9A0
  5
A9A1
331
A92A
  5
A92A
331
A9E7
  5
A9E8
331
A9A8
  5
A9A9
331
A932
  5
A933
331
A738
  5
A738
331
A8E1
  5
A8E1
331
A8A2
  5
A8A2
331
A86B
  5
A86B
331
A7B6
  5
A7B6
331
A77F
  5
A77F
331
A740
  5
A740
331
A8E9
  5
A8E9
331
A873
  5
A873
331
A7FD
  5
A7FD
331
A7BE
  5
A7BE
331
A787
  5
A787
331
A748
  5
A748
331
A8F1
  5
A8F1
331
A8B2
  5
A8B2
331
A83C
  5
A83C
331
A805
  5
A805
331
A7C6
  5
A7C6
331
A78F
  5
A78F
331
A750
  5
A750
331
A844
  5
A844
331
A703
  5
A703
331
A6C4
  5
A6C4
331
A68D
  5
A68D
331
A70B
  5
A70B
331
A6CC
  5
A6CC
331
A695
  5
A695
331
A713
  5
A713
331
A6D4
  5
A6D4
331
A69D
  5
A69D
331
A6DC
  5
A6DC
331
A9B0
  5
A9B1
331
A971
  5
A972
331
A93A
  5
A93B
331
A8FB
  5
A8FB
331
A9EF
  5
A9F0
331
A9B8
  5
A9B9
331
A979
  5
A97A
331
A942
  5
A943
331
A9C0
  5
A9C1
331
A981
  5
A982
331
A94A
  5
A94B
331
A90B
  5
A90B
331
A9FF
  5
AA00
331
A9C8
  5
A9C9
331
A989
  5
A98A
331
A952
  5
A953
331
A913
  5
A913
331
A758
  5
A758
331
A719
  5
A719
331
A8C2
  5
A8C2
331
A80D
  5
A80D
331
A7D6
  5
A7D6
331
A797
  5
A797
331
A760
  5
A760
331
A721
  5
A721
331
A8CA
  5
A8CA
331
A854
  5
A854
331
A815
  5
A815
331
A7DE
  5
A7DE
331
A79F
  5
A79F
331
A768
  5
A768
331
A729
  5
A729
331
A8D2
  5
A8D2
331
A893
  5
A893
331
A85C
  5
A85C
331
A81D
  5
A81D
331
A7E6
  5
A7E6
331
A7A7
  5
A7A7
331
A770
  5
A770
331
A731
  5
A731
331
A89B
  5
A89B
331
A864
  5
A864
331
A7EE
  5
A7EE
331
A7AF
  5
A7AF
331
A6E4
  5
A6E4
331
A6A5
  5
A6A5
331
A6EC
  5
A6EC
331
A6AD
  5
A6AD
331
A6F4
  5
A6F4
331
A6B5
  5
A6B5
331
A6FC
  5
A6FC
331
A6BD
  5
A6BD
331
A686
  5
A686
331
A991
  5
A992
331
A91B
  5
A91B
331
A9D8
  5
A9D9
331
A999
  5
A99A
331
A923
  5
A923
331
A9E0
  5
A9E1
331
A9A1
  5
A9A2
331
A96A
  5
A96B
331
A92B
  5
A92C
331
A9A9
  5
A9AA
331
A933
  5
A934
331
A778
  5
A778
331
A739
  5
A739
331
A8A3
  5
A8A3
331
A86C
  5
A86C
331
A7B7
  5
A7B7
331
A780
  5
A780
331
A741
  5
A741
331
A7FE
  5
A7FE
331
A7BF
  5
A7BF
331
A788
  5
A788
331
A749
  5
A749
331
A8B3
  5
A8B3
331
A83D
  5
A83D
331
A806
  5
A806
331
A7C7
  5
A7C7
331
A751
  5
A751
331
A8BB
  5
A8BB
331
A704
  5
A704
331
A6C5
  5
A6C5
331
A68E
  5
A68E
331
A70C
  5
A70C
331
A6CD
  5
A6CD
331
A696
  5
A696
331
A714
  5
A714
331
A6D5
  5
A6D5
331
A69E
  5
A69E
331
A6DD
  5
A6DD
331
A9E8
  5
A9E9
331
A9B1
  5
A9B2
331
A972
  5
A973
331
A93B
  5
A93C
331
A8FC
  5
A8FC
331
A9F0
  5
A9F1
331
A9B9
  5
A9BA
331
A943
  5
A944
331
A9F8
  5
A9F9
331
A9C1
  5
A9C2
331
A982
  5
A983
331
A94B
  5
A94C
331
A90C
  5
A90C
331
AA00
  5
AA01
331
A9C9
  5
A9CA
331
A98A
  5
A98B
331
A953
  5
A954
331
A914
  5
A914
331
A790
  5
A790
331
A759
  5
A759
331
A71A
  5
A71A
331
A8C3
  5
A8C3
331
A80E
  5
A80E
331
A7D7
  5
A7D7
331
A798
  5
A798
331
A761
  5
A761
331
A722
  5
A722
331
A8CB
  5
A8CB
331
A855
  5
A855
331
A816
  5
A816
331
A7DF
  5
A7DF
331
A7A0
  5
A7A0
331
A769
  5
A769
331
A72A
  5
A72A
331
A8D3
  5
A8D3
331
A894
  5
A894
331
A85D
  5
A85D
331
A81E
  5
A81E
331
A7E7
  5
A7E7
331
A7A8
  5
A7A8
331
A771
  5
A771
331
A732
  5
A732
331
A89C
  5
A89C
331
A865
  5
A865
331
A7EF
  5
A7EF
331
A6E5
  5
A6E5
331
A6A6
  5
A6A6
331
A6ED
  5
A6ED
331
A6AE
  5
A6AE
331
A6F5
  5
A6F5
331
A6B6
  5
A6B6
331
A6FD
  5
A6FD
331
A6BE
  5
A6BE
331
A687
  5
A687
331
A992
  5
A993
331
A91C
  5
A91C
331
A9D9
  5
A9DA
331
A99A
  5
A99B
331
A924
  5
A924
331
A9E1
  5
A9E2
331
A9A2
  5
A9A3
331
A96B
  5
A96C
331
A92C
  5
A92D
331
A9AA
  5
A9AB
331
A934
  5
A935
331
A7B0
  5
A7B0
331
A779
  5
A779
331
A73A
  5
A73A
331
A8A4
  5
A8A4
331
A86D
  5
A86D
331
A7B8
  5
A7B8
331
A781
  5
A781
331
A742
  5
A742
331
A8EB
  5
A8EB
331
A8AC
  5
A8AC
331
A7FF
  5
A7FF
331
A789
  5
A789
331
A74A
  5
A74A
331
A8B4
  5
A8B4
331
A83E
  5
A83E
331
A807
  5
A807
331
A7C8
  5
A7C8
331
A752
  5
A752
331
A705
  5
A705
331
A6C6
  5
A6C6
331
A68F
  5
A68F
331
A70D
  5
A70D
331
A6CE
  5
A6CE
331
A697
  5
A697
331
A715
  5
A715
331
A6D6
  5
A6D6
331
A69F
  5
A69F
331
A6DE
  5
A6DE
331
89A8
  5
89A8
331
A9E9
  5
A9EA
331
A9B2
  5
A9B3
331
A973
  5
A974
331
A9F1
  5
A9F2
331
A9BA
  5
A9BB
331
A97B
  5
A97C
331
A944
  5
A945
331
A905
  5
A905
331
A9F9
  5
A9FA
331
A9C2
  5
A9C3
331
A983
  5
A984
331
A90D
  5
A90D
331
AA01
  5
AA1A
331
A9CA
  5
A9CB
331
A98B
  5
A98C
331
A954
  5
A955
331
A915
  5
A915
331
A7D0
  5
A7D0
331
A791
  5
A791
331
A75A
  5
A75A
331
A71B
  5
A71B
331
A8C4
  5
A8C4
331
A80F
  5
A80F
331
A7D8
  5
A7D8
331
A799
  5
A799
331
A762
  5
A762
331
A723
  5
A723
331
A8CC
  5
A8CC
331
A856
  5
A856
331
A817
  5
A817
331
A7E0
  5
A7E0
331
A7A1
  5
A7A1
331
A76A
  5
A76A
331
A72B
  5
A72B
331
A8D4
  5
A8D4
331
A895
  5
A895
331
A85E
  5
A85E
331
A7E8
  5
A7E8
331
A7A9
  5
A7A9
331
A772
  5
A772
331
A733
  5
A733
331
A89D
  5
A89D
331
A866
  5
A866
331
A6E6
  5
A6E6
331
A6A7
  5
A6A7
331
A6EE
  5
A6EE
331
A6AF
  5
A6AF
331
A6F6
  5
A6F6
331
A6B7
  5
A6B7
331
A6FE
  5
A6FE
331
A6BF
  5
A6BF
331
A9D2
  5
A9D3
331
A993
  5
A994
331
A91D
  5
A91D
331
A9DA
  5
A9DB
331
A99B
  5
A99C
331
A925
  5
A925
331
A9E2
  5
A9E3
331
A9A3
  5
A9A4
331
A96C
  5
A96D
331
A92D
  5
A92E
331
A9AB
  5
A9AC
331
A935
  5
A936
331
A7F0
  5
A7F0
331
A7B1
  5
A7B1
331
A77A
  5
A77A
331
A73B
  5
A73B
331
A8A5
  5
A8A5
331
A86E
  5
A86E
331
A7B9
  5
A7B9
331
A782
  5
A782
331
A743
  5
A743
331
A8EC
  5
A8EC
331
A800
  5
A800
331
A78A
  5
A78A
331
A74B
  5
A74B
331
A8B5
  5
A8B5
331
A83F
  5
A83F
331
A7C9
  5
A7C9
331
A753
  5
A753
331
A688
  5
A688
331
A706
  5
A706
331
A6C7
  5
A6C7
331
A690
  5
A690
331
A70E
  5
A70E
331
A6CF
  5
A6CF
331
A698
  5
A698
331
A716
  5
A716
331
A6D7
  5
A6D7
331
A6DF
  5
A6DF
331
A9EA
  5
A9EB
331
A9B3
  5
A9B4
331
A974
  5
A979
331
A8FE
  5
A8FE
331
A9BB
  5
A9BC
331
A97C
  5
A97D
331
A906
  5
A906
331
A9FA
  5
A9FB
331
A9C3
  5
A9C4
331
A984
  5
A985
331
A90E
  5
A90E
331
A9CB
  5
A9CC
331
A98C
  5
A98D
331
A955
  5
A956
331
A916
  5
A916
331
A808
  5
A808
331
A7D1
  5
A7D1
331
A792
  5
A792
331
A75B
  5
A75B
331
A71C
  5
A71C
331
A8C5
  5
A8C5
331
A810
  5
A810
331
A7D9
  5
A7D9
331
A79A
  5
A79A
331
A763
  5
A763
331
A724
  5
A724
331
A8CD
  5
A8CD
331
A88E
  5
A88E
331
A857
  5
A857
331
A818
  5
A818
331
A7E1
  5
A7E1
331
A7A2
  5
A7A2
331
A76B
  5
A76B
331
A72C
  5
A72C
331
A8D5
  5
A8D5
331
A896
  5
A896
331
A85F
  5
A85F
331
A7E9
  5
A7E9
331
A7AA
  5
A7AA
331
A773
  5
A773
331
A734
  5
A734
331
A89E
  5
A89E
331
A867
  5
A867
331
A6A0
  5
A6A0
331
A6E7
  5
A6E7
331
A6A8
  5
A6A8
331
A6EF
  5
A6EF
331
A6B0
  5
A6B0
331
A6F7
  5
A6F7
331
A6B8
  5
A6B8
331
A681
  5
A681
331
A6FF
  5
A6FF
331
A9D3
  5
A9D4
331
A994
  5
A995
331
A91E
  5
A91E
331
A9DB
  5
A9DC
331
A99C
  5
A99D
331
A926
  5
A926
331
A9E3
  5
A9E4
331
A9A4
  5
A9A5
331
A96D
  5
A96E
331
A92E
  5
A92F
331
A9AC
  5
A9AD
331
A936
  5
A937
331
A828
  5
A828
331
A7F1
  5
A7F1
331
A7B2
  5
A7B2
331
A77B
  5
A77B
331
A73C
  5
A73C
331
A8A6
  5
A8A6
331
A86F
  5
A86F
331
A7F9
  5
A7F9
331
A7BA
  5
A7BA
331
A783
  5
A783
331
A744
  5
A744
331
A8ED
  5
A8ED
331
A8AE
  5
A8AE
331
A801
  5
A801
331
A78B
  5
A78B
331
A74C
  5
A74C
331
A840
  5
A840
331
A7CA
  5
A7CA
331
A754
  5
A754
331
A8BE
  5
A8BE
331
A6C0
  5
A6C0
331
A689
  5
A689
331
A707
  5
A707
331
A6C8
  5
A6C8
331
A691
  5
A691
331
A70F
  5
A70F
331
A6D0
  5
A6D0
331
A699
  5
A699
331
A717
  5
A717
331
A6D8
  5
A6D8
331
A9EB
  5
A9EC
331
A9B4
  5
A9B5
331
A9BC
  5
A9BD
331
A97D
  5
A97E
331
A907
  5
A907
331
A9FB
  5
A9FC
331
A9C4
  5
A9C5
331
A985
  5
A986
331
A90F
  5
A90F
331
A9CC
  5
A9CD
331
A98D
  5
A98E
331
A956
  5
A957
331
A917
  5
A917
331
A809
  5
A809
331
A7D2
  5
A7D2
331
A793
  5
A793
331
A75C
  5
A75C
331
A71D
  5
A71D
331
A8C6
  5
A8C6
331
A887
  5
A887
331
A811
  5
A811
331
A7DA
  5
A7DA
331
A79B
  5
A79B
331
A764
  5
A764
331
A725
  5
A725
331
A8CE
  5
A8CE
331
A88F
  5
A88F
331
A858
  5
A858
331
A819
  5
A819
331
A7E2
  5
A7E2
331
A7A3
  5
A7A3
331
A76C
  5
A76C
331
A72D
  5
A72D
331
A8D6
  5
A8D6
331
A897
  5
A897
331
A860
  5
A860
331
A7EA
  5
A7EA
331
A7AB
  5
A7AB
331
A774
  5
A774
331
A735
  5
A735
331
A8DE
  5
A8DE
331
A89F
  5
A89F
331
A6E0
  5
A6E0
331
A6A1
  5
A6A1
331
A6E8
  5
A6E8
331
A6A9
  5
A6A9
331
A6F0
  5
A6F0
331
A6B1
  5
A6B1
331
A6F8
  5
A6F8
331
A6B9
  5
A6B9
331
A682
  5
A682
331
A9D4
  5
A9D5
331
A995
  5
A996
331
A91F
  5
A91F
331
A9DC
  5
A9DD
331
A99D
  5
A99E
331
A927
  5
A927
331
A9E4
  5
A9E5
331
A9A5
  5
A9A6
331
A96E
  5
A96F
331
A92F
  5
A930
331
A9AD
  5
A9AE
331
A868
  5
A868
331
A7F2
  5
A7F2
331
A7B3
  5
A7B3
331
A77C
  5
A77C
331
A73D
  5
A73D
331
A8A7
  5
A8A7
331
A870
  5
A870
331
A7FA
  5
A7FA
331
A7BB
  5
A7BB
331
A784
  5
A784
331
A745
  5
A745
331
A8EE
  5
A8EE
331
A802
  5
A802
331
A7C3
  5
A7C3
331
A78C
  5
A78C
331
A74D
  5
A74D
331
A841
  5
A841
331
A7CB
  5
A7CB
331
A755
  5
A755
331
A8BF
  5
A8BF
331
A700
  5
A700
331
A6C1
  5
A6C1
331
A68A
  5
A68A
331
A708
  5
A708
331
A6C9
  5
A6C9
331
A692
  5
A692
331
A710
  5
A710
331
A6D1
  5
A6D1
331
A69A
  5
A69A
331
A6D9
  5
A6D9
331
A8F8
  5
A8F8
331
A9EC
  5
A9ED
331
A9B5
  5
A9B6
331
A93F
  5
A940
331
A900
  5
A900
331
A9BD
  5
A9BE
331
A97E
  5
A97F
331
A908
  5
A908
331
A9FC
  5
A9FD
331
A9C5
  5
A9C6
331
A986
  5
A987
331
A94F
  5
A950
331
A910
  5
A910
331
A9CD
  5
A9CE
331
A98E
  5
A98F
331
A957
  5
A958
331
A880
  5
A880
331
A80A
  5
A80A
331
A7D3
  5
A7D3
331
A794
  5
A794
331
A75D
  5
A75D
331
A71E
  5
A71E
331
A8C7
  5
A8C7
331
A851
  5
A851
331
A812
  5
A812
331
A7DB
  5
A7DB
331
A79C
  5
A79C
331
A765
  5
A765
331
A726
  5
A726
331
A8CF
  5
A8CF
331
A890
  5
A890
331
A859
  5
A859
331
A81A
  5
A81A
331
A7E3
  5
A7E3
331
A7A4
  5
A7A4
331
A76D
  5
A76D
331
A72E
  5
A72E
331
A8D7
  5
A8D7
331
A898
  5
A898
331
A861
  5
A861
331
A7EB
  5
A7EB
331
A7AC
  5
A7AC
331
A775
  5
A775
331
A736
  5
A736
331
A8DF
  5
A8DF
331
A6E1
  5
A6E1
331
A6A2
  5
A6A2
331
A6E9
  5
A6E9
331
A6AA
  5
A6AA
331
A6F1
  5
A6F1
331
A6B2
  5
A6B2
331
A6F9
  5
A6F9
331
A6BA
  5
A6BA
331
A683
  5
A683
331
A918
  5
A918
331
A9D5
  5
A9D6
331
A996
  5
A997
331
A95F
  5
A960
331
A920
  5
A920
331
A9DD
  5
A9DE
331
A99E
  5
A99F
331
A967
  5
A968
331
A928
  5
A928
331
A9E5
  5
A9E6
331
A9A6
  5
A9A7
331
A96F
  5
A970
331
A930
  5
A931
331
A9AE
  5
A9AF
331
A8A0
  5
A8A0
331
A869
  5
A869
331
A7B4
  5
A7B4
331
A77D
  5
A77D
331
A73E
  5
A73E
331
A871
  5
A871
331
A7FB
  5
A7FB
331
A7BC
  5
A7BC
331
A785
  5
A785
331
A746
  5
A746
331
A8B0
  5
A8B0
331
A879
  5
A879
331
A803
  5
A803
331
A7C4
  5
A7C4
331
A78D
  5
A78D
331
A74E
  5
A74E
  0
LAYOUT
  5
1E
102
{ACAD_XDICTIONARY
360
BE28
102
}
102
{ACAD_REACTORS
330
1A
102
}
330
1A
100
AcDbPlotSettings
  1

  2

  4

  6

 40
0.0
 41
0.0
 42
0.0
 43
0.0
 44
0.0
 45
0.0
 46
0.0
 47
0.0
 48
0.0
 49
0.0
140
0.0
141
0.0
142
1.0
143
1.0
 70
     0
 72
     0
 73
     0
 74
     0
  7

 75
     0
147
1.0
148
0.0
149
0.0
100
AcDbLayout
  1
Layout1
 70
     0
 71
     1
 10
0.0
 20
0.0
 11
12.0
 21
9.0
 12
0.0
 22
0.0
 32
0.0
 14
1.000000000000000E+20
 24
1.000000000000000E+20
 34
1.000000000000000E+20
 15
-1.000000000000000E+20
 25
-1.000000000000000E+20
 35
-1.000000000000000E+20
146
0.0
 13
0.0
 23
0.0
 33
0.0
 16
1.0
 26
0.0
 36
0.0
 17
0.0
 27
1.0
 37
0.0
 76
     0
330
1B
  0
LAYOUT
  5
22
102
{ACAD_XDICTIONARY
360
BE2A
102
}
102
{ACAD_REACTORS
330
1A
102
}
330
1A
100
AcDbPlotSettings
  1

  2
FX Document Centre 405 PCL 6
  4
A4
  6

 40
5.111750125885009
 41
5.11176061630249
 42
5.111740112304687
 43
5.11175537109375
 44
209.9733276367187
 45
296.9259948730469
 46
0.0
 47
0.0
 48
0.0
 49
0.0
140
0.0
141
0.0
142
1.0
143
1.0
 70
 14336
 72
     0
 73
     1
 74
     0
  7

 75
     0
147
1.0
148
-64.72422321218214
149
-2.159235741175924
100
AcDbLayout
  1
Model
 70
     0
 71
     0
 10
0.0
 20
0.0
 11
0.0
 21
0.0
 12
0.0
 22
0.0
 32
0.0
 14
0.0
 24
0.0
 34
0.0
 15
0.0
 25
0.0
 35
0.0
146
0.0
 13
0.0
 23
0.0
 33
0.0
 16
0.0
 26
0.0
 36
0.0
 17
0.0
 27
0.0
 37
0.0
 76
     0
330
1F
  0
MLINESTYLE
  5
18
102
{ACAD_REACTORS
330
17
102
}
330
17
100
AcDbMlineStyle
  2
STANDARD
 70
     0
  3

 62
   256
 51
90.0
 52
90.0
 71
     2
 49
0.5
 62
   256
  6
BYLAYER
 49
-0.5
 62
   256
  6
BYLAYER
  0
ACDBPLACEHOLDER
  5
F
102
{ACAD_REACTORS
330
E
102
}
330
0
  0
TABLESTYLE
  5
107A
102
{ACAD_REACTORS
330
1079
102
}
330
1079
100
AcDbTableStyle
  3
Standard
 70
     0
 71
     0
 40
0.06
 41
0.06
280
     0
281
     0
  7
STANDARD
140
0.18
170
     2
 62
     0
 63
     7
283
     0
274
    -2
284
     1
 64
     0
275
    -2
285
     1
 65
     0
276
    -2
286
     1
 66
     0
277
    -2
287
     1
 67
     0
278
    -2
288
     1
 68
     0
279
    -2
289
     1
 69
     0
  7
STANDARD
140
0.25
170
     5
 62
     0
 63
     7
283
     0
274
    -2
284
     1
 64
     0
275
    -2
285
     1
 65
     0
276
    -2
286
     1
 66
     0
277
    -2
287
     1
 67
     0
278
    -2
288
     1
 68
     0
279
    -2
289
     1
 69
     0
  7
STANDARD
140
0.18
170
     5
 62
     0
 63
     7
283
     0
274
    -2
284
     1
 64
     0
275
    -2
285
     1
 65
     0
276
    -2
286
     1
 66
     0
277
    -2
287
     1
 67
     0
278
    -2
288
     1
 68
     0
279
    -2
289
     1
 69
     0
  0
DICTIONARYVAR
  5
1082
102
{ACAD_REACTORS
330
1081
102
}
330
1081
100
DictionaryVariables
280
     0
  1
STANDARD
  0
DICTIONARYVAR
  5
BE24
102
{ACAD_REACTORS
330
1081
102
}
330
1081
100
DictionaryVariables
280
     0
  1
1
  0
DICTIONARYVAR
  5
BE25
102
{ACAD_REACTORS
330
1081
102
}
330
1081
100
DictionaryVariables
280
     0
  1

  0
XRECORD
  5
A67F
102
{ACAD_REACTORS
330
A67E
102
}
330
A67E
100
AcDbXrecord
280
     1
  0
DICTIONARY
  5
BE28
330
1E
100
AcDbDictionary
280
     1
281
     1
  3
ACAD_XREC_ROUNDTRIP
360
BE29
  0
DICTIONARY
  5
BE2A
330
22
100
AcDbDictionary
280
     1
281
     1
  3
ACAD_XREC_ROUNDTRIP
360
BE2B
  0
XRECORD
  5
BE29
102
{ACAD_REACTORS
330
BE28
102
}
330
BE28
100
AcDbXrecord
280
     1
102
SHADEPLOT
 70
     0
102
SHADEPLOTRESLEVEL
 70
     2
102
SHADEPLOTCUSTOMDPI
 70
   300
  0
XRECORD
  5
BE2B
102
{ACAD_REACTORS
330
BE2A
102
}
330
BE2A
100
AcDbXrecord
280
     1
102
SHADEPLOT
 70
     0
102
SHADEPLOTRESLEVEL
 70
     2
102
SHADEPLOTCUSTOMDPI
 70
   300
  0
ENDSEC
  0
EOF
