  0
SECTION
  2
HEADER
  9
$ACADVER
  1
AC1015
  9
$ACADMAINTVER
 70
    20
  9
$DWGCODEPAGE
  3
ANSI_1252
  9
$INSBASE
 10
0.0
 20
0.0
 30
0.0
  9
$EXTMIN
 10
-40.44706926775598
 20
218.7545804525198
 30
-0.000000000000013
  9
$EXTMAX
 10
164.2865704544701
 20
333.5617082118542
 30
0.0000000000000023
  9
$LIMMIN
 10
0.0
 20
0.0
  9
$LIMMAX
 10
1600.0
 20
1100.0
  9
$ORTHOMODE
 70
     1
  9
$REGENMODE
 70
     1
  9
$FILLMODE
 70
     1
  9
$QTEXTMODE
 70
     0
  9
$MIRRTEXT
 70
     1
  9
$LTSCALE
 40
0.9094488188999999
  9
$ATTMODE
 70
     1
  9
$TEXTSIZE
 40
0.2
  9
$TRACEWID
 40
0.05
  9
$TEXTSTYLE
  7
STANDARD
  9
$CLAYER
  8
0
  9
$CELTYPE
  6
ByLayer
  9
$CECOLOR
 62
   256
  9
$CELTSCALE
 40
1.0
  9
$DISPSILH
 70
     0
  9
$DIMSCALE
 40
1.0
  9
$DIMASZ
 40
3.0
  9
$DIMEXO
 40
1.5
  9
$DIMDLI
 40
0.5
  9
$DIMRND
 40
0.0
  9
$DIMDLE
 40
0.0
  9
$DIMEXE
 40
1.0
  9
$DIMTP
 40
0.01
  9
$DIMTM
 40
0.01
  9
$DIMTXT
 40
2.799999999999999
  9
$DIMCEN
 40
0.0
  9
$DIMTSZ
 40
0.0
  9
$DIMTOL
 70
     1
  9
$DIMLIM
 70
     0
  9
$DIMTIH
 70
     0
  9
$DIMTOH
 70
     0
  9
$DIMSE1
 70
     0
  9
$DIMSE2
 70
     0
  9
$DIMTAD
 70
     1
  9
$DIMZIN
 70
     1
  9
$DIMBLK
  1

  9
$DIMASO
 70
     1
  9
$DIMSHO
 70
     1
  9
$DIMPOST
  1

  9
$DIMAPOST
  1

  9
$DIMALT
 70
     0
  9
$DIMALTD
 70
     2
  9
$DIMALTF
 40
25.4
  9
$DIMLFAC
 40
1.0
  9
$DIMTOFL
 70
     0
  9
$DIMTVP
 40
0.0
  9
$DIMTIX
 70
     0
  9
$DIMSOXD
 70
     0
  9
$DIMSAH
 70
     0
  9
$DIMBLK1
  1

  9
$DIMBLK2
  1

  9
$DIMSTYLE
  2
STANDARD
  9
$DIMCLRD
 70
     0
  9
$DIMCLRE
 70
     0
  9
$DIMCLRT
 70
     0
  9
$DIMTFAC
 40
0.7
  9
$DIMGAP
 40
1.0
  9
$DIMJUST
 70
     0
  9
$DIMSD1
 70
     0
  9
$DIMSD2
 70
     0
  9
$DIMTOLJ
 70
     0
  9
$DIMTZIN
 70
     0
  9
$DIMALTZ
 70
     0
  9
$DIMALTTZ
 70
     0
  9
$DIMUPT
 70
     0
  9
$DIMDEC
 70
     2
  9
$DIMTDEC
 70
     2
  9
$DIMALTU
 70
     2
  9
$DIMALTTD
 70
     2
  9
$DIMTXSTY
  7
STANDARD
  9
$DIMAUNIT
 70
     0
  9
$DIMADEC
 70
     0
  9
$DIMALTRND
 40
0.0
  9
$DIMAZIN
 70
     0
  9
$DIMDSEP
 70
    46
  9
$DIMATFIT
 70
     3
  9
$DIMFRAC
 70
     0
  9
$DIMLDRBLK
  1

  9
$DIMLUNIT
 70
     2
  9
$DIMLWD
 70
    -2
  9
$DIMLWE
 70
    -2
  9
$DIMTMOVE
 70
     0
  9
$LUNITS
 70
     2
  9
$LUPREC
 70
     4
  9
$SKETCHINC
 40
0.1
  9
$FILLETRAD
 40
0.0
  9
$AUNITS
 70
     0
  9
$AUPREC
 70
     0
  9
$MENU
  1
acad
  9
$ELEVATION
 40
0.0
  9
$PELEVATION
 40
0.0
  9
$THICKNESS
 40
0.0
  9
$LIMCHECK
 70
     0
  9
$CHAMFERA
 40
0.2
  9
$CHAMFERB
 40
0.2
  9
$CHAMFERC
 40
0.0
  9
$CHAMFERD
 40
0.0
  9
$SKPOLY
 70
     0
  9
$TDCREATE
 40
2453879.491120567
  9
$TDUCREATE
 40
2453879.157787234
  9
$TDUPDATE
 40
2454687.605478009
  9
$TDUUPDATE
 40
2454687.272144676
  9
$TDINDWG
 40
0.3598628472
  9
$TDUSRTIMER
 40
0.3598630324
  9
$USRTIMER
 70
     1
  9
$ANGBASE
 50
0.0
  9
$ANGDIR
 70
     0
  9
$PDMODE
 70
     3
  9
$PDSIZE
 40
0.3125
  9
$PLINEWID
 40
0.0
  9
$SPLFRAME
 70
     0
  9
$SPLINETYPE
 70
     6
  9
$SPLINESEGS
 70
     8
  9
$HANDSEED
  5
BDD6
  9
$SURFTAB1
 70
     6
  9
$SURFTAB2
 70
     6
  9
$SURFTYPE
 70
     6
  9
$SURFU
 70
     6
  9
$SURFV
 70
     6
  9
$UCSBASE
  2

  9
$UCSNAME
  2

  9
$UCSORG
 10
0.0
 20
0.0
 30
0.0
  9
$UCSXDIR
 10
1.0
 20
0.0
 30
0.0
  9
$UCSYDIR
 10
0.0
 20
1.0
 30
0.0
  9
$UCSORTHOREF
  2

  9
$UCSORTHOVIEW
 70
     0
  9
$UCSORGTOP
 10
0.0
 20
0.0
 30
0.0
  9
$UCSORGBOTTOM
 10
0.0
 20
0.0
 30
0.0
  9
$UCSORGLEFT
 10
0.0
 20
0.0
 30
0.0
  9
$UCSORGRIGHT
 10
0.0
 20
0.0
 30
0.0
  9
$UCSORGFRONT
 10
0.0
 20
0.0
 30
0.0
  9
$UCSORGBACK
 10
0.0
 20
0.0
 30
0.0
  9
$PUCSBASE
  2

  9
$PUCSNAME
  2

  9
$PUCSORG
 10
0.0
 20
0.0
 30
0.0
  9
$PUCSXDIR
 10
1.0
 20
0.0
 30
0.0
  9
$PUCSYDIR
 10
0.0
 20
1.0
 30
0.0
  9
$PUCSORTHOREF
  2

  9
$PUCSORTHOVIEW
 70
     0
  9
$PUCSORGTOP
 10
0.0
 20
0.0
 30
0.0
  9
$PUCSORGBOTTOM
 10
0.0
 20
0.0
 30
0.0
  9
$PUCSORGLEFT
 10
0.0
 20
0.0
 30
0.0
  9
$PUCSORGRIGHT
 10
0.0
 20
0.0
 30
0.0
  9
$PUCSORGFRONT
 10
0.0
 20
0.0
 30
0.0
  9
$PUCSORGBACK
 10
0.0
 20
0.0
 30
0.0
  9
$USERI1
 70
     0
  9
$USERI2
 70
     0
  9
$USERI3
 70
     0
  9
$USERI4
 70
     0
  9
$USERI5
 70
     0
  9
$USERR1
 40
0.0
  9
$USERR2
 40
0.0
  9
$USERR3
 40
0.0
  9
$USERR4
 40
0.0
  9
$USERR5
 40
0.0
  9
$WORLDVIEW
 70
     1
  9
$SHADEDGE
 70
     3
  9
$SHADEDIF
 70
    70
  9
$TILEMODE
 70
     1
  9
$MAXACTVP
 70
    16
  9
$PINSBASE
 10
0.0
 20
0.0
 30
0.0
  9
$PLIMCHECK
 70
     0
  9
$PEXTMIN
 10
1.000000000000000E+20
 20
1.000000000000000E+20
 30
1.000000000000000E+20
  9
$PEXTMAX
 10
-1.000000000000000E+20
 20
-1.000000000000000E+20
 30
-1.000000000000000E+20
  9
$PLIMMIN
 10
0.0
 20
0.0
  9
$PLIMMAX
 10
12.0
 20
9.0
  9
$UNITMODE
 70
     0
  9
$VISRETAIN
 70
     0
  9
$PLINEGEN
 70
     1
  9
$PSLTSCALE
 70
     0
  9
$TREEDEPTH
 70
  3020
  9
$CMLSTYLE
  2
Standard
  9
$CMLJUST
 70
     0
  9
$CMLSCALE
 40
1.0
  9
$PROXYGRAPHICS
 70
     0
  9
$MEASUREMENT
 70
     0
  9
$CELWEIGHT
370
     0
  9
$ENDCAPS
280
     0
  9
$JOINSTYLE
280
     0
  9
$LWDISPLAY
290
     1
  9
$INSUNITS
 70
     1
  9
$HYPERLINKBASE
  1

  9
$STYLESHEET
  1
acad.ctb
  9
$XEDIT
290
     1
  9
$CEPSNTYPE
380
     0
  9
$PSTYLEMODE
290
     1
  9
$FINGERPRINTGUID
  2

  9
$VERSIONGUID
  2
{3B2D2C56-BF82-4739-A195-19864F5CEFF0}
  9
$EXTNAMES
290
     1
  9
$PSVPSCALE
 40
0.0
  9
$OLESTARTUP
290
     0
  0
ENDSEC
  0
SECTION
  2
CLASSES
  0
CLASS
  1
ACDBDICTIONARYWDFLT
  2
AcDbDictionaryWithDefault
  3
ObjectDBX Classes
 90
        0
280
     0
281
     0
  0
CLASS
  1
ACDBPLACEHOLDER
  2
AcDbPlaceHolder
  3
ObjectDBX Classes
 90
        0
280
     0
281
     0
  0
CLASS
  1
LAYOUT
  2
AcDbLayout
  3
ObjectDBX Classes
 90
        0
280
     0
281
     0
  0
CLASS
  1
IMAGE
  2
AcDbRasterImage
  3
ISM
 90
    32895
280
     0
281
     1
  0
CLASS
  1
DICTIONARYVAR
  2
AcDbDictionaryVar
  3
ObjectDBX Classes
 90
        0
280
     0
281
     0
  0
CLASS
  1
RASTERVARIABLES
  2
AcDbRasterVariables
  3
ISM
 90
    32768
280
     0
281
     0
  0
CLASS
  1
IMAGEDEF
  2
AcDbRasterImageDef
  3
ISM
 90
    32768
280
     0
281
     0
  0
CLASS
  1
IMAGEDEF_REACTOR
  2
AcDbRasterImageDefReactor
  3
ISM
 90
    32769
280
     0
281
     0
  0
CLASS
  1
IDBUFFER
  2
AcDbIdBuffer
  3
ObjectDBX Classes
 90
    32768
280
     0
281
     0
  0
CLASS
  1
SPATIAL_FILTER
  2
AcDbSpatialFilter
  3
ObjectDBX Classes
 90
    32768
280
     0
281
     0
  0
CLASS
  1
SORTENTSTABLE
  2
AcDbSortentsTable
  3
ObjectDBX Classes
 90
        0
280
     0
281
     0
  0
CLASS
  1
LAYER_INDEX
  2
AcDbLayerIndex
  3
ObjectDBX Classes
 90
    32768
280
     0
281
     0
  0
CLASS
  1
SPATIAL_INDEX
  2
AcDbSpatialIndex
  3
ObjectDBX Classes
 90
    32768
280
     0
281
     0
  0
CLASS
  1
OBJECT_PTR
  2
CAseDLPNTableRecord
  3
ASE-LPNTableRecord
 90
    32769
280
     0
281
     0
  0
CLASS
  1
PLOTSETTINGS
  2
AcDbPlotSettings
  3
ObjectDBX Classes
 90
    32768
280
     0
281
     0
  0
CLASS
  1
VBA_PROJECT
  2
AcDbVbaProject
  3
acad
 90
    32768
280
     0
281
     0
  0
CLASS
  1
WIPEOUT
  2
AcDbWipeout
  3
"WipeOut|Product Desc: Object Enabler for WipeOut entity^I^I^I^I^I^I|Company: Autodesk, Inc.^I^I^I^I^I^I|WEB Address: www.autodesk.com"
 90
    32895
280
     0
281
     1
  0
CLASS
  1
WIPEOUTVARIABLES
  2
AcDbWipeoutVariables
  3
"WipeOut|Product Desc:     WipeOut Dbx Application|Company:          Autodesk, Inc.|WEB Address:      www.autodesk.com"
 90
    32768
280
     0
281
     0
  0
CLASS
  1
RTEXT
  2
RText
  3
RText|AutoCAD Express Tool|expresstools@autodesk.com
 90
    33791
280
     0
281
     1
  0
CLASS
  1
ARCALIGNEDTEXT
  2
AcDbArcAlignedText
  3
ATEXT|AutoCAD Express Tool|expresstools@autodesk.com
 90
    32768
280
     0
281
     1
  0
CLASS
  1
TABLESTYLE
  2
AcDbTableStyle
  3
ObjectDBX Classes
 90
     2047
280
     0
281
     0
  0
CLASS
  1
DIMASSOC
  2
AcDbDimAssoc
  3
"AcDbDimAssoc|Product Desc:     AcDim ARX App For Dimension|Company:          Autodesk, Inc.|WEB Address:      www.autodesk.com"
 90
    32768
280
     0
281
     0
  0
ENDSEC
  0
SECTION
  2
TABLES
  0
TABLE
  2
VPORT
  5
8
330
0
100
AcDbSymbolTable
 70
     4
  0
VPORT
  5
BDD0
330
8
100
AcDbSymbolTableRecord
100
AcDbViewportTableRecord
  2
*Active
 70
     0
 10
0.0
 20
0.0
 11
1.0
 21
1.0
 12
61.91975059335709
 22
276.158144332187
 13
0.0
 23
0.0
 14
10.0
 24
10.0
 15
0.0
 25
0.0
 16
0.0
 26
0.0
 36
1.0
 17
0.0
 27
0.0
 37
0.0
 40
116.6842583094532
 41
1.766467065868263
 42
50.0
 43
0.0
 44
0.0
 50
0.0
 51
0.0
 71
     0
 72
   100
 73
     1
 74
     1
 75
     0
 76
     0
 77
     0
 78
     0
281
     0
 65
     0
110
0.0
120
0.0
130
0.0
111
1.0
121
0.0
131
0.0
112
0.0
122
1.0
132
0.0
 79
     0
146
0.0
  0
ENDTAB
  0
TABLE
  2
LTYPE
  5
5
330
0
100
AcDbSymbolTable
 70
     2
  0
LTYPE
  5
14
330
5
100
AcDbSymbolTableRecord
100
AcDbLinetypeTableRecord
  2
ByBlock
 70
     0
  3

 72
    65
 73
     0
 40
0.0
  0
LTYPE
  5
15
330
5
100
AcDbSymbolTableRecord
100
AcDbLinetypeTableRecord
  2
ByLayer
 70
     0
  3

 72
    65
 73
     0
 40
0.0
  0
LTYPE
  5
16
330
5
100
AcDbSymbolTableRecord
100
AcDbLinetypeTableRecord
  2
CONTINUOUS
 70
     0
  3
Solid line
 72
    65
 73
     0
 40
0.0
  0
LTYPE
  5
1F5
330
5
100
AcDbSymbolTableRecord
100
AcDbLinetypeTableRecord
  2
CENTER
 70
     0
  3
____ _ ____ _ ____ _ ____ _ ____ _ ____ _ ____
 72
    65
 73
     4
 40
0.6
 49
0.375
 74
     0
 49
-0.075
 74
     0
 49
0.075
 74
     0
 49
-0.075
 74
     0
  0
ENDTAB
  0
TABLE
  2
LAYER
  5
2
102
{ACAD_XDICTIONARY
360
46EE
102
}
330
0
100
AcDbSymbolTable
 70
     4
  0
LAYER
  5
10
330
2
100
AcDbSymbolTableRecord
100
AcDbLayerTableRecord
  2
0
 70
     0
 62
     7
  6
CONTINUOUS
370
    15
390
F
  0
LAYER
  5
FE3
330
2
100
AcDbSymbolTableRecord
100
AcDbLayerTableRecord
  2
Defpoints
 70
     0
 62
     7
  6
CONTINUOUS
290
     0
370
    -3
390
F
  0
LAYER
  5
46F1
330
2
100
AcDbSymbolTableRecord
100
AcDbLayerTableRecord
  2
Dimension
 70
     0
 62
     7
  6
CONTINUOUS
370
     0
390
F
1001
AcAecLayerStandard
1000

1000

  0
LAYER
  5
B1A8
330
2
100
AcDbSymbolTableRecord
100
AcDbLayerTableRecord
  2
DEFAULT_1
 70
     0
 62
     7
  6
CENTER
370
    -3
390
F
  0
ENDTAB
  0
TABLE
  2
STYLE
  5
3
330
0
100
AcDbSymbolTable
 70
     1
  0
STYLE
  5
11
330
3
100
AcDbSymbolTableRecord
100
AcDbTextStyleTableRecord
  2
STANDARD
 70
     0
 40
0.0
 41
1.0
 50
0.0
 71
     0
 42
0.2
  3
ARIAL.TTF
  4

1001
ACAD
1000
Arial
1071
       34
  0
ENDTAB
  0
TABLE
  2
VIEW
  5
6
330
0
100
AcDbSymbolTable
 70
     0
  0
ENDTAB
  0
TABLE
  2
UCS
  5
7
330
0
100
AcDbSymbolTable
 70
     0
  0
ENDTAB
  0
TABLE
  2
APPID
  5
9
330
0
100
AcDbSymbolTable
 70
    13
  0
APPID
  5
212
330
9
100
AcDbSymbolTableRecord
100
AcDbRegAppTableRecord
  2
ACAD
 70
     0
  0
APPID
  5
9B1
330
9
100
AcDbSymbolTableRecord
100
AcDbRegAppTableRecord
  2
DCO15
 70
     0
  0
APPID
  5
4673
330
9
100
AcDbSymbolTableRecord
100
AcDbRegAppTableRecord
  2
ACAD_EXEMPT_FROM_CAD_STANDARDS
 70
     0
  0
APPID
  5
46F2
330
9
100
AcDbSymbolTableRecord
100
AcDbRegAppTableRecord
  2
AcAecLayerStandard
 70
     0
  0
APPID
  5
46F5
330
9
100
AcDbSymbolTableRecord
100
AcDbRegAppTableRecord
  2
ACAD_DSTYLE_DIMTEXT_FILL
 70
     0
  0
APPID
  5
46F6
330
9
100
AcDbSymbolTableRecord
100
AcDbRegAppTableRecord
  2
ACAD_DSTYLE_DIMEXT_LENGTH
 70
     0
  0
APPID
  5
46F7
330
9
100
AcDbSymbolTableRecord
100
AcDbRegAppTableRecord
  2
ACAD_DSTYLE_DIMEXT_ENABLED
 70
     0
  0
APPID
  5
46F8
330
9
100
AcDbSymbolTableRecord
100
AcDbRegAppTableRecord
  2
ACAD_DSTYLE_DIM_LINETYPE
 70
     0
  0
APPID
  5
46F9
330
9
100
AcDbSymbolTableRecord
100
AcDbRegAppTableRecord
  2
ACAD_DSTYLE_DIM_EXT1_LINETYPE
 70
     0
  0
APPID
  5
46FA
330
9
100
AcDbSymbolTableRecord
100
AcDbRegAppTableRecord
  2
ACAD_DSTYLE_DIM_EXT2_LINETYPE
 70
     0
  0
APPID
  5
4914
330
9
100
AcDbSymbolTableRecord
100
AcDbRegAppTableRecord
  2
ACAD_DSTYLE_DIMJOGGED_JOGANGLE_SYMBOL
 70
     0
  0
APPID
  5
4D98
330
9
100
AcDbSymbolTableRecord
100
AcDbRegAppTableRecord
  2
ACAD_DSTYLE_DIMARC_LENGTH_SYMBOL
 70
     0
  0
APPID
  5
9375
330
9
100
AcDbSymbolTableRecord
100
AcDbRegAppTableRecord
  2
ACAD_PSEXT
 70
     0
  0
ENDTAB
  0
TABLE
  2
DIMSTYLE
  5
A
330
0
100
AcDbSymbolTable
 70
     1
100
AcDbDimStyleTable
 71
     1
340
229
  0
DIMSTYLE
105
229
102
{ACAD_REACTORS
330
9F0B
330
9F37
330
A7A7
330
A7FC
330
A859
330
B13D
330
B0A5
330
9976
330
9EDF
330
B8AE
330
B9ED
330
BA54
102
}
330
A
100
AcDbSymbolTableRecord
100
AcDbDimStyleTableRecord
  2
STANDARD
 70
     0
 41
3.0
 42
1.5
 43
0.5
 44
1.0
 47
0.01
 48
0.01
 71
     1
 73
     0
 74
     0
 77
     1
 78
     1
140
2.799999999999999
141
0.0
146
0.7
147
1.0
271
     2
272
     2
283
     0
340
11
1001
ACAD_DSTYLE_DIMEXT_LENGTH
1070
   378
1040
0.18
1001
ACAD_DSTYLE_DIMEXT_ENABLED
1070
   383
1070
     0
1001
ACAD_DSTYLE_DIMARC_LENGTH_SYMBOL
1070
   379
1070
     0
1001
ACAD_DSTYLE_DIMJOGGED_JOGANGLE_SYMBOL
1070
   384
1040
0.7853981633974483
  0
ENDTAB
  0
TABLE
  2
BLOCK_RECORD
  5
1
330
0
100
AcDbSymbolTable
 70
    19
  0
BLOCK_RECORD
  5
1F
102
{ACAD_XDICTIONARY
360
467E
102
}
330
1
100
AcDbSymbolTableRecord
100
AcDbBlockTableRecord
  2
*MODEL_SPACE
340
22
  0
BLOCK_RECORD
  5
1B
330
1
100
AcDbSymbolTableRecord
100
AcDbBlockTableRecord
  2
*PAPER_SPACE
340
1E
  0
BLOCK_RECORD
  5
9977
330
1
100
AcDbSymbolTableRecord
100
AcDbBlockTableRecord
  2
*D0
340
0
  0
BLOCK_RECORD
  5
9EE0
330
1
100
AcDbSymbolTableRecord
100
AcDbBlockTableRecord
  2
*D1
340
0
  0
BLOCK_RECORD
  5
9F0C
330
1
100
AcDbSymbolTableRecord
100
AcDbBlockTableRecord
  2
*D2
340
0
  0
BLOCK_RECORD
  5
9F38
330
1
100
AcDbSymbolTableRecord
100
AcDbBlockTableRecord
  2
*D3
340
0
  0
BLOCK_RECORD
  5
A7A8
330
1
100
AcDbSymbolTableRecord
100
AcDbBlockTableRecord
  2
*D4
340
0
  0
BLOCK_RECORD
  5
A7FD
330
1
100
AcDbSymbolTableRecord
100
AcDbBlockTableRecord
  2
*D5
340
0
  0
BLOCK_RECORD
  5
A85A
330
1
100
AcDbSymbolTableRecord
100
AcDbBlockTableRecord
  2
*D6
340
0
  0
BLOCK_RECORD
  5
B0A6
330
1
100
AcDbSymbolTableRecord
100
AcDbBlockTableRecord
  2
*D12
340
0
  0
BLOCK_RECORD
  5
B13E
330
1
100
AcDbSymbolTableRecord
100
AcDbBlockTableRecord
  2
*D13
340
0
  0
BLOCK_RECORD
  5
B1A4
330
1
100
AcDbSymbolTableRecord
100
AcDbBlockTableRecord
  2
_FILLED
340
0
  0
BLOCK_RECORD
  5
B8AF
330
1
100
AcDbSymbolTableRecord
100
AcDbBlockTableRecord
  2
*D15
340
0
  0
BLOCK_RECORD
  5
B9EE
330
1
100
AcDbSymbolTableRecord
100
AcDbBlockTableRecord
  2
*D16
340
0
  0
BLOCK_RECORD
  5
BA55
330
1
100
AcDbSymbolTableRecord
100
AcDbBlockTableRecord
  2
*D18
340
0
  0
ENDTAB
  0
ENDSEC
  0
SECTION
  2
BLOCKS
  0
BLOCK
  5
20
330
1F
100
AcDbEntity
  8
0
100
AcDbBlockBegin
  2
*MODEL_SPACE
 70
     0
 10
0.0
 20
0.0
 30
0.0
  3
*MODEL_SPACE
  1

  0
ENDBLK
  5
21
330
1F
100
AcDbEntity
  8
0
100
AcDbBlockEnd
  0
BLOCK
  5
1C
330
1B
100
AcDbEntity
 67
     1
  8
0
100
AcDbBlockBegin
  2
*PAPER_SPACE
 70
     0
 10
0.0
 20
0.0
 30
0.0
  3
*PAPER_SPACE
  1

  0
ENDBLK
  5
1D
330
1B
100
AcDbEntity
 67
     1
  8
0
100
AcDbBlockEnd
  0
BLOCK
  5
9981
330
9977
100
AcDbEntity
  8
0
370
     0
100
AcDbBlockBegin
  2
*D0
 70
     1
 10
0.0
 20
0.0
 30
0.0
  3
*D0
  1

  0
LINE
  5
BD6E
330
9977
100
AcDbEntity
  8
Dimension
 62
     0
370
    -2
100
AcDbLine
 10
93.1672382341952
 20
264.3944365031852
 30
0.0
 11
93.1672382341952
 21
232.4984595290457
 31
0.0
  0
LINE
  5
BD6F
330
9977
100
AcDbEntity
  8
Dimension
 62
     0
370
    -2
100
AcDbLine
 10
116.2672382341952
 20
264.3944365031853
 30
0.0
 11
116.2672382341952
 21
232.4984595290457
 31
0.0
  0
LINE
  5
BD70
330
9977
100
AcDbEntity
  8
Dimension
 62
     0
370
    -2
100
AcDbLine
 10
96.16723823419519
 20
233.4984595290456
 30
0.0
 11
113.2672382341952
 21
233.4984595290456
 31
0.0
  0
SOLID
  5
BD71
330
9977
100
AcDbEntity
  8
Dimension
 62
     0
370
     0
100
AcDbTrace
 10
96.16723823419519
 20
233.9984595290456
 30
0.0
 11
96.16723823419519
 21
232.9984595290456
 31
0.0
 12
93.1672382341952
 22
233.4984595290456
 32
0.0
 13
93.1672382341952
 23
233.4984595290456
 33
0.0
  0
SOLID
  5
BD72
330
9977
100
AcDbEntity
  8
Dimension
 62
     0
370
     0
100
AcDbTrace
 10
113.2672382341952
 20
233.9984595290456
 30
0.0
 11
113.2672382341952
 21
232.9984595290456
 31
0.0
 12
116.2672382341952
 22
233.4984595290456
 32
0.0
 13
116.2672382341952
 23
233.4984595290456
 33
0.0
  0
MTEXT
  5
BD73
330
9977
100
AcDbEntity
  8
Dimension
 62
     0
370
     0
100
AcDbMText
 10
104.7172382341952
 20
235.9290188742026
 30
0.0
 40
2.799999999999999
 41
0.0
 71
     5
 72
     1
  1
23.1
 73
     1
 44
1.0
1001
ACAD
1000
MTEXTBEGIN
1070
    73
1070
     1
1070
    44
1040
1.0
1070
    74
1070
     0
1000
MTEXTEND
  0
POINT
  5
BD74
330
9977
100
AcDbEntity
  8
Defpoints
 62
     0
370
     0
100
AcDbPoint
 10
93.1672382341952
 20
265.8944365031851
 30
0.0
  0
POINT
  5
BD75
330
9977
100
AcDbEntity
  8
Defpoints
 62
     0
370
     0
100
AcDbPoint
 10
116.2672382341952
 20
265.8944365031853
 30
0.0
  0
POINT
  5
BD76
330
9977
100
AcDbEntity
  8
Defpoints
 62
     0
370
     0
100
AcDbPoint
 10
116.2672382341952
 20
233.4984595290456
 30
0.0
  0
ENDBLK
  5
9982
330
9977
100
AcDbEntity
  8
0
370
     0
100
AcDbBlockEnd
  0
BLOCK
  5
9EEB
330
9EE0
100
AcDbEntity
  8
0
370
     0
100
AcDbBlockBegin
  2
*D1
 70
     1
 10
0.0
 20
0.0
 30
0.0
  3
*D1
  1

  0
LINE
  5
BD77
330
9EE0
100
AcDbEntity
  8
Dimension
 62
     0
370
    -2
100
AcDbLine
 10
116.2672382341952
 20
264.3944365031852
 30
0.0
 11
116.2672382341952
 21
255.6626390578409
 31
0.0
  0
LINE
  5
BD78
330
9EE0
100
AcDbEntity
  8
Dimension
 62
     0
370
    -2
100
AcDbLine
 10
113.2556600449928
 20
264.3063841828671
 30
0.0
 11
113.2556600449928
 21
255.6626390578409
 31
0.0
  0
LINE
  5
BD79
330
9EE0
100
AcDbEntity
  8
Dimension
 62
     0
370
    -2
100
AcDbLine
 10
119.2672382341952
 20
256.6626390578409
 30
0.0
 11
122.2672382341952
 21
256.6626390578409
 31
0.0
  0
LINE
  5
BD7A
330
9EE0
100
AcDbEntity
  8
Dimension
 62
     0
370
    -2
100
AcDbLine
 10
110.2556600449928
 20
256.6626390578409
 30
0.0
 11
103.4220993355794
 21
256.6626390578409
 31
0.0
  0
SOLID
  5
BD7B
330
9EE0
100
AcDbEntity
  8
Dimension
 62
     0
370
     0
100
AcDbTrace
 10
119.2672382341952
 20
257.1626390578408
 30
0.0
 11
119.2672382341952
 21
256.1626390578409
 31
0.0
 12
116.2672382341952
 22
256.6626390578409
 32
0.0
 13
116.2672382341952
 23
256.6626390578409
 33
0.0
  0
SOLID
  5
BD7C
330
9EE0
100
AcDbEntity
  8
Dimension
 62
     0
370
     0
100
AcDbTrace
 10
110.2556600449928
 20
257.1626390578408
 30
0.0
 11
110.2556600449928
 21
256.1626390578409
 31
0.0
 12
113.2556600449928
 22
256.6626390578409
 32
0.0
 13
113.2556600449928
 23
256.6626390578409
 33
0.0
  0
MTEXT
  5
BD7D
330
9EE0
100
AcDbEntity
  8
Dimension
 62
     0
370
     0
100
AcDbMText
 10
105.3388796902861
 20
259.0931984029978
 30
0.0
 40
2.799999999999999
 41
0.0
 71
     5
 72
     1
  1
3
 73
     1
 44
1.0
1001
ACAD
1000
MTEXTBEGIN
1070
    73
1070
     1
1070
    44
1040
1.0
1070
    74
1070
     0
1000
MTEXTEND
  0
POINT
  5
BD7E
330
9EE0
100
AcDbEntity
  8
Defpoints
 62
     0
370
     0
100
AcDbPoint
 10
116.2672382341952
 20
265.8944365031851
 30
0.0
  0
POINT
  5
BD7F
330
9EE0
100
AcDbEntity
  8
Defpoints
 62
     0
370
     0
100
AcDbPoint
 10
113.2556600449928
 20
265.8063841828671
 30
0.0
  0
POINT
  5
BD80
330
9EE0
100
AcDbEntity
  8
Defpoints
 62
     0
370
     0
100
AcDbPoint
 10
113.2556600449928
 20
256.6626390578409
 30
0.0
  0
ENDBLK
  5
9EEC
330
9EE0
100
AcDbEntity
  8
0
370
     0
100
AcDbBlockEnd
  0
BLOCK
  5
9F17
330
9F0C
100
AcDbEntity
  8
0
370
     0
100
AcDbBlockBegin
  2
*D2
 70
     1
 10
0.0
 20
0.0
 30
0.0
  3
*D2
  1

  0
LINE
  5
BD2A
330
9F0C
100
AcDbEntity
  8
Dimension
 62
     0
370
    -2
100
AcDbLine
 10
116.2672382341952
 20
264.3944365031852
 30
0.0
 11
116.2672382341952
 21
245.439424773935
 31
0.0
  0
LINE
  5
BD2B
330
9F0C
100
AcDbEntity
  8
Dimension
 62
     0
370
    -2
100
AcDbLine
 10
117.6122554490063
 20
279.5528404249457
 30
0.0
 11
117.6122554490063
 21
245.439424773935
 31
0.0
  0
LINE
  5
BD2C
330
9F0C
100
AcDbEntity
  8
Dimension
 62
     0
370
    -2
100
AcDbLine
 10
113.2672382341952
 20
246.4394247739351
 30
0.0
 11
110.2672382341952
 21
246.4394247739351
 31
0.0
  0
LINE
  5
BD2D
330
9F0C
100
AcDbEntity
  8
Dimension
 62
     0
370
    -2
100
AcDbLine
 10
120.6122554490063
 20
246.4394247739351
 30
0.0
 11
123.6122554490063
 21
246.4394247739351
 31
0.0
  0
MTEXT
  5
BD2E
330
9F0C
100
AcDbEntity
  8
Dimension
 62
     0
370
     0
100
AcDbMText
 10
128.3305127151532
 20
248.4113452761571
 30
0.0
 40
2.799999999999999
 41
0.0
 71
     5
 72
     1
  1
1.35{\H1.960000;±0.5}
 73
     1
 44
1.0
1001
ACAD
1000
MTEXTBEGIN
1070
    73
1070
     1
1070
    44
1040
1.0
1070
    74
1070
     0
1000
MTEXTEND
  0
SOLID
  5
BD2F
330
9F0C
100
AcDbEntity
  8
Dimension
 62
     0
370
     0
100
AcDbTrace
 10
113.2672382341952
 20
246.9394247739351
 30
0.0
 11
113.2672382341952
 21
245.939424773935
 31
0.0
 12
116.2672382341952
 22
246.4394247739351
 32
0.0
 13
116.2672382341952
 23
246.4394247739351
 33
0.0
  0
SOLID
  5
BD30
330
9F0C
100
AcDbEntity
  8
Dimension
 62
     0
370
     0
100
AcDbTrace
 10
120.6122554490063
 20
246.9394247739351
 30
0.0
 11
120.6122554490063
 21
245.939424773935
 31
0.0
 12
117.6122554490063
 22
246.4394247739351
 32
0.0
 13
117.6122554490063
 23
246.4394247739351
 33
0.0
  0
POINT
  5
BD31
330
9F0C
100
AcDbEntity
  8
Defpoints
 62
     0
370
     0
100
AcDbPoint
 10
116.2672382341952
 20
265.8944365031851
 30
0.0
  0
POINT
  5
BD32
330
9F0C
100
AcDbEntity
  8
Defpoints
 62
     0
370
     0
100
AcDbPoint
 10
117.6122554490063
 20
281.0528404249457
 30
0.0
  0
POINT
  5
BD33
330
9F0C
100
AcDbEntity
  8
Defpoints
 62
     0
370
     0
100
AcDbPoint
 10
117.6122554490063
 20
246.4394247739351
 30
0.0
  0
ENDBLK
  5
9F18
330
9F0C
100
AcDbEntity
  8
0
370
     0
100
AcDbBlockEnd
  0
BLOCK
  5
9F42
330
9F38
100
AcDbEntity
  8
0
370
     0
100
AcDbBlockBegin
  2
*D3
 70
     1
 10
0.0
 20
0.0
 30
0.0
  3
*D3
  1

  0
LINE
  5
BD34
330
9F38
100
AcDbEntity
  8
Dimension
 62
     0
370
    -2
100
AcDbLine
 10
116.2672382341952
 20
264.3944365031852
 30
0.0
 11
116.2672382341952
 21
232.4984595290457
 31
0.0
  0
LINE
  5
BD35
330
9F38
100
AcDbEntity
  8
Dimension
 62
     0
370
    -2
100
AcDbLine
 10
136.7691679332455
 20
288.3607025316907
 30
0.0
 11
136.7691679332455
 21
232.4984595290457
 31
0.0
  0
LINE
  5
BD36
330
9F38
100
AcDbEntity
  8
Dimension
 62
     0
370
    -2
100
AcDbLine
 10
119.2672382341952
 20
233.4984595290456
 30
0.0
 11
133.7691679332455
 21
233.4984595290456
 31
0.0
  0
LINE
  5
BD37
330
9F38
100
AcDbEntity
  8
Dimension
 62
     0
370
    -2
100
AcDbLine
 10
136.7691679332455
 20
233.4984595290456
 30
0.0
 11
156.1912825307898
 21
233.4984595290456
 31
0.0
  0
SOLID
  5
BD38
330
9F38
100
AcDbEntity
  8
Dimension
 62
     0
370
     0
100
AcDbTrace
 10
119.2672382341952
 20
233.9984595290456
 30
0.0
 11
119.2672382341952
 21
232.9984595290456
 31
0.0
 12
116.2672382341952
 22
233.4984595290456
 32
0.0
 13
116.2672382341952
 23
233.4984595290456
 33
0.0
  0
SOLID
  5
BD39
330
9F38
100
AcDbEntity
  8
Dimension
 62
     0
370
     0
100
AcDbTrace
 10
133.7691679332455
 20
233.9984595290456
 30
0.0
 11
133.7691679332455
 21
232.9984595290456
 31
0.0
 12
136.7691679332455
 22
233.4984595290456
 32
0.0
 13
136.7691679332455
 23
233.4984595290456
 33
0.0
  0
MTEXT
  5
BD3A
330
9F38
100
AcDbEntity
  8
Dimension
 62
     0
370
     0
100
AcDbMText
 10
148.8422920805852
 20
235.9280638946664
 30
0.0
 40
2.799999999999999
 41
0.0
 71
     5
 72
     1
  1
20.5{\H1.960000;±0.5}
 73
     1
 44
1.0
1001
ACAD
1000
MTEXTBEGIN
1070
    73
1070
     1
1070
    44
1040
1.0
1070
    74
1070
     0
1000
MTEXTEND
  0
POINT
  5
BD3B
330
9F38
100
AcDbEntity
  8
Defpoints
 62
     0
370
     0
100
AcDbPoint
 10
116.2672382341952
 20
265.8944365031851
 30
0.0
  0
POINT
  5
BD3C
330
9F38
100
AcDbEntity
  8
Defpoints
 62
     0
370
     0
100
AcDbPoint
 10
136.7691679332455
 20
289.8607025316906
 30
0.0
  0
POINT
  5
BD3D
330
9F38
100
AcDbEntity
  8
Defpoints
 62
     0
370
     0
100
AcDbPoint
 10
136.7691679332455
 20
233.4984595290456
 30
0.0
  0
ENDBLK
  5
9F43
330
9F38
100
AcDbEntity
  8
0
370
     0
100
AcDbBlockEnd
  0
BLOCK
  5
A7B2
330
A7A8
100
AcDbEntity
  8
0
370
     0
100
AcDbBlockBegin
  2
*D4
 70
     1
 10
0.0
 20
0.0
 30
0.0
  3
*D4
  1

  0
LINE
  5
BD3E
330
A7A8
100
AcDbEntity
  8
Dimension
 62
     0
370
    -2
100
AcDbLine
 10
118.911483570066
 20
302.9368482356443
 30
0.0
 11
164.1845588998719
 21
302.9368482356443
 31
0.0
  0
LINE
  5
BD3F
330
A7A8
100
AcDbEntity
  8
Dimension
 62
     0
370
    -2
100
AcDbLine
 10
118.911483570066
 20
280.851941511427
 30
0.0
 11
164.1845588998719
 21
280.8519415114269
 31
0.0
  0
LINE
  5
BD40
330
A7A8
100
AcDbEntity
  8
Dimension
 62
     0
370
    -2
100
AcDbLine
 10
163.1845588998719
 20
299.9368482356443
 30
0.0
 11
163.1845588998719
 21
283.8519415114269
 31
0.0
  0
SOLID
  5
BD41
330
A7A8
100
AcDbEntity
  8
Dimension
 62
     0
370
     0
100
AcDbTrace
 10
162.6845588998719
 20
299.9368482356443
 30
0.0
 11
163.6845588998719
 21
299.9368482356443
 31
0.0
 12
163.1845588998719
 22
302.9368482356443
 32
0.0
 13
163.1845588998719
 23
302.9368482356443
 33
0.0
  0
SOLID
  5
BD42
330
A7A8
100
AcDbEntity
  8
Dimension
 62
     0
370
     0
100
AcDbTrace
 10
162.6845588998719
 20
283.8519415114269
 30
0.0
 11
163.6845588998719
 21
283.8519415114269
 31
0.0
 12
163.1845588998719
 22
280.8519415114269
 32
0.0
 13
163.1845588998719
 23
280.8519415114269
 33
0.0
  0
MTEXT
  5
BD43
330
A7A8
100
AcDbEntity
  8
Dimension
 62
     0
370
     0
100
AcDbMText
 10
159.7994338430279
 20
291.8943948735357
 30
0.0
 40
2.799999999999999
 41
0.0
 71
     5
 72
     1
  1
Ø 22{\H1.960000;\S+0^ -0.033;}
 11
0.0000000000000001
 21
1.0
 31
0.0
 73
     1
 44
1.0
1001
ACAD
1000
MTEXTBEGIN
1070
    73
1070
     1
1070
    44
1040
1.0
1070
    74
1070
     0
1000
MTEXTEND
  0
POINT
  5
BD44
330
A7A8
100
AcDbEntity
  8
Defpoints
 62
     0
370
     0
100
AcDbPoint
 10
117.411483570066
 20
302.9368482356443
 30
0.0
  0
POINT
  5
BD45
330
A7A8
100
AcDbEntity
  8
Defpoints
 62
     0
370
     0
100
AcDbPoint
 10
117.411483570066
 20
280.851941511427
 30
0.0
  0
POINT
  5
BD46
330
A7A8
100
AcDbEntity
  8
Defpoints
 62
     0
370
     0
100
AcDbPoint
 10
163.1845588998719
 20
280.8519415114269
 30
0.0
  0
ENDBLK
  5
A7B3
330
A7A8
100
AcDbEntity
  8
0
370
     0
100
AcDbBlockEnd
  0
BLOCK
  5
A808
330
A7FD
100
AcDbEntity
  8
0
370
     0
100
AcDbBlockBegin
  2
*D5
 70
     1
 10
0.0
 20
0.0
 30
0.0
  3
*D5
  1

  0
LINE
  5
BD47
330
A7FD
100
AcDbEntity
  8
Dimension
 62
     0
370
    -2
100
AcDbLine
 10
137.2691679332455
 20
294.3943948735356
 30
0.0
 11
151.2058048718598
 21
294.3943948735356
 31
0.0
  0
LINE
  5
BD48
330
A7FD
100
AcDbEntity
  8
Dimension
 62
     0
370
    -2
100
AcDbLine
 10
137.2691679332455
 20
289.3943948735357
 30
0.0
 11
151.2058048718598
 21
289.3943948735357
 31
0.0
  0
LINE
  5
BD49
330
A7FD
100
AcDbEntity
  8
Dimension
 62
     0
370
    -2
100
AcDbLine
 10
150.2058048718598
 20
297.3943948735356
 30
0.0
 11
150.2058048718598
 21
300.3943948735356
 31
0.0
  0
LINE
  5
BD4A
330
A7FD
100
AcDbEntity
  8
Dimension
 62
     0
370
    -2
100
AcDbLine
 10
150.2058048718598
 20
286.3943948735356
 30
0.0
 11
150.2058048718598
 21
262.2713376850027
 31
0.0
  0
SOLID
  5
BD4B
330
A7FD
100
AcDbEntity
  8
Dimension
 62
     0
370
     0
100
AcDbTrace
 10
149.7058048718598
 20
297.3943948735356
 30
0.0
 11
150.7058048718598
 21
297.3943948735356
 31
0.0
 12
150.2058048718598
 22
294.3943948735356
 32
0.0
 13
150.2058048718598
 23
294.3943948735356
 33
0.0
  0
SOLID
  5
BD4C
330
A7FD
100
AcDbEntity
  8
Dimension
 62
     0
370
     0
100
AcDbTrace
 10
149.7058048718598
 20
286.3943948735356
 30
0.0
 11
150.7058048718598
 21
286.3943948735356
 31
0.0
 12
150.2058048718598
 22
289.3943948735357
 32
0.0
 13
150.2058048718598
 23
289.3943948735357
 33
0.0
  0
MTEXT
  5
BD4D
330
A7FD
100
AcDbEntity
  8
Dimension
 62
     0
370
     0
100
AcDbMText
 10
146.821348300691
 20
270.1227428691774
 30
0.0
 40
2.799999999999999
 41
0.0
 71
     5
 72
     1
  1
Ø 5{\H1.960000;\S-0.008^ -0.016;}
 11
0.0000000000000001
 21
1.0
 31
0.0
 73
     1
 44
1.0
1001
ACAD
1000
MTEXTBEGIN
1070
    73
1070
     1
1070
    44
1040
1.0
1070
    74
1070
     0
1000
MTEXTEND
  0
POINT
  5
BD4E
330
A7FD
100
AcDbEntity
  8
Defpoints
 62
     0
370
     0
100
AcDbPoint
 10
135.7691679332455
 20
294.3943948735356
 30
0.0
  0
POINT
  5
BD4F
330
A7FD
100
AcDbEntity
  8
Defpoints
 62
     0
370
     0
100
AcDbPoint
 10
135.7691679332455
 20
289.3943948735357
 30
0.0
  0
POINT
  5
BD50
330
A7FD
100
AcDbEntity
  8
Defpoints
 62
     0
370
     0
100
AcDbPoint
 10
150.2058048718598
 20
289.3943948735357
 30
0.0
  0
ENDBLK
  5
A809
330
A7FD
100
AcDbEntity
  8
0
370
     0
100
AcDbBlockEnd
  0
BLOCK
  5
A864
330
A85A
100
AcDbEntity
  8
0
370
     0
100
AcDbBlockBegin
  2
*D6
 70
     1
 10
0.0
 20
0.0
 30
0.0
  3
*D6
  1

  0
LINE
  5
BD51
330
A85A
100
AcDbEntity
  8
Dimension
 62
     0
370
    -2
100
AcDbLine
 10
91.66723823504524
 20
317.9947391850561
 30
0.0
 11
68.52518808231129
 21
317.9947391850561
 31
0.0
  0
LINE
  5
BD52
330
A85A
100
AcDbEntity
  8
Dimension
 62
     0
370
    -2
100
AcDbLine
 10
91.6672382341952
 20
265.7913022457727
 30
0.0
 11
68.52518808231128
 21
265.7913022457727
 31
0.0
  0
LINE
  5
BD53
330
A85A
100
AcDbEntity
  8
Dimension
 62
     0
370
    -2
100
AcDbLine
 10
69.52518808231129
 20
314.994739185056
 30
0.0
 11
69.52518808231127
 21
268.7913022457727
 31
0.0
  0
SOLID
  5
BD54
330
A85A
100
AcDbEntity
  8
Dimension
 62
     0
370
     0
100
AcDbTrace
 10
69.02518808231128
 20
314.994739185056
 30
0.0
 11
70.02518808231129
 21
314.994739185056
 31
0.0
 12
69.52518808231129
 22
317.9947391850561
 32
0.0
 13
69.52518808231129
 23
317.9947391850561
 33
0.0
  0
SOLID
  5
BD55
330
A85A
100
AcDbEntity
  8
Dimension
 62
     0
370
     0
100
AcDbTrace
 10
69.02518808231127
 20
268.7913022457727
 30
0.0
 11
70.02518808231127
 21
268.7913022457727
 31
0.0
 12
69.52518808231127
 22
265.7913022457727
 32
0.0
 13
69.52518808231127
 23
265.7913022457727
 33
0.0
  0
MTEXT
  5
BD56
330
A85A
100
AcDbEntity
  8
Dimension
 62
     0
370
     0
100
AcDbMText
 10
67.01727539472597
 20
291.8930207154144
 30
0.0
 40
2.799999999999999
 41
0.0
 71
     5
 72
     1
  1
Ø 52
 11
0.0000000000000001
 21
1.0
 31
0.0
 73
     1
 44
1.0
1001
ACAD
1000
MTEXTBEGIN
1070
    73
1070
     1
1070
    44
1040
1.0
1070
    74
1070
     0
1000
MTEXTEND
  0
POINT
  5
BD57
330
A85A
100
AcDbEntity
  8
Defpoints
 62
     0
370
     0
100
AcDbPoint
 10
93.16723823504522
 20
317.9947391850561
 30
0.0
  0
POINT
  5
BD58
330
A85A
100
AcDbEntity
  8
Defpoints
 62
     0
370
     0
100
AcDbPoint
 10
93.1672382341952
 20
265.7913022457727
 30
0.0
  0
POINT
  5
BD59
330
A85A
100
AcDbEntity
  8
Defpoints
 62
     0
370
     0
100
AcDbPoint
 10
69.52518808231127
 20
265.7913022457727
 30
0.0
  0
ENDBLK
  5
A865
330
A85A
100
AcDbEntity
  8
0
370
     0
100
AcDbBlockEnd
  0
BLOCK
  5
B0B1
330
B0A6
100
AcDbEntity
  8
0
370
     0
100
AcDbBlockBegin
  2
*D12
 70
     1
 10
0.0
 20
0.0
 30
0.0
  3
*D12
  1

  0
LINE
  5
BD64
330
B0A6
100
AcDbEntity
  8
Dimension
 62
     0
370
    -2
100
AcDbLine
 10
91.16222101938415
 20
279.5528404249458
 30
0.0
 11
91.16222101938415
 21
232.4984595290457
 31
0.0
  0
LINE
  5
BD65
330
B0A6
100
AcDbEntity
  8
Dimension
 62
     0
370
    -2
100
AcDbLine
 10
93.16723823504531
 20
264.5947808130077
 30
0.0
 11
93.16723823504531
 21
232.4984595290457
 31
0.0
  0
LINE
  5
BD66
330
B0A6
100
AcDbEntity
  8
Dimension
 62
     0
370
    -2
100
AcDbLine
 10
96.16723823504532
 20
233.4984595290456
 30
0.0
 11
99.16723823504533
 21
233.4984595290456
 31
0.0
  0
LINE
  5
BD67
330
B0A6
100
AcDbEntity
  8
Dimension
 62
     0
370
    -2
100
AcDbLine
 10
88.16222101938414
 20
233.4984595290456
 30
0.0
 11
80.16699591706492
 21
233.4984595290456
 31
0.0
  0
SOLID
  5
BD68
330
B0A6
100
AcDbEntity
  8
Dimension
 62
     0
370
     0
100
AcDbTrace
 10
96.16723823504532
 20
233.9984595290456
 30
0.0
 11
96.16723823504532
 21
232.9984595290456
 31
0.0
 12
93.16723823504531
 22
233.4984595290456
 32
0.0
 13
93.16723823504531
 23
233.4984595290456
 33
0.0
  0
SOLID
  5
BD69
330
B0A6
100
AcDbEntity
  8
Dimension
 62
     0
370
     0
100
AcDbTrace
 10
88.16222101938414
 20
233.9984595290456
 30
0.0
 11
88.16222101938414
 21
232.9984595290456
 31
0.0
 12
91.16222101938415
 22
233.4984595290456
 32
0.0
 13
91.16222101938415
 23
233.4984595290456
 33
0.0
  0
MTEXT
  5
BD6A
330
B0A6
100
AcDbEntity
  8
Dimension
 62
     0
370
     0
100
AcDbMText
 10
82.09428104666928
 20
235.9041894062626
 30
0.0
 40
2.799999999999999
 41
0.0
 71
     5
 72
     1
  1
2
 73
     1
 44
1.0
1001
ACAD
1000
MTEXTBEGIN
1070
    73
1070
     1
1070
    44
1040
1.0
1070
    74
1070
     0
1000
MTEXTEND
  0
POINT
  5
BD6B
330
B0A6
100
AcDbEntity
  8
Defpoints
 62
     0
370
     0
100
AcDbPoint
 10
91.16222101938415
 20
281.0528404249458
 30
0.0
  0
POINT
  5
BD6C
330
B0A6
100
AcDbEntity
  8
Defpoints
 62
     0
370
     0
100
AcDbPoint
 10
93.16723823504531
 20
266.0947808130077
 30
0.0
  0
POINT
  5
BD6D
330
B0A6
100
AcDbEntity
  8
Defpoints
 62
     0
370
     0
100
AcDbPoint
 10
93.16723823504531
 20
233.4984595290456
 30
0.0
  0
ENDBLK
  5
B0B2
330
B0A6
100
AcDbEntity
  8
0
370
     0
100
AcDbBlockEnd
  0
BLOCK
  5
B149
330
B13E
100
AcDbEntity
  8
0
370
     0
100
AcDbBlockBegin
  2
*D13
 70
     1
 10
0.0
 20
0.0
 30
0.0
  3
*D13
  1

  0
LINE
  5
BD5A
330
B13E
100
AcDbEntity
  8
0
 62
     0
370
    -2
100
AcDbLine
 10
22.46964215228304
 20
314.4762140802925
 30
0.0
 11
22.46964215228304
 21
328.2698677194297
 31
0.0
  0
LINE
  5
BD5B
330
B13E
100
AcDbEntity
  8
0
 62
     0
370
    -2
100
AcDbLine
 10
25.6819922221255
 20
314.4762140802925
 30
0.0
 11
25.6819922221255
 21
328.2698677194297
 31
0.0
  0
LINE
  5
BD5C
330
B13E
100
AcDbEntity
  8
0
 62
     0
370
    -2
100
AcDbLine
 10
19.46964215228303
 20
327.2698677194297
 30
0.0
 11
16.46964215228303
 21
327.2698677194297
 31
0.0
  0
LINE
  5
BD5D
330
B13E
100
AcDbEntity
  8
0
 62
     0
370
    -2
100
AcDbLine
 10
28.68199222212549
 20
327.2698677194297
 30
0.0
 11
47.84070982103409
 21
327.2698677194297
 31
0.0
  0
SOLID
  5
BD5E
330
B13E
100
AcDbEntity
  8
0
 62
     0
370
     0
100
AcDbTrace
 10
19.46964215228303
 20
327.7698677194297
 30
0.0
 11
19.46964215228303
 21
326.7698677194297
 31
0.0
 12
22.46964215228304
 22
327.2698677194297
 32
0.0
 13
22.46964215228304
 23
327.2698677194297
 33
0.0
  0
SOLID
  5
BD5F
330
B13E
100
AcDbEntity
  8
0
 62
     0
370
     0
100
AcDbTrace
 10
28.68199222212549
 20
327.7698677194297
 30
0.0
 11
28.68199222212549
 21
326.7698677194297
 31
0.0
 12
25.6819922221255
 22
327.2698677194297
 32
0.0
 13
25.6819922221255
 23
327.2698677194297
 33
0.0
  0
MTEXT
  5
BD60
330
B13E
100
AcDbEntity
  8
0
 62
     0
370
     0
100
AcDbMText
 10
39.76135102157979
 20
330.6543242905984
 30
0.0
 40
2.799999999999999
 41
0.0
 71
     5
 72
     1
  1
Ø 3.2{\H1.960000;\S+0.1^ -0;}
 73
     1
 44
1.0
1001
ACAD
1000
MTEXTBEGIN
1070
    73
1070
     1
1070
    44
1040
1.0
1070
    74
1070
     0
1000
MTEXTEND
  0
POINT
  5
BD61
330
B13E
100
AcDbEntity
  8
Defpoints
 62
     0
370
     0
100
AcDbPoint
 10
22.46964215228304
 20
312.9762140802926
 30
0.0
  0
POINT
  5
BD62
330
B13E
100
AcDbEntity
  8
Defpoints
 62
     0
370
     0
100
AcDbPoint
 10
25.6819922221255
 20
312.9762140802926
 30
0.0
  0
POINT
  5
BD63
330
B13E
100
AcDbEntity
  8
Defpoints
 62
     0
370
     0
100
AcDbPoint
 10
25.6819922221255
 20
327.2698677194297
 30
0.0
  0
ENDBLK
  5
B14A
330
B13E
100
AcDbEntity
  8
0
370
     0
100
AcDbBlockEnd
  0
BLOCK
  5
B1A5
330
B1A4
100
AcDbEntity
  8
0
100
AcDbBlockBegin
  2
_FILLED
 70
     0
 10
0.0
 20
0.0
 30
0.0
  3
_FILLED
  1

  0
SOLID
  5
B1A6
330
B1A4
100
AcDbEntity
  8
0
  6
ByBlock
 62
     0
100
AcDbTrace
 10
0.0
 20
0.0
 30
0.0
 11
-1.0
 21
0.1666666667
 31
0.0
 12
-1.0
 22
-0.1666666667
 32
0.0
 13
-1.0
 23
-0.1666666667
 33
0.0
  0
ENDBLK
  5
B1A7
330
B1A4
100
AcDbEntity
  8
0
  6
ByBlock
 62
     0
100
AcDbBlockEnd
  0
BLOCK
  5
B8B9
330
B8AF
100
AcDbEntity
  8
0
370
     0
100
AcDbBlockBegin
  2
*D15
 70
     1
 10
0.0
 20
0.0
 30
0.0
  3
*D15
  1

  0
LINE
  5
BD81
330
B8AF
100
AcDbEntity
  8
Dimension
 62
     0
370
    -2
100
AcDbLine
 10
-18.28782122800902
 20
269.1125756650792
 30
0.0
 11
-18.28782122800902
 21
254.1225385723239
 31
0.0
  0
LINE
  5
BD82
330
B8AF
100
AcDbEntity
  8
Dimension
 62
     0
370
    -2
100
AcDbLine
 10
24.07504530656416
 20
269.3133475440194
 30
0.0
 11
24.07504530656416
 21
254.1225385723239
 31
0.0
  0
LINE
  5
BD83
330
B8AF
100
AcDbEntity
  8
Dimension
 62
     0
370
    -2
100
AcDbLine
 10
-15.28782122800902
 20
255.122538572324
 30
0.0
 11
21.07504530656417
 21
255.122538572324
 31
0.0
  0
SOLID
  5
BD84
330
B8AF
100
AcDbEntity
  8
Dimension
 62
     0
370
     0
100
AcDbTrace
 10
-15.28782122800902
 20
255.6225385723239
 30
0.0
 11
-15.28782122800902
 21
254.6225385723239
 31
0.0
 12
-18.28782122800902
 22
255.122538572324
 32
0.0
 13
-18.28782122800902
 23
255.122538572324
 33
0.0
  0
SOLID
  5
BD85
330
B8AF
100
AcDbEntity
  8
Dimension
 62
     0
370
     0
100
AcDbTrace
 10
21.07504530656417
 20
255.6225385723239
 30
0.0
 11
21.07504530656417
 21
254.6225385723239
 31
0.0
 12
24.07504530656416
 22
255.122538572324
 32
0.0
 13
24.07504530656416
 23
255.122538572324
 33
0.0
  0
MTEXT
  5
BD86
330
B8AF
100
AcDbEntity
  8
Dimension
 62
     0
370
     0
100
AcDbMText
 10
2.89361203927757
 20
257.5449805914236
 30
0.0
 40
2.799999999999999
 41
0.0
 71
     5
 72
     1
  1
42.4{\H1.960000;±0.1}
 73
     1
 44
1.0
1001
ACAD
1000
MTEXTBEGIN
1070
    73
1070
     1
1070
    44
1040
1.0
1070
    74
1070
     0
1000
MTEXTEND
  0
POINT
  5
BD87
330
B8AF
100
AcDbEntity
  8
Defpoints
 62
     0
370
     0
100
AcDbPoint
 10
-18.28782122800902
 20
270.6125756650792
 30
0.0
  0
POINT
  5
BD88
330
B8AF
100
AcDbEntity
  8
Defpoints
 62
     0
370
     0
100
AcDbPoint
 10
24.07504530656416
 20
270.8133475440194
 30
0.0
  0
POINT
  5
BD89
330
B8AF
100
AcDbEntity
  8
Defpoints
 62
     0
370
     0
100
AcDbPoint
 10
24.07504530656416
 20
255.122538572324
 30
0.0
  0
ENDBLK
  5
B8BA
330
B8AF
100
AcDbEntity
  8
0
370
     0
100
AcDbBlockEnd
  0
BLOCK
  5
B9F8
330
B9EE
100
AcDbEntity
  8
0
370
     0
100
AcDbBlockBegin
  2
*D16
 70
     1
 10
0.0
 20
0.0
 30
0.0
  3
*D16
  1

  0
LINE
  5
BD8A
330
B9EE
100
AcDbEntity
  8
0
 62
     0
370
    -2
100
AcDbLine
 10
-19.58704934906888
 20
317.8943532438863
 30
0.0
 11
-36.85064594811182
 21
317.8943532438863
 31
0.0
  0
LINE
  5
BD8B
330
B9EE
100
AcDbEntity
  8
0
 62
     0
370
    -2
100
AcDbLine
 10
-19.58704934906893
 20
265.7940505603155
 30
0.0
 11
-36.85064594811183
 21
265.7940505603155
 31
0.0
  0
LINE
  5
BD8C
330
B9EE
100
AcDbEntity
  8
0
 62
     0
370
    -2
100
AcDbLine
 10
-35.85064594811182
 20
314.8943532438863
 30
0.0
 11
-35.85064594811183
 21
268.7940505603155
 31
0.0
  0
SOLID
  5
BD8D
330
B9EE
100
AcDbEntity
  8
0
 62
     0
370
     0
100
AcDbTrace
 10
-36.35064594811182
 20
314.8943532438863
 30
0.0
 11
-35.35064594811182
 21
314.8943532438863
 31
0.0
 12
-35.85064594811182
 22
317.8943532438863
 32
0.0
 13
-35.85064594811182
 23
317.8943532438863
 33
0.0
  0
SOLID
  5
BD8E
330
B9EE
100
AcDbEntity
  8
0
 62
     0
370
     0
100
AcDbTrace
 10
-36.35064594811183
 20
268.7940505603155
 30
0.0
 11
-35.35064594811184
 21
268.7940505603155
 31
0.0
 12
-35.85064594811183
 22
265.7940505603155
 32
0.0
 13
-35.85064594811183
 23
265.7940505603155
 33
0.0
  0
MTEXT
  5
BD8F
330
B9EE
100
AcDbEntity
  8
0
 62
     0
370
     0
100
AcDbMText
 10
-38.2802503137326
 20
291.8442019021009
 30
0.0
 40
2.799999999999999
 41
0.0
 71
     5
 72
     1
  1
52
 11
0.0000000000000001
 21
1.0
 31
0.0
 73
     1
 44
1.0
1001
ACAD
1000
MTEXTBEGIN
1070
    73
1070
     1
1070
    44
1040
1.0
1070
    74
1070
     0
1000
MTEXTEND
  0
POINT
  5
BD90
330
B9EE
100
AcDbEntity
  8
Defpoints
 62
     0
370
     0
100
AcDbPoint
 10
-18.08704934906888
 20
317.8943532438863
 30
0.0
  0
POINT
  5
BD91
330
B9EE
100
AcDbEntity
  8
Defpoints
 62
     0
370
     0
100
AcDbPoint
 10
-18.08704934906893
 20
265.7940505603155
 30
0.0
  0
POINT
  5
BD92
330
B9EE
100
AcDbEntity
  8
Defpoints
 62
     0
370
     0
100
AcDbPoint
 10
-35.85064594811183
 20
265.7940505603155
 30
0.0
  0
ENDBLK
  5
B9F9
330
B9EE
100
AcDbEntity
  8
0
370
     0
100
AcDbBlockEnd
  0
BLOCK
  5
BA5F
330
BA55
100
AcDbEntity
  8
0
370
     0
100
AcDbBlockBegin
  2
*D18
 70
     1
 10
0.0
 20
0.0
 30
0.0
  3
*D18
  1

  0
LINE
  5
BD93
330
BA55
100
AcDbEntity
  8
Dimension
 62
     0
370
    -2
100
AcDbLine
 10
89.86299289832457
 20
302.9368482356444
 30
0.0
 11
80.64145245772593
 21
302.9368482356444
 31
0.0
  0
LINE
  5
BD94
330
BA55
100
AcDbEntity
  8
Dimension
 62
     0
370
    -2
100
AcDbLine
 10
89.86299289832441
 20
280.8519415114271
 30
0.0
 11
80.64145245772591
 21
280.8519415114271
 31
0.0
  0
LINE
  5
BD95
330
BA55
100
AcDbEntity
  8
Dimension
 62
     0
370
    -2
100
AcDbLine
 10
81.64145245772592
 20
299.9368482356445
 30
0.0
 11
81.64145245772592
 21
283.8519415114271
 31
0.0
  0
SOLID
  5
BD96
330
BA55
100
AcDbEntity
  8
Dimension
 62
     0
370
     0
100
AcDbTrace
 10
81.14145245772593
 20
299.9368482356445
 30
0.0
 11
82.14145245772593
 21
299.9368482356445
 31
0.0
 12
81.64145245772592
 22
302.9368482356444
 32
0.0
 13
81.64145245772592
 23
302.9368482356444
 33
0.0
  0
SOLID
  5
BD97
330
BA55
100
AcDbEntity
  8
Dimension
 62
     0
370
     0
100
AcDbTrace
 10
81.14145245772592
 20
283.8519415114271
 30
0.0
 11
82.14145245772591
 21
283.8519415114271
 31
0.0
 12
81.64145245772592
 22
280.8519415114271
 32
0.0
 13
81.64145245772592
 23
280.8519415114271
 33
0.0
  0
MTEXT
  5
BD98
330
BA55
100
AcDbEntity
  8
Dimension
 62
     0
370
     0
100
AcDbMText
 10
79.13353977014061
 20
291.8943948735357
 30
0.0
 40
2.799999999999999
 41
0.0
 71
     5
 72
     1
  1
Ø 22
 11
0.0000000000000001
 21
1.0
 31
0.0
 73
     1
 44
1.0
1001
ACAD
1000
MTEXTBEGIN
1070
    73
1070
     1
1070
    44
1040
1.0
1070
    74
1070
     0
1000
MTEXTEND
  0
POINT
  5
BD99
330
BA55
100
AcDbEntity
  8
Defpoints
 62
     0
370
     0
100
AcDbPoint
 10
91.36299289832455
 20
302.9368482356444
 30
0.0
  0
POINT
  5
BD9A
330
BA55
100
AcDbEntity
  8
Defpoints
 62
     0
370
     0
100
AcDbPoint
 10
91.36299289832441
 20
280.8519415114271
 30
0.0
  0
POINT
  5
BD9B
330
BA55
100
AcDbEntity
  8
Defpoints
 62
     0
370
     0
100
AcDbPoint
 10
81.64145245772592
 20
280.8519415114271
 30
0.0
  0
ENDBLK
  5
BA60
330
BA55
100
AcDbEntity
  8
0
370
     0
100
AcDbBlockEnd
  0
ENDSEC
  0
SECTION
  2
ENTITIES
  0
LINE
  5
9649
330
1F
100
AcDbEntity
  8
0
  6
Continuous
 62
     7
100
AcDbLine
 10
104.5220832940959
 20
265.8063841828671
 30
0.0
 11
113.1552741055226
 21
265.8063841828671
 31
0.0
  0
LINE
  5
964A
330
1F
100
AcDbEntity
  8
0
  6
Continuous
 62
     7
100
AcDbLine
 10
105.0240129914464
 20
278.5931366472222
 30
0.0
 11
105.0240129914464
 21
275.9111796510437
 31
0.0
  0
LINE
  5
964B
330
1F
100
AcDbEntity
  8
0
  6
Continuous
 62
     7
100
AcDbLine
 10
105.0240129914464
 20
273.4262596998559
 30
0.0
 11
105.0240129914464
 21
271.2818374521975
 31
0.0
  0
LINE
  5
964C
330
1F
100
AcDbEntity
  8
0
  6
Continuous
 62
     7
100
AcDbLine
 10
105.0240129914464
 20
266.8255087373739
 30
0.0
 11
105.0240129914464
 21
266.1181401804011
 31
0.0
  0
LINE
  5
964D
330
1F
100
AcDbEntity
  8
0
  6
Continuous
 62
     7
100
AcDbLine
 10
113.2556600432929
 20
278.5931366472222
 30
0.0
 11
105.0240129914464
 21
278.5931366472222
 31
0.0
  0
LINE
  5
964E
330
1F
100
AcDbEntity
  8
0
  6
Continuous
 62
     7
100
AcDbLine
 10
113.2556600432929
 20
278.5729785075068
 30
0.0
 11
105.0240129914464
 21
278.5729785075068
 31
0.0
  0
LINE
  5
964F
330
1F
100
AcDbEntity
  8
0
  6
Continuous
 62
     7
100
AcDbLine
 10
113.2556600432929
 20
275.9111796510437
 30
0.0
 11
105.0240129914464
 21
275.9111796510437
 31
0.0
  0
LINE
  5
9650
330
1F
100
AcDbEntity
  8
0
  6
Continuous
 62
     7
100
AcDbLine
 10
113.2556600432929
 20
273.4262596998559
 30
0.0
 11
105.0240129914464
 21
273.4262596998559
 31
0.0
  0
LINE
  5
9651
330
1F
100
AcDbEntity
  8
0
  6
Continuous
 62
     7
100
AcDbLine
 10
113.2556600432929
 20
271.2818374521975
 30
0.0
 11
105.0240129914464
 21
271.2818374521975
 31
0.0
  0
LINE
  5
9652
330
1F
100
AcDbEntity
  8
0
  6
Continuous
 62
     7
100
AcDbLine
 10
113.2556600432929
 20
266.8255087373739
 30
0.0
 11
105.0240129914464
 21
266.8255087373739
 31
0.0
  0
LINE
  5
9653
330
1F
100
AcDbEntity
  8
0
  6
Continuous
 62
     7
100
AcDbLine
 10
113.2556600432929
 20
266.1181401804011
 30
0.0
 11
105.0240129914464
 21
266.1181401804011
 31
0.0
  0
LINE
  5
9659
330
1F
100
AcDbEntity
  8
0
100
AcDbLine
 10
135.7691679332455
 20
294.3943948735356
 30
0.0
 11
117.6122554490063
 21
294.3943948735356
 31
0.0
  0
LINE
  5
965A
330
1F
100
AcDbEntity
  8
0
100
AcDbLine
 10
135.7691679332456
 20
289.3943948735357
 30
0.0
 11
117.6122554490063
 21
289.3943948735356
 31
0.0
  0
LINE
  5
965D
330
1F
100
AcDbEntity
  8
0
100
AcDbLine
 10
135.7691679332455
 20
294.3943948735356
 30
0.0
 11
136.7691679332455
 21
293.9280872153807
 31
0.0
  0
LINE
  5
965E
330
1F
100
AcDbEntity
  8
0
100
AcDbLine
 10
135.7691679332456
 20
289.3943948735357
 30
0.0
 11
136.7691679332455
 21
289.8607025316906
 31
0.0
  0
LINE
  5
965F
330
1F
100
AcDbEntity
  8
0
100
AcDbLine
 10
136.7691679332455
 20
289.8607025316906
 30
0.0
 11
136.7691679332455
 21
293.9280872153807
 31
0.0
  0
LINE
  5
9665
330
1F
100
AcDbEntity
  8
0
  6
Continuous
 62
     7
100
AcDbLine
 10
116.2672382341952
 20
265.8943948742356
 30
0.0
 11
116.2672382341952
 21
317.8943948745356
 31
0.0
  0
SPLINE
  5
9678
330
1F
100
AcDbEntity
  8
0
  6
Continuous
 62
     7
100
AcDbSpline
210
0.0
220
0.0
230
1.0
 70
     8
 71
     3
 72
     8
 73
     4
 74
     2
 42
0.0000000001
 43
0.0000000001
 44
0.0000000001
 12
0.0000000000000004
 22
1.0
 32
0.0
 13
-0.0308115460056083
 23
0.9995252116043618
 33
0.0
 40
0.0
 40
0.0
 40
0.0
 40
0.0
 40
0.0230616191766969
 40
0.0230616191766969
 40
0.0230616191766969
 40
0.0230616191766969
 10
113.1552741055227
 20
278.8539357557821
 30
0.0
 10
113.1552741055227
 20
278.8616229621744
 30
0.0
 10
113.155155006056
 20
278.8693110711377
 30
0.0
 10
113.1549181513426
 20
278.8769946277335
 30
0.0
 11
113.1552741055227
 21
278.8539357557821
 31
0.0
 11
113.1549181513426
 21
278.8769946277335
 31
0.0
  0
ARC
  5
967B
330
1F
100
AcDbEntity
  8
0
  6
Continuous
 62
     7
100
AcDbCircle
 10
112.251800648592
 20
294.6550082140628
 30
0.0
 40
1.0038593964008
100
AcDbArc
 50
0.0
 51
90.0
  0
ARC
  5
967C
330
1F
100
AcDbEntity
  8
0
  6
Continuous
 62
     7
100
AcDbCircle
 10
112.251800648592
 20
289.1337815330085
 30
0.0
 40
1.0038593964008
100
AcDbArc
 50
270.0
 51
0.0
  0
ARC
  5
967D
330
1F
100
AcDbEntity
  8
0
  6
Continuous
 62
     7
100
AcDbCircle
 10
113.3560459844629
 20
317.894353245586
 30
0.0
 40
0.1003859394700932
100
AcDbArc
 50
90.0
 51
180.0
  0
ARC
  5
967E
330
1F
100
AcDbEntity
  8
0
  6
Continuous
 62
     7
100
AcDbCircle
 10
113.3560459844629
 20
265.8944365031851
 30
0.0
 40
0.1003859394700932
100
AcDbArc
 50
180.0
 51
270.0
  0
ARC
  5
967F
330
1F
100
AcDbEntity
  8
0
  6
Continuous
 62
     7
100
AcDbCircle
 10
116.166852294725
 20
265.8944365031851
 30
0.0
 40
0.1003859394700932
100
AcDbArc
 50
270.0
 51
0.0
  0
ARC
  5
9680
330
1F
100
AcDbEntity
  8
0
  6
Continuous
 62
     7
100
AcDbCircle
 10
116.1668522947252
 20
317.894353245586
 30
0.0
 40
0.1003859394700932
100
AcDbArc
 50
0.0
 51
90.0
  0
LINE
  5
9686
330
1F
100
AcDbEntity
  8
0
  6
Continuous
 62
     7
100
AcDbLine
 10
116.166852294725
 20
265.7940505637151
 30
0.0
 11
113.3560459844628
 21
265.7940505637151
 31
0.0
  0
LINE
  5
9687
330
1F
100
AcDbEntity
  8
0
  6
Continuous
 62
     7
100
AcDbLine
 10
113.2556600449928
 20
265.8063841828671
 30
0.0
 11
113.1552741055226
 21
265.8063841828671
 31
0.0
  0
LINE
  5
968A
330
1F
100
AcDbEntity
  8
0
  6
Continuous
 62
     7
100
AcDbLine
 10
113.2556600449928
 20
266.1181401804011
 30
0.0
 11
113.1552741055226
 21
266.1181401804011
 31
0.0
  0
LINE
  5
968C
330
1F
100
AcDbEntity
  8
0
  6
Continuous
 62
     7
100
AcDbLine
 10
113.2556600449928
 20
266.8255087373739
 30
0.0
 11
113.1552741055226
 21
266.8255087373739
 31
0.0
  0
LINE
  5
968E
330
1F
100
AcDbEntity
  8
0
  6
Continuous
 62
     7
100
AcDbLine
 10
113.2556600449928
 20
271.2818374521975
 30
0.0
 11
113.1552741055226
 21
271.2818374521975
 31
0.0
  0
LINE
  5
9690
330
1F
100
AcDbEntity
  8
0
  6
Continuous
 62
     7
100
AcDbLine
 10
113.2556600449928
 20
273.4262596998559
 30
0.0
 11
113.1552741055227
 21
273.4262596998559
 31
0.0
  0
LINE
  5
9692
330
1F
100
AcDbEntity
  8
0
  6
Continuous
 62
     7
100
AcDbLine
 10
113.2556600449928
 20
275.9111796510437
 30
0.0
 11
113.1552741055227
 21
275.9111796510437
 31
0.0
  0
LINE
  5
9697
330
1F
100
AcDbEntity
  8
0
  6
Continuous
 62
     7
100
AcDbLine
 10
113.2556600449928
 20
278.5729785075068
 30
0.0
 11
113.1552741055227
 21
278.5729785075068
 31
0.0
  0
LINE
  5
9699
330
1F
100
AcDbEntity
  8
0
  6
Continuous
 62
     7
100
AcDbLine
 10
113.2556600449928
 20
278.5931366472222
 30
0.0
 11
113.1552741055227
 21
278.5931366472222
 31
0.0
  0
LINE
  5
969D
330
1F
100
AcDbEntity
  8
0
  6
Continuous
 62
     7
100
AcDbLine
 10
117.411483570066
 20
280.851941511427
 30
0.0
 11
116.2672382341952
 21
280.851941511427
 31
0.0
  0
LINE
  5
969E
330
1F
100
AcDbEntity
  8
0
  6
Continuous
 62
     7
100
AcDbLine
 10
113.2556600449928
 20
281.5448060434483
 30
0.0
 11
107.5336614832983
 21
281.5448060434483
 31
0.0
  0
LINE
  5
96A0
330
1F
100
AcDbEntity
  8
0
  6
Continuous
 62
     7
100
AcDbLine
 10
113.2556600449928
 20
283.3721305738567
 30
0.0
 11
107.5336614832983
 21
283.3721305738567
 31
0.0
  0
LINE
  5
96A4
330
1F
100
AcDbEntity
  8
0
  6
Continuous
 62
     7
100
AcDbLine
 10
112.251800648592
 20
288.1299221366077
 30
0.0
 11
107.5336614832983
 21
288.1299221366077
 31
0.0
  0
LINE
  5
96AE
330
1F
100
AcDbEntity
  8
0
  6
Continuous
 62
     7
100
AcDbLine
 10
100.0047160094425
 20
317.9947387668884
 30
0.0
 11
100.0047160094423
 21
265.80038404382
 31
0.0
  0
LINE
  5
96B1
330
1F
100
AcDbEntity
  8
0
  6
Continuous
 62
     7
100
AcDbLine
 10
112.251800648592
 20
295.6588676104636
 30
0.0
 11
107.5336614832983
 21
295.6588676104636
 31
0.0
  0
LINE
  5
96B4
330
1F
100
AcDbEntity
  8
0
  6
Continuous
 62
     7
100
AcDbLine
 10
105.0240129931463
 20
317.9824055659042
 30
0.0
 11
105.0240129931463
 21
317.9947472764305
 31
0.0
  0
LINE
  5
96B5
330
1F
100
AcDbEntity
  8
0
  6
Continuous
 62
     7
100
AcDbLine
 10
105.0240129931463
 20
316.9632810096974
 30
0.0
 11
105.0240129931463
 21
317.6706495683701
 31
0.0
  0
LINE
  5
96B6
330
1F
100
AcDbEntity
  8
0
  6
Continuous
 62
     7
100
AcDbLine
 10
105.0240129931463
 20
310.3625300489152
 30
0.0
 11
105.0240129931463
 21
312.5069522965738
 31
0.0
  0
LINE
  5
96B7
330
1F
100
AcDbEntity
  8
0
  6
Continuous
 62
     7
100
AcDbLine
 10
105.0240129931463
 20
305.1956531015489
 30
0.0
 11
105.0240129931463
 21
307.8776100977276
 31
0.0
  0
LINE
  5
96B8
330
1F
100
AcDbEntity
  8
0
  6
Continuous
 62
     7
100
AcDbLine
 10
107.5336614832983
 20
295.6588676104636
 30
0.0
 11
107.5336614832985
 21
302.243983703623
 31
0.0
  0
LINE
  5
96B9
330
1F
100
AcDbEntity
  8
0
  6
Continuous
 62
     7
100
AcDbLine
 10
107.5336614832983
 20
281.5448060434483
 30
0.0
 11
107.5336614832983
 21
288.1299221366077
 31
0.0
  0
LINE
  5
96BA
330
1F
100
AcDbEntity
  8
0
  6
Continuous
 62
     7
100
AcDbLine
 10
113.2556600449928
 20
300.4166591749146
 30
0.0
 11
107.5336614832985
 21
300.4166591749146
 31
0.0
  0
LINE
  5
96BC
330
1F
100
AcDbEntity
  8
0
  6
Continuous
 62
     7
100
AcDbLine
 10
113.2556600449928
 20
302.243983703623
 30
0.0
 11
107.5336614832985
 21
302.243983703623
 31
0.0
  0
LINE
  5
96BF
330
1F
100
AcDbEntity
  8
0
  6
Continuous
 62
     7
100
AcDbLine
 10
113.2556600449928
 20
305.1956531015489
 30
0.0
 11
105.0240129931463
 21
305.1956531015489
 31
0.0
  0
LINE
  5
96C1
330
1F
100
AcDbEntity
  8
0
  6
Continuous
 62
     7
100
AcDbLine
 10
113.2556600449928
 20
305.2158112395645
 30
0.0
 11
105.0240129931463
 21
305.2158112395645
 31
0.0
  0
LINE
  5
96C3
330
1F
100
AcDbEntity
  8
0
  6
Continuous
 62
     7
100
AcDbLine
 10
113.2556600449928
 20
317.9824055659042
 30
0.0
 11
113.2556600449928
 21
265.8063841828671
 31
0.0
  0
LINE
  5
96C4
330
1F
100
AcDbEntity
  8
0
  6
Continuous
 62
     7
100
AcDbLine
 10
113.3560459844628
 20
265.7940505637151
 30
0.0
 11
113.3560459844628
 21
317.9947391850561
 31
0.0
  0
LINE
  5
96C5
330
1F
100
AcDbEntity
  8
0
  6
Continuous
 62
     7
100
AcDbLine
 10
113.2556600449928
 20
307.8776100977276
 30
0.0
 11
105.0240129931463
 21
307.8776100977276
 31
0.0
  0
LINE
  5
96C7
330
1F
100
AcDbEntity
  8
0
  6
Continuous
 62
     7
100
AcDbLine
 10
116.1668522947251
 20
317.9947391850561
 30
0.0
 11
116.166852294725
 21
265.7940505637151
 31
0.0
  0
LINE
  5
96C8
330
1F
100
AcDbEntity
  8
0
  6
Continuous
 62
     7
100
AcDbLine
 10
116.2672382341952
 20
317.894353245586
 30
0.0
 11
116.2672382341952
 21
265.8944365031851
 31
0.0
  0
LINE
  5
96C9
330
1F
100
AcDbEntity
  8
0
  6
Continuous
 62
     7
100
AcDbLine
 10
117.411483570066
 20
302.9368482356443
 30
0.0
 11
117.411483570066
 21
280.851941511427
 31
0.0
  0
LINE
  5
96CA
330
1F
100
AcDbEntity
  8
0
  6
Continuous
 62
     7
100
AcDbLine
 10
117.6122554490063
 20
302.7359493221255
 30
0.0
 11
117.6122554490063
 21
281.0528404249457
 31
0.0
  0
LINE
  5
96CB
330
1F
100
AcDbEntity
  8
0
  6
Continuous
 62
     7
100
AcDbLine
 10
117.6122554490063
 20
302.7360763567041
 30
0.0
 11
117.411483570066
 21
302.9368482356443
 31
0.0
  0
LINE
  5
96CC
330
1F
100
AcDbEntity
  8
0
  6
Continuous
 62
     7
100
AcDbLine
 10
113.2556600449928
 20
310.3625300489152
 30
0.0
 11
105.0240129931463
 21
310.3625300489152
 31
0.0
  0
LINE
  5
96CE
330
1F
100
AcDbEntity
  8
0
  6
Continuous
 62
     7
100
AcDbLine
 10
117.6122554490063
 20
281.0527133903671
 30
0.0
 11
117.411483570066
 21
280.851941511427
 31
0.0
  0
LINE
  5
96CF
330
1F
100
AcDbEntity
  8
0
  6
Continuous
 62
     7
100
AcDbLine
 10
113.2556600449928
 20
312.5069522965738
 30
0.0
 11
105.0240129931463
 21
312.5069522965738
 31
0.0
  0
LINE
  5
96D1
330
1F
100
AcDbEntity
  8
0
  6
Continuous
 62
     7
100
AcDbLine
 10
113.2556600449928
 20
316.9632810096974
 30
0.0
 11
105.0240129931463
 21
316.9632810096974
 31
0.0
  0
LINE
  5
96D3
330
1F
100
AcDbEntity
  8
0
  6
Continuous
 62
     7
100
AcDbLine
 10
113.2556600449928
 20
317.6706495683701
 30
0.0
 11
105.0240129931463
 21
317.6706495683701
 31
0.0
  0
LINE
  5
96D6
330
1F
100
AcDbEntity
  8
0
  6
Continuous
 62
     7
100
AcDbLine
 10
113.2556600449928
 20
317.9824055659042
 30
0.0
 11
105.0240129931463
 21
317.9824055659042
 31
0.0
  0
LINE
  5
96D8
330
1F
100
AcDbEntity
  8
0
  6
Continuous
 62
     7
100
AcDbLine
 10
105.0240129931463
 20
317.9947391850561
 30
0.0
 11
93.16723823419524
 21
317.9947391850561
 31
0.0
  0
LINE
  5
96D9
330
1F
100
AcDbEntity
  8
0
  6
Continuous
 62
     7
100
AcDbLine
 10
113.3560459844628
 20
317.9947391850561
 30
0.0
 11
116.1668522947251
 21
317.9947391850561
 31
0.0
  0
LINE
  5
96ED
330
1F
100
AcDbEntity
  8
0
  6
Continuous
 62
     7
100
AcDbLine
 10
13.25124197310566
 20
265.7940505620153
 30
0.0
 11
24.07504530656416
 21
265.7940505620153
 31
0.0
  0
LINE
  5
96EE
330
1F
100
AcDbEntity
  8
0
  6
Continuous
 62
     7
100
AcDbLine
 10
13.25124197310566
 20
265.8944365014855
 30
0.0
 11
24.07504530656416
 21
265.8944365014855
 31
0.0
  0
CIRCLE
  5
97A4
330
1F
100
AcDbEntity
  8
0
  6
Continuous
 62
     7
100
AcDbCircle
 10
2.993997978747643
 20
291.8943948735358
 30
0.0
 40
10.84168148316849
  0
CIRCLE
  5
97A5
330
1F
100
AcDbEntity
  8
0
  6
Continuous
 62
     7
100
AcDbCircle
 10
2.993997978747643
 20
291.8943948735358
 30
0.0
 40
26.10034431152043
  0
CIRCLE
  5
97A6
330
1F
100
AcDbEntity
  8
0
  6
Continuous
 62
     7
100
AcDbCircle
 10
2.993997978747643
 20
291.8943948735358
 30
0.0
 40
11.04245336210867
  0
CIRCLE
  5
97A7
330
1F
100
AcDbEntity
  8
0
  6
Continuous
 62
     7
100
AcDbCircle
 10
2.993997978747643
 20
291.8943948735358
 30
0.0
 40
2.710420370792122
  0
ARC
  5
97A8
330
1F
100
AcDbEntity
  8
0
  6
Continuous
 62
     7
100
AcDbCircle
 10
2.993997978747643
 20
291.8943948735358
 30
0.0
 40
25.89957243088037
100
AcDbArc
 50
208.6323661444005
 51
331.3676338555993
  0
ARC
  5
97A9
330
1F
100
AcDbEntity
  8
0
  6
Continuous
 62
     7
100
AcDbCircle
 10
2.993997978747643
 20
291.8943948735358
 30
0.0
 40
25.89957243088037
100
AcDbArc
 50
334.6323661443989
 51
88.36763385560017
  0
ARC
  5
97AA
330
1F
100
AcDbEntity
  8
0
  6
Continuous
 62
     7
100
AcDbCircle
 10
2.993997978747643
 20
291.8943948735358
 30
0.0
 40
25.89957243088037
100
AcDbArc
 50
91.63236614439984
 51
205.3676338556011
  0
CIRCLE
  5
97AC
330
1F
100
AcDbEntity
  8
0
  6
Continuous
 62
     7
100
AcDbCircle
 10
2.993997978747643
 20
291.8943948735358
 30
0.0
 40
25.99995837205034
  0
ARC
  5
97AD
330
1F
100
AcDbEntity
  8
0
  6
Continuous
 62
     7
100
AcDbCircle
 10
-18.08704934906893
 20
312.9754422013524
 30
0.0
 40
4.918911161524711
100
AcDbArc
 50
90.0
 51
180.0
  0
ARC
  5
97AE
330
1F
100
AcDbEntity
  8
0
  6
Continuous
 62
     7
100
AcDbCircle
 10
-18.08704934906893
 20
270.8133475440194
 30
0.0
 40
4.918911161524711
100
AcDbArc
 50
180.0
 51
270.0
  0
ARC
  5
97AF
330
1F
100
AcDbEntity
  8
0
  6
Continuous
 62
     7
100
AcDbCircle
 10
24.07504530656416
 20
270.8133475440194
 30
0.0
 40
4.918911161524711
100
AcDbArc
 50
270.0
 51
0.0
  0
ARC
  5
97B0
330
1F
100
AcDbEntity
  8
0
  6
Continuous
 62
     7
100
AcDbCircle
 10
24.07504530656416
 20
312.9754422013524
 30
0.0
 40
4.918911161524711
100
AcDbArc
 50
0.0
 51
90.0
  0
ARC
  5
97B1
330
1F
100
AcDbEntity
  8
0
  6
Continuous
 62
     7
100
AcDbCircle
 10
-18.08704934906893
 20
270.8133475440194
 30
0.0
 40
5.019296983703872
100
AcDbArc
 50
180.0
 51
270.0
  0
ARC
  5
97B2
330
1F
100
AcDbEntity
  8
0
  6
Continuous
 62
     7
100
AcDbCircle
 10
24.07504530656416
 20
270.8133475440194
 30
0.0
 40
5.019296983703872
100
AcDbArc
 50
270.0
 51
0.0
  0
ARC
  5
97B3
330
1F
100
AcDbEntity
  8
0
  6
Continuous
 62
     7
100
AcDbCircle
 10
24.07504530656416
 20
312.9754422013524
 30
0.0
 40
5.019296983703872
100
AcDbArc
 50
0.0
 51
90.0
  0
ARC
  5
97B4
330
1F
100
AcDbEntity
  8
0
  6
Continuous
 62
     7
100
AcDbCircle
 10
-18.08704934906893
 20
312.9754422013524
 30
0.0
 40
5.019296983703872
100
AcDbArc
 50
90.0
 51
180.0
  0
CIRCLE
  5
97B5
330
1F
100
AcDbEntity
  8
0
  6
Continuous
 62
     7
100
AcDbCircle
 10
24.27581718720427
 20
270.6125756650792
 30
0.0
 40
1.606175034921228
  0
CIRCLE
  5
97B6
330
1F
100
AcDbEntity
  8
0
  6
Continuous
 62
     7
100
AcDbCircle
 10
24.07581718720427
 20
312.9762140802926
 30
0.0
 40
1.606175034921228
  0
CIRCLE
  5
97B7
330
1F
100
AcDbEntity
  8
0
  6
Continuous
 62
     7
100
AcDbCircle
 10
-18.28782122800908
 20
312.9762140802926
 30
0.0
 40
1.606175034921228
  0
ARC
  5
97B8
330
1F
100
AcDbEntity
  8
0
  6
Continuous
 62
     7
100
AcDbCircle
 10
2.993997978747643
 20
291.8943948735358
 30
0.0
 40
26.15053728125547
100
AcDbArc
 50
157.8780536592008
 51
242.2880218888994
  0
CIRCLE
  5
97B9
330
1F
100
AcDbEntity
  8
0
  6
Continuous
 62
     7
100
AcDbCircle
 10
2.993997978747643
 20
291.8943948735358
 30
0.0
 40
2.041541166295212
  0
CIRCLE
  5
97BA
330
1F
100
AcDbEntity
  8
0
  6
Continuous
 62
     7
100
AcDbCircle
 10
2.993997978747643
 20
291.8943948735358
 30
0.0
 40
2.415594539037477
  0
CIRCLE
  5
97BB
330
1F
100
AcDbEntity
  8
0
  6
Continuous
 62
     7
100
AcDbCircle
 10
2.993997978747643
 20
291.8943948735358
 30
0.0
 40
2.509648491851936
  0
LINE
  5
97BC
330
1F
100
AcDbEntity
  8
0
  6
Continuous
 62
     7
100
AcDbLine
 10
-23.10634633107287
 20
290.3987314447398
 30
0.0
 11
-23.10634633107287
 21
270.8133475440194
 31
0.0
  0
LINE
  5
97BD
330
1F
100
AcDbEntity
  8
0
  6
Continuous
 62
     7
100
AcDbLine
 10
-23.10634633107287
 20
312.9754422013523
 30
0.0
 11
-23.10634633107287
 21
293.3595057416393
 31
0.0
  0
LINE
  5
97BE
330
1F
100
AcDbEntity
  8
0
  6
Continuous
 62
     7
100
AcDbLine
 10
-23.00596039160274
 20
289.4092692280511
 30
0.0
 11
-23.00596039160274
 21
270.8133475440194
 31
0.0
  0
LINE
  5
97BF
330
1F
100
AcDbEntity
  8
0
  6
Continuous
 62
     7
100
AcDbLine
 10
-23.00596039160274
 20
312.9754422013523
 30
0.0
 11
-23.00596039160274
 21
294.3763379315756
 31
0.0
  0
LINE
  5
97C0
330
1F
100
AcDbEntity
  8
0
  6
Continuous
 62
     7
100
AcDbLine
 10
24.07504530656416
 20
317.9947391833563
 30
0.0
 11
-18.08704934906888
 21
317.9947391833563
 31
0.0
  0
LINE
  5
97C1
330
1F
100
AcDbEntity
  8
0
  6
Continuous
 62
     7
100
AcDbLine
 10
0.9206396345313692
 20
317.8943532438863
 30
0.0
 11
-18.08704934906888
 21
317.8943532438863
 31
0.0
  0
LINE
  5
97C2
330
1F
100
AcDbEntity
  8
0
  6
Continuous
 62
     7
100
AcDbLine
 10
24.07504530656416
 20
317.8943532438863
 30
0.0
 11
5.067356324663876
 21
317.8943532438863
 31
0.0
  0
LINE
  5
97C9
330
1F
100
AcDbEntity
  8
0
  6
Continuous
 62
     7
100
AcDbLine
 10
-18.08704934906888
 20
317.8943532438863
 30
0.0
 11
-18.08704934566907
 21
317.9947391833563
 31
0.0
  0
LINE
  5
97CA
330
1F
100
AcDbEntity
  8
0
  6
Continuous
 62
     7
100
AcDbLine
 10
-18.08704934906888
 20
265.8944365014855
 30
0.0
 11
-18.08704934906888
 21
265.7940505620153
 31
0.0
  0
LINE
  5
97D1
330
1F
100
AcDbEntity
  8
0
  6
Continuous
 62
     7
100
AcDbLine
 10
-23.00596039160274
 20
312.9754422013523
 30
0.0
 11
-23.10634633107287
 21
312.9754422013523
 31
0.0
  0
LINE
  5
97D2
330
1F
100
AcDbEntity
  8
0
  6
Continuous
 62
     7
100
AcDbLine
 10
28.99395635079799
 20
312.9754422013523
 30
0.0
 11
29.09434229026812
 21
312.9754421979525
 31
0.0
  0
LINE
  5
97D3
330
1F
100
AcDbEntity
  8
0
  6
Continuous
 62
     7
100
AcDbLine
 10
-2.025299003256293
 20
317.3894103577942
 30
0.0
 11
-2.025299003256293
 21
317.5075678690923
 31
0.0
  0
LINE
  5
97D5
330
1F
100
AcDbEntity
  8
0
  6
Continuous
 62
     7
100
AcDbLine
 10
28.33772711779494
 20
297.5854620673245
 30
0.0
 11
28.4619275700955
 21
297.6051334870696
 31
0.0
  0
LINE
  5
97D7
330
1F
100
AcDbEntity
  8
0
  6
Continuous
 62
     7
100
AcDbLine
 10
26.14007596061862
 20
303.7154020870744
 30
0.0
 11
26.2416027872834
 21
303.7593366693636
 31
0.0
  0
LINE
  5
97D8
330
1F
100
AcDbEntity
  8
0
  6
Continuous
 62
     7
100
AcDbLine
 10
22.46784561976182
 20
309.0961165248402
 30
0.0
 11
22.56054549636389
 21
309.1680219210243
 31
0.0
  0
LINE
  5
97D9
330
1F
100
AcDbEntity
  8
0
  6
Continuous
 62
     7
100
AcDbLine
 10
-15.39930035158676
 20
273.5359632190569
 30
0.0
 11
-15.47413719493198
 21
273.4510774836209
 31
0.0
  0
LINE
  5
97DA
330
1F
100
AcDbEntity
  8
0
  6
Continuous
 62
     7
100
AcDbLine
 10
17.58275307162142
 20
313.404582895533
 30
0.0
 11
17.65005006459449
 21
313.49134165666
 31
0.0
  0
LINE
  5
97DB
330
1F
100
AcDbEntity
  8
0
  6
Continuous
 62
     7
100
AcDbLine
 10
-10.04646113900577
 20
269.2273036158034
 30
0.0
 11
-10.02310279610748
 21
269.2717721132142
 31
0.0
  0
LINE
  5
97DC
330
1F
100
AcDbEntity
  8
0
  6
Continuous
 62
     7
100
AcDbLine
 10
-10.25469021390842
 20
269.5408442611614
 30
0.0
 11
-10.30726024756581
 21
269.437669762083
 31
0.0
  0
LINE
  5
97DD
330
1F
100
AcDbEntity
  8
0
  6
Continuous
 62
     7
100
AcDbLine
 10
11.81866097880078
 20
316.4576457994311
 30
0.0
 11
11.7731083341086
 21
316.352379848349
 31
0.0
  0
LINE
  5
97DF
330
1F
100
AcDbEntity
  8
0
  6
Continuous
 62
     7
100
AcDbLine
 10
-5.830665021305378
 20
316.4576457994311
 30
0.0
 11
-5.785112374913467
 21
316.352379848349
 31
0.0
  0
LINE
  5
97E0
330
1F
100
AcDbEntity
  8
0
  6
Continuous
 62
     7
100
AcDbLine
 10
16.24118845289678
 20
269.5437837011047
 30
0.0
 11
16.29525620676094
 21
269.437669762083
 31
0.0
  0
LINE
  5
97E1
330
1F
100
AcDbEntity
  8
0
  6
Continuous
 62
     7
100
AcDbLine
 10
-11.59475711242618
 20
313.404582895533
 30
0.0
 11
-11.66205410709921
 21
313.49134165666
 31
0.0
  0
LINE
  5
97E2
330
1F
100
AcDbEntity
  8
0
  6
Continuous
 62
     7
100
AcDbLine
 10
21.387296310782
 20
273.5359632190569
 30
0.0
 11
21.46213315412723
 21
273.4510774836209
 31
0.0
  0
LINE
  5
97E3
330
1F
100
AcDbEntity
  8
0
  6
Continuous
 62
     7
100
AcDbLine
 10
-16.47984966056657
 20
309.0961165248402
 30
0.0
 11
-16.57254953886848
 21
309.1680219210243
 31
0.0
  0
LINE
  5
97E4
330
1F
100
AcDbEntity
  8
0
  6
Continuous
 62
     7
100
AcDbLine
 10
-20.15899493760952
 20
303.7183944473263
 30
0.0
 11
-20.253606829788
 21
303.7593366693636
 31
0.0
  0
LINE
  5
97E7
330
1F
100
AcDbEntity
  8
0
  6
Continuous
 62
     7
100
AcDbLine
 10
28.97661043626129
 20
291.1020666623419
 30
0.0
 11
29.08200867111617
 21
291.0921035966154
 31
0.0
  0
LINE
  5
97E9
330
1F
100
AcDbEntity
  8
0
  6
Continuous
 62
     7
100
AcDbLine
 10
28.98015365592465
 20
294.3331827560282
 30
0.0
 11
28.86890345520232
 21
294.315562455505
 31
0.0
  0
LINE
  5
97EA
330
1F
100
AcDbEntity
  8
0
  6
Continuous
 62
     7
100
AcDbLine
 10
27.55724890634287
 20
300.7190578735889
 30
0.0
 11
27.45987482801701
 21
300.6769203464641
 31
0.0
  0
LINE
  5
97EC
330
1F
100
AcDbEntity
  8
0
  6
Continuous
 62
     7
100
AcDbLine
 10
24.59094476357183
 20
306.5504469593827
 30
0.0
 11
24.49908149258937
 21
306.4791905016273
 31
0.0
  0
LINE
  5
97ED
330
1F
100
AcDbEntity
  8
0
  6
Continuous
 62
     7
100
AcDbLine
 10
-12.98921724374435
 20
271.2603258550219
 30
0.0
 11
-12.92190987137377
 21
271.3366710835495
 31
0.0
  0
LINE
  5
97EE
330
1F
100
AcDbEntity
  8
0
  6
Continuous
 62
     7
100
AcDbLine
 10
20.2676250262362
 20
311.4609423911519
 30
0.0
 11
20.20223125711931
 21
311.3766372509283
 31
0.0
  0
LINE
  5
97EF
330
1F
100
AcDbEntity
  8
0
  6
Continuous
 62
     7
100
AcDbLine
 10
-9.166711418523789
 20
268.7434176358406
 30
0.0
 11
-9.143370324191948
 21
268.7878532934903
 31
0.0
  0
LINE
  5
97F0
330
1F
100
AcDbEntity
  8
0
  6
Continuous
 62
     7
100
AcDbLine
 10
-7.308099928101626
 20
268.0269252705561
 30
0.0
 11
-7.355590851339741
 21
267.9337190846983
 31
0.0
  0
LINE
  5
97F1
330
1F
100
AcDbEntity
  8
0
  6
Continuous
 62
     7
100
AcDbLine
 10
14.8589397745755
 20
315.1419996820715
 30
0.0
 11
14.81212543642863
 21
315.033818128303
 31
0.0
  0
LINE
  5
97F8
330
1F
100
AcDbEntity
  8
0
  6
Continuous
 62
     7
100
AcDbLine
 10
-8.870943817080217
 20
315.1419996820715
 30
0.0
 11
-8.824129477233384
 21
315.033818128303
 31
0.0
  0
LINE
  5
97FA
330
1F
100
AcDbEntity
  8
0
  6
Continuous
 62
     7
100
AcDbLine
 10
-14.2796290687408
 20
311.4609423911519
 30
0.0
 11
-14.21423529792406
 21
311.3766372509283
 31
0.0
  0
LINE
  5
97FB
330
1F
100
AcDbEntity
  8
0
  6
Continuous
 62
     7
100
AcDbLine
 10
18.97721320293959
 20
271.2603258550219
 30
0.0
 11
18.90990582886917
 21
271.3366710835495
 31
0.0
  0
LINE
  5
97FC
330
1F
100
AcDbEntity
  8
0
  6
Continuous
 62
     7
100
AcDbLine
 10
-18.60294880437658
 20
306.5504469593827
 30
0.0
 11
-18.51108553339412
 21
306.4791905016273
 31
0.0
  0
LINE
  5
97FD
330
1F
100
AcDbEntity
  8
0
  6
Continuous
 62
     7
100
AcDbLine
 10
23.60655540178578
 20
275.8834470669307
 30
0.0
 11
23.50909107233753
 21
275.9496837566789
 31
0.0
  0
LINE
  5
9802
330
1F
100
AcDbEntity
  8
0
  6
Continuous
 62
     7
100
AcDbLine
 10
28.77025267358209
 20
287.7940696265454
 30
0.0
 11
28.65464551080919
 21
287.8049977212625
 31
0.0
  0
LINE
  5
980F
330
1F
100
AcDbEntity
  8
0
  6
Continuous
 62
     7
100
AcDbLine
 10
24.07504530656416
 20
317.8943532438863
 30
0.0
 11
24.07504530656416
 21
317.9947391833563
 31
0.0
  0
LINE
  5
9810
330
1F
100
AcDbEntity
  8
0
  6
Continuous
 62
     7
100
AcDbLine
 10
24.07504530656416
 20
265.8944365014855
 30
0.0
 11
24.07504530486443
 21
265.7940505620153
 31
0.0
  0
LINE
  5
9815
330
1F
100
AcDbEntity
  8
0
  6
Continuous
 62
     7
100
AcDbLine
 10
-23.00596039160274
 20
270.8133475440194
 30
0.0
 11
-23.10634633107287
 21
270.813347547419
 31
0.0
  0
LINE
  5
9816
330
1F
100
AcDbEntity
  8
0
  6
Continuous
 62
     7
100
AcDbLine
 10
28.99395635079799
 20
270.8133475440194
 30
0.0
 11
29.09434229026812
 21
270.8133475440194
 31
0.0
  0
LINE
  5
981D
330
1F
100
AcDbEntity
  8
0
  6
Continuous
 62
     7
100
AcDbLine
 10
28.99395635079799
 20
294.3331827560282
 30
0.0
 11
28.99395635079799
 21
297.3468371422179
 31
0.0
  0
LINE
  5
981E
330
1F
100
AcDbEntity
  8
0
  6
Continuous
 62
     7
100
AcDbLine
 10
28.99395635079799
 20
270.8133475440194
 30
0.0
 11
28.99395635079799
 21
281.3498172997533
 31
0.0
  0
LINE
  5
981F
330
1F
100
AcDbEntity
  8
0
  6
Continuous
 62
     7
100
AcDbLine
 10
29.09434229026812
 20
270.8133475440194
 30
0.0
 11
29.09434229026811
 21
281.3498172997533
 31
0.0
  0
LINE
  5
9821
330
1F
100
AcDbEntity
  8
0
  6
Continuous
 62
     7
100
AcDbLine
 10
-18.08704934906888
 20
265.8944365014855
 30
0.0
 11
-5.473167475644288
 21
265.8944365014855
 31
0.0
  0
LINE
  5
9823
330
1F
100
AcDbEntity
  8
0
  6
Continuous
 62
     7
100
AcDbLine
 10
-18.08704934906888
 20
265.7940505620153
 30
0.0
 11
-5.473167475644288
 21
265.7940505620153
 31
0.0
  0
LINE
  5
9824
330
1F
100
AcDbEntity
  8
0
  6
Continuous
 62
     7
100
AcDbLine
 10
93.1672382341952
 20
265.7913022457727
 30
0.0
 11
100.0047160094423
 21
265.80038404382
 31
0.0
  0
LINE
  5
982F
330
1F
100
AcDbEntity
  8
0
  6
Continuous
 62
     7
100
AcDbLine
 10
100.0047160094423
 20
265.80038404382
 30
0.0
 11
104.5220832940959
 21
265.8063841828671
 31
0.0
  0
CIRCLE
  5
9846
330
1F
100
AcDbEntity
  8
0
100
AcDbCircle
 10
-18.28782122800902
 20
270.6125756650792
 30
0.0
 40
1.649999999999999
  0
LINE
  5
984B
330
1F
100
AcDbEntity
  8
0
100
AcDbLine
 10
98.37054994277796
 20
317.9947391850561
 30
0.0
 11
103.6845510964615
 21
317.9947391850561
 31
0.0
  0
LINE
  5
993D
330
1F
100
AcDbEntity
  8
0
370
     0
100
AcDbLine
 10
117.411483570066
 20
302.9368482356443
 30
0.0
 11
116.2672382341952
 21
302.9368482356443
 31
0.0
  0
LINE
  5
9942
330
1F
100
AcDbEntity
  8
0
  6
Continuous
 62
     7
100
AcDbLine
 10
91.36299289832441
 20
280.8520685460056
 30
0.0
 11
93.16723823419522
 21
280.8519415114271
 31
0.0
  0
LINE
  5
9945
330
1F
100
AcDbEntity
  8
0
  6
Continuous
 62
     7
100
AcDbLine
 10
91.36299289832455
 20
302.9368482356444
 30
0.0
 11
91.36299289832441
 21
280.8519415114271
 31
0.0
  0
LINE
  5
9946
330
1F
100
AcDbEntity
  8
0
  6
Continuous
 62
     7
100
AcDbLine
 10
91.16222101938431
 20
302.7359493221256
 30
0.0
 11
91.16222101938415
 21
281.0528404249458
 31
0.0
  0
LINE
  5
9947
330
1F
100
AcDbEntity
  8
0
  6
Continuous
 62
     7
100
AcDbLine
 10
91.16222101938431
 20
302.7360763567042
 30
0.0
 11
91.36299289832455
 21
302.9368482356444
 31
0.0
  0
LINE
  5
9948
330
1F
100
AcDbEntity
  8
0
  6
Continuous
 62
     7
100
AcDbLine
 10
91.16222101938415
 20
281.0528404249458
 30
0.0
 11
91.36299289832441
 21
280.8520685460056
 31
0.0
  0
LINE
  5
994A
330
1F
100
AcDbEntity
  8
0
370
     0
100
AcDbLine
 10
91.36299289832455
 20
302.9368482356444
 30
0.0
 11
93.16723823419541
 21
302.9368482356444
 31
0.0
  0
LINE
  5
994C
330
1F
100
AcDbEntity
  8
0
370
     0
100
AcDbLine
 10
135.7691679332455
 20
294.3943948735356
 30
0.0
 11
135.7691679332456
 21
289.3943948735357
 31
0.0
  0
DIMENSION
  5
9976
330
1F
100
AcDbEntity
  8
Dimension
370
     0
100
AcDbDimension
  2
*D0
 10
116.2672382341952
 20
233.4984595290456
 30
0.0
 11
104.7172382341952
 21
233.4984595290456
 31
0.0
 70
   160
 71
     5
 42
23.1
  3
STANDARD
100
AcDbAlignedDimension
 13
93.1672382341952
 23
265.8944365031851
 33
0.0
 14
116.2672382341952
 24
265.8944365031853
 34
0.0
100
AcDbRotatedDimension
1001
ACAD
1000
DSTYLE
1002
{
1070
   147
1040
1.0
1070
     3
1000
<>
1070
    71
1070
     0
1070
   271
1070
     1
1002
}
  0
DIMENSION
  5
9EDF
330
1F
100
AcDbEntity
  8
Dimension
370
     0
100
AcDbDimension
  2
*D1
 10
113.2556600449928
 20
256.6626390578409
 30
0.0
 11
105.3388796902861
 21
256.6626390578409
 31
0.0
 70
   160
 71
     5
 42
3.011578189202396
  3
STANDARD
100
AcDbAlignedDimension
 13
116.2672382341952
 23
265.8944365031851
 33
0.0
 14
113.2556600449928
 24
265.8063841828671
 34
0.0
100
AcDbRotatedDimension
1001
ACAD
1000
DSTYLE
1002
{
1070
   147
1040
1.0
1070
     3
1000
<>
1070
    71
1070
     0
1070
   271
1070
     0
1002
}
  0
DIMENSION
  5
9F0B
330
1F
100
AcDbEntity
  8
Dimension
370
     0
100
AcDbDimension
  2
*D2
 10
117.6122554490063
 20
246.4394247739351
 30
0.0
 11
128.3305127151532
 21
248.4113452761571
 31
0.0
 70
   160
 71
     5
 42
1.345017214811136
  3
STANDARD
100
AcDbAlignedDimension
 13
116.2672382341952
 23
265.8944365031851
 33
0.0
 14
117.6122554490063
 24
281.0528404249457
 34
0.0
100
AcDbRotatedDimension
1001
ACAD
1000
DSTYLE
1002
{
1070
   147
1040
1.0
1070
    47
1040
0.5
1070
    48
1040
0.5
1070
   272
1070
     1
1070
   279
1070
     2
1002
}
  0
DIMENSION
  5
9F37
330
1F
100
AcDbEntity
  8
Dimension
370
     0
100
AcDbDimension
  2
*D3
 10
136.7691679332455
 20
233.4984595290456
 30
0.0
 11
148.8422920805852
 21
233.4984595290456
 31
0.0
 70
   160
 71
     5
 42
20.50192969905032
  3
STANDARD
100
AcDbAlignedDimension
 13
116.2672382341952
 23
265.8944365031851
 33
0.0
 14
136.7691679332455
 24
289.8607025316906
 34
0.0
100
AcDbRotatedDimension
1001
ACAD
1000
DSTYLE
1002
{
1070
   147
1040
1.0
1070
   284
1070
     8
1070
    47
1040
0.5
1070
    48
1040
0.5
1070
   271
1070
     1
1002
}
  0
LINE
  5
A7A6
330
1F
100
AcDbEntity
  8
Dimension
370
     0
100
AcDbLine
 10
123.6122554490063
 20
246.4394247739351
 30
0.0
 11
134.6018469993312
 21
246.4394247739351
 31
0.0
  0
DIMENSION
  5
A7A7
330
1F
100
AcDbEntity
  8
Dimension
370
     0
100
AcDbDimension
  2
*D4
 10
163.1845588998719
 20
280.8519415114269
 30
0.0
 11
159.7994338430279
 21
291.8943948735357
 31
0.0
 70
    32
 71
     5
 42
22.08490672421738
  3
STANDARD
100
AcDbAlignedDimension
 13
117.411483570066
 23
302.9368482356443
 33
0.0
 14
117.411483570066
 24
280.851941511427
 34
0.0
 50
90.0
100
AcDbRotatedDimension
1001
ACAD
1000
DSTYLE
1002
{
1070
   284
1070
     8
1070
    47
1040
0.0
1070
   272
1070
     3
1070
    48
1040
0.033
1070
   147
1040
1.0
1070
    72
1070
     0
1070
    71
1070
     1
1070
     3
1000
Ø <>
1070
   271
1070
     0
1002
}
  0
DIMENSION
  5
A7FC
330
1F
100
AcDbEntity
  8
Dimension
370
     0
100
AcDbDimension
  2
*D5
 10
150.2058048718598
 20
289.3943948735357
 30
0.0
 11
150.2058048718597
 21
270.1227428691774
 31
0.0
 70
   160
 71
     5
 42
4.999999999999943
  3
STANDARD
100
AcDbAlignedDimension
 13
135.7691679332455
 23
294.3943948735356
 33
0.0
 14
135.7691679332455
 24
289.3943948735357
 34
0.0
 50
90.0
100
AcDbRotatedDimension
1001
ACAD
1000
DSTYLE
1002
{
1070
   147
1040
1.0
1070
     3
1000
Ø <>
1070
    47
1040
-0.008
1070
    48
1040
0.016
1070
   271
1070
     0
1070
   272
1070
     3
1002
}
  0
DIMENSION
  5
A859
330
1F
100
AcDbEntity
  8
Dimension
370
     0
100
AcDbDimension
  2
*D6
 10
69.52518808231127
 20
265.7913022457727
 30
0.0
 11
67.01727539472597
 21
291.8930207154144
 31
0.0
 70
    32
 71
     5
 42
52.20343693928334
  3
STANDARD
100
AcDbAlignedDimension
 13
93.16723823504522
 23
317.9947391850561
 33
0.0
 14
93.1672382341952
 24
265.7913022457727
 34
0.0
 50
90.0
100
AcDbRotatedDimension
1001
ACAD
1000
DSTYLE
1002
{
1070
   147
1040
1.0
1070
     3
1000
Ø <>
1070
    71
1070
     0
1070
   271
1070
     0
1002
}
  0
LWPOLYLINE
  5
B07F
330
1F
100
AcDbEntity
  8
0
370
     0
100
AcDbPolyline
 90
        4
 70
     1
 43
0.0
 10
-39.5357299154673
 20
288.3916488393183
 10
-36.9780064809911
 20
288.3916488393183
 10
-36.9780064809911
 20
286.0219907862458
 10
-39.5357299154673
 20
286.0219907862458
  0
DIMENSION
  5
B0A5
330
1F
100
AcDbEntity
  8
Dimension
370
     0
100
AcDbDimension
  2
*D12
 10
93.16723823504531
 20
233.4984595290456
 30
0.0
 11
82.09428104666928
 21
233.4984595290456
 31
0.0
 70
   160
 71
     5
 42
2.005017215661169
  3
STANDARD
100
AcDbAlignedDimension
 13
91.16222101938415
 23
281.0528404249458
 33
0.0
 14
93.16723823504531
 24
266.0947808130077
 34
0.0
100
AcDbRotatedDimension
1001
ACAD
1000
DSTYLE
1002
{
1070
   147
1040
1.0
1070
     3
1000
<>
1070
    71
1070
     0
1070
   271
1070
     0
1002
}
  0
DIMENSION
  5
B13D
330
1F
100
AcDbEntity
  8
0
370
     0
100
AcDbDimension
  2
*D13
 10
25.6819922221255
 20
327.2698677194297
 30
0.0
 11
39.76135102157979
 21
327.2698677194297
 31
0.0
 70
   160
 71
     5
 42
3.212350069842457
  3
STANDARD
100
AcDbAlignedDimension
 13
22.46964215228304
 23
312.9762140802926
 33
0.0
 14
25.6819922221255
 24
312.9762140802926
 34
0.0
100
AcDbRotatedDimension
1001
ACAD
1000
DSTYLE
1002
{
1070
     3
1000
Ø <>
1070
   284
1070
     8
1070
   272
1070
     1
1070
    47
1040
0.1
1070
    48
1040
0.0
1070
   147
1040
1.0
1070
    72
1070
     0
1070
    71
1070
     1
1070
   271
1070
     1
1002
}
  0
MTEXT
  5
B18D
330
1F
100
AcDbEntity
  8
0
370
     0
100
AcDbMText
 10
74.10482844119281
 20
223.9963515856416
 30
0.0
 40
4.0
 41
53.85321632491582
 71
     1
 72
     5
  1
P520 254  . . .  60
 73
     1
 44
1.0
1001
ACAD
1000
ACAD_MTEXT_DEFINED_HEIGHT_BEGIN
1070
    46
1040
0.0
1000
ACAD_MTEXT_DEFINED_HEIGHT_END
1000
MTEXTBEGIN
1070
    73
1070
     1
1070
    44
1040
1.0
1070
    74
1070
     0
1000
MTEXTEND
  0
LINE
  5
B1A2
330
1F
100
AcDbEntity
  8
0
370
     0
100
AcDbLine
 10
-5.473167475644288
 20
265.8944365014855
 30
0.0
 11
13.25124197310566
 21
265.8944365014855
 31
0.0
  0
LINE
  5
B1A3
330
1F
100
AcDbEntity
  8
0
370
     0
100
AcDbLine
 10
13.25124197310566
 20
265.7940505620153
 30
0.0
 11
-5.473167475644288
 21
265.7940505620153
 31
0.0
  0
LINE
  5
B29F
330
1F
100
AcDbEntity
  8
0
  6
Continuous
 62
     7
100
AcDbLine
 10
93.16723823419524
 20
317.9947391850561
 30
0.0
 11
93.1672382341952
 21
265.7913022457727
 31
0.0
  0
DIMENSION
  5
B8AE
330
1F
100
AcDbEntity
  8
Dimension
370
     0
100
AcDbDimension
  2
*D15
 10
24.07504530656416
 20
255.122538572324
 30
0.0
 11
2.89361203927757
 21
257.5449805914236
 31
0.0
 70
    32
 71
     5
 42
42.36286653457319
  3
STANDARD
100
AcDbAlignedDimension
 13
-18.28782122800902
 23
270.6125756650792
 33
0.0
 14
24.07504530656416
 24
270.8133475440194
 34
0.0
100
AcDbRotatedDimension
1001
ACAD
1000
DSTYLE
1002
{
1070
   147
1040
1.0
1070
     3
1000
<>
1070
    47
1040
0.1
1070
    48
1040
0.1
1070
   271
1070
     1
1070
   272
1070
     1
1002
}
  0
LWPOLYLINE
  5
B8C4
330
1F
100
AcDbEntity
  8
0
370
     0
100
AcDbPolyline
 90
        4
 70
     1
 43
0.0
 10
-6.823191741478602
 20
258.5804990919726
 10
-4.2654683070024
 20
258.5804990919726
 10
-4.2654683070024
 20
256.2108410389001
 10
-6.823191741478602
 20
256.2108410389001
  0
CIRCLE
  5
B8F3
330
1F
100
AcDbEntity
  8
0
370
     0
100
AcDbCircle
 10
100.6889273131785
 20
293.053468271292
 30
0.0
 40
0.684211303736106
  0
CIRCLE
  5
B8F5
330
1F
100
AcDbEntity
  8
0
370
     0
100
AcDbCircle
 10
100.6889273131785
 20
298.1855183035538
 30
0.0
 40
0.684211303736106
  0
CIRCLE
  5
B8F6
330
1F
100
AcDbEntity
  8
0
370
     0
100
AcDbCircle
 10
100.6889273131785
 20
287.3370707038396
 30
0.0
 40
0.684211303736106
  0
CIRCLE
  5
B8F7
330
1F
100
AcDbEntity
  8
0
370
     0
100
AcDbCircle
 10
100.6889273131785
 20
281.9182223017982
 30
0.0
 40
0.684211303736106
  0
LINE
  5
B9C1
330
1F
100
AcDbEntity
  8
0
  6
Continuous
 62
     7
100
AcDbLine
 10
27.95322655845501
 20
284.6689637662985
 30
0.0
 11
28.06288411490942
 21
284.6294846160468
 31
0.0
  0
LINE
  5
B9C2
330
1F
100
AcDbEntity
  8
0
  6
Continuous
 62
     7
100
AcDbLine
 10
28.34544602212378
 20
297.5866846230052
 30
0.0
 11
28.46192756839554
 21
297.6051334870696
 31
0.0
  0
LINE
  5
B9C3
330
1F
100
AcDbEntity
  8
0
  6
Continuous
 62
     7
100
AcDbLine
 10
28.97661043456134
 20
291.1020666623419
 30
0.0
 11
29.08200866941621
 21
291.0921035966154
 31
0.0
  0
LINE
  5
B9C4
330
1F
100
AcDbEntity
  8
0
  6
Continuous
 62
     7
100
AcDbLine
 10
27.55724890464291
 20
300.7190578735889
 30
0.0
 11
27.45408757444631
 21
300.674415979384
 31
0.0
  0
LINE
  5
B9C5
330
1F
100
AcDbEntity
  8
0
  6
Continuous
 62
     7
100
AcDbLine
 10
27.17295123141748
 20
301.7232398064534
 30
0.0
 11
27.21944921892232
 21
301.7421414322136
 31
0.0
  0
LINE
  5
B9C6
330
1F
100
AcDbEntity
  8
0
  6
Continuous
 62
     7
100
AcDbLine
 10
27.53309326898563
 20
300.7860075205163
 30
0.0
 11
27.57962561933386
 21
300.8049231140966
 31
0.0
  0
LINE
  5
B9C7
330
1F
100
AcDbEntity
  8
0
  6
Continuous
 62
     7
100
AcDbLine
 10
28.9801536542247
 20
294.3331827560282
 30
0.0
 11
28.86890345350236
 21
294.315562455505
 31
0.0
  0
LINE
  5
B9C8
330
1F
100
AcDbEntity
  8
0
  6
Continuous
 62
     7
100
AcDbLine
 10
28.77025267188214
 20
287.7940696265454
 30
0.0
 11
28.65464551080908
 21
287.8049977212625
 31
0.0
  0
LINE
  5
B9C9
330
1F
100
AcDbEntity
  8
0
370
     0
100
AcDbLine
 10
26.92436537853519
 20
281.3498172997533
 30
0.0
 11
37.55370451258615
 21
281.3498172997533
 31
0.0
  0
LINE
  5
B9CA
330
1F
100
AcDbEntity
  8
0
370
     0
100
AcDbLine
 10
27.51138061359837
 20
282.8498172997533
 30
0.0
 11
37.73765973304945
 21
282.8498172997533
 31
0.0
  0
LINE
  5
B9CB
330
1F
100
AcDbEntity
  8
0
370
     0
100
AcDbLine
 10
28.6051412144964
 20
286.6104624121683
 30
0.0
 11
37.18166973601118
 21
286.6104624121683
 31
0.0
  0
LINE
  5
B9CC
330
1F
100
AcDbEntity
  8
0
370
     0
100
AcDbLine
 10
28.87298287151376
 20
288.1104624121683
 30
0.0
 11
37.87260455455342
 21
288.1104624121683
 31
0.0
  0
LINE
  5
B9CD
330
1F
100
AcDbEntity
  8
0
370
     0
100
AcDbLine
 10
29.24527558375915
 20
292.1786357981356
 30
0.0
 11
37.57029619773515
 21
292.1786357981356
 31
0.0
  0
LINE
  5
B9CE
330
1F
100
AcDbEntity
  8
0
370
     0
100
AcDbLine
 10
29.0835952240352
 20
293.6786357981356
 30
0.0
 11
37.0395733163317
 21
293.6786357981356
 31
0.0
  0
LINE
  5
B9CF
330
1F
100
AcDbEntity
  8
0
370
     0
100
AcDbLine
 10
28.66790139101221
 20
297.3468371422179
 30
0.0
 11
37.32897275575857
 21
297.3468371422179
 31
0.0
  0
LINE
  5
B9D0
330
1F
100
AcDbEntity
  8
0
370
     0
100
AcDbLine
 10
28.20340389398046
 20
298.8468371422179
 30
0.0
 11
36.94765801644024
 21
298.8468371422179
 31
0.0
  0
SPLINE
  5
B9D1
330
1F
100
AcDbEntity
  8
0
370
     0
100
AcDbSpline
210
0.0
220
0.0
230
1.0
 70
     8
 71
     3
 72
     9
 73
     5
 74
     0
 42
0.0000000001
 43
0.0000000001
 40
1.332581527015957
 40
1.332581527015957
 40
1.332581527015957
 40
1.332581527015957
 40
2.906780511993515
 40
2.911614168761983
 40
2.911614168761983
 40
2.911614168761983
 40
2.911614168761983
 10
37.55370451258615
 20
281.3498172997533
 30
0.0
 10
37.75559154110045
 20
281.8541296496824
 30
0.0
 10
37.85719649485134
 20
282.3558019815012
 30
0.0
 10
37.73802659001297
 20
282.8483097448584
 30
0.0
 10
37.73765973304945
 20
282.8498172997534
 30
0.0
  0
SPLINE
  5
B9D2
330
1F
100
AcDbEntity
  8
0
370
     0
100
AcDbSpline
210
0.0
220
0.0
230
1.0
 70
     8
 71
     3
 72
     8
 73
     4
 74
     0
 42
0.0000000001
 43
0.0000000001
 40
6.582179529948259
 40
6.582179529948259
 40
6.582179529948259
 40
6.582179529948259
 40
8.162871817217119
 40
8.162871817217119
 40
8.162871817217119
 40
8.162871817217119
 10
37.18166973602345
 20
286.610462412162
 30
0.0
 10
37.4429076385093
 20
287.1121770270832
 30
0.0
 10
37.7865604806988
 20
287.6160991782226
 30
0.0
 10
37.87260455455342
 20
288.1104624121683
 30
0.0
  0
SPLINE
  5
B9D3
330
1F
100
AcDbEntity
  8
0
370
     0
100
AcDbSpline
210
0.0
220
0.0
230
1.0
 70
     8
 71
     3
 72
     8
 73
     4
 74
     0
 42
0.0000000001
 43
0.0000000001
 40
14.5853243629237
 40
14.5853243629237
 40
14.5853243629237
 40
14.5853243629237
 40
16.25972787708245
 40
16.25972787708245
 40
16.25972787708245
 40
16.25972787708246
 10
37.57029619773435
 20
292.178635798135
 30
0.0
 10
37.21067093535042
 20
292.7267429709391
 30
0.0
 10
36.83676490648928
 20
293.2530311497928
 30
0.0
 10
37.03957331633181
 20
293.6786357981356
 30
0.0
  0
SPLINE
  5
B9D4
330
1F
100
AcDbEntity
  8
0
370
     0
100
AcDbSpline
210
0.0
220
0.0
230
1.0
 70
     8
 71
     3
 72
     8
 73
     4
 74
     0
 42
0.0000000001
 43
0.0000000001
 40
20.94829930608039
 40
20.9482993060807
 40
20.9482993060807
 40
20.9482993060807
 40
22.3960172430086
 40
22.3960172430086
 40
22.3960172430086
 40
22.3960172430086
 10
37.32897275575846
 20
297.3468371422182
 30
0.0
 10
37.01207151022896
 20
297.8182376164198
 30
0.0
 10
36.90481778365023
 20
298.3453968394798
 30
0.0
 10
36.94765801644024
 20
298.8468371422179
 30
0.0
  0
SPLINE
  5
B9D5
330
1F
100
AcDbEntity
  8
0
370
     0
100
AcDbSpline
210
0.0
220
0.0
230
1.0
 70
     8
 71
     3
 72
     8
 73
     4
 74
     0
 42
0.0000000001
 43
0.0000000001
 40
20.94829930608039
 40
20.9482993060807
 40
20.9482993060807
 40
20.9482993060807
 40
22.3960172430086
 40
22.3960172430086
 40
22.3960172430086
 40
22.3960172430086
 10
41.10040645375363
 20
282.6682223017979
 30
0.0
 10
41.41730769928313
 20
282.1968218275964
 30
0.0
 10
41.52456142586186
 20
281.6696626045364
 30
0.0
 10
41.48172119307185
 20
281.1682223017982
 30
0.0
  0
SPLINE
  5
B9D6
330
1F
100
AcDbEntity
  8
0
370
     0
100
AcDbSpline
210
0.0
220
0.0
230
1.0
 70
     8
 71
     3
 72
     9
 73
     5
 74
     0
 42
0.0000000001
 43
0.0000000001
 40
11.99173574834095
 40
11.99173574834095
 40
11.99173574834095
 40
11.99173574834095
 40
13.2672558227262
 40
13.61387320568042
 40
13.61387320568042
 40
13.61387320568042
 40
13.61387320568042
 10
40.63396367403436
 20
288.0311061117894
 30
0.0
 10
40.35779285959177
 20
287.6565425839478
 30
0.0
 10
39.97575151645674
 20
287.1693227926682
 30
0.0
 10
40.04374663672547
 20
286.6443151777978
 30
0.0
 10
40.07358126569658
 20
286.5311061117777
 30
0.0
  0
SPLINE
  5
B9D7
330
1F
100
AcDbEntity
  8
0
370
     0
100
AcDbSpline
210
0.0
220
0.0
230
1.0
 70
     8
 71
     3
 72
     8
 73
     4
 74
     0
 42
0.0000000001
 43
0.0000000001
 40
6.582179529948259
 40
6.582179529948259
 40
6.582179529948259
 40
6.582179529948259
 40
8.162871817217119
 40
8.162871817217119
 40
8.162871817217119
 40
8.162871817217119
 10
40.78913583412417
 20
293.634766973073
 30
0.0
 10
40.52789793163833
 20
293.1330523581518
 30
0.0
 10
40.18424508944884
 20
292.6291302070125
 30
0.0
 10
40.09820101559421
 20
292.1347669730668
 30
0.0
  0
SPLINE
  5
B9D8
330
1F
100
AcDbEntity
  8
0
370
     0
100
AcDbSpline
210
0.0
220
0.0
230
1.0
 70
     8
 71
     3
 72
     9
 73
     5
 74
     0
 42
0.0000000001
 43
0.0000000001
 40
1.332581527015957
 40
1.332581527015957
 40
1.332581527015957
 40
1.332581527015957
 40
2.906780511993515
 40
2.911614168761983
 40
2.911614168761983
 40
2.911614168761983
 40
2.911614168761983
 10
40.28504800230905
 20
298.8008549749858
 30
0.0
 10
40.08316097379474
 20
298.2965426250568
 30
0.0
 10
39.98155602004386
 20
297.7948702932378
 30
0.0
 10
40.10072592488223
 20
297.3023625298806
 30
0.0
 10
40.10109278184574
 20
297.3008549749858
 30
0.0
  0
LINE
  5
B9D9
330
1F
100
AcDbEntity
  8
0
370
     0
100
AcDbLine
 10
51.50269650396854
 20
281.1682223017982
 30
0.0
 11
41.48172119307185
 21
281.1682223017982
 31
0.0
  0
LINE
  5
B9DA
330
1F
100
AcDbEntity
  8
0
370
     0
100
AcDbLine
 10
51.50269650396854
 20
282.6682223017982
 30
0.0
 11
41.10040645375351
 21
282.6682223017982
 31
0.0
  0
LINE
  5
B9DB
330
1F
100
AcDbEntity
  8
0
370
     0
100
AcDbLine
 10
51.50269650396854
 20
286.5311061117893
 30
0.0
 11
40.07358126569658
 21
286.5311061117893
 31
0.0
  0
LINE
  5
B9DC
330
1F
100
AcDbEntity
  8
0
370
     0
100
AcDbLine
 10
51.50269650396854
 20
288.0311061117893
 30
0.0
 11
40.63396367402572
 21
288.0311061117893
 31
0.0
  0
LINE
  5
B9DD
330
1F
100
AcDbEntity
  8
0
370
     0
100
AcDbLine
 10
51.50269650396854
 20
292.1347669730667
 30
0.0
 11
40.09820101559421
 21
292.1347669730667
 31
0.0
  0
LINE
  5
B9DE
330
1F
100
AcDbEntity
  8
0
370
     0
100
AcDbLine
 10
51.50269650396854
 20
293.6347669730667
 30
0.0
 11
40.78913583413646
 21
293.6347669730667
 31
0.0
  0
LINE
  5
B9DF
330
1F
100
AcDbEntity
  8
0
370
     0
100
AcDbLine
 10
51.50269650396854
 20
297.3008549749858
 30
0.0
 11
40.10109278184574
 21
297.3008549749858
 31
0.0
  0
LINE
  5
B9E0
330
1F
100
AcDbEntity
  8
0
370
     0
100
AcDbLine
 10
51.50269650396854
 20
298.8008549749858
 30
0.0
 11
40.28504800230905
 21
298.8008549749858
 31
0.0
  0
LINE
  5
B9E1
330
1F
100
AcDbEntity
  8
0
370
     0
100
AcDbLine
 10
51.50269650396854
 20
298.8008549749858
 30
0.0
 11
51.50269650396854
 21
297.3008549749858
 31
0.0
  0
LINE
  5
B9E2
330
1F
100
AcDbEntity
  8
0
370
     0
100
AcDbLine
 10
51.50269650396859
 20
293.6347669730667
 30
0.0
 11
51.50269650396859
 21
292.1347669730667
 31
0.0
  0
LINE
  5
B9E3
330
1F
100
AcDbEntity
  8
0
370
     0
100
AcDbLine
 10
51.50269650396859
 20
288.0311061117893
 30
0.0
 11
51.50269650396854
 21
286.5311061117893
 31
0.0
  0
LINE
  5
B9E4
330
1F
100
AcDbEntity
  8
0
370
     0
100
AcDbLine
 10
51.50269650396854
 20
282.6682223017982
 30
0.0
 11
51.50269650396854
 21
281.1682223017982
 31
0.0
  0
HATCH
  5
B9E5
330
1F
100
AcDbEntity
  8
0
370
     0
100
AcDbHatch
 10
0.0
 20
0.0
 30
0.0
210
0.0
220
0.0
230
1.0
  2
SOLID
 70
     1
 71
     0
 91
        1
 92
        7
 72
     0
 73
     1
 93
        4
 10
51.50269650396854
 20
297.920331724121
 10
51.50269650396854
 20
298.1813782258506
 10
54.25686930374752
 20
298.1813782258506
 10
54.25686930374752
 20
297.920331724121
 97
        0
 75
     0
 76
     1
 47
0.0190305396258617
 98
        1
 10
53.2487661879561
 20
298.0176116726155
1001
ACAD
1010
0.0
1020
0.0
1030
0.0
  0
LWPOLYLINE
  5
B9E6
330
1F
100
AcDbEntity
  8
0
370
     0
100
AcDbPolyline
 90
        4
 70
     1
 43
0.0
 10
51.50269650396854
 20
298.1813782258506
 10
51.50269650396854
 20
297.920331724121
 10
54.25686930374752
 20
297.920331724121
 10
54.25686930374752
 20
298.1813782258506
  0
HATCH
  5
B9E7
330
1F
100
AcDbEntity
  8
0
370
     0
100
AcDbHatch
 10
0.0
 20
0.0
 30
0.0
210
0.0
220
0.0
230
1.0
  2
SOLID
 70
     1
 71
     0
 91
        1
 92
        7
 72
     0
 73
     1
 93
        4
 10
54.25686930374752
 20
293.0152902239315
 10
54.25686930374752
 20
292.7542437222019
 10
51.50269650396854
 20
292.7542437222019
 10
51.50269650396854
 20
293.0152902239315
 97
        0
 75
     0
 76
     1
 47
0.0190305396258617
 98
        1
 10
53.2487661879561
 20
292.8515236706964
1001
ACAD
1010
0.0
1020
0.0
1030
0.0
  0
LWPOLYLINE
  5
B9E8
330
1F
100
AcDbEntity
  8
0
370
     0
100
AcDbPolyline
 90
        4
 70
     1
 43
0.0
 10
51.50269650396854
 20
293.0152902239315
 10
51.50269650396854
 20
292.7542437222019
 10
54.25686930374752
 20
292.7542437222019
 10
54.25686930374752
 20
293.0152902239315
  0
HATCH
  5
B9E9
330
1F
100
AcDbEntity
  8
0
370
     0
100
AcDbHatch
 10
0.0
 20
0.0
 30
0.0
210
0.0
220
0.0
230
1.0
  2
SOLID
 70
     1
 71
     0
 91
        1
 92
        7
 72
     0
 73
     1
 93
        4
 10
54.25686930374752
 20
287.4116293626542
 10
54.25686930374763
 20
287.1505828609245
 10
51.50269650396859
 20
287.1505828609245
 10
51.50269650396859
 20
287.4116293626542
 97
        0
 75
     0
 76
     1
 47
0.0190305396258617
 98
        1
 10
53.24876618795617
 20
287.247862809419
1001
ACAD
1010
0.0
1020
0.0
1030
0.0
  0
LWPOLYLINE
  5
B9EA
330
1F
100
AcDbEntity
  8
0
370
     0
100
AcDbPolyline
 90
        4
 70
     1
 43
0.0
 10
51.50269650396859
 20
287.4116293626542
 10
51.50269650396859
 20
287.1505828609245
 10
54.25686930374758
 20
287.1505828609245
 10
54.25686930374758
 20
287.4116293626542
  0
HATCH
  5
B9EB
330
1F
100
AcDbEntity
  8
0
370
     0
100
AcDbHatch
 10
0.0
 20
0.0
 30
0.0
210
0.0
220
0.0
230
1.0
  2
SOLID
 70
     1
 71
     0
 91
        1
 92
        7
 72
     0
 73
     1
 93
        4
 10
54.25686930374758
 20
282.0487455526631
 10
54.25686930374752
 20
281.7876990509334
 10
51.50269650396854
 20
281.7876990509334
 10
51.50269650396854
 20
282.0487455526631
 97
        0
 75
     0
 76
     1
 47
0.0190305396258617
 98
        1
 10
53.2487661879561
 20
281.8849789994279
1001
ACAD
1010
0.0
1020
0.0
1030
0.0
  0
LWPOLYLINE
  5
B9EC
330
1F
100
AcDbEntity
  8
0
370
     0
100
AcDbPolyline
 90
        4
 70
     1
 43
0.0
 10
51.50269650396854
 20
282.0487455526631
 10
51.50269650396854
 20
281.7876990509334
 10
54.25686930374752
 20
281.7876990509334
 10
54.25686930374752
 20
282.0487455526631
  0
DIMENSION
  5
B9ED
330
1F
100
AcDbEntity
  8
0
370
     0
100
AcDbDimension
  2
*D16
 10
-35.85064594811183
 20
265.7940505603155
 30
0.0
 11
-38.2802503137326
 21
291.8442019021009
 31
0.0
 70
    32
 71
     5
 42
52.10030268357082
  3
STANDARD
100
AcDbAlignedDimension
 13
-18.08704934906888
 23
317.8943532438863
 33
0.0
 14
-18.08704934906893
 24
265.7940505603155
 34
0.0
 50
90.0
100
AcDbRotatedDimension
1001
ACAD
1000
DSTYLE
1002
{
1070
   147
1040
1.0
1070
    71
1070
     0
1070
   271
1070
     0
1002
}
  0
LINE
  5
BA47
330
1F
100
AcDbEntity
  8
0
370
     0
100
AcDbLine
 10
29.09434229026812
 20
269.3133475440194
 30
0.0
 11
29.09434229026812
 21
254.1225385723239
 31
0.0
  0
LINE
  5
BA48
330
1F
100
AcDbEntity
  8
0
370
     0
100
AcDbLine
 10
54.25686930374752
 20
280.2876990509334
 30
0.0
 11
54.25686930374752
 21
254.1225385723239
 31
0.0
  0
LINE
  5
BA49
330
1F
100
AcDbEntity
  8
0
370
     0
100
AcDbLine
 10
32.09434229026812
 20
255.122538572324
 30
0.0
 11
51.25686930374752
 21
255.122538572324
 31
0.0
  0
SOLID
  5
BA4A
330
1F
100
AcDbEntity
  8
0
370
     0
100
AcDbTrace
 10
32.09434229026812
 20
255.6225385723239
 30
0.0
 11
32.09434229026812
 21
254.6225385723239
 31
0.0
 12
29.09434229026812
 22
255.122538572324
 32
0.0
 13
29.09434229026812
 23
255.122538572324
 33
0.0
  0
SOLID
  5
BA4B
330
1F
100
AcDbEntity
  8
0
370
     0
100
AcDbTrace
 10
51.25686930374752
 20
255.6225385723239
 30
0.0
 11
51.25686930374752
 21
254.6225385723239
 31
0.0
 12
54.25686930374752
 22
255.122538572324
 32
0.0
 13
54.25686930374752
 23
255.122538572324
 33
0.0
  0
MTEXT
  5
BA4C
330
1F
100
AcDbEntity
  8
0
370
     0
100
AcDbMText
 10
41.67560579700782
 20
257.3521429379447
 30
0.0
 40
2.799999999999999
 41
0.0
 71
     5
 72
     1
  1
195{\H0.7x;±10}
 73
     1
 44
1.0
1001
ACAD
1000
ACAD_MTEXT_DEFINED_HEIGHT_BEGIN
1070
    46
1040
0.0
1000
ACAD_MTEXT_DEFINED_HEIGHT_END
1000
MTEXTBEGIN
1070
    73
1070
     1
1070
    44
1040
1.0
1070
    74
1070
     0
1000
MTEXTEND
  0
LINE
  5
BA4D
330
1F
100
AcDbEntity
  8
0
  6
Continuous
 62
     7
100
AcDbLine
 10
29.09434229026812
 20
298.8468371422179
 30
0.0
 11
29.09434229026812
 21
312.9754422013523
 31
0.0
  0
LINE
  5
BA4E
330
1F
100
AcDbEntity
  8
0
  6
Continuous
 62
     7
100
AcDbLine
 10
28.99395635079798
 20
298.8468371422179
 30
0.0
 11
28.99395635079799
 21
312.9754422013523
 31
0.0
  0
LINE
  5
BA4F
330
1F
100
AcDbEntity
  8
0
  6
Continuous
 62
     7
100
AcDbLine
 10
29.09434229026811
 20
293.6786357981356
 30
0.0
 11
29.09434229026811
 21
297.3468371422179
 31
0.0
  0
LINE
  5
BA50
330
1F
100
AcDbEntity
  8
0
  6
Continuous
 62
     7
100
AcDbLine
 10
28.99395635079799
 20
288.1104624121684
 30
0.0
 11
28.99395635079799
 21
289.6851446342184
 31
0.0
  0
LINE
  5
BA51
330
1F
100
AcDbEntity
  8
0
  6
Continuous
 62
     7
100
AcDbLine
 10
29.09434229026812
 20
282.8498172997533
 30
0.0
 11
29.09434229026812
 21
286.6104624121683
 31
0.0
  0
LINE
  5
BA52
330
1F
100
AcDbEntity
  8
0
  6
Continuous
 62
     7
100
AcDbLine
 10
28.993956350798
 20
282.8498172997533
 30
0.0
 11
28.99395635079799
 21
286.6104624121683
 31
0.0
  0
DIMENSION
  5
BA54
330
1F
100
AcDbEntity
  8
Dimension
370
     0
100
AcDbDimension
  2
*D18
 10
81.64145245772592
 20
280.8519415114271
 30
0.0
 11
79.13353977014061
 21
291.8943948735357
 31
0.0
 70
    32
 71
     5
 42
22.08490672421738
  3
STANDARD
100
AcDbAlignedDimension
 13
91.36299289832455
 23
302.9368482356444
 33
0.0
 14
91.36299289832441
 24
280.8519415114271
 34
0.0
 50
90.0
100
AcDbRotatedDimension
1001
ACAD
1000
DSTYLE
1002
{
1070
   147
1040
1.0
1070
     3
1000
Ø <>
1070
    71
1070
     0
1070
   271
1070
     0
1002
}
  0
ENDSEC
  0
SECTION
  2
OBJECTS
  0
DICTIONARY
  5
C
330
0
100
AcDbDictionary
281
     1
  3
ACAD_COLOR
350
9AB
  3
ACAD_GROUP
350
D
  3
ACAD_LAYOUT
350
1A
  3
ACAD_MATERIAL
350
9AA
  3
ACAD_MLINESTYLE
350
17
  3
ACAD_PLOTSETTINGS
350
19
  3
ACAD_PLOTSTYLENAME
350
E
  3
ACAD_TABLESTYLE
350
1079
  3
ACDBHEADERROUNDTRIPXREC
350
BDD1
  3
AcDbVariableDictionary
350
1081
  3
ASE_INDEX_DICTIONARY
350
9B0
  0
DICTIONARY
  5
46EE
330
2
100
AcDbDictionary
280
     1
281
     1
  3
ACAD_LAYERFILTERS
360
46F4
  3
ACAD_LAYERSTATES
360
9376
  3
ACLYDICTIONARY
360
46F3
  0
DICTIONARY
  5
467E
330
1F
100
AcDbDictionary
280
     1
281
     1
  3
ACAD_SORTENTS
360
467F
  0
DICTIONARY
  5
9AB
102
{ACAD_REACTORS
330
C
102
}
330
C
100
AcDbDictionary
281
     1
  0
DICTIONARY
  5
D
102
{ACAD_REACTORS
330
C
102
}
330
C
100
AcDbDictionary
281
     1
  0
DICTIONARY
  5
1A
102
{ACAD_REACTORS
330
C
102
}
330
C
100
AcDbDictionary
281
     1
  3
Layout1
350
1E
  3
Model
350
22
  0
DICTIONARY
  5
9AA
102
{ACAD_REACTORS
330
C
102
}
330
C
100
AcDbDictionary
281
     1
  0
DICTIONARY
  5
17
102
{ACAD_REACTORS
330
C
102
}
330
C
100
AcDbDictionary
281
     1
  3
Standard
350
18
  0
DICTIONARY
  5
19
102
{ACAD_REACTORS
330
C
102
}
330
C
100
AcDbDictionary
281
     1
  0
ACDBDICTIONARYWDFLT
  5
E
102
{ACAD_REACTORS
330
C
102
}
330
C
100
AcDbDictionary
281
     1
  3
Normal
350
F
100
AcDbDictionaryWithDefault
340
F
  0
DICTIONARY
  5
1079
102
{ACAD_REACTORS
330
C
102
}
330
C
100
AcDbDictionary
281
     1
  3
Standard
350
107A
  0
DICTIONARY
  5
BDD1
102
{ACAD_REACTORS
330
C
102
}
330
C
100
AcDbDictionary
281
     1
  0
DICTIONARY
  5
1081
102
{ACAD_REACTORS
330
C
102
}
330
C
100
AcDbDictionary
281
     1
  3
CTABLESTYLE
350
1082
  3
DIMASSOC
350
BDCE
  3
PROJECTNAME
350
BDCF
  0
DICTIONARY
  5
9B0
102
{ACAD_REACTORS
330
C
102
}
330
C
100
AcDbDictionary
281
     1
  3
ASEBlockHierarchyIndexRecord
350
9B2
1001
DCO15
1040
1631611609.3
  0
DICTIONARY
  5
46F4
102
{ACAD_REACTORS
330
46EE
102
}
330
46EE
100
AcDbDictionary
281
     1
  0
DICTIONARY
  5
9376
102
{ACAD_REACTORS
330
46EE
102
}
330
46EE
100
AcDbDictionary
281
     1
  0
DICTIONARY
  5
46F3
102
{ACAD_REACTORS
330
46EE
102
}
330
46EE
100
AcDbDictionary
281
     1
1001
ACAD
1000
<All
  0
SORTENTSTABLE
  5
467F
102
{ACAD_REACTORS
330
467E
102
}
330
467E
100
AcDbSortentsTable
330
1F
331
B9E6
  5
B9EC
331
B1A2
  5
B8F6
331
B8F7
  5
B9C6
331
BA49
  5
BA4F
331
97D5
  5
97D6
331
96EE
  5
97A4
331
BA51
  5
9846
331
97A6
  5
97A7
331
97DD
  5
97DF
331
9678
  5
9678
331
97AE
  5
97AF
331
9824
  5
9947
331
9680
  5
9680
331
96B7
  5
96B7
331
97B6
  5
97B7
331
97ED
  5
97EE
331
96BF
  5
96BF
331
B9C7
  5
B9CD
331
B9CF
  5
B9D5
331
B9D7
  5
B9DD
331
B9DF
  5
B9E5
331
97BE
  5
97BF
331
9690
  5
9690
331
96C7
  5
96C7
331
97FD
  5
97FE
331
9649
  5
9649
331
96CF
  5
96D1
331
9651
  5
9651
331
9F0B
  5
B09F
331
B9E7
  5
B9ED
331
B1A3
  5
B8F7
331
9659
  5
9659
331
96A0
  5
96A0
331
BA4A
  5
BA50
331
9815
  5
9816
331
BA52
  5
9823
331
97A7
  5
97A8
331
981D
  5
981E
331
994C
  5
A7FC
331
97AF
  5
97B0
331
96B8
  5
96B8
331
97B7
  5
97B8
331
97EE
  5
97EF
331
B9C8
  5
B9CE
331
B9D0
  5
B9D6
331
BA47
  5
BA4D
331
B9D8
  5
B9DE
331
97BF
  5
97C0
331
96C8
  5
96C8
331
9699
  5
9699
331
964A
  5
964A
331
993D
  5
994C
331
9652
  5
9652
331
96D8
  5
96D9
331
B9E0
  5
B9E6
331
B9E8
  5
BA47
331
965A
  5
965A
331
9816
  5
981D
331
9945
  5
9EDF
331
97D7
  5
97D8
331
BA4B
  5
BA51
331
981E
  5
9821
331
97A8
  5
97A9
331
97DF
  5
97E0
331
96B1
  5
96B1
331
97B0
  5
97B1
331
97E7
  5
97E8
331
96B9
  5
96B9
331
97EF
  5
97F0
331
B9C1
  5
B9C7
331
B9C9
  5
B9CF
331
B0A5
  5
B8C4
331
B9D1
  5
B9D7
331
B9D9
  5
B9DF
331
B13D
  5
B8F3
331
97B8
  5
97B9
331
968A
  5
968A
331
96C1
  5
96C1
331
9846
  5
9949
331
97C0
  5
97C1
331
9692
  5
9692
331
96C9
  5
96CA
331
964B
  5
964B
331
96D1
  5
96D3
331
9653
  5
9653
331
96D9
  5
96ED
331
980F
  5
9810
331
B9E1
  5
B9E7
331
B9E9
  5
BA48
331
B18D
  5
B8F5
331
9946
  5
9F0B
331
97D8
  5
97D9
331
BA4C
  5
BA52
331
981F
  5
982F
331
97A9
  5
97AA
331
97E0
  5
97E1
331
967B
  5
967B
331
9976
  5
A859
331
97B1
  5
97B2
331
96BA
  5
96BA
331
982F
  5
9948
331
B9C2
  5
B9C8
331
B9CA
  5
B9D0
331
B9D2
  5
B9D8
331
B9DA
  5
B9E0
331
97B9
  5
97BA
331
97F0
  5
97F1
331
97C1
  5
97C2
331
97F8
  5
97FA
331
96CA
  5
96CB
331
97C9
  5
97CA
331
964C
  5
964C
331
B9E2
  5
B9E8
331
B9EA
  5
BA49
331
B8F3
  5
B9C3
331
A859
  5
B29F
331
9810
  5
9815
331
97D1
  5
97D2
331
9947
  5
9F37
331
97D9
  5
97DA
331
BA4D
  5
993D
331
97AA
  5
97AC
331
97E1
  5
97E2
331
967C
  5
967C
331
97B2
  5
97B3
331
97E9
  5
97EA
331
B9C3
  5
B9C9
331
B07F
  5
B8AE
331
B9CB
  5
B9D1
331
B9D3
  5
B9D9
331
B8C4
  5
B9C2
331
B9DB
  5
B9E1
331
97BA
  5
97BB
331
97F1
  5
97F8
331
968C
  5
968C
331
96C3
  5
96C3
331
97C2
  5
97C9
331
96CB
  5
96CC
331
9EDF
  5
B024
331
97CA
  5
97D1
331
964D
  5
964D
331
96D3
  5
96D6
331
A7A6
  5
B18D
331
B9E3
  5
B9E9
331
B9EB
  5
BA4A
331
97D2
  5
97D3
331
96A4
  5
96A4
331
965D
  5
965D
331
BA4E
  5
981F
331
9948
  5
A7A6
331
9665
  5
9665
331
97DA
  5
97DB
331
9821
  5
993E
331
967D
  5
967D
331
96B4
  5
96B4
331
97E2
  5
97E3
331
9F37
  5
B13D
331
96BC
  5
96BC
331
97B3
  5
97B4
331
97EA
  5
97EC
331
B9C4
  5
B9CA
331
B29F
  5
96C9
331
B9CC
  5
B9D2
331
B9D4
  5
B9DA
331
B9DC
  5
B9E2
331
96C4
  5
96C4
331
97BB
  5
97BC
331
96CC
  5
96CE
331
97FA
  5
97FB
331
A7A7
  5
B1A2
331
964E
  5
964E
331
969D
  5
969D
331
9802
  5
9805
331
B9E4
  5
B9EA
331
B9EC
  5
BA4B
331
B8F5
  5
B9C4
331
97D3
  5
97D5
331
965E
  5
965E
331
BA4F
  5
984B
331
97A4
  5
97A5
331
97DB
  5
97DC
331
97AC
  5
97AD
331
97E3
  5
97E4
331
967E
  5
967E
331
96B5
  5
96B5
331
97B4
  5
97B5
331
9686
  5
9686
331
B9C5
  5
B9CB
331
B8AE
  5
B9C1
331
B9CD
  5
B9D3
331
B9D5
  5
B9DB
331
B9DD
  5
B9E3
331
97BC
  5
97BD
331
968E
  5
968E
331
96C5
  5
96C5
331
97FB
  5
97FC
331
964F
  5
964F
331
969E
  5
969E
331
A7FC
  5
B1A3
331
B9E5
  5
B9EB
331
B9ED
  5
BA4C
331
B8F6
  5
B9C5
331
BA48
  5
BA4E
331
9942
  5
9976
331
96ED
  5
96EE
331
965F
  5
965F
331
BA50
  5
9824
331
994A
  5
A7A7
331
97A5
  5
97A6
331
97DC
  5
97DD
331
96AE
  5
96AE
331
9823
  5
9943
331
97AD
  5
97AE
331
97E4
  5
97E6
331
967F
  5
967F
331
96B6
  5
96B6
331
97B5
  5
97B6
331
97EC
  5
97ED
331
9687
  5
9687
331
B9C6
  5
B9CC
331
B9CE
  5
B9D4
331
B9D6
  5
B9DC
331
B9DE
  5
B9E4
331
97BD
  5
97BE
331
984B
  5
994A
331
97FC
  5
97FD
331
9697
  5
9697
331
96CE
  5
96CF
331
9650
  5
9650
331
96D6
  5
96D8
  0
LAYOUT
  5
1E
102
{ACAD_XDICTIONARY
360
BDD2
102
}
102
{ACAD_REACTORS
330
1A
102
}
330
1A
100
AcDbPlotSettings
  1

  2

  4

  6

 40
0.0
 41
0.0
 42
0.0
 43
0.0
 44
0.0
 45
0.0
 46
0.0
 47
0.0
 48
0.0
 49
0.0
140
0.0
141
0.0
142
1.0
143
1.0
 70
     0
 72
     0
 73
     0
 74
     0
  7

 75
     0
147
1.0
148
0.0
149
0.0
100
AcDbLayout
  1
Layout1
 70
     0
 71
     1
 10
0.0
 20
0.0
 11
12.0
 21
9.0
 12
0.0
 22
0.0
 32
0.0
 14
1.000000000000000E+20
 24
1.000000000000000E+20
 34
1.000000000000000E+20
 15
-1.000000000000000E+20
 25
-1.000000000000000E+20
 35
-1.000000000000000E+20
146
0.0
 13
0.0
 23
0.0
 33
0.0
 16
1.0
 26
0.0
 36
0.0
 17
0.0
 27
1.0
 37
0.0
 76
     0
330
1B
  0
LAYOUT
  5
22
102
{ACAD_XDICTIONARY
360
BDD4
102
}
102
{ACAD_REACTORS
330
1A
102
}
330
1A
100
AcDbPlotSettings
  1

  2
FX Document Centre 405 PCL 6
  4
A4
  6

 40
5.111750125885009
 41
5.11176061630249
 42
5.111740112304687
 43
5.11175537109375
 44
209.9733276367187
 45
296.9259948730469
 46
0.0
 47
0.0
 48
0.0
 49
0.0
140
0.0
141
0.0
142
1.0
143
1.0
 70
 14336
 72
     0
 73
     1
 74
     0
  7

 75
     0
147
1.0
148
-64.72422321218214
149
-2.159235741175924
100
AcDbLayout
  1
Model
 70
     0
 71
     0
 10
0.0
 20
0.0
 11
0.0
 21
0.0
 12
0.0
 22
0.0
 32
0.0
 14
0.0
 24
0.0
 34
0.0
 15
0.0
 25
0.0
 35
0.0
146
0.0
 13
0.0
 23
0.0
 33
0.0
 16
0.0
 26
0.0
 36
0.0
 17
0.0
 27
0.0
 37
0.0
 76
     0
330
1F
  0
MLINESTYLE
  5
18
102
{ACAD_REACTORS
330
17
102
}
330
17
100
AcDbMlineStyle
  2
STANDARD
 70
     0
  3

 62
   256
 51
90.0
 52
90.0
 71
     2
 49
0.5
 62
   256
  6
BYLAYER
 49
-0.5
 62
   256
  6
BYLAYER
  0
ACDBPLACEHOLDER
  5
F
102
{ACAD_REACTORS
330
E
102
}
330
0
  0
TABLESTYLE
  5
107A
102
{ACAD_REACTORS
330
1079
102
}
330
1079
100
AcDbTableStyle
  3
Standard
 70
     0
 71
     0
 40
0.06
 41
0.06
280
     0
281
     0
  7
STANDARD
140
0.18
170
     2
 62
     0
 63
     7
283
     0
274
    -2
284
     1
 64
     0
275
    -2
285
     1
 65
     0
276
    -2
286
     1
 66
     0
277
    -2
287
     1
 67
     0
278
    -2
288
     1
 68
     0
279
    -2
289
     1
 69
     0
  7
STANDARD
140
0.25
170
     5
 62
     0
 63
     7
283
     0
274
    -2
284
     1
 64
     0
275
    -2
285
     1
 65
     0
276
    -2
286
     1
 66
     0
277
    -2
287
     1
 67
     0
278
    -2
288
     1
 68
     0
279
    -2
289
     1
 69
     0
  7
STANDARD
140
0.18
170
     5
 62
     0
 63
     7
283
     0
274
    -2
284
     1
 64
     0
275
    -2
285
     1
 65
     0
276
    -2
286
     1
 66
     0
277
    -2
287
     1
 67
     0
278
    -2
288
     1
 68
     0
279
    -2
289
     1
 69
     0
  0
DICTIONARYVAR
  5
1082
102
{ACAD_REACTORS
330
1081
102
}
330
1081
100
DictionaryVariables
280
     0
  1
STANDARD
  0
DICTIONARYVAR
  5
BDCE
102
{ACAD_REACTORS
330
1081
102
}
330
1081
100
DictionaryVariables
280
     0
  1
1
  0
DICTIONARYVAR
  5
BDCF
102
{ACAD_REACTORS
330
1081
102
}
330
1081
100
DictionaryVariables
280
     0
  1

  0
XRECORD
  5
9B2
102
{ACAD_REACTORS
330
9B0
102
}
330
9B0
100
AcDbXrecord
280
     1
330
0
330
0
330
0
330
0
330
0
330
0
330
0
330
0
330
0
330
0
330
0
330
0
330
0
  0
DICTIONARY
  5
BDD2
330
1E
100
AcDbDictionary
280
     1
281
     1
  3
ACAD_XREC_ROUNDTRIP
360
BDD3
  0
DICTIONARY
  5
BDD4
330
22
100
AcDbDictionary
280
     1
281
     1
  3
ACAD_XREC_ROUNDTRIP
360
BDD5
  0
XRECORD
  5
BDD3
102
{ACAD_REACTORS
330
BDD2
102
}
330
BDD2
100
AcDbXrecord
280
     1
102
SHADEPLOT
 70
     0
102
SHADEPLOTRESLEVEL
 70
     2
102
SHADEPLOTCUSTOMDPI
 70
   300
  0
XRECORD
  5
BDD5
102
{ACAD_REACTORS
330
BDD4
102
}
330
BDD4
100
AcDbXrecord
280
     1
102
SHADEPLOT
 70
     0
102
SHADEPLOTRESLEVEL
 70
     2
102
SHADEPLOTCUSTOMDPI
 70
   300
  0
ENDSEC
  0
EOF
