  0
SECTION
  2
HEADER
  9
$ACADVER
  1
AC1015
  9
$ACADMAINTVER
 70
    20
  9
$DWGCODEPAGE
  3
ANSI_1252
  9
$INSBASE
 10
0.0
 20
0.0
 30
0.0
  9
$EXTMIN
 10
-15.20679343140864
 20
210.6979398181406
 30
-0.000000000000013
  9
$EXTMAX
 10
231.6163621344981
 20
332.9742448322641
 30
0.0000000000000023
  9
$LIMMIN
 10
0.0
 20
0.0
  9
$LIMMAX
 10
1600.0
 20
1100.0
  9
$ORTHOMODE
 70
     1
  9
$REGENMODE
 70
     1
  9
$FILLMODE
 70
     1
  9
$QTEXTMODE
 70
     0
  9
$MIRRTEXT
 70
     1
  9
$LTSCALE
 40
0.9094488188999999
  9
$ATTMODE
 70
     1
  9
$TEXTSIZE
 40
0.2
  9
$TRACEWID
 40
0.05
  9
$TEXTSTYLE
  7
STANDARD
  9
$CLAYER
  8
0
  9
$CELTYPE
  6
ByLayer
  9
$CECOLOR
 62
   256
  9
$CELTSCALE
 40
1.0
  9
$DISPSILH
 70
     0
  9
$DIMSCALE
 40
1.0
  9
$DIMASZ
 40
3.0
  9
$DIMEXO
 40
1.5
  9
$DIMDLI
 40
0.5
  9
$DIMRND
 40
0.0
  9
$DIMDLE
 40
0.0
  9
$DIMEXE
 40
1.0
  9
$DIMTP
 40
0.01
  9
$DIMTM
 40
0.01
  9
$DIMTXT
 40
2.799999999999999
  9
$DIMCEN
 40
0.0
  9
$DIMTSZ
 40
0.0
  9
$DIMTOL
 70
     1
  9
$DIMLIM
 70
     0
  9
$DIMTIH
 70
     0
  9
$DIMTOH
 70
     0
  9
$DIMSE1
 70
     0
  9
$DIMSE2
 70
     0
  9
$DIMTAD
 70
     1
  9
$DIMZIN
 70
     1
  9
$DIMBLK
  1

  9
$DIMASO
 70
     1
  9
$DIMSHO
 70
     1
  9
$DIMPOST
  1

  9
$DIMAPOST
  1

  9
$DIMALT
 70
     0
  9
$DIMALTD
 70
     2
  9
$DIMALTF
 40
25.4
  9
$DIMLFAC
 40
1.0
  9
$DIMTOFL
 70
     0
  9
$DIMTVP
 40
0.0
  9
$DIMTIX
 70
     0
  9
$DIMSOXD
 70
     0
  9
$DIMSAH
 70
     0
  9
$DIMBLK1
  1

  9
$DIMBLK2
  1

  9
$DIMSTYLE
  2
STANDARD
  9
$DIMCLRD
 70
     0
  9
$DIMCLRE
 70
     0
  9
$DIMCLRT
 70
     0
  9
$DIMTFAC
 40
0.7
  9
$DIMGAP
 40
0.5
  9
$DIMJUST
 70
     0
  9
$DIMSD1
 70
     0
  9
$DIMSD2
 70
     0
  9
$DIMTOLJ
 70
     0
  9
$DIMTZIN
 70
     0
  9
$DIMALTZ
 70
     0
  9
$DIMALTTZ
 70
     0
  9
$DIMUPT
 70
     0
  9
$DIMDEC
 70
     2
  9
$DIMTDEC
 70
     2
  9
$DIMALTU
 70
     2
  9
$DIMALTTD
 70
     2
  9
$DIMTXSTY
  7
STANDARD
  9
$DIMAUNIT
 70
     0
  9
$DIMADEC
 70
     0
  9
$DIMALTRND
 40
0.0
  9
$DIMAZIN
 70
     0
  9
$DIMDSEP
 70
    46
  9
$DIMATFIT
 70
     3
  9
$DIMFRAC
 70
     0
  9
$DIMLDRBLK
  1

  9
$DIMLUNIT
 70
     2
  9
$DIMLWD
 70
    -2
  9
$DIMLWE
 70
    -2
  9
$DIMTMOVE
 70
     0
  9
$LUNITS
 70
     2
  9
$LUPREC
 70
     4
  9
$SKETCHINC
 40
0.1
  9
$FILLETRAD
 40
0.0
  9
$AUNITS
 70
     0
  9
$AUPREC
 70
     0
  9
$MENU
  1
acad
  9
$ELEVATION
 40
0.0
  9
$PELEVATION
 40
0.0
  9
$THICKNESS
 40
0.0
  9
$LIMCHECK
 70
     0
  9
$CHAMFERA
 40
0.2
  9
$CHAMFERB
 40
0.2
  9
$CHAMFERC
 40
0.0
  9
$CHAMFERD
 40
0.0
  9
$SKPOLY
 70
     0
  9
$TDCREATE
 40
2453879.491120567
  9
$TDUCREATE
 40
2453879.157787234
  9
$TDUPDATE
 40
2454686.587101042
  9
$TDUUPDATE
 40
2454686.253767708
  9
$TDINDWG
 40
0.3271996644
  9
$TDUSRTIMER
 40
0.3271996644
  9
$USRTIMER
 70
     1
  9
$ANGBASE
 50
0.0
  9
$ANGDIR
 70
     0
  9
$PDMODE
 70
     3
  9
$PDSIZE
 40
0.3125
  9
$PLINEWID
 40
0.0
  9
$SPLFRAME
 70
     0
  9
$SPLINETYPE
 70
     6
  9
$SPLINESEGS
 70
     8
  9
$HANDSEED
  5
B19F
  9
$SURFTAB1
 70
     6
  9
$SURFTAB2
 70
     6
  9
$SURFTYPE
 70
     6
  9
$SURFU
 70
     6
  9
$SURFV
 70
     6
  9
$UCSBASE
  2

  9
$UCSNAME
  2

  9
$UCSORG
 10
0.0
 20
0.0
 30
0.0
  9
$UCSXDIR
 10
1.0
 20
0.0
 30
0.0
  9
$UCSYDIR
 10
0.0
 20
1.0
 30
0.0
  9
$UCSORTHOREF
  2

  9
$UCSORTHOVIEW
 70
     0
  9
$UCSORGTOP
 10
0.0
 20
0.0
 30
0.0
  9
$UCSORGBOTTOM
 10
0.0
 20
0.0
 30
0.0
  9
$UCSORGLEFT
 10
0.0
 20
0.0
 30
0.0
  9
$UCSORGRIGHT
 10
0.0
 20
0.0
 30
0.0
  9
$UCSORGFRONT
 10
0.0
 20
0.0
 30
0.0
  9
$UCSORGBACK
 10
0.0
 20
0.0
 30
0.0
  9
$PUCSBASE
  2

  9
$PUCSNAME
  2

  9
$PUCSORG
 10
0.0
 20
0.0
 30
0.0
  9
$PUCSXDIR
 10
1.0
 20
0.0
 30
0.0
  9
$PUCSYDIR
 10
0.0
 20
1.0
 30
0.0
  9
$PUCSORTHOREF
  2

  9
$PUCSORTHOVIEW
 70
     0
  9
$PUCSORGTOP
 10
0.0
 20
0.0
 30
0.0
  9
$PUCSORGBOTTOM
 10
0.0
 20
0.0
 30
0.0
  9
$PUCSORGLEFT
 10
0.0
 20
0.0
 30
0.0
  9
$PUCSORGRIGHT
 10
0.0
 20
0.0
 30
0.0
  9
$PUCSORGFRONT
 10
0.0
 20
0.0
 30
0.0
  9
$PUCSORGBACK
 10
0.0
 20
0.0
 30
0.0
  9
$USERI1
 70
     0
  9
$USERI2
 70
     0
  9
$USERI3
 70
     0
  9
$USERI4
 70
     0
  9
$USERI5
 70
     0
  9
$USERR1
 40
0.0
  9
$USERR2
 40
0.0
  9
$USERR3
 40
0.0
  9
$USERR4
 40
0.0
  9
$USERR5
 40
0.0
  9
$WORLDVIEW
 70
     1
  9
$SHADEDGE
 70
     3
  9
$SHADEDIF
 70
    70
  9
$TILEMODE
 70
     1
  9
$MAXACTVP
 70
    16
  9
$PINSBASE
 10
0.0
 20
0.0
 30
0.0
  9
$PLIMCHECK
 70
     0
  9
$PEXTMIN
 10
1.000000000000000E+20
 20
1.000000000000000E+20
 30
1.000000000000000E+20
  9
$PEXTMAX
 10
-1.000000000000000E+20
 20
-1.000000000000000E+20
 30
-1.000000000000000E+20
  9
$PLIMMIN
 10
0.0
 20
0.0
  9
$PLIMMAX
 10
12.0
 20
9.0
  9
$UNITMODE
 70
     0
  9
$VISRETAIN
 70
     0
  9
$PLINEGEN
 70
     1
  9
$PSLTSCALE
 70
     0
  9
$TREEDEPTH
 70
  3020
  9
$CMLSTYLE
  2
Standard
  9
$CMLJUST
 70
     0
  9
$CMLSCALE
 40
1.0
  9
$PROXYGRAPHICS
 70
     0
  9
$MEASUREMENT
 70
     0
  9
$CELWEIGHT
370
     0
  9
$ENDCAPS
280
     0
  9
$JOINSTYLE
280
     0
  9
$LWDISPLAY
290
     1
  9
$INSUNITS
 70
     1
  9
$HYPERLINKBASE
  1

  9
$STYLESHEET
  1
acad.ctb
  9
$XEDIT
290
     1
  9
$CEPSNTYPE
380
     0
  9
$PSTYLEMODE
290
     1
  9
$FINGERPRINTGUID
  2

  9
$VERSIONGUID
  2
{B5F4956C-050F-4C5F-BA25-1546644B6AE6}
  9
$EXTNAMES
290
     1
  9
$PSVPSCALE
 40
0.0
  9
$OLESTARTUP
290
     0
  0
ENDSEC
  0
SECTION
  2
CLASSES
  0
CLASS
  1
ACDBDICTIONARYWDFLT
  2
AcDbDictionaryWithDefault
  3
ObjectDBX Classes
 90
        0
280
     0
281
     0
  0
CLASS
  1
ACDBPLACEHOLDER
  2
AcDbPlaceHolder
  3
ObjectDBX Classes
 90
        0
280
     0
281
     0
  0
CLASS
  1
LAYOUT
  2
AcDbLayout
  3
ObjectDBX Classes
 90
        0
280
     0
281
     0
  0
CLASS
  1
IMAGE
  2
AcDbRasterImage
  3
ISM
 90
    32895
280
     0
281
     1
  0
CLASS
  1
DICTIONARYVAR
  2
AcDbDictionaryVar
  3
ObjectDBX Classes
 90
        0
280
     0
281
     0
  0
CLASS
  1
RASTERVARIABLES
  2
AcDbRasterVariables
  3
ISM
 90
    32768
280
     0
281
     0
  0
CLASS
  1
IMAGEDEF
  2
AcDbRasterImageDef
  3
ISM
 90
    32768
280
     0
281
     0
  0
CLASS
  1
IMAGEDEF_REACTOR
  2
AcDbRasterImageDefReactor
  3
ISM
 90
    32769
280
     0
281
     0
  0
CLASS
  1
IDBUFFER
  2
AcDbIdBuffer
  3
ObjectDBX Classes
 90
    32768
280
     0
281
     0
  0
CLASS
  1
SPATIAL_FILTER
  2
AcDbSpatialFilter
  3
ObjectDBX Classes
 90
    32768
280
     0
281
     0
  0
CLASS
  1
SORTENTSTABLE
  2
AcDbSortentsTable
  3
ObjectDBX Classes
 90
        0
280
     0
281
     0
  0
CLASS
  1
LAYER_INDEX
  2
AcDbLayerIndex
  3
ObjectDBX Classes
 90
    32768
280
     0
281
     0
  0
CLASS
  1
SPATIAL_INDEX
  2
AcDbSpatialIndex
  3
ObjectDBX Classes
 90
    32768
280
     0
281
     0
  0
CLASS
  1
OBJECT_PTR
  2
CAseDLPNTableRecord
  3
ASE-LPNTableRecord
 90
    32769
280
     0
281
     0
  0
CLASS
  1
PLOTSETTINGS
  2
AcDbPlotSettings
  3
ObjectDBX Classes
 90
    32768
280
     0
281
     0
  0
CLASS
  1
VBA_PROJECT
  2
AcDbVbaProject
  3
acad
 90
    32768
280
     0
281
     0
  0
CLASS
  1
WIPEOUT
  2
AcDbWipeout
  3
"WipeOut|Product Desc: Object Enabler for WipeOut entity^I^I^I^I^I^I|Company: Autodesk, Inc.^I^I^I^I^I^I|WEB Address: www.autodesk.com"
 90
    32895
280
     0
281
     1
  0
CLASS
  1
WIPEOUTVARIABLES
  2
AcDbWipeoutVariables
  3
"WipeOut|Product Desc:     WipeOut Dbx Application|Company:          Autodesk, Inc.|WEB Address:      www.autodesk.com"
 90
    32768
280
     0
281
     0
  0
CLASS
  1
RTEXT
  2
RText
  3
RText|AutoCAD Express Tool|expresstools@autodesk.com
 90
    33791
280
     0
281
     1
  0
CLASS
  1
ARCALIGNEDTEXT
  2
AcDbArcAlignedText
  3
ATEXT|AutoCAD Express Tool|expresstools@autodesk.com
 90
    32768
280
     0
281
     1
  0
CLASS
  1
TABLESTYLE
  2
AcDbTableStyle
  3
ObjectDBX Classes
 90
     2047
280
     0
281
     0
  0
CLASS
  1
DIMASSOC
  2
AcDbDimAssoc
  3
"AcDbDimAssoc|Product Desc:     AcDim ARX App For Dimension|Company:          Autodesk, Inc.|WEB Address:      www.autodesk.com"
 90
    32768
280
     0
281
     0
  0
ENDSEC
  0
SECTION
  2
TABLES
  0
TABLE
  2
VPORT
  5
8
330
0
100
AcDbSymbolTable
 70
     3
  0
VPORT
  5
B199
330
8
100
AcDbSymbolTableRecord
100
AcDbViewportTableRecord
  2
*Active
 70
     0
 10
0.0
 20
0.0
 11
1.0
 21
1.0
 12
108.2047843515447
 22
271.8360923252023
 13
0.0
 23
0.0
 14
10.0
 24
10.0
 15
0.0
 25
0.0
 16
0.0
 26
0.0
 36
1.0
 17
0.0
 27
0.0
 37
0.0
 40
140.6724213953395
 41
1.766467065868263
 42
50.0
 43
0.0
 44
0.0
 50
0.0
 51
0.0
 71
     0
 72
   100
 73
     1
 74
     1
 75
     0
 76
     0
 77
     0
 78
     0
281
     0
 65
     0
110
0.0
120
0.0
130
0.0
111
1.0
121
0.0
131
0.0
112
0.0
122
1.0
132
0.0
 79
     0
146
0.0
  0
ENDTAB
  0
TABLE
  2
LTYPE
  5
5
330
0
100
AcDbSymbolTable
 70
     2
  0
LTYPE
  5
14
330
5
100
AcDbSymbolTableRecord
100
AcDbLinetypeTableRecord
  2
ByBlock
 70
     0
  3

 72
    65
 73
     0
 40
0.0
  0
LTYPE
  5
15
330
5
100
AcDbSymbolTableRecord
100
AcDbLinetypeTableRecord
  2
ByLayer
 70
     0
  3

 72
    65
 73
     0
 40
0.0
  0
LTYPE
  5
16
330
5
100
AcDbSymbolTableRecord
100
AcDbLinetypeTableRecord
  2
CONTINUOUS
 70
     0
  3
Solid line
 72
    65
 73
     0
 40
0.0
  0
LTYPE
  5
1F5
330
5
100
AcDbSymbolTableRecord
100
AcDbLinetypeTableRecord
  2
CENTER
 70
     0
  3
____ _ ____ _ ____ _ ____ _ ____ _ ____ _ ____
 72
    65
 73
     4
 40
0.6
 49
0.375
 74
     0
 49
-0.075
 74
     0
 49
0.075
 74
     0
 49
-0.075
 74
     0
  0
ENDTAB
  0
TABLE
  2
LAYER
  5
2
102
{ACAD_XDICTIONARY
360
46EE
102
}
330
0
100
AcDbSymbolTable
 70
     3
  0
LAYER
  5
10
330
2
100
AcDbSymbolTableRecord
100
AcDbLayerTableRecord
  2
0
 70
     0
 62
     7
  6
CONTINUOUS
370
    15
390
F
  0
LAYER
  5
FE3
330
2
100
AcDbSymbolTableRecord
100
AcDbLayerTableRecord
  2
Defpoints
 70
     0
 62
     7
  6
CONTINUOUS
290
     0
370
    -3
390
F
  0
LAYER
  5
46F1
330
2
100
AcDbSymbolTableRecord
100
AcDbLayerTableRecord
  2
Dimension
 70
     0
 62
     7
  6
CONTINUOUS
370
     0
390
F
1001
AcAecLayerStandard
1000

1000

  0
ENDTAB
  0
TABLE
  2
STYLE
  5
3
330
0
100
AcDbSymbolTable
 70
     1
  0
STYLE
  5
11
330
3
100
AcDbSymbolTableRecord
100
AcDbTextStyleTableRecord
  2
STANDARD
 70
     0
 40
0.0
 41
1.0
 50
0.0
 71
     0
 42
0.2
  3
ARIAL.TTF
  4

1001
ACAD
1000
Arial
1071
       34
  0
ENDTAB
  0
TABLE
  2
VIEW
  5
6
330
0
100
AcDbSymbolTable
 70
     0
  0
ENDTAB
  0
TABLE
  2
UCS
  5
7
330
0
100
AcDbSymbolTable
 70
     0
  0
ENDTAB
  0
TABLE
  2
APPID
  5
9
330
0
100
AcDbSymbolTable
 70
    13
  0
APPID
  5
212
330
9
100
AcDbSymbolTableRecord
100
AcDbRegAppTableRecord
  2
ACAD
 70
     0
  0
APPID
  5
9B1
330
9
100
AcDbSymbolTableRecord
100
AcDbRegAppTableRecord
  2
DCO15
 70
     0
  0
APPID
  5
4673
330
9
100
AcDbSymbolTableRecord
100
AcDbRegAppTableRecord
  2
ACAD_EXEMPT_FROM_CAD_STANDARDS
 70
     0
  0
APPID
  5
46F2
330
9
100
AcDbSymbolTableRecord
100
AcDbRegAppTableRecord
  2
AcAecLayerStandard
 70
     0
  0
APPID
  5
46F5
330
9
100
AcDbSymbolTableRecord
100
AcDbRegAppTableRecord
  2
ACAD_DSTYLE_DIMTEXT_FILL
 70
     0
  0
APPID
  5
46F6
330
9
100
AcDbSymbolTableRecord
100
AcDbRegAppTableRecord
  2
ACAD_DSTYLE_DIMEXT_LENGTH
 70
     0
  0
APPID
  5
46F7
330
9
100
AcDbSymbolTableRecord
100
AcDbRegAppTableRecord
  2
ACAD_DSTYLE_DIMEXT_ENABLED
 70
     0
  0
APPID
  5
46F8
330
9
100
AcDbSymbolTableRecord
100
AcDbRegAppTableRecord
  2
ACAD_DSTYLE_DIM_LINETYPE
 70
     0
  0
APPID
  5
46F9
330
9
100
AcDbSymbolTableRecord
100
AcDbRegAppTableRecord
  2
ACAD_DSTYLE_DIM_EXT1_LINETYPE
 70
     0
  0
APPID
  5
46FA
330
9
100
AcDbSymbolTableRecord
100
AcDbRegAppTableRecord
  2
ACAD_DSTYLE_DIM_EXT2_LINETYPE
 70
     0
  0
APPID
  5
4914
330
9
100
AcDbSymbolTableRecord
100
AcDbRegAppTableRecord
  2
ACAD_DSTYLE_DIMJOGGED_JOGANGLE_SYMBOL
 70
     0
  0
APPID
  5
4D98
330
9
100
AcDbSymbolTableRecord
100
AcDbRegAppTableRecord
  2
ACAD_DSTYLE_DIMARC_LENGTH_SYMBOL
 70
     0
  0
APPID
  5
9375
330
9
100
AcDbSymbolTableRecord
100
AcDbRegAppTableRecord
  2
ACAD_PSEXT
 70
     0
  0
ENDTAB
  0
TABLE
  2
DIMSTYLE
  5
A
330
0
100
AcDbSymbolTable
 70
     1
100
AcDbDimStyleTable
 71
     1
340
229
  0
DIMSTYLE
105
229
102
{ACAD_REACTORS
330
9976
330
9EDF
330
9F0B
330
9F37
330
A7A7
330
A7FC
330
A859
330
A920
330
A949
330
AFFC
330
B024
330
B031
330
B0A5
330
B13D
102
}
330
A
100
AcDbSymbolTableRecord
100
AcDbDimStyleTableRecord
  2
STANDARD
 70
     0
 41
3.0
 42
1.5
 43
0.5
 44
1.0
 47
0.01
 48
0.01
 71
     1
 73
     0
 74
     0
 77
     1
 78
     1
140
2.799999999999999
141
0.0
146
0.7
147
0.5
271
     2
272
     2
283
     0
340
11
1001
ACAD_DSTYLE_DIMEXT_LENGTH
1070
   378
1040
0.18
1001
ACAD_DSTYLE_DIMEXT_ENABLED
1070
   383
1070
     0
1001
ACAD_DSTYLE_DIMARC_LENGTH_SYMBOL
1070
   379
1070
     0
1001
ACAD_DSTYLE_DIMJOGGED_JOGANGLE_SYMBOL
1070
   384
1040
0.7853981633974483
  0
ENDTAB
  0
TABLE
  2
BLOCK_RECORD
  5
1
330
0
100
AcDbSymbolTable
 70
    14
  0
BLOCK_RECORD
  5
1F
102
{ACAD_XDICTIONARY
360
467E
102
}
330
1
100
AcDbSymbolTableRecord
100
AcDbBlockTableRecord
  2
*MODEL_SPACE
340
22
  0
BLOCK_RECORD
  5
1B
330
1
100
AcDbSymbolTableRecord
100
AcDbBlockTableRecord
  2
*PAPER_SPACE
340
1E
  0
BLOCK_RECORD
  5
9977
330
1
100
AcDbSymbolTableRecord
100
AcDbBlockTableRecord
  2
*D0
340
0
  0
BLOCK_RECORD
  5
9EE0
330
1
100
AcDbSymbolTableRecord
100
AcDbBlockTableRecord
  2
*D1
340
0
  0
BLOCK_RECORD
  5
9F0C
330
1
100
AcDbSymbolTableRecord
100
AcDbBlockTableRecord
  2
*D2
340
0
  0
BLOCK_RECORD
  5
9F38
330
1
100
AcDbSymbolTableRecord
100
AcDbBlockTableRecord
  2
*D3
340
0
  0
BLOCK_RECORD
  5
A7A8
330
1
100
AcDbSymbolTableRecord
100
AcDbBlockTableRecord
  2
*D4
340
0
  0
BLOCK_RECORD
  5
A7FD
330
1
100
AcDbSymbolTableRecord
100
AcDbBlockTableRecord
  2
*D5
340
0
  0
BLOCK_RECORD
  5
A85A
330
1
100
AcDbSymbolTableRecord
100
AcDbBlockTableRecord
  2
*D6
340
0
  0
BLOCK_RECORD
  5
A921
330
1
100
AcDbSymbolTableRecord
100
AcDbBlockTableRecord
  2
*D7
340
0
  0
BLOCK_RECORD
  5
A94A
330
1
100
AcDbSymbolTableRecord
100
AcDbBlockTableRecord
  2
*D8
340
0
  0
BLOCK_RECORD
  5
AFFD
330
1
100
AcDbSymbolTableRecord
100
AcDbBlockTableRecord
  2
*D9
340
0
  0
BLOCK_RECORD
  5
B025
330
1
100
AcDbSymbolTableRecord
100
AcDbBlockTableRecord
  2
*D10
340
0
  0
BLOCK_RECORD
  5
B032
330
1
100
AcDbSymbolTableRecord
100
AcDbBlockTableRecord
  2
*D11
340
0
  0
BLOCK_RECORD
  5
B0A6
330
1
100
AcDbSymbolTableRecord
100
AcDbBlockTableRecord
  2
*D12
340
0
  0
BLOCK_RECORD
  5
B13E
330
1
100
AcDbSymbolTableRecord
100
AcDbBlockTableRecord
  2
*D13
340
0
  0
ENDTAB
  0
ENDSEC
  0
SECTION
  2
BLOCKS
  0
BLOCK
  5
20
330
1F
100
AcDbEntity
  8
0
100
AcDbBlockBegin
  2
*MODEL_SPACE
 70
     0
 10
0.0
 20
0.0
 30
0.0
  3
*MODEL_SPACE
  1

  0
ENDBLK
  5
21
330
1F
100
AcDbEntity
  8
0
100
AcDbBlockEnd
  0
BLOCK
  5
1C
330
1B
100
AcDbEntity
 67
     1
  8
0
100
AcDbBlockBegin
  2
*PAPER_SPACE
 70
     0
 10
0.0
 20
0.0
 30
0.0
  3
*PAPER_SPACE
  1

  0
ENDBLK
  5
1D
330
1B
100
AcDbEntity
 67
     1
  8
0
100
AcDbBlockEnd
  0
BLOCK
  5
9981
330
9977
100
AcDbEntity
  8
0
370
     0
100
AcDbBlockBegin
  2
*D0
 70
     1
 10
0.0
 20
0.0
 30
0.0
  3
*D0
  1

  0
LINE
  5
AF59
330
9977
100
AcDbEntity
  8
Dimension
 62
     0
370
    -2
100
AcDbLine
 10
83.74219378553958
 20
264.594780813006
 30
0.0
 11
83.74219378553958
 21
232.4984595290457
 31
0.0
  0
LINE
  5
AF5A
330
9977
100
AcDbEntity
  8
Dimension
 62
     0
370
    -2
100
AcDbLine
 10
116.2672382341952
 20
264.3944365031853
 30
0.0
 11
116.2672382341952
 21
232.4984595290457
 31
0.0
  0
LINE
  5
AF5B
330
9977
100
AcDbEntity
  8
Dimension
 62
     0
370
    -2
100
AcDbLine
 10
86.74219378553958
 20
233.4984595290456
 30
0.0
 11
113.2672382341952
 21
233.4984595290456
 31
0.0
  0
SOLID
  5
AF5C
330
9977
100
AcDbEntity
  8
Dimension
 62
     0
370
     0
100
AcDbTrace
 10
86.74219378553958
 20
233.9984595290456
 30
0.0
 11
86.74219378553958
 21
232.9984595290456
 31
0.0
 12
83.74219378553958
 22
233.4984595290456
 32
0.0
 13
83.74219378553958
 23
233.4984595290456
 33
0.0
  0
SOLID
  5
AF5D
330
9977
100
AcDbEntity
  8
Dimension
 62
     0
370
     0
100
AcDbTrace
 10
113.2672382341952
 20
233.9984595290456
 30
0.0
 11
113.2672382341952
 21
232.9984595290456
 31
0.0
 12
116.2672382341952
 22
233.4984595290456
 32
0.0
 13
116.2672382341952
 23
233.4984595290456
 33
0.0
  0
MTEXT
  5
AF5E
330
9977
100
AcDbEntity
  8
Dimension
 62
     0
370
     0
100
AcDbMText
 10
100.0047160094423
 20
235.4290188742025
 30
0.0
 40
2.799999999999999
 41
0.0
 71
     5
 72
     1
  1
32.6
 73
     1
 44
1.0
1001
ACAD
1000
MTEXTBEGIN
1070
    73
1070
     1
1070
    44
1040
1.0
1070
    74
1070
     0
1000
MTEXTEND
  0
POINT
  5
AF5F
330
9977
100
AcDbEntity
  8
Defpoints
 62
     0
370
     0
100
AcDbPoint
 10
83.74219378553958
 20
266.094780813006
 30
0.0
  0
POINT
  5
AF60
330
9977
100
AcDbEntity
  8
Defpoints
 62
     0
370
     0
100
AcDbPoint
 10
116.2672382341952
 20
265.8944365031853
 30
0.0
  0
POINT
  5
AF61
330
9977
100
AcDbEntity
  8
Defpoints
 62
     0
370
     0
100
AcDbPoint
 10
116.2672382341952
 20
233.4984595290456
 30
0.0
  0
ENDBLK
  5
9982
330
9977
100
AcDbEntity
  8
0
370
     0
100
AcDbBlockEnd
  0
BLOCK
  5
9EEB
330
9EE0
100
AcDbEntity
  8
0
370
     0
100
AcDbBlockBegin
  2
*D1
 70
     1
 10
0.0
 20
0.0
 30
0.0
  3
*D1
  1

  0
LINE
  5
AF62
330
9EE0
100
AcDbEntity
  8
Dimension
 62
     0
370
    -2
100
AcDbLine
 10
116.2672382341952
 20
264.3944365031852
 30
0.0
 11
116.2672382341952
 21
255.6626390578409
 31
0.0
  0
LINE
  5
AF63
330
9EE0
100
AcDbEntity
  8
Dimension
 62
     0
370
    -2
100
AcDbLine
 10
113.2556600449928
 20
264.3063841828671
 30
0.0
 11
113.2556600449928
 21
255.6626390578409
 31
0.0
  0
LINE
  5
AF64
330
9EE0
100
AcDbEntity
  8
Dimension
 62
     0
370
    -2
100
AcDbLine
 10
119.2672382341952
 20
256.6626390578409
 30
0.0
 11
122.2672382341952
 21
256.6626390578409
 31
0.0
  0
LINE
  5
AF65
330
9EE0
100
AcDbEntity
  8
Dimension
 62
     0
370
    -2
100
AcDbLine
 10
110.2556600449928
 20
256.6626390578409
 30
0.0
 11
104.3566150245289
 21
256.6626390578409
 31
0.0
  0
SOLID
  5
AF66
330
9EE0
100
AcDbEntity
  8
Dimension
 62
     0
370
     0
100
AcDbTrace
 10
119.2672382341952
 20
257.1626390578408
 30
0.0
 11
119.2672382341952
 21
256.1626390578409
 31
0.0
 12
116.2672382341952
 22
256.6626390578409
 32
0.0
 13
116.2672382341952
 23
256.6626390578409
 33
0.0
  0
SOLID
  5
AF67
330
9EE0
100
AcDbEntity
  8
Dimension
 62
     0
370
     0
100
AcDbTrace
 10
110.2556600449928
 20
257.1626390578408
 30
0.0
 11
110.2556600449928
 21
256.1626390578409
 31
0.0
 12
113.2556600449928
 22
256.6626390578409
 32
0.0
 13
113.2556600449928
 23
256.6626390578409
 33
0.0
  0
MTEXT
  5
AF68
330
9EE0
100
AcDbEntity
  8
Dimension
 62
     0
370
     0
100
AcDbMText
 10
105.7733953792356
 20
258.5931984029977
 30
0.0
 40
2.799999999999999
 41
0.0
 71
     5
 72
     1
  1
3
 73
     1
 44
1.0
1001
ACAD
1000
MTEXTBEGIN
1070
    73
1070
     1
1070
    44
1040
1.0
1070
    74
1070
     0
1000
MTEXTEND
  0
POINT
  5
AF69
330
9EE0
100
AcDbEntity
  8
Defpoints
 62
     0
370
     0
100
AcDbPoint
 10
116.2672382341952
 20
265.8944365031851
 30
0.0
  0
POINT
  5
AF6A
330
9EE0
100
AcDbEntity
  8
Defpoints
 62
     0
370
     0
100
AcDbPoint
 10
113.2556600449928
 20
265.8063841828671
 30
0.0
  0
POINT
  5
AF6B
330
9EE0
100
AcDbEntity
  8
Defpoints
 62
     0
370
     0
100
AcDbPoint
 10
113.2556600449928
 20
256.6626390578409
 30
0.0
  0
ENDBLK
  5
9EEC
330
9EE0
100
AcDbEntity
  8
0
370
     0
100
AcDbBlockEnd
  0
BLOCK
  5
9F17
330
9F0C
100
AcDbEntity
  8
0
370
     0
100
AcDbBlockBegin
  2
*D2
 70
     1
 10
0.0
 20
0.0
 30
0.0
  3
*D2
  1

  0
LINE
  5
AF6C
330
9F0C
100
AcDbEntity
  8
Dimension
 62
     0
370
    -2
100
AcDbLine
 10
116.2672382341952
 20
264.3944365031852
 30
0.0
 11
116.2672382341952
 21
245.439424773935
 31
0.0
  0
LINE
  5
AF6D
330
9F0C
100
AcDbEntity
  8
Dimension
 62
     0
370
    -2
100
AcDbLine
 10
117.6122554490063
 20
279.5528404249457
 30
0.0
 11
117.6122554490063
 21
245.439424773935
 31
0.0
  0
LINE
  5
AF6E
330
9F0C
100
AcDbEntity
  8
Dimension
 62
     0
370
    -2
100
AcDbLine
 10
113.2672382341952
 20
246.4394247739351
 30
0.0
 11
110.2672382341952
 21
246.4394247739351
 31
0.0
  0
LINE
  5
AF6F
330
9F0C
100
AcDbEntity
  8
Dimension
 62
     0
370
    -2
100
AcDbLine
 10
120.6122554490063
 20
246.4394247739351
 30
0.0
 11
123.6122554490063
 21
246.4394247739351
 31
0.0
  0
MTEXT
  5
AF70
330
9F0C
100
AcDbEntity
  8
Dimension
 62
     0
370
     0
100
AcDbMText
 10
128.3305127151532
 20
248.4113452761571
 30
0.0
 40
2.799999999999999
 41
0.0
 71
     5
 72
     1
  1
1.35{\H1.960000;±0.5}
 73
     1
 44
1.0
1001
ACAD
1000
MTEXTBEGIN
1070
    73
1070
     1
1070
    44
1040
1.0
1070
    74
1070
     0
1000
MTEXTEND
  0
SOLID
  5
AF71
330
9F0C
100
AcDbEntity
  8
Dimension
 62
     0
370
     0
100
AcDbTrace
 10
113.2672382341952
 20
246.9394247739351
 30
0.0
 11
113.2672382341952
 21
245.939424773935
 31
0.0
 12
116.2672382341952
 22
246.4394247739351
 32
0.0
 13
116.2672382341952
 23
246.4394247739351
 33
0.0
  0
SOLID
  5
AF72
330
9F0C
100
AcDbEntity
  8
Dimension
 62
     0
370
     0
100
AcDbTrace
 10
120.6122554490063
 20
246.9394247739351
 30
0.0
 11
120.6122554490063
 21
245.939424773935
 31
0.0
 12
117.6122554490063
 22
246.4394247739351
 32
0.0
 13
117.6122554490063
 23
246.4394247739351
 33
0.0
  0
POINT
  5
AF73
330
9F0C
100
AcDbEntity
  8
Defpoints
 62
     0
370
     0
100
AcDbPoint
 10
116.2672382341952
 20
265.8944365031851
 30
0.0
  0
POINT
  5
AF74
330
9F0C
100
AcDbEntity
  8
Defpoints
 62
     0
370
     0
100
AcDbPoint
 10
117.6122554490063
 20
281.0528404249457
 30
0.0
  0
POINT
  5
AF75
330
9F0C
100
AcDbEntity
  8
Defpoints
 62
     0
370
     0
100
AcDbPoint
 10
117.6122554490063
 20
246.4394247739351
 30
0.0
  0
ENDBLK
  5
9F18
330
9F0C
100
AcDbEntity
  8
0
370
     0
100
AcDbBlockEnd
  0
BLOCK
  5
9F42
330
9F38
100
AcDbEntity
  8
0
370
     0
100
AcDbBlockBegin
  2
*D3
 70
     1
 10
0.0
 20
0.0
 30
0.0
  3
*D3
  1

  0
LINE
  5
AF76
330
9F38
100
AcDbEntity
  8
Dimension
 62
     0
370
    -2
100
AcDbLine
 10
116.2672382341952
 20
264.3944365031852
 30
0.0
 11
116.2672382341952
 21
232.4984595290457
 31
0.0
  0
LINE
  5
AF77
330
9F38
100
AcDbEntity
  8
Dimension
 62
     0
370
    -2
100
AcDbLine
 10
136.7691679332455
 20
288.3607025316907
 30
0.0
 11
136.7691679332455
 21
232.4984595290457
 31
0.0
  0
LINE
  5
AF78
330
9F38
100
AcDbEntity
  8
Dimension
 62
     0
370
    -2
100
AcDbLine
 10
119.2672382341952
 20
233.4984595290456
 30
0.0
 11
133.7691679332455
 21
233.4984595290456
 31
0.0
  0
LINE
  5
AF79
330
9F38
100
AcDbEntity
  8
Dimension
 62
     0
370
    -2
100
AcDbLine
 10
136.7691679332455
 20
233.4984595290456
 30
0.0
 11
157.3438746181022
 21
233.4984595290456
 31
0.0
  0
SOLID
  5
AF7A
330
9F38
100
AcDbEntity
  8
Dimension
 62
     0
370
     0
100
AcDbTrace
 10
119.2672382341952
 20
233.9984595290456
 30
0.0
 11
119.2672382341952
 21
232.9984595290456
 31
0.0
 12
116.2672382341952
 22
233.4984595290456
 32
0.0
 13
116.2672382341952
 23
233.4984595290456
 33
0.0
  0
SOLID
  5
AF7B
330
9F38
100
AcDbEntity
  8
Dimension
 62
     0
370
     0
100
AcDbTrace
 10
133.7691679332455
 20
233.9984595290456
 30
0.0
 11
133.7691679332455
 21
232.9984595290456
 31
0.0
 12
136.7691679332455
 22
233.4984595290456
 32
0.0
 13
136.7691679332455
 23
233.4984595290456
 33
0.0
  0
MTEXT
  5
AF7C
330
9F38
100
AcDbEntity
  8
Dimension
 62
     0
370
     0
100
AcDbMText
 10
148.8422920805852
 20
235.4280638946664
 30
0.0
 40
2.799999999999999
 41
0.0
 71
     5
 72
     1
  1
20.50{\H1.960000;±0.01}
 73
     1
 44
1.0
1001
ACAD
1000
MTEXTBEGIN
1070
    73
1070
     1
1070
    44
1040
1.0
1070
    74
1070
     0
1000
MTEXTEND
  0
POINT
  5
AF7D
330
9F38
100
AcDbEntity
  8
Defpoints
 62
     0
370
     0
100
AcDbPoint
 10
116.2672382341952
 20
265.8944365031851
 30
0.0
  0
POINT
  5
AF7E
330
9F38
100
AcDbEntity
  8
Defpoints
 62
     0
370
     0
100
AcDbPoint
 10
136.7691679332455
 20
289.8607025316906
 30
0.0
  0
POINT
  5
AF7F
330
9F38
100
AcDbEntity
  8
Defpoints
 62
     0
370
     0
100
AcDbPoint
 10
136.7691679332455
 20
233.4984595290456
 30
0.0
  0
ENDBLK
  5
9F43
330
9F38
100
AcDbEntity
  8
0
370
     0
100
AcDbBlockEnd
  0
BLOCK
  5
A7B2
330
A7A8
100
AcDbEntity
  8
0
370
     0
100
AcDbBlockBegin
  2
*D4
 70
     1
 10
0.0
 20
0.0
 30
0.0
  3
*D4
  1

  0
LINE
  5
AF80
330
A7A8
100
AcDbEntity
  8
Dimension
 62
     0
370
    -2
100
AcDbLine
 10
118.911483570066
 20
302.9368482356443
 30
0.0
 11
164.1845588998719
 21
302.9368482356443
 31
0.0
  0
LINE
  5
AF81
330
A7A8
100
AcDbEntity
  8
Dimension
 62
     0
370
    -2
100
AcDbLine
 10
118.911483570066
 20
280.851941511427
 30
0.0
 11
164.1845588998719
 21
280.8519415114269
 31
0.0
  0
LINE
  5
AF82
330
A7A8
100
AcDbEntity
  8
Dimension
 62
     0
370
    -2
100
AcDbLine
 10
163.1845588998719
 20
299.9368482356443
 30
0.0
 11
163.1845588998719
 21
283.8519415114269
 31
0.0
  0
SOLID
  5
AF83
330
A7A8
100
AcDbEntity
  8
Dimension
 62
     0
370
     0
100
AcDbTrace
 10
162.6845588998719
 20
299.9368482356443
 30
0.0
 11
163.6845588998719
 21
299.9368482356443
 31
0.0
 12
163.1845588998719
 22
302.9368482356443
 32
0.0
 13
163.1845588998719
 23
302.9368482356443
 33
0.0
  0
SOLID
  5
AF84
330
A7A8
100
AcDbEntity
  8
Dimension
 62
     0
370
     0
100
AcDbTrace
 10
162.6845588998719
 20
283.8519415114269
 30
0.0
 11
163.6845588998719
 21
283.8519415114269
 31
0.0
 12
163.1845588998719
 22
280.8519415114269
 32
0.0
 13
163.1845588998719
 23
280.8519415114269
 33
0.0
  0
MTEXT
  5
AF85
330
A7A8
100
AcDbEntity
  8
Dimension
 62
     0
370
     0
100
AcDbMText
 10
160.2994338430279
 20
291.8943948735357
 30
0.0
 40
2.799999999999999
 41
0.0
 71
     5
 72
     1
  1
Ø 22{\H1.960000;\S+0^ -0.033;}
 11
0.0000000000000001
 21
1.0
 31
0.0
 73
     1
 44
1.0
1001
ACAD
1000
MTEXTBEGIN
1070
    73
1070
     1
1070
    44
1040
1.0
1070
    74
1070
     0
1000
MTEXTEND
  0
POINT
  5
AF86
330
A7A8
100
AcDbEntity
  8
Defpoints
 62
     0
370
     0
100
AcDbPoint
 10
117.411483570066
 20
302.9368482356443
 30
0.0
  0
POINT
  5
AF87
330
A7A8
100
AcDbEntity
  8
Defpoints
 62
     0
370
     0
100
AcDbPoint
 10
117.411483570066
 20
280.851941511427
 30
0.0
  0
POINT
  5
AF88
330
A7A8
100
AcDbEntity
  8
Defpoints
 62
     0
370
     0
100
AcDbPoint
 10
163.1845588998719
 20
280.8519415114269
 30
0.0
  0
ENDBLK
  5
A7B3
330
A7A8
100
AcDbEntity
  8
0
370
     0
100
AcDbBlockEnd
  0
BLOCK
  5
A808
330
A7FD
100
AcDbEntity
  8
0
370
     0
100
AcDbBlockBegin
  2
*D5
 70
     1
 10
0.0
 20
0.0
 30
0.0
  3
*D5
  1

  0
LINE
  5
AF93
330
A7FD
100
AcDbEntity
  8
Dimension
 62
     0
370
    -2
100
AcDbLine
 10
137.2691679332455
 20
294.3943948735356
 30
0.0
 11
151.2058048718598
 21
294.3943948735356
 31
0.0
  0
LINE
  5
AF94
330
A7FD
100
AcDbEntity
  8
Dimension
 62
     0
370
    -2
100
AcDbLine
 10
137.2691679332455
 20
289.3943948735357
 30
0.0
 11
151.2058048718598
 21
289.3943948735357
 31
0.0
  0
LINE
  5
AF95
330
A7FD
100
AcDbEntity
  8
Dimension
 62
     0
370
    -2
100
AcDbLine
 10
150.2058048718598
 20
297.3943948735356
 30
0.0
 11
150.2058048718598
 21
300.3943948735356
 31
0.0
  0
LINE
  5
AF96
330
A7FD
100
AcDbEntity
  8
Dimension
 62
     0
370
    -2
100
AcDbLine
 10
150.2058048718598
 20
286.3943948735356
 30
0.0
 11
150.2058048718598
 21
262.7713376850027
 31
0.0
  0
SOLID
  5
AF97
330
A7FD
100
AcDbEntity
  8
Dimension
 62
     0
370
     0
100
AcDbTrace
 10
149.7058048718598
 20
297.3943948735356
 30
0.0
 11
150.7058048718598
 21
297.3943948735356
 31
0.0
 12
150.2058048718598
 22
294.3943948735356
 32
0.0
 13
150.2058048718598
 23
294.3943948735356
 33
0.0
  0
SOLID
  5
AF98
330
A7FD
100
AcDbEntity
  8
Dimension
 62
     0
370
     0
100
AcDbTrace
 10
149.7058048718598
 20
286.3943948735356
 30
0.0
 11
150.7058048718598
 21
286.3943948735356
 31
0.0
 12
150.2058048718598
 22
289.3943948735357
 32
0.0
 13
150.2058048718598
 23
289.3943948735357
 33
0.0
  0
MTEXT
  5
AF99
330
A7FD
100
AcDbEntity
  8
Dimension
 62
     0
370
     0
100
AcDbMText
 10
147.321348300691
 20
270.1227428691774
 30
0.0
 40
2.799999999999999
 41
0.0
 71
     5
 72
     1
  1
Ø 5{\H1.960000;\S-0.008^ -0.016;}
 11
0.0000000000000001
 21
1.0
 31
0.0
 73
     1
 44
1.0
1001
ACAD
1000
MTEXTBEGIN
1070
    73
1070
     1
1070
    44
1040
1.0
1070
    74
1070
     0
1000
MTEXTEND
  0
POINT
  5
AF9A
330
A7FD
100
AcDbEntity
  8
Defpoints
 62
     0
370
     0
100
AcDbPoint
 10
135.7691679332455
 20
294.3943948735356
 30
0.0
  0
POINT
  5
AF9B
330
A7FD
100
AcDbEntity
  8
Defpoints
 62
     0
370
     0
100
AcDbPoint
 10
135.7691679332455
 20
289.3943948735357
 30
0.0
  0
POINT
  5
AF9C
330
A7FD
100
AcDbEntity
  8
Defpoints
 62
     0
370
     0
100
AcDbPoint
 10
150.2058048718598
 20
289.3943948735357
 30
0.0
  0
ENDBLK
  5
A809
330
A7FD
100
AcDbEntity
  8
0
370
     0
100
AcDbBlockEnd
  0
BLOCK
  5
A864
330
A85A
100
AcDbEntity
  8
0
370
     0
100
AcDbBlockBegin
  2
*D6
 70
     1
 10
0.0
 20
0.0
 30
0.0
  3
*D6
  1

  0
LINE
  5
AF9D
330
A85A
100
AcDbEntity
  8
Dimension
 62
     0
370
    -2
100
AcDbLine
 10
82.3425797258597
 20
317.794394873536
 30
0.0
 11
71.31679394854041
 21
317.794394873536
 31
0.0
  0
LINE
  5
AF9E
330
A85A
100
AcDbEntity
  8
Dimension
 62
     0
370
    -2
100
AcDbLine
 10
82.34257972500968
 20
265.994394873536
 30
0.0
 11
71.31679394854039
 21
265.994394873536
 31
0.0
  0
LINE
  5
AF9F
330
A85A
100
AcDbEntity
  8
Dimension
 62
     0
370
    -2
100
AcDbLine
 10
72.3167939485404
 20
314.794394873536
 30
0.0
 11
72.31679394854039
 21
268.994394873536
 31
0.0
  0
SOLID
  5
AFA0
330
A85A
100
AcDbEntity
  8
Dimension
 62
     0
370
     0
100
AcDbTrace
 10
71.8167939485404
 20
314.794394873536
 30
0.0
 11
72.81679394854041
 21
314.794394873536
 31
0.0
 12
72.3167939485404
 22
317.794394873536
 32
0.0
 13
72.3167939485404
 23
317.794394873536
 33
0.0
  0
SOLID
  5
AFA1
330
A85A
100
AcDbEntity
  8
Dimension
 62
     0
370
     0
100
AcDbTrace
 10
71.8167939485404
 20
268.994394873536
 30
0.0
 11
72.81679394854039
 21
268.994394873536
 31
0.0
 12
72.31679394854039
 22
265.994394873536
 32
0.0
 13
72.31679394854039
 23
265.994394873536
 33
0.0
  0
MTEXT
  5
AFA2
330
A85A
100
AcDbEntity
  8
Dimension
 62
     0
370
     0
100
AcDbMText
 10
70.30888126095509
 20
291.8943948735361
 30
0.0
 40
2.799999999999999
 41
0.0
 71
     5
 72
     1
  1
Ø 51.8
 11
0.0000000000000001
 21
1.0
 31
0.0
 73
     1
 44
1.0
1001
ACAD
1000
MTEXTBEGIN
1070
    73
1070
     1
1070
    44
1040
1.0
1070
    74
1070
     0
1000
MTEXTEND
  0
POINT
  5
AFA3
330
A85A
100
AcDbEntity
  8
Defpoints
 62
     0
370
     0
100
AcDbPoint
 10
83.8425797258597
 20
317.794394873536
 30
0.0
  0
POINT
  5
AFA4
330
A85A
100
AcDbEntity
  8
Defpoints
 62
     0
370
     0
100
AcDbPoint
 10
83.84257972500966
 20
265.994394873536
 30
0.0
  0
POINT
  5
AFA5
330
A85A
100
AcDbEntity
  8
Defpoints
 62
     0
370
     0
100
AcDbPoint
 10
72.31679394854039
 20
265.994394873536
 30
0.0
  0
ENDBLK
  5
A865
330
A85A
100
AcDbEntity
  8
0
370
     0
100
AcDbBlockEnd
  0
BLOCK
  5
A92C
330
A921
100
AcDbEntity
  8
0
370
     0
100
AcDbBlockBegin
  2
*D7
 70
     1
 10
0.0
 20
0.0
 30
0.0
  3
*D7
  1

  0
LINE
  5
AFE9
330
A921
100
AcDbEntity
  8
Dimension
 62
     0
370
    -2
100
AcDbLine
 10
186.9154433873511
 20
289.1718399027478
 30
0.0
 11
186.9154433873511
 21
244.9394247739351
 31
0.0
  0
LINE
  5
AFEA
330
A921
100
AcDbEntity
  8
Dimension
 62
     0
370
    -2
100
AcDbLine
 10
203.4154433869463
 20
264.5947808130077
 30
0.0
 11
203.4154433869463
 21
244.9394247739351
 31
0.0
  0
LINE
  5
AFEB
330
A921
100
AcDbEntity
  8
Dimension
 62
     0
370
    -2
100
AcDbLine
 10
189.9154433873511
 20
245.939424773935
 30
0.0
 11
200.4154433869463
 21
245.939424773935
 31
0.0
  0
SOLID
  5
AFEC
330
A921
100
AcDbEntity
  8
Dimension
 62
     0
370
     0
100
AcDbTrace
 10
189.9154433873511
 20
246.4394247739351
 30
0.0
 11
189.9154433873511
 21
245.439424773935
 31
0.0
 12
186.9154433873511
 22
245.939424773935
 32
0.0
 13
186.9154433873511
 23
245.939424773935
 33
0.0
  0
SOLID
  5
AFED
330
A921
100
AcDbEntity
  8
Dimension
 62
     0
370
     0
100
AcDbTrace
 10
200.4154433869463
 20
246.4394247739351
 30
0.0
 11
200.4154433869463
 21
245.439424773935
 31
0.0
 12
203.4154433869463
 22
245.939424773935
 32
0.0
 13
203.4154433869463
 23
245.939424773935
 33
0.0
  0
MTEXT
  5
AFEE
330
A921
100
AcDbEntity
  8
Dimension
 62
     0
370
     0
100
AcDbMText
 10
195.1654433871487
 20
247.8690291395558
 30
0.0
 40
2.799999999999999
 41
0.0
 71
     5
 72
     1
  1
16.5
 73
     1
 44
1.0
1001
ACAD
1000
MTEXTBEGIN
1070
    73
1070
     1
1070
    44
1040
1.0
1070
    74
1070
     0
1000
MTEXTEND
  0
POINT
  5
AFEF
330
A921
100
AcDbEntity
  8
Defpoints
 62
     0
370
     0
100
AcDbPoint
 10
186.9154433873511
 20
290.6718399027479
 30
0.0
  0
POINT
  5
AFF0
330
A921
100
AcDbEntity
  8
Defpoints
 62
     0
370
     0
100
AcDbPoint
 10
203.4154433869463
 20
266.0947808130077
 30
0.0
  0
POINT
  5
AFF1
330
A921
100
AcDbEntity
  8
Defpoints
 62
     0
370
     0
100
AcDbPoint
 10
203.4154433869463
 20
245.939424773935
 30
0.0
  0
ENDBLK
  5
A92D
330
A921
100
AcDbEntity
  8
0
370
     0
100
AcDbBlockEnd
  0
BLOCK
  5
A955
330
A94A
100
AcDbEntity
  8
0
370
     0
100
AcDbBlockBegin
  2
*D8
 70
     1
 10
0.0
 20
0.0
 30
0.0
  3
*D8
  1

  0
LINE
  5
AFF2
330
A94A
100
AcDbEntity
  8
Dimension
 62
     0
370
    -2
100
AcDbLine
 10
186.0104261725803
 20
290.394394873525
 30
0.0
 11
175.5620539278295
 21
290.394394873525
 31
0.0
  0
LINE
  5
AFF3
330
A94A
100
AcDbEntity
  8
Dimension
 62
     0
370
    -2
100
AcDbLine
 10
186.0104261725511
 20
293.3943948735357
 30
0.0
 11
175.5620539278295
 21
293.3943948735357
 31
0.0
  0
LINE
  5
AFF4
330
A94A
100
AcDbEntity
  8
Dimension
 62
     0
370
    -2
100
AcDbLine
 10
176.5620539278295
 20
287.394394873525
 30
0.0
 11
176.5620539278295
 21
284.394394873525
 31
0.0
  0
LINE
  5
AFF5
330
A94A
100
AcDbEntity
  8
Dimension
 62
     0
370
    -2
100
AcDbLine
 10
176.5620539278295
 20
296.3943948735357
 30
0.0
 11
176.5620539278295
 21
314.0918573564825
 31
0.0
  0
SOLID
  5
AFF6
330
A94A
100
AcDbEntity
  8
Dimension
 62
     0
370
     0
100
AcDbTrace
 10
176.0620539278295
 20
287.394394873525
 30
0.0
 11
177.0620539278295
 21
287.394394873525
 31
0.0
 12
176.5620539278295
 22
290.394394873525
 32
0.0
 13
176.5620539278295
 23
290.394394873525
 33
0.0
  0
SOLID
  5
AFF7
330
A94A
100
AcDbEntity
  8
Dimension
 62
     0
370
     0
100
AcDbTrace
 10
176.0620539278295
 20
296.3943948735357
 30
0.0
 11
177.0620539278295
 21
296.3943948735357
 31
0.0
 12
176.5620539278295
 22
293.3943948735357
 32
0.0
 13
176.5620539278295
 23
293.3943948735357
 33
0.0
  0
MTEXT
  5
AFF8
330
A94A
100
AcDbEntity
  8
Dimension
 62
     0
370
     0
100
AcDbMText
 10
173.6775973566608
 20
306.7431261150091
 30
0.0
 40
2.799999999999999
 41
0.0
 71
     5
 72
     1
  1
Ø 3{\H1.960000;\S-0.006^ -0.016;}
 11
0.0000000000000001
 21
1.0
 31
0.0
 73
     1
 44
1.0
1001
ACAD
1000
MTEXTBEGIN
1070
    73
1070
     1
1070
    44
1040
1.0
1070
    74
1070
     0
1000
MTEXTEND
  0
POINT
  5
AFF9
330
A94A
100
AcDbEntity
  8
Defpoints
 62
     0
370
     0
100
AcDbPoint
 10
187.5104261725803
 20
290.394394873525
 30
0.0
  0
POINT
  5
AFFA
330
A94A
100
AcDbEntity
  8
Defpoints
 62
     0
370
     0
100
AcDbPoint
 10
187.5104261725511
 20
293.3943948735357
 30
0.0
  0
POINT
  5
AFFB
330
A94A
100
AcDbEntity
  8
Defpoints
 62
     0
370
     0
100
AcDbPoint
 10
176.5620539278295
 20
293.3943948735357
 30
0.0
  0
ENDBLK
  5
A956
330
A94A
100
AcDbEntity
  8
0
370
     0
100
AcDbBlockEnd
  0
BLOCK
  5
B007
330
AFFD
100
AcDbEntity
  8
0
370
     0
100
AcDbBlockBegin
  2
*D9
 70
     1
 10
0.0
 20
0.0
 30
0.0
  3
*D9
  1

  0
LINE
  5
B01B
330
AFFD
100
AcDbEntity
  8
Dimension
 62
     0
370
    -2
100
AcDbLine
 10
220.2252679783763
 20
265.794050563715
 30
0.0
 11
231.5220148496378
 21
265.794050563715
 31
0.0
  0
LINE
  5
B01C
330
AFFD
100
AcDbEntity
  8
Dimension
 62
     0
370
    -2
100
AcDbLine
 10
218.1808380218482
 20
317.982405565904
 30
0.0
 11
231.5220148496378
 21
317.982405565904
 31
0.0
  0
LINE
  5
B01D
330
AFFD
100
AcDbEntity
  8
Dimension
 62
     0
370
    -2
100
AcDbLine
 10
230.5220148496378
 20
268.794050563715
 30
0.0
 11
230.5220148496378
 21
314.9824055659041
 31
0.0
  0
SOLID
  5
B01E
330
AFFD
100
AcDbEntity
  8
Dimension
 62
     0
370
     0
100
AcDbTrace
 10
230.0220148496378
 20
268.794050563715
 30
0.0
 11
231.0220148496378
 21
268.794050563715
 31
0.0
 12
230.5220148496378
 22
265.794050563715
 32
0.0
 13
230.5220148496378
 23
265.794050563715
 33
0.0
  0
SOLID
  5
B01F
330
AFFD
100
AcDbEntity
  8
Dimension
 62
     0
370
     0
100
AcDbTrace
 10
230.0220148496378
 20
314.9824055659041
 30
0.0
 11
231.0220148496378
 21
314.9824055659041
 31
0.0
 12
230.5220148496378
 22
317.982405565904
 32
0.0
 13
230.5220148496378
 23
317.982405565904
 33
0.0
  0
MTEXT
  5
B020
330
AFFD
100
AcDbEntity
  8
Dimension
 62
     0
370
     0
100
AcDbMText
 10
228.5141021620525
 20
291.8882280648096
 30
0.0
 40
2.799999999999999
 41
0.0
 71
     5
 72
     1
  1
Ø 52
 11
0.0000000000000001
 21
1.0
 31
0.0
 73
     1
 44
1.0
1001
ACAD
1000
MTEXTBEGIN
1070
    73
1070
     1
1070
    44
1040
1.0
1070
    74
1070
     0
1000
MTEXTEND
  0
POINT
  5
B021
330
AFFD
100
AcDbEntity
  8
Defpoints
 62
     0
370
     0
100
AcDbPoint
 10
218.7252679783763
 20
265.794050563715
 30
0.0
  0
POINT
  5
B022
330
AFFD
100
AcDbEntity
  8
Defpoints
 62
     0
370
     0
100
AcDbPoint
 10
216.6808380218482
 20
317.982405565904
 30
0.0
  0
POINT
  5
B023
330
AFFD
100
AcDbEntity
  8
Defpoints
 62
     0
370
     0
100
AcDbPoint
 10
230.5220148496378
 20
317.982405565904
 30
0.0
  0
ENDBLK
  5
B008
330
AFFD
100
AcDbEntity
  8
0
370
     0
100
AcDbBlockEnd
  0
BLOCK
  5
B02F
330
B025
100
AcDbEntity
  8
0
370
     0
100
AcDbBlockBegin
  2
*D10
 70
     1
 10
0.0
 20
0.0
 30
0.0
  3
*D10
  1

  0
LINE
  5
B134
330
B025
100
AcDbEntity
  8
Dimension
 62
     0
370
    -2
100
AcDbLine
 10
33.61241295842738
 20
312.9762140802926
 30
0.0
 11
49.89427045450817
 21
312.9762140802926
 31
0.0
  0
LINE
  5
B135
330
B025
100
AcDbEntity
  8
Dimension
 62
     0
370
    -2
100
AcDbLine
 10
33.81241295842739
 20
270.6125756650792
 30
0.0
 11
49.89427045450815
 21
270.6125756650792
 31
0.0
  0
LINE
  5
B136
330
B025
100
AcDbEntity
  8
Dimension
 62
     0
370
    -2
100
AcDbLine
 10
48.89427045450816
 20
309.9762140802925
 30
0.0
 11
48.89427045450815
 21
273.6125756650793
 31
0.0
  0
SOLID
  5
B137
330
B025
100
AcDbEntity
  8
Dimension
 62
     0
370
     0
100
AcDbTrace
 10
48.39427045450817
 20
309.9762140802925
 30
0.0
 11
49.39427045450816
 21
309.9762140802925
 31
0.0
 12
48.89427045450816
 22
312.9762140802926
 32
0.0
 13
48.89427045450816
 23
312.9762140802926
 33
0.0
  0
SOLID
  5
B138
330
B025
100
AcDbEntity
  8
Dimension
 62
     0
370
     0
100
AcDbTrace
 10
48.39427045450816
 20
273.6125756650793
 30
0.0
 11
49.39427045450816
 21
273.6125756650793
 31
0.0
 12
48.89427045450815
 22
270.6125756650792
 32
0.0
 13
48.89427045450815
 23
270.6125756650792
 33
0.0
  0
MTEXT
  5
B139
330
B025
100
AcDbEntity
  8
Dimension
 62
     0
370
     0
100
AcDbMText
 10
46.97182843540852
 20
291.7943948726859
 30
0.0
 40
2.799999999999999
 41
0.0
 71
     5
 72
     1
  1
42.4{\H1.960000;±0.1}
 11
0.0000000000000001
 21
1.0
 31
0.0
 73
     1
 44
1.0
1001
ACAD
1000
MTEXTBEGIN
1070
    73
1070
     1
1070
    44
1040
1.0
1070
    74
1070
     0
1000
MTEXTEND
  0
POINT
  5
B13A
330
B025
100
AcDbEntity
  8
Defpoints
 62
     0
370
     0
100
AcDbPoint
 10
32.11241295842738
 20
312.9762140802926
 30
0.0
  0
POINT
  5
B13B
330
B025
100
AcDbEntity
  8
Defpoints
 62
     0
370
     0
100
AcDbPoint
 10
32.31241295842739
 20
270.6125756650792
 30
0.0
  0
POINT
  5
B13C
330
B025
100
AcDbEntity
  8
Defpoints
 62
     0
370
     0
100
AcDbPoint
 10
48.89427045450815
 20
270.6125756650792
 30
0.0
  0
ENDBLK
  5
B030
330
B025
100
AcDbEntity
  8
0
370
     0
100
AcDbBlockEnd
  0
BLOCK
  5
B03C
330
B032
100
AcDbEntity
  8
0
370
     0
100
AcDbBlockBegin
  2
*D11
 70
     1
 10
0.0
 20
0.0
 30
0.0
  3
*D11
  1

  0
LINE
  5
B112
330
B032
100
AcDbEntity
  8
Dimension
 62
     0
370
    -2
100
AcDbLine
 10
33.61164107778729
 20
265.7940505603155
 30
0.0
 11
59.46705122385377
 21
265.7940505603155
 31
0.0
  0
LINE
  5
B113
330
B032
100
AcDbEntity
  8
Dimension
 62
     0
370
    -2
100
AcDbLine
 10
33.61164107778729
 20
317.9947391850563
 30
0.0
 11
59.46705122385379
 21
317.9947391850563
 31
0.0
  0
LINE
  5
B114
330
B032
100
AcDbEntity
  8
Dimension
 62
     0
370
    -2
100
AcDbLine
 10
58.46705122385378
 20
268.7940505603155
 30
0.0
 11
58.4670512238538
 21
314.9947391850563
 31
0.0
  0
SOLID
  5
B115
330
B032
100
AcDbEntity
  8
Dimension
 62
     0
370
     0
100
AcDbTrace
 10
57.96705122385378
 20
268.7940505603155
 30
0.0
 11
58.96705122385378
 21
268.7940505603155
 31
0.0
 12
58.46705122385378
 22
265.7940505603155
 32
0.0
 13
58.46705122385378
 23
265.7940505603155
 33
0.0
  0
SOLID
  5
B116
330
B032
100
AcDbEntity
  8
Dimension
 62
     0
370
     0
100
AcDbTrace
 10
57.96705122385379
 20
314.9947391850563
 30
0.0
 11
58.96705122385379
 21
314.9947391850563
 31
0.0
 12
58.4670512238538
 22
317.9947391850563
 32
0.0
 13
58.4670512238538
 23
317.9947391850563
 33
0.0
  0
MTEXT
  5
B117
330
B032
100
AcDbEntity
  8
Dimension
 62
     0
370
     0
100
AcDbMText
 10
56.537446858233
 20
291.8943948726859
 30
0.0
 40
2.799999999999999
 41
0.0
 71
     5
 72
     1
  1
52
 11
0.0000000000000001
 21
1.0
 31
0.0
 73
     1
 44
1.0
1001
ACAD
1000
MTEXTBEGIN
1070
    73
1070
     1
1070
    44
1040
1.0
1070
    74
1070
     0
1000
MTEXTEND
  0
POINT
  5
B118
330
B032
100
AcDbEntity
  8
Defpoints
 62
     0
370
     0
100
AcDbPoint
 10
32.11164107778728
 20
265.7940505603155
 30
0.0
  0
POINT
  5
B119
330
B032
100
AcDbEntity
  8
Defpoints
 62
     0
370
     0
100
AcDbPoint
 10
32.11164107778728
 20
317.9947391850563
 30
0.0
  0
POINT
  5
B11A
330
B032
100
AcDbEntity
  8
Defpoints
 62
     0
370
     0
100
AcDbPoint
 10
58.4670512238538
 20
317.9947391850563
 30
0.0
  0
ENDBLK
  5
B03D
330
B032
100
AcDbEntity
  8
0
370
     0
100
AcDbBlockEnd
  0
BLOCK
  5
B0B1
330
B0A6
100
AcDbEntity
  8
0
370
     0
100
AcDbBlockBegin
  2
*D12
 70
     1
 10
0.0
 20
0.0
 30
0.0
  3
*D12
  1

  0
LINE
  5
B103
330
B0A6
100
AcDbEntity
  8
0
 62
     0
370
    -2
100
AcDbLine
 10
81.84219378468958
 20
288.3607025316909
 30
0.0
 11
81.84219378468958
 21
232.4984595290457
 31
0.0
  0
LINE
  5
B104
330
B0A6
100
AcDbEntity
  8
0
 62
     0
370
    -2
100
AcDbLine
 10
83.74219378553958
 20
264.5947808130077
 30
0.0
 11
83.74219378553958
 21
232.4984595290457
 31
0.0
  0
LINE
  5
B105
330
B0A6
100
AcDbEntity
  8
0
 62
     0
370
    -2
100
AcDbLine
 10
86.74219378553958
 20
233.4984595290456
 30
0.0
 11
89.74219378553959
 21
233.4984595290456
 31
0.0
  0
LINE
  5
B106
330
B0A6
100
AcDbEntity
  8
0
 62
     0
370
    -2
100
AcDbLine
 10
78.84219378468957
 20
233.4984595290456
 30
0.0
 11
70.00235749546719
 21
233.4984595290456
 31
0.0
  0
SOLID
  5
B107
330
B0A6
100
AcDbEntity
  8
0
 62
     0
370
     0
100
AcDbTrace
 10
86.74219378553958
 20
233.9984595290456
 30
0.0
 11
86.74219378553958
 21
232.9984595290456
 31
0.0
 12
83.74219378553958
 22
233.4984595290456
 32
0.0
 13
83.74219378553958
 23
233.4984595290456
 33
0.0
  0
SOLID
  5
B108
330
B0A6
100
AcDbEntity
  8
0
 62
     0
370
     0
100
AcDbTrace
 10
78.84219378468957
 20
233.9984595290456
 30
0.0
 11
78.84219378468957
 21
232.9984595290456
 31
0.0
 12
81.84219378468958
 22
233.4984595290456
 32
0.0
 13
81.84219378468958
 23
233.4984595290456
 33
0.0
  0
MTEXT
  5
B109
330
B0A6
100
AcDbEntity
  8
0
 62
     0
370
     0
100
AcDbMText
 10
72.92227564007838
 20
235.4280638946664
 30
0.0
 40
2.799999999999999
 41
0.0
 71
     5
 72
     1
  1
1.9
 73
     1
 44
1.0
1001
ACAD
1000
MTEXTBEGIN
1070
    73
1070
     1
1070
    44
1040
1.0
1070
    74
1070
     0
1000
MTEXTEND
  0
POINT
  5
B10A
330
B0A6
100
AcDbEntity
  8
Defpoints
 62
     0
370
     0
100
AcDbPoint
 10
81.84219378468958
 20
289.8607025316909
 30
0.0
  0
POINT
  5
B10B
330
B0A6
100
AcDbEntity
  8
Defpoints
 62
     0
370
     0
100
AcDbPoint
 10
83.74219378553958
 20
266.0947808130077
 30
0.0
  0
POINT
  5
B10C
330
B0A6
100
AcDbEntity
  8
Defpoints
 62
     0
370
     0
100
AcDbPoint
 10
83.74219378553958
 20
233.4984595290456
 30
0.0
  0
ENDBLK
  5
B0B2
330
B0A6
100
AcDbEntity
  8
0
370
     0
100
AcDbBlockEnd
  0
BLOCK
  5
B149
330
B13E
100
AcDbEntity
  8
0
370
     0
100
AcDbBlockBegin
  2
*D13
 70
     1
 10
0.0
 20
0.0
 30
0.0
  3
*D13
  1

  0
LINE
  5
B17D
330
B13E
100
AcDbEntity
  8
0
 62
     0
370
    -2
100
AcDbLine
 10
30.50623792350616
 20
314.4762140802925
 30
0.0
 11
30.50623792350616
 21
328.2698677194297
 31
0.0
  0
LINE
  5
B17E
330
B13E
100
AcDbEntity
  8
0
 62
     0
370
    -2
100
AcDbLine
 10
33.71858799334861
 20
314.4762140802925
 30
0.0
 11
33.71858799334861
 21
328.2698677194297
 31
0.0
  0
LINE
  5
B17F
330
B13E
100
AcDbEntity
  8
0
 62
     0
370
    -2
100
AcDbLine
 10
27.50623792350616
 20
327.2698677194297
 30
0.0
 11
24.50623792350616
 21
327.2698677194297
 31
0.0
  0
LINE
  5
B180
330
B13E
100
AcDbEntity
  8
0
 62
     0
370
    -2
100
AcDbLine
 10
36.71858799334862
 20
327.2698677194297
 30
0.0
 11
50.74224420071559
 21
327.2698677194297
 31
0.0
  0
SOLID
  5
B181
330
B13E
100
AcDbEntity
  8
0
 62
     0
370
     0
100
AcDbTrace
 10
27.50623792350616
 20
327.7698677194297
 30
0.0
 11
27.50623792350616
 21
326.7698677194297
 31
0.0
 12
30.50623792350616
 22
327.2698677194297
 32
0.0
 13
30.50623792350616
 23
327.2698677194297
 33
0.0
  0
SOLID
  5
B182
330
B13E
100
AcDbEntity
  8
0
 62
     0
370
     0
100
AcDbTrace
 10
36.71858799334862
 20
327.7698677194297
 30
0.0
 11
36.71858799334862
 21
326.7698677194297
 31
0.0
 12
33.71858799334861
 22
327.2698677194297
 32
0.0
 13
33.71858799334861
 23
327.2698677194297
 33
0.0
  0
MTEXT
  5
B183
330
B13E
100
AcDbEntity
  8
0
 62
     0
370
     0
100
AcDbMText
 10
45.2304160970321
 20
330.1228099659053
 30
0.0
 40
2.799999999999999
 41
0.0
 71
     5
 72
     1
  1
3.2{\H1.960000;\S+0.1^ -0;}
 73
     1
 44
1.0
1001
ACAD
1000
MTEXTBEGIN
1070
    73
1070
     1
1070
    44
1040
1.0
1070
    74
1070
     0
1000
MTEXTEND
  0
POINT
  5
B184
330
B13E
100
AcDbEntity
  8
Defpoints
 62
     0
370
     0
100
AcDbPoint
 10
30.50623792350616
 20
312.9762140802926
 30
0.0
  0
POINT
  5
B185
330
B13E
100
AcDbEntity
  8
Defpoints
 62
     0
370
     0
100
AcDbPoint
 10
33.71858799334861
 20
312.9762140802926
 30
0.0
  0
POINT
  5
B186
330
B13E
100
AcDbEntity
  8
Defpoints
 62
     0
370
     0
100
AcDbPoint
 10
33.71858799334861
 20
327.2698677194297
 30
0.0
  0
ENDBLK
  5
B14A
330
B13E
100
AcDbEntity
  8
0
370
     0
100
AcDbBlockEnd
  0
ENDSEC
  0
SECTION
  2
ENTITIES
  0
LINE
  5
9649
330
1F
100
AcDbEntity
  8
0
  6
Continuous
 62
     7
100
AcDbLine
 10
104.5220832940959
 20
265.8063841828671
 30
0.0
 11
113.1552741055226
 21
265.8063841828671
 31
0.0
  0
LINE
  5
964A
330
1F
100
AcDbEntity
  8
0
  6
Continuous
 62
     7
100
AcDbLine
 10
105.0240129914464
 20
278.5931366472222
 30
0.0
 11
105.0240129914464
 21
275.9111796510437
 31
0.0
  0
LINE
  5
964B
330
1F
100
AcDbEntity
  8
0
  6
Continuous
 62
     7
100
AcDbLine
 10
105.0240129914464
 20
273.4262596998559
 30
0.0
 11
105.0240129914464
 21
271.2818374521975
 31
0.0
  0
LINE
  5
964C
330
1F
100
AcDbEntity
  8
0
  6
Continuous
 62
     7
100
AcDbLine
 10
105.0240129914464
 20
266.8255087373739
 30
0.0
 11
105.0240129914464
 21
266.1181401804011
 31
0.0
  0
LINE
  5
964D
330
1F
100
AcDbEntity
  8
0
  6
Continuous
 62
     7
100
AcDbLine
 10
113.2556600432929
 20
278.5931366472222
 30
0.0
 11
105.0240129914464
 21
278.5931366472222
 31
0.0
  0
LINE
  5
964E
330
1F
100
AcDbEntity
  8
0
  6
Continuous
 62
     7
100
AcDbLine
 10
113.2556600432929
 20
278.5729785075068
 30
0.0
 11
105.0240129914464
 21
278.5729785075068
 31
0.0
  0
LINE
  5
964F
330
1F
100
AcDbEntity
  8
0
  6
Continuous
 62
     7
100
AcDbLine
 10
113.2556600432929
 20
275.9111796510437
 30
0.0
 11
105.0240129914464
 21
275.9111796510437
 31
0.0
  0
LINE
  5
9650
330
1F
100
AcDbEntity
  8
0
  6
Continuous
 62
     7
100
AcDbLine
 10
113.2556600432929
 20
273.4262596998559
 30
0.0
 11
105.0240129914464
 21
273.4262596998559
 31
0.0
  0
LINE
  5
9651
330
1F
100
AcDbEntity
  8
0
  6
Continuous
 62
     7
100
AcDbLine
 10
113.2556600432929
 20
271.2818374521975
 30
0.0
 11
105.0240129914464
 21
271.2818374521975
 31
0.0
  0
LINE
  5
9652
330
1F
100
AcDbEntity
  8
0
  6
Continuous
 62
     7
100
AcDbLine
 10
113.2556600432929
 20
266.8255087373739
 30
0.0
 11
105.0240129914464
 21
266.8255087373739
 31
0.0
  0
LINE
  5
9653
330
1F
100
AcDbEntity
  8
0
  6
Continuous
 62
     7
100
AcDbLine
 10
113.2556600432929
 20
266.1181401804011
 30
0.0
 11
105.0240129914464
 21
266.1181401804011
 31
0.0
  0
LINE
  5
9659
330
1F
100
AcDbEntity
  8
0
100
AcDbLine
 10
135.7691679332455
 20
294.3943948735356
 30
0.0
 11
117.6122554490063
 21
294.3943948735356
 31
0.0
  0
LINE
  5
965A
330
1F
100
AcDbEntity
  8
0
100
AcDbLine
 10
135.7691679332456
 20
289.3943948735357
 30
0.0
 11
117.6122554490063
 21
289.3943948735356
 31
0.0
  0
LINE
  5
965D
330
1F
100
AcDbEntity
  8
0
100
AcDbLine
 10
135.7691679332455
 20
294.3943948735356
 30
0.0
 11
136.7691679332455
 21
293.9280872153807
 31
0.0
  0
LINE
  5
965E
330
1F
100
AcDbEntity
  8
0
100
AcDbLine
 10
135.7691679332456
 20
289.3943948735357
 30
0.0
 11
136.7691679332455
 21
289.8607025316906
 31
0.0
  0
LINE
  5
965F
330
1F
100
AcDbEntity
  8
0
100
AcDbLine
 10
136.7691679332455
 20
289.8607025316906
 30
0.0
 11
136.7691679332455
 21
293.9280872153807
 31
0.0
  0
LINE
  5
9665
330
1F
100
AcDbEntity
  8
0
  6
Continuous
 62
     7
100
AcDbLine
 10
116.2672382341952
 20
265.8943948742356
 30
0.0
 11
116.2672382341952
 21
317.8943948745356
 31
0.0
  0
SPLINE
  5
9678
330
1F
100
AcDbEntity
  8
0
  6
Continuous
 62
     7
100
AcDbSpline
210
0.0
220
0.0
230
1.0
 70
     8
 71
     3
 72
     8
 73
     4
 74
     2
 42
0.0000000001
 43
0.0000000001
 44
0.0000000001
 12
0.0000000000000004
 22
1.0
 32
0.0
 13
-0.0308115460056083
 23
0.9995252116043618
 33
0.0
 40
0.0
 40
0.0
 40
0.0
 40
0.0
 40
0.0230616191766969
 40
0.0230616191766969
 40
0.0230616191766969
 40
0.0230616191766969
 10
113.1552741055227
 20
278.8539357557821
 30
0.0
 10
113.1552741055227
 20
278.8616229621744
 30
0.0
 10
113.155155006056
 20
278.8693110711377
 30
0.0
 10
113.1549181513426
 20
278.8769946277335
 30
0.0
 11
113.1552741055227
 21
278.8539357557821
 31
0.0
 11
113.1549181513426
 21
278.8769946277335
 31
0.0
  0
ARC
  5
9679
330
1F
100
AcDbEntity
  8
0
  6
Continuous
 62
     7
100
AcDbCircle
 10
87.75763137199277
 20
289.1337815330085
 30
0.0
 40
1.0038593964008
100
AcDbArc
 50
180.0
 51
270.0
  0
ARC
  5
967A
330
1F
100
AcDbEntity
  8
0
  6
Continuous
 62
     7
100
AcDbCircle
 10
87.75763137199277
 20
294.6550082140628
 30
0.0
 40
1.0038593964008
100
AcDbArc
 50
90.0
 51
180.0
  0
ARC
  5
967B
330
1F
100
AcDbEntity
  8
0
  6
Continuous
 62
     7
100
AcDbCircle
 10
112.251800648592
 20
294.6550082140628
 30
0.0
 40
1.0038593964008
100
AcDbArc
 50
0.0
 51
90.0
  0
ARC
  5
967C
330
1F
100
AcDbEntity
  8
0
  6
Continuous
 62
     7
100
AcDbCircle
 10
112.251800648592
 20
289.1337815330085
 30
0.0
 40
1.0038593964008
100
AcDbArc
 50
270.0
 51
0.0
  0
ARC
  5
967D
330
1F
100
AcDbEntity
  8
0
  6
Continuous
 62
     7
100
AcDbCircle
 10
113.3560459844629
 20
317.894353245586
 30
0.0
 40
0.1003859394700932
100
AcDbArc
 50
90.0
 51
180.0
  0
ARC
  5
967E
330
1F
100
AcDbEntity
  8
0
  6
Continuous
 62
     7
100
AcDbCircle
 10
113.3560459844629
 20
265.8944365031851
 30
0.0
 40
0.1003859394700932
100
AcDbArc
 50
180.0
 51
270.0
  0
ARC
  5
967F
330
1F
100
AcDbEntity
  8
0
  6
Continuous
 62
     7
100
AcDbCircle
 10
116.166852294725
 20
265.8944365031851
 30
0.0
 40
0.1003859394700932
100
AcDbArc
 50
270.0
 51
0.0
  0
ARC
  5
9680
330
1F
100
AcDbEntity
  8
0
  6
Continuous
 62
     7
100
AcDbCircle
 10
116.1668522947252
 20
317.894353245586
 30
0.0
 40
0.1003859394700932
100
AcDbArc
 50
0.0
 51
90.0
  0
ARC
  5
9681
330
1F
100
AcDbEntity
  8
0
  6
Continuous
 62
     7
100
AcDbCircle
 10
86.65338603612196
 20
266.094780813006
 30
0.0
 40
0.1003859394700932
100
AcDbArc
 50
270.0
 51
0.0
  0
ARC
  5
9684
330
1F
100
AcDbEntity
  8
0
  6
Continuous
 62
     7
100
AcDbCircle
 10
86.65338603612196
 20
317.6940089340659
 30
0.0
 40
0.1003859394700932
100
AcDbArc
 50
0.0
 51
90.0
  0
LINE
  5
9685
330
1F
100
AcDbEntity
  8
0
  6
Continuous
 62
     7
100
AcDbLine
 10
95.48734872478883
 20
265.7940505637151
 30
0.0
 11
94.98541902743847
 21
265.7940505637151
 31
0.0
  0
LINE
  5
9686
330
1F
100
AcDbEntity
  8
0
  6
Continuous
 62
     7
100
AcDbLine
 10
116.166852294725
 20
265.7940505637151
 30
0.0
 11
113.3560459844628
 21
265.7940505637151
 31
0.0
  0
LINE
  5
9687
330
1F
100
AcDbEntity
  8
0
  6
Continuous
 62
     7
100
AcDbLine
 10
113.2556600449928
 20
265.8063841828671
 30
0.0
 11
113.1552741055226
 21
265.8063841828671
 31
0.0
  0
LINE
  5
9688
330
1F
100
AcDbEntity
  8
0
  6
Continuous
 62
     7
100
AcDbLine
 10
86.75377197559198
 20
265.8063841828671
 30
0.0
 11
94.98541902743847
 21
265.8063841828671
 31
0.0
  0
LINE
  5
968A
330
1F
100
AcDbEntity
  8
0
  6
Continuous
 62
     7
100
AcDbLine
 10
113.2556600449928
 20
266.1181401804011
 30
0.0
 11
113.1552741055226
 21
266.1181401804011
 31
0.0
  0
LINE
  5
968B
330
1F
100
AcDbEntity
  8
0
  6
Continuous
 62
     7
100
AcDbLine
 10
86.75377197559198
 20
266.1181401804011
 30
0.0
 11
94.98541902743847
 21
266.1181401804011
 31
0.0
  0
LINE
  5
968C
330
1F
100
AcDbEntity
  8
0
  6
Continuous
 62
     7
100
AcDbLine
 10
113.2556600449928
 20
266.8255087373739
 30
0.0
 11
113.1552741055226
 21
266.8255087373739
 31
0.0
  0
LINE
  5
968D
330
1F
100
AcDbEntity
  8
0
  6
Continuous
 62
     7
100
AcDbLine
 10
86.75377197559198
 20
266.8255087373739
 30
0.0
 11
94.98541902743847
 21
266.8255087373739
 31
0.0
  0
LINE
  5
968E
330
1F
100
AcDbEntity
  8
0
  6
Continuous
 62
     7
100
AcDbLine
 10
113.2556600449928
 20
271.2818374521975
 30
0.0
 11
113.1552741055226
 21
271.2818374521975
 31
0.0
  0
LINE
  5
968F
330
1F
100
AcDbEntity
  8
0
  6
Continuous
 62
     7
100
AcDbLine
 10
86.75377197559198
 20
271.2818374521975
 30
0.0
 11
94.98541902743847
 21
271.2818374521975
 31
0.0
  0
LINE
  5
9690
330
1F
100
AcDbEntity
  8
0
  6
Continuous
 62
     7
100
AcDbLine
 10
113.2556600449928
 20
273.4262596998559
 30
0.0
 11
113.1552741055227
 21
273.4262596998559
 31
0.0
  0
LINE
  5
9691
330
1F
100
AcDbEntity
  8
0
  6
Continuous
 62
     7
100
AcDbLine
 10
86.75377197559203
 20
273.4262596998559
 30
0.0
 11
94.98541902743852
 21
273.4262596998559
 31
0.0
  0
LINE
  5
9692
330
1F
100
AcDbEntity
  8
0
  6
Continuous
 62
     7
100
AcDbLine
 10
113.2556600449928
 20
275.9111796510437
 30
0.0
 11
113.1552741055227
 21
275.9111796510437
 31
0.0
  0
LINE
  5
9693
330
1F
100
AcDbEntity
  8
0
  6
Continuous
 62
     7
100
AcDbLine
 10
86.75377197559203
 20
275.9111796510437
 30
0.0
 11
94.98541902743852
 21
275.9111796510437
 31
0.0
  0
LINE
  5
9697
330
1F
100
AcDbEntity
  8
0
  6
Continuous
 62
     7
100
AcDbLine
 10
113.2556600449928
 20
278.5729785075068
 30
0.0
 11
113.1552741055227
 21
278.5729785075068
 31
0.0
  0
LINE
  5
9698
330
1F
100
AcDbEntity
  8
0
  6
Continuous
 62
     7
100
AcDbLine
 10
86.75377197559203
 20
278.5729785075068
 30
0.0
 11
94.98541902743852
 21
278.5729785075068
 31
0.0
  0
LINE
  5
9699
330
1F
100
AcDbEntity
  8
0
  6
Continuous
 62
     7
100
AcDbLine
 10
113.2556600449928
 20
278.5931366472222
 30
0.0
 11
113.1552741055227
 21
278.5931366472222
 31
0.0
  0
LINE
  5
969A
330
1F
100
AcDbEntity
  8
0
  6
Continuous
 62
     7
100
AcDbLine
 10
86.75377197559203
 20
278.5931366472222
 30
0.0
 11
94.98541902743852
 21
278.5931366472222
 31
0.0
  0
LINE
  5
969B
330
1F
100
AcDbEntity
  8
0
  6
Continuous
 62
     7
100
AcDbLine
 10
86.65338603612189
 20
317.794394873536
 30
0.0
 11
86.65338603612184
 21
265.9943948735359
 31
0.0
  0
LINE
  5
969C
330
1F
100
AcDbEntity
  8
0
  6
Continuous
 62
     7
100
AcDbLine
 10
86.75377197559203
 20
317.9824055659042
 30
0.0
 11
86.75377197559198
 21
265.8063841828671
 31
0.0
  0
LINE
  5
969D
330
1F
100
AcDbEntity
  8
0
  6
Continuous
 62
     7
100
AcDbLine
 10
117.411483570066
 20
280.851941511427
 30
0.0
 11
116.2672382341952
 21
280.851941511427
 31
0.0
  0
LINE
  5
969E
330
1F
100
AcDbEntity
  8
0
  6
Continuous
 62
     7
100
AcDbLine
 10
113.2556600449928
 20
281.5448060434483
 30
0.0
 11
107.5336614832983
 21
281.5448060434483
 31
0.0
  0
LINE
  5
969F
330
1F
100
AcDbEntity
  8
0
  6
Continuous
 62
     7
100
AcDbLine
 10
86.75377197559203
 20
281.5448060434483
 30
0.0
 11
92.47577053558655
 21
281.5448060434483
 31
0.0
  0
LINE
  5
96A0
330
1F
100
AcDbEntity
  8
0
  6
Continuous
 62
     7
100
AcDbLine
 10
113.2556600449928
 20
283.3721305738567
 30
0.0
 11
107.5336614832983
 21
283.3721305738567
 31
0.0
  0
LINE
  5
96A1
330
1F
100
AcDbEntity
  8
0
  6
Continuous
 62
     7
100
AcDbLine
 10
86.75377197559203
 20
283.3721305738567
 30
0.0
 11
92.47577053558655
 21
283.3721305738567
 31
0.0
  0
LINE
  5
96A2
330
1F
100
AcDbEntity
  8
0
  6
Continuous
 62
     7
100
AcDbLine
 10
92.47577053558655
 20
288.1299221366077
 30
0.0
 11
92.47577053558655
 21
281.5448060434483
 31
0.0
  0
LINE
  5
96A3
330
1F
100
AcDbEntity
  8
0
  6
Continuous
 62
     7
100
AcDbLine
 10
92.47577053558655
 20
302.243983703623
 30
0.0
 11
92.47577053558655
 21
295.6588676104636
 31
0.0
  0
LINE
  5
96A4
330
1F
100
AcDbEntity
  8
0
  6
Continuous
 62
     7
100
AcDbLine
 10
112.251800648592
 20
288.1299221366077
 30
0.0
 11
107.5336614832983
 21
288.1299221366077
 31
0.0
  0
LINE
  5
96A5
330
1F
100
AcDbEntity
  8
0
  6
Continuous
 62
     7
100
AcDbLine
 10
87.75763137199282
 20
288.1299221366077
 30
0.0
 11
92.47577053558655
 21
288.1299221366077
 31
0.0
  0
LINE
  5
96A6
330
1F
100
AcDbEntity
  8
0
  6
Continuous
 62
     7
100
AcDbLine
 10
94.98541902743847
 20
265.8063841828671
 30
0.0
 11
94.98541902743847
 21
265.7940424723407
 31
0.0
  0
LINE
  5
96A7
330
1F
100
AcDbEntity
  8
0
  6
Continuous
 62
     7
100
AcDbLine
 10
94.98541902743847
 20
266.8255087373739
 30
0.0
 11
94.98541902743847
 21
266.1181401804011
 31
0.0
  0
LINE
  5
96A8
330
1F
100
AcDbEntity
  8
0
  6
Continuous
 62
     7
100
AcDbLine
 10
94.98541902743852
 20
273.4262596998559
 30
0.0
 11
94.98541902743847
 21
271.2818374521975
 31
0.0
  0
LINE
  5
96A9
330
1F
100
AcDbEntity
  8
0
  6
Continuous
 62
     7
100
AcDbLine
 10
94.98541902743852
 20
278.5931366472222
 30
0.0
 11
94.98541902743852
 21
275.9111796510437
 31
0.0
  0
LINE
  5
96AA
330
1F
100
AcDbEntity
  8
0
  6
Continuous
 62
     7
100
AcDbLine
 10
94.98541902743852
 20
307.8776100977276
 30
0.0
 11
94.98541902743852
 21
305.1956531015489
 31
0.0
  0
LINE
  5
96AB
330
1F
100
AcDbEntity
  8
0
  6
Continuous
 62
     7
100
AcDbLine
 10
94.98541902743852
 20
312.5069522965738
 30
0.0
 11
94.98541902743852
 21
310.3625300489152
 31
0.0
  0
LINE
  5
96AC
330
1F
100
AcDbEntity
  8
0
  6
Continuous
 62
     7
100
AcDbLine
 10
94.98541902743852
 20
317.6706495683701
 30
0.0
 11
94.98541902743852
 21
316.9632810096974
 31
0.0
  0
LINE
  5
96AD
330
1F
100
AcDbEntity
  8
0
  6
Continuous
 62
     7
100
AcDbLine
 10
94.98541902743852
 20
317.9947467358723
 30
0.0
 11
94.98541902743852
 21
317.9824055659042
 31
0.0
  0
LINE
  5
96AE
330
1F
100
AcDbEntity
  8
0
  6
Continuous
 62
     7
100
AcDbLine
 10
100.0047160094425
 20
317.9947387668884
 30
0.0
 11
100.0047160094423
 21
265.8003840438198
 31
0.0
  0
LINE
  5
96B1
330
1F
100
AcDbEntity
  8
0
  6
Continuous
 62
     7
100
AcDbLine
 10
112.251800648592
 20
295.6588676104636
 30
0.0
 11
107.5336614832983
 21
295.6588676104636
 31
0.0
  0
LINE
  5
96B2
330
1F
100
AcDbEntity
  8
0
  6
Continuous
 62
     7
100
AcDbLine
 10
87.75763137199282
 20
295.6588676104636
 30
0.0
 11
92.47577053558655
 21
295.6588676104636
 31
0.0
  0
LINE
  5
96B4
330
1F
100
AcDbEntity
  8
0
  6
Continuous
 62
     7
100
AcDbLine
 10
105.0240129931463
 20
317.9824055659042
 30
0.0
 11
105.0240129931463
 21
317.9947472764305
 31
0.0
  0
LINE
  5
96B5
330
1F
100
AcDbEntity
  8
0
  6
Continuous
 62
     7
100
AcDbLine
 10
105.0240129931463
 20
316.9632810096974
 30
0.0
 11
105.0240129931463
 21
317.6706495683701
 31
0.0
  0
LINE
  5
96B6
330
1F
100
AcDbEntity
  8
0
  6
Continuous
 62
     7
100
AcDbLine
 10
105.0240129931463
 20
310.3625300489152
 30
0.0
 11
105.0240129931463
 21
312.5069522965738
 31
0.0
  0
LINE
  5
96B7
330
1F
100
AcDbEntity
  8
0
  6
Continuous
 62
     7
100
AcDbLine
 10
105.0240129931463
 20
305.1956531015489
 30
0.0
 11
105.0240129931463
 21
307.8776100977276
 31
0.0
  0
LINE
  5
96B8
330
1F
100
AcDbEntity
  8
0
  6
Continuous
 62
     7
100
AcDbLine
 10
107.5336614832983
 20
295.6588676104636
 30
0.0
 11
107.5336614832985
 21
302.243983703623
 31
0.0
  0
LINE
  5
96B9
330
1F
100
AcDbEntity
  8
0
  6
Continuous
 62
     7
100
AcDbLine
 10
107.5336614832983
 20
281.5448060434483
 30
0.0
 11
107.5336614832983
 21
288.1299221366077
 31
0.0
  0
LINE
  5
96BA
330
1F
100
AcDbEntity
  8
0
  6
Continuous
 62
     7
100
AcDbLine
 10
113.2556600449928
 20
300.4166591749146
 30
0.0
 11
107.5336614832985
 21
300.4166591749146
 31
0.0
  0
LINE
  5
96BB
330
1F
100
AcDbEntity
  8
0
  6
Continuous
 62
     7
100
AcDbLine
 10
86.75377197559203
 20
300.4166591749146
 30
0.0
 11
92.47577053558655
 21
300.4166591749146
 31
0.0
  0
LINE
  5
96BC
330
1F
100
AcDbEntity
  8
0
  6
Continuous
 62
     7
100
AcDbLine
 10
113.2556600449928
 20
302.243983703623
 30
0.0
 11
107.5336614832985
 21
302.243983703623
 31
0.0
  0
LINE
  5
96BD
330
1F
100
AcDbEntity
  8
0
  6
Continuous
 62
     7
100
AcDbLine
 10
86.75377197559203
 20
302.243983703623
 30
0.0
 11
92.47577053558655
 21
302.243983703623
 31
0.0
  0
LINE
  5
96BF
330
1F
100
AcDbEntity
  8
0
  6
Continuous
 62
     7
100
AcDbLine
 10
113.2556600449928
 20
305.1956531015489
 30
0.0
 11
105.0240129931463
 21
305.1956531015489
 31
0.0
  0
LINE
  5
96C0
330
1F
100
AcDbEntity
  8
0
  6
Continuous
 62
     7
100
AcDbLine
 10
86.75377197559203
 20
305.1956531015489
 30
0.0
 11
94.98541902743852
 21
305.1956531015489
 31
0.0
  0
LINE
  5
96C1
330
1F
100
AcDbEntity
  8
0
  6
Continuous
 62
     7
100
AcDbLine
 10
113.2556600449928
 20
305.2158112395645
 30
0.0
 11
105.0240129931463
 21
305.2158112395645
 31
0.0
  0
LINE
  5
96C2
330
1F
100
AcDbEntity
  8
0
  6
Continuous
 62
     7
100
AcDbLine
 10
86.75377197559203
 20
305.2158112395645
 30
0.0
 11
94.98541902743852
 21
305.2158112395645
 31
0.0
  0
LINE
  5
96C3
330
1F
100
AcDbEntity
  8
0
  6
Continuous
 62
     7
100
AcDbLine
 10
113.2556600449928
 20
317.9824055659042
 30
0.0
 11
113.2556600449928
 21
265.8063841828671
 31
0.0
  0
LINE
  5
96C4
330
1F
100
AcDbEntity
  8
0
  6
Continuous
 62
     7
100
AcDbLine
 10
113.3560459844628
 20
265.7940505637151
 30
0.0
 11
113.3560459844628
 21
317.9947391850561
 31
0.0
  0
LINE
  5
96C5
330
1F
100
AcDbEntity
  8
0
  6
Continuous
 62
     7
100
AcDbLine
 10
113.2556600449928
 20
307.8776100977276
 30
0.0
 11
105.0240129931463
 21
307.8776100977276
 31
0.0
  0
LINE
  5
96C6
330
1F
100
AcDbEntity
  8
0
  6
Continuous
 62
     7
100
AcDbLine
 10
86.75377197559203
 20
307.8776100977276
 30
0.0
 11
94.98541902743852
 21
307.8776100977276
 31
0.0
  0
LINE
  5
96C7
330
1F
100
AcDbEntity
  8
0
  6
Continuous
 62
     7
100
AcDbLine
 10
116.1668522947251
 20
317.9947391850561
 30
0.0
 11
116.166852294725
 21
265.7940505637151
 31
0.0
  0
LINE
  5
96C8
330
1F
100
AcDbEntity
  8
0
  6
Continuous
 62
     7
100
AcDbLine
 10
116.2672382341952
 20
317.894353245586
 30
0.0
 11
116.2672382341952
 21
265.8944365031851
 31
0.0
  0
LINE
  5
96C9
330
1F
100
AcDbEntity
  8
0
  6
Continuous
 62
     7
100
AcDbLine
 10
117.411483570066
 20
302.9368482356443
 30
0.0
 11
117.411483570066
 21
280.851941511427
 31
0.0
  0
LINE
  5
96CA
330
1F
100
AcDbEntity
  8
0
  6
Continuous
 62
     7
100
AcDbLine
 10
117.6122554490063
 20
302.7359493221255
 30
0.0
 11
117.6122554490063
 21
281.0528404249457
 31
0.0
  0
LINE
  5
96CB
330
1F
100
AcDbEntity
  8
0
  6
Continuous
 62
     7
100
AcDbLine
 10
117.6122554490063
 20
302.7360763567041
 30
0.0
 11
117.411483570066
 21
302.9368482356443
 31
0.0
  0
LINE
  5
96CC
330
1F
100
AcDbEntity
  8
0
  6
Continuous
 62
     7
100
AcDbLine
 10
113.2556600449928
 20
310.3625300489152
 30
0.0
 11
105.0240129931463
 21
310.3625300489152
 31
0.0
  0
LINE
  5
96CD
330
1F
100
AcDbEntity
  8
0
  6
Continuous
 62
     7
100
AcDbLine
 10
86.75377197559203
 20
310.3625300489152
 30
0.0
 11
94.98541902743852
 21
310.3625300489152
 31
0.0
  0
LINE
  5
96CE
330
1F
100
AcDbEntity
  8
0
  6
Continuous
 62
     7
100
AcDbLine
 10
117.6122554490063
 20
281.0527133903671
 30
0.0
 11
117.411483570066
 21
280.851941511427
 31
0.0
  0
LINE
  5
96CF
330
1F
100
AcDbEntity
  8
0
  6
Continuous
 62
     7
100
AcDbLine
 10
113.2556600449928
 20
312.5069522965738
 30
0.0
 11
105.0240129931463
 21
312.5069522965738
 31
0.0
  0
LINE
  5
96D0
330
1F
100
AcDbEntity
  8
0
  6
Continuous
 62
     7
100
AcDbLine
 10
86.75377197559203
 20
312.5069522965738
 30
0.0
 11
94.98541902743852
 21
312.5069522965738
 31
0.0
  0
LINE
  5
96D1
330
1F
100
AcDbEntity
  8
0
  6
Continuous
 62
     7
100
AcDbLine
 10
113.2556600449928
 20
316.9632810096974
 30
0.0
 11
105.0240129931463
 21
316.9632810096974
 31
0.0
  0
LINE
  5
96D2
330
1F
100
AcDbEntity
  8
0
  6
Continuous
 62
     7
100
AcDbLine
 10
86.75377197559203
 20
316.9632810096974
 30
0.0
 11
94.98541902743852
 21
316.9632810096974
 31
0.0
  0
LINE
  5
96D3
330
1F
100
AcDbEntity
  8
0
  6
Continuous
 62
     7
100
AcDbLine
 10
113.2556600449928
 20
317.6706495683701
 30
0.0
 11
105.0240129931463
 21
317.6706495683701
 31
0.0
  0
LINE
  5
96D4
330
1F
100
AcDbEntity
  8
0
  6
Continuous
 62
     7
100
AcDbLine
 10
86.75377197559203
 20
317.6706495683701
 30
0.0
 11
94.98541902743852
 21
317.6706495683701
 31
0.0
  0
LINE
  5
96D6
330
1F
100
AcDbEntity
  8
0
  6
Continuous
 62
     7
100
AcDbLine
 10
113.2556600449928
 20
317.9824055659042
 30
0.0
 11
105.0240129931463
 21
317.9824055659042
 31
0.0
  0
LINE
  5
96D7
330
1F
100
AcDbEntity
  8
0
  6
Continuous
 62
     7
100
AcDbLine
 10
86.75377197559203
 20
317.9824055659042
 30
0.0
 11
94.98541902743852
 21
317.9824055659042
 31
0.0
  0
LINE
  5
96D8
330
1F
100
AcDbEntity
  8
0
  6
Continuous
 62
     7
100
AcDbLine
 10
105.0240129931463
 20
317.9947391850561
 30
0.0
 11
94.98541902743852
 21
317.9947391850561
 31
0.0
  0
LINE
  5
96D9
330
1F
100
AcDbEntity
  8
0
  6
Continuous
 62
     7
100
AcDbLine
 10
113.3560459844628
 20
317.9947391850561
 30
0.0
 11
116.1668522947251
 21
317.9947391850561
 31
0.0
  0
LINE
  5
96E3
330
1F
100
AcDbEntity
  8
0
  6
Continuous
 62
     7
100
AcDbLine
 10
4.06342829557883
 20
265.7940505620153
 30
0.0
 11
5.024058216828791
 21
265.7940505620153
 31
0.0
  0
LINE
  5
96E4
330
1F
100
AcDbEntity
  8
0
  6
Continuous
 62
     7
100
AcDbLine
 10
4.06342829557883
 20
265.8944365014855
 30
0.0
 11
5.024058216828791
 21
265.8944365014853
 31
0.0
  0
LINE
  5
96E5
330
1F
100
AcDbEntity
  8
0
  6
Continuous
 62
     7
100
AcDbLine
 10
6.524058216828791
 20
265.8944365014853
 30
0.0
 11
7.484688138078752
 21
265.8944365014855
 31
0.0
  0
LINE
  5
96E6
330
1F
100
AcDbEntity
  8
0
  6
Continuous
 62
     7
100
AcDbLine
 10
6.524058216828791
 20
265.7940505620153
 30
0.0
 11
7.484688138078752
 21
265.7940505620153
 31
0.0
  0
LINE
  5
96E7
330
1F
100
AcDbEntity
  8
0
  6
Continuous
 62
     7
100
AcDbLine
 10
8.984688138078752
 20
265.7940505620153
 30
0.0
 11
9.945318059328826
 21
265.7940505620153
 31
0.0
  0
LINE
  5
96E8
330
1F
100
AcDbEntity
  8
0
  6
Continuous
 62
     7
100
AcDbLine
 10
13.90594798057879
 20
265.7940505620153
 30
0.0
 11
14.86657790182874
 21
265.7940505620153
 31
0.0
  0
LINE
  5
96E9
330
1F
100
AcDbEntity
  8
0
  6
Continuous
 62
     7
100
AcDbLine
 10
16.36657790182875
 20
265.8944365014853
 30
0.0
 11
17.32720782307871
 21
265.8944365014855
 31
0.0
  0
LINE
  5
96EA
330
1F
100
AcDbEntity
  8
0
  6
Continuous
 62
     7
100
AcDbLine
 10
16.36657790182875
 20
265.7940505620153
 30
0.0
 11
17.32720782307882
 21
265.7940505620153
 31
0.0
  0
LINE
  5
96EB
330
1F
100
AcDbEntity
  8
0
  6
Continuous
 62
     7
100
AcDbLine
 10
18.82720782307882
 20
265.7940505620153
 30
0.0
 11
19.78783774432878
 21
265.7940505620153
 31
0.0
  0
LINE
  5
96EC
330
1F
100
AcDbEntity
  8
0
  6
Continuous
 62
     7
100
AcDbLine
 10
18.82720782307882
 20
265.8944365014853
 30
0.0
 11
19.78783774432878
 21
265.8944365014853
 31
0.0
  0
LINE
  5
96ED
330
1F
100
AcDbEntity
  8
0
  6
Continuous
 62
     7
100
AcDbLine
 10
21.28783774432879
 20
265.7940505620153
 30
0.0
 11
32.11164107778728
 21
265.7940505620153
 31
0.0
  0
LINE
  5
96EE
330
1F
100
AcDbEntity
  8
0
  6
Continuous
 62
     7
100
AcDbLine
 10
21.28783774432879
 20
265.8944365014855
 30
0.0
 11
32.11164107778728
 21
265.8944365014855
 31
0.0
  0
LINE
  5
96EF
330
1F
100
AcDbEntity
  8
0
370
     0
100
AcDbLine
 10
21.28783774432879
 20
267.8940424007048
 30
0.0
 11
21.28783774432879
 21
257.2647032666538
 31
0.0
  0
LINE
  5
96F0
330
1F
100
AcDbEntity
  8
0
370
     0
100
AcDbLine
 10
19.78783774432878
 20
267.3070271656416
 30
0.0
 11
19.78783774432878
 21
257.0807480461905
 31
0.0
  0
LINE
  5
96F1
330
1F
100
AcDbEntity
  8
0
370
     0
100
AcDbLine
 10
17.32720782307882
 20
266.5649530242914
 30
0.0
 11
17.32720782307882
 21
258.0800617180983
 31
0.0
  0
LINE
  5
96F2
330
1F
100
AcDbEntity
  8
0
370
     0
100
AcDbLine
 10
18.82720782307882
 20
266.9857461310823
 30
0.0
 11
18.82720782307882
 21
257.5131492939188
 31
0.0
  0
LINE
  5
96F3
330
1F
100
AcDbEntity
  8
0
370
     0
100
AcDbLine
 10
16.36657790182875
 20
266.345319619996
 30
0.0
 11
16.36657790182875
 21
257.7687910984812
 31
0.0
  0
LINE
  5
96F4
330
1F
100
AcDbEntity
  8
0
370
     0
100
AcDbLine
 10
14.86657790182874
 20
266.0774779629786
 30
0.0
 11
14.86657790182874
 21
257.077856279939
 31
0.0
  0
LINE
  5
96F5
330
1F
100
AcDbEntity
  8
0
370
     0
100
AcDbLine
 10
13.90594798057879
 20
265.9529162875253
 30
0.0
 11
13.90594798057879
 21
257.2985976077553
 31
0.0
  0
LINE
  5
96F6
330
1F
100
AcDbEntity
  8
0
370
     0
100
AcDbLine
 10
12.40594798057879
 20
265.8303128079754
 30
0.0
 11
12.40594798057879
 21
258.0800617180983
 31
0.0
  0
LINE
  5
96F7
330
1F
100
AcDbEntity
  8
0
370
     0
100
AcDbLine
 10
11.44531805932882
 20
265.7973456739205
 30
0.0
 11
11.44531805932882
 21
257.6136189383705
 31
0.0
  0
LINE
  5
96F8
330
1F
100
AcDbEntity
  8
0
370
     0
100
AcDbLine
 10
9.945318059328826
 20
265.8166236908749
 30
0.0
 11
9.945318059328826
 21
257.0532365300414
 31
0.0
  0
LINE
  5
96F9
330
1F
100
AcDbEntity
  8
0
370
     0
100
AcDbLine
 10
8.984688138078752
 20
265.8743594506709
 30
0.0
 11
8.984688138078752
 21
257.5493388366949
 31
0.0
  0
LINE
  5
96FA
330
1F
100
AcDbEntity
  8
0
370
     0
100
AcDbLine
 10
7.484688138078752
 20
266.0360398103948
 30
0.0
 11
7.484688138078752
 21
258.0800617180983
 31
0.0
  0
LINE
  5
96FB
330
1F
100
AcDbEntity
  8
0
370
     0
100
AcDbLine
 10
6.524058216828791
 20
266.1860477724784
 30
0.0
 11
6.524058216828791
 21
256.872849304255
 31
0.0
  0
LINE
  5
96FC
330
1F
100
AcDbEntity
  8
0
370
     0
100
AcDbLine
 10
5.024058216828791
 20
266.4946014871907
 30
0.0
 11
5.024058216828791
 21
257.1815631010618
 31
0.0
  0
LINE
  5
96FD
330
1F
100
AcDbEntity
  8
0
370
     0
100
AcDbLine
 10
4.06342829557883
 20
266.7411330828447
 30
0.0
 11
4.06342829557883
 21
258.0800617180983
 31
0.0
  0
LINE
  5
96FE
330
1F
100
AcDbEntity
  8
0
370
     0
100
AcDbLine
 10
2.56342829557883
 20
267.2056305798764
 30
0.0
 11
2.56342829557883
 21
258.4613764574166
 31
0.0
  0
SPLINE
  5
96FF
330
1F
100
AcDbEntity
  8
0
370
     0
100
AcDbSpline
210
0.0
220
0.0
230
1.0
 70
     8
 71
     3
 72
     9
 73
     5
 74
     0
 42
0.0000000001
 43
0.0000000001
 40
1.332581527015957
 40
1.332581527015957
 40
1.332581527015957
 40
1.332581527015957
 40
2.906780511993515
 40
2.911614168761983
 40
2.911614168761983
 40
2.911614168761983
 40
2.911614168761983
 10
21.28783774432879
 20
257.2647032666538
 30
0.0
 10
20.78352539439965
 20
257.0628162381396
 30
0.0
 10
20.28185306258087
 20
256.9612112843886
 30
0.0
 10
19.78934529922361
 20
257.080381189227
 30
0.0
 10
19.78783774432867
 20
257.0807480461905
 30
0.0
  0
SPLINE
  5
9700
330
1F
100
AcDbEntity
  8
0
370
     0
100
AcDbSpline
210
0.0
220
0.0
230
1.0
 70
     8
 71
     3
 72
     8
 73
     4
 74
     0
 42
0.0000000001
 43
0.0000000001
 40
3.947512601973147
 40
3.947512601973147
 40
3.947512601973147
 40
3.947512601973147
 40
5.567193038979068
 40
5.567193038979068
 40
5.567193038979068
 40
5.567193038979072
 10
18.82720782307882
 20
257.5131492939188
 30
0.0
 10
18.32938432492068
 20
257.7954479025879
 30
0.0
 10
17.83342132655042
 20
258.0956390073532
 30
0.0
 10
17.32720782307882
 20
258.0800617180983
 30
0.0
  0
SPLINE
  5
9701
330
1F
100
AcDbEntity
  8
0
370
     0
100
AcDbSpline
210
0.0
220
0.0
230
1.0
 70
     8
 71
     3
 72
     8
 73
     4
 74
     0
 42
0.0000000001
 43
0.0000000001
 40
6.582179529948259
 40
6.582179529948259
 40
6.582179529948259
 40
6.582179529948259
 40
8.162871817217119
 40
8.162871817217119
 40
8.162871817217119
 40
8.162871817217119
 10
16.36657790183511
 20
257.7687910984689
 30
0.0
 10
15.86486328691393
 20
257.5075531959831
 30
0.0
 10
15.36094113577445
 20
257.1639003537936
 30
0.0
 10
14.86657790182874
 20
257.077856279939
 30
0.0
  0
SPLINE
  5
9702
330
1F
100
AcDbEntity
  8
0
370
     0
100
AcDbSpline
210
0.0
220
0.0
230
1.0
 70
     8
 71
     3
 72
     8
 73
     4
 74
     0
 42
0.0000000001
 43
0.0000000001
 40
9.202728961679422
 40
9.202728961679422
 40
9.202728961679422
 40
9.202728961679422
 40
10.89043541364761
 40
10.89043541364761
 40
10.89043541364761
 40
10.89043541364978
 10
13.90594798057879
 20
257.2985976077553
 30
0.0
 10
13.39476045729503
 20
257.6037093167465
 30
0.0
 10
12.89663778408197
 20
258.0917261957233
 30
0.0
 10
12.40594798058072
 20
258.0800617180983
 30
0.0
  0
SPLINE
  5
9703
330
1F
100
AcDbEntity
  8
0
370
     0
100
AcDbSpline
210
0.0
220
0.0
230
1.0
 70
     8
 71
     3
 72
     9
 73
     5
 74
     0
 42
0.0000000001
 43
0.0000000001
 40
11.99173574834095
 40
11.99173574834095
 40
11.99173574834095
 40
11.99173574834095
 40
13.2672558227262
 40
13.61387320568042
 40
13.61387320568042
 40
13.61387320568042
 40
13.61387320568042
 10
11.44531805934053
 20
257.6136189383792
 30
0.0
 10
11.07075453149895
 20
257.3374481239365
 30
0.0
 10
10.58353474021936
 20
256.9554067808015
 30
0.0
 10
10.0585271253488
 20
257.0234019010702
 30
0.0
 10
9.945318059328712
 20
257.0532365300414
 30
0.0
  0
SPLINE
  5
9704
330
1F
100
AcDbEntity
  8
0
370
     0
100
AcDbSpline
210
0.0
220
0.0
230
1.0
 70
     8
 71
     3
 72
     8
 73
     4
 74
     0
 42
0.0000000001
 43
0.0000000001
 40
14.5853243629237
 40
14.5853243629237
 40
14.5853243629237
 40
14.5853243629237
 40
16.25972787708245
 40
16.25972787708245
 40
16.25972787708245
 40
16.25972787708246
 10
8.98468813807932
 20
257.5493388366957
 30
0.0
 10
8.436580965275254
 20
257.9089640990796
 30
0.0
 10
7.910292786421507
 20
258.2828701279407
 30
0.0
 10
7.484688138078752
 20
258.0800617180982
 30
0.0
  0
SPLINE
  5
9705
330
1F
100
AcDbEntity
  8
0
370
     0
100
AcDbSpline
210
0.0
220
0.0
230
1.0
 70
     8
 71
     3
 72
     9
 73
     5
 74
     0
 42
0.0000000001
 43
0.0000000001
 40
17.71757271426027
 40
17.71757271426027
 40
17.71757271426027
 40
17.71757271426027
 40
18.33680883069191
 40
19.87591073250429
 40
19.87591073250429
 40
19.87591073250429
 40
19.87591073250429
 10
6.524058216828791
 20
256.8728493042551
 30
0.0
 10
6.39839870705731
 20
256.6957777468612
 30
0.0
 10
5.959408005879993
 20
256.2024123327324
 30
0.0
 10
5.444360046357189
 20
256.7309373482909
 30
0.0
 10
5.024058216828791
 20
257.1815631010618
 30
0.0
  0
SPLINE
  5
9706
330
1F
100
AcDbEntity
  8
0
370
     0
100
AcDbSpline
210
0.0
220
0.0
230
1.0
 70
     8
 71
     3
 72
     8
 73
     4
 74
     0
 42
0.0000000001
 43
0.0000000001
 40
20.94829930608039
 40
20.9482993060807
 40
20.9482993060807
 40
20.9482993060807
 40
22.3960172430086
 40
22.3960172430086
 40
22.3960172430086
 40
22.3960172430086
 10
4.063428295578489
 20
258.0800617180984
 30
0.0
 10
3.592027821376916
 20
258.3969629636279
 30
0.0
 10
3.064868598316991
 20
258.5042166902066
 30
0.0
 10
2.56342829557883
 20
258.4613764574166
 30
0.0
  0
SPLINE
  5
9707
330
1F
100
AcDbEntity
  8
0
370
     0
100
AcDbSpline
210
0.0
220
0.0
230
1.0
 70
     8
 71
     3
 72
     8
 73
     4
 74
     0
 42
0.0000000001
 43
0.0000000001
 40
20.94829930608039
 40
20.9482993060807
 40
20.9482993060807
 40
20.9482993060807
 40
22.3960172430086
 40
22.3960172430086
 40
22.3960172430086
 40
22.3960172430086
 10
19.78783774432912
 20
253.6359485482876
 30
0.0
 10
20.25923821853059
 20
253.319047302758
 30
0.0
 10
20.78639744159062
 20
253.2117935761793
 30
0.0
 10
21.28783774432879
 20
253.2546338089693
 30
0.0
  0
SPLINE
  5
9708
330
1F
100
AcDbEntity
  8
0
370
     0
100
AcDbSpline
210
0.0
220
0.0
230
1.0
 70
     8
 71
     3
 72
     9
 73
     5
 74
     0
 42
0.0000000001
 43
0.0000000001
 40
17.71757271426027
 40
17.71757271426027
 40
17.71757271426027
 40
17.71757271426027
 40
18.33680883069191
 40
19.87591073250429
 40
19.87591073250429
 40
19.87591073250429
 40
19.87591073250429
 10
17.32720782307882
 20
254.8431609621309
 30
0.0
 10
17.4528673328503
 20
255.0202325195248
 30
0.0
 10
17.89185803402762
 20
255.5135979336536
 30
0.0
 10
18.40690599355042
 20
254.9850729180951
 30
0.0
 10
18.82720782307882
 20
254.5344471653241
 30
0.0
  0
SPLINE
  5
9709
330
1F
100
AcDbEntity
  8
0
370
     0
100
AcDbSpline
210
0.0
220
0.0
230
1.0
 70
     8
 71
     3
 72
     8
 73
     4
 74
     0
 42
0.0000000001
 43
0.0000000001
 40
14.5853243629237
 40
14.5853243629237
 40
14.5853243629237
 40
14.5853243629237
 40
16.25972787708245
 40
16.25972787708245
 40
16.25972787708245
 40
16.25972787708246
 10
14.86657790182829
 20
254.1666714296903
 30
0.0
 10
15.41468507463224
 20
253.8070461673064
 30
0.0
 10
15.9409732534861
 20
253.4331401384453
 30
0.0
 10
16.36657790182875
 20
253.6359485482878
 30
0.0
  0
SPLINE
  5
970A
330
1F
100
AcDbEntity
  8
0
370
     0
100
AcDbSpline
210
0.0
220
0.0
230
1.0
 70
     8
 71
     3
 72
     9
 73
     5
 74
     0
 42
0.0000000001
 43
0.0000000001
 40
11.99173574834095
 40
11.99173574834095
 40
11.99173574834095
 40
11.99173574834095
 40
13.2672558227262
 40
13.61387320568042
 40
13.61387320568042
 40
13.61387320568042
 40
13.61387320568042
 10
12.40594798056708
 20
254.1023913280068
 30
0.0
 10
12.78051150840866
 20
254.3785621424494
 30
0.0
 10
13.26773129968825
 20
254.7606034855844
 30
0.0
 10
13.79273891455869
 20
254.6926083653157
 30
0.0
 10
13.90594798057879
 20
254.6627737363446
 30
0.0
  0
SPLINE
  5
970B
330
1F
100
AcDbEntity
  8
0
370
     0
100
AcDbSpline
210
0.0
220
0.0
230
1.0
 70
     8
 71
     3
 72
     8
 73
     4
 74
     0
 42
0.0000000001
 43
0.0000000001
 40
9.202728961679422
 40
9.202728961679422
 40
9.202728961679422
 40
9.202728961679422
 40
10.89043541364761
 40
10.89043541364761
 40
10.89043541364761
 40
10.89043541364978
 10
9.945318059328826
 20
254.4174126586307
 30
0.0
 10
10.45650558261258
 20
254.1123009496395
 30
0.0
 10
10.95462825582564
 20
253.6242840706627
 30
0.0
 10
11.44531805932689
 20
253.6359485482877
 30
0.0
  0
SPLINE
  5
970C
330
1F
100
AcDbEntity
  8
0
370
     0
100
AcDbSpline
210
0.0
220
0.0
230
1.0
 70
     8
 71
     3
 72
     8
 73
     4
 74
     0
 42
0.0000000001
 43
0.0000000001
 40
6.582179529948259
 40
6.582179529948259
 40
6.582179529948259
 40
6.582179529948259
 40
8.162871817217119
 40
8.162871817217119
 40
8.162871817217119
 40
8.162871817217119
 10
7.484688138072499
 20
253.947219167917
 30
0.0
 10
7.986402752993683
 20
254.2084570704028
 30
0.0
 10
8.490324904133046
 20
254.5521099125924
 30
0.0
 10
8.984688138078752
 20
254.638153986447
 30
0.0
  0
SPLINE
  5
970D
330
1F
100
AcDbEntity
  8
0
370
     0
100
AcDbSpline
210
0.0
220
0.0
230
1.0
 70
     8
 71
     3
 72
     8
 73
     4
 74
     0
 42
0.0000000001
 43
0.0000000001
 40
3.947512601973147
 40
3.947512601973147
 40
3.947512601973147
 40
3.947512601973147
 40
5.567193038979068
 40
5.567193038979068
 40
5.567193038979068
 40
5.567193038979072
 10
5.024058216828791
 20
254.2028609724671
 30
0.0
 10
5.521881714986932
 20
253.9205623637981
 30
0.0
 10
6.017844713357192
 20
253.6203712590328
 30
0.0
 10
6.524058216828791
 20
253.6359485482877
 30
0.0
  0
SPLINE
  5
970E
330
1F
100
AcDbEntity
  8
0
370
     0
100
AcDbSpline
210
0.0
220
0.0
230
1.0
 70
     8
 71
     3
 72
     9
 73
     5
 74
     0
 42
0.0000000001
 43
0.0000000001
 40
1.332581527015957
 40
1.332581527015957
 40
1.332581527015957
 40
1.332581527015957
 40
2.906780511993515
 40
2.911614168761983
 40
2.911614168761983
 40
2.911614168761983
 40
2.911614168761983
 10
2.56342829557883
 20
254.4513069997321
 30
0.0
 10
3.067740645507853
 20
254.6531940282465
 30
0.0
 10
3.569412977326749
 20
254.7547989819973
 30
0.0
 10
4.061920740684001
 20
254.635629077159
 30
0.0
 10
4.06342829557883
 20
254.6352622201955
 30
0.0
  0
LINE
  5
970F
330
1F
100
AcDbEntity
  8
0
370
     0
100
AcDbLine
 10
21.28783774432879
 20
243.2336584980727
 30
0.0
 11
21.28783774432879
 21
253.2546338089693
 31
0.0
  0
LINE
  5
9710
330
1F
100
AcDbEntity
  8
0
370
     0
100
AcDbLine
 10
19.78783774432878
 20
243.2336584980727
 30
0.0
 11
19.78783774432878
 21
253.6359485482877
 31
0.0
  0
LINE
  5
9711
330
1F
100
AcDbEntity
  8
0
370
     0
100
AcDbLine
 10
18.82720782307882
 20
243.2336584980727
 30
0.0
 11
18.82720782307882
 21
254.5344471653241
 31
0.0
  0
LINE
  5
9712
330
1F
100
AcDbEntity
  8
0
370
     0
100
AcDbLine
 10
17.32720782307882
 20
243.2336584980727
 30
0.0
 11
17.32720782307882
 21
254.843160962131
 31
0.0
  0
LINE
  5
9713
330
1F
100
AcDbEntity
  8
0
370
     0
100
AcDbLine
 10
16.36657790182886
 20
243.2336584980727
 30
0.0
 11
16.36657790182886
 21
253.6359485482877
 31
0.0
  0
LINE
  5
9714
330
1F
100
AcDbEntity
  8
0
370
     0
100
AcDbLine
 10
14.86657790182886
 20
243.2336584980727
 30
0.0
 11
14.86657790182886
 21
254.1666714296911
 31
0.0
  0
LINE
  5
9715
330
1F
100
AcDbEntity
  8
0
370
     0
100
AcDbLine
 10
13.90594798057879
 20
243.2336584980727
 30
0.0
 11
13.90594798057879
 21
254.6627737363446
 31
0.0
  0
LINE
  5
9716
330
1F
100
AcDbEntity
  8
0
370
     0
100
AcDbLine
 10
12.40594798057879
 20
243.2336584980727
 30
0.0
 11
12.40594798057879
 21
254.1023913280155
 31
0.0
  0
LINE
  5
9717
330
1F
100
AcDbEntity
  8
0
370
     0
100
AcDbLine
 10
11.44531805932882
 20
243.2336584980727
 30
0.0
 11
11.44531805932882
 21
253.6359485482877
 31
0.0
  0
LINE
  5
9718
330
1F
100
AcDbEntity
  8
0
370
     0
100
AcDbLine
 10
9.945318059328826
 20
243.2336584980727
 30
0.0
 11
9.945318059328826
 21
254.4174126586307
 31
0.0
  0
LINE
  5
9719
330
1F
100
AcDbEntity
  8
0
370
     0
100
AcDbLine
 10
8.984688138078865
 20
243.2336584980727
 30
0.0
 11
8.984688138078865
 21
254.638153986447
 31
0.0
  0
LINE
  5
971A
330
1F
100
AcDbEntity
  8
0
370
     0
100
AcDbLine
 10
7.484688138078865
 20
243.2336584980727
 30
0.0
 11
7.484688138078865
 21
253.9472191679047
 31
0.0
  0
LINE
  5
971B
330
1F
100
AcDbEntity
  8
0
370
     0
100
AcDbLine
 10
5.024058216828791
 20
243.2336584980727
 30
0.0
 11
5.024058216828791
 21
254.2028609724671
 31
0.0
  0
LINE
  5
971C
330
1F
100
AcDbEntity
  8
0
370
     0
100
AcDbLine
 10
6.524058216828791
 20
243.2336584980727
 30
0.0
 11
6.524058216828791
 21
253.6359485482877
 31
0.0
  0
LINE
  5
971D
330
1F
100
AcDbEntity
  8
0
370
     0
100
AcDbLine
 10
4.06342829557883
 20
243.2336584980727
 30
0.0
 11
4.06342829557883
 21
254.6352622201955
 31
0.0
  0
LINE
  5
971E
330
1F
100
AcDbEntity
  8
0
370
     0
100
AcDbLine
 10
2.56342829557883
 20
243.2336584980727
 30
0.0
 11
2.56342829557883
 21
254.4513069997321
 31
0.0
  0
CIRCLE
  5
97A4
330
1F
100
AcDbEntity
  8
0
  6
Continuous
 62
     7
100
AcDbCircle
 10
11.03059374997076
 20
291.8943948735358
 30
0.0
 40
10.84168148316849
  0
CIRCLE
  5
97A5
330
1F
100
AcDbEntity
  8
0
  6
Continuous
 62
     7
100
AcDbCircle
 10
11.03059374997076
 20
291.8943948735358
 30
0.0
 40
26.10034431152043
  0
CIRCLE
  5
97A6
330
1F
100
AcDbEntity
  8
0
  6
Continuous
 62
     7
100
AcDbCircle
 10
11.03059374997076
 20
291.8943948735358
 30
0.0
 40
11.04245336210867
  0
CIRCLE
  5
97A7
330
1F
100
AcDbEntity
  8
0
  6
Continuous
 62
     7
100
AcDbCircle
 10
11.03059374997076
 20
291.8943948735358
 30
0.0
 40
2.710420370792122
  0
ARC
  5
97A8
330
1F
100
AcDbEntity
  8
0
  6
Continuous
 62
     7
100
AcDbCircle
 10
11.03059374997076
 20
291.8943948735358
 30
0.0
 40
25.89957243088037
100
AcDbArc
 50
208.6323661444006
 51
331.3676338555993
  0
ARC
  5
97A9
330
1F
100
AcDbEntity
  8
0
  6
Continuous
 62
     7
100
AcDbCircle
 10
11.03059374997076
 20
291.8943948735358
 30
0.0
 40
25.89957243088037
100
AcDbArc
 50
334.6323661443989
 51
88.36763385560017
  0
ARC
  5
97AA
330
1F
100
AcDbEntity
  8
0
  6
Continuous
 62
     7
100
AcDbCircle
 10
11.03059374997076
 20
291.8943948735358
 30
0.0
 40
25.89957243088037
100
AcDbArc
 50
91.63236614439984
 51
205.3676338556011
  0
CIRCLE
  5
97AC
330
1F
100
AcDbEntity
  8
0
  6
Continuous
 62
     7
100
AcDbCircle
 10
11.03059374997076
 20
291.8943948735358
 30
0.0
 40
25.99995837205034
  0
ARC
  5
97AD
330
1F
100
AcDbEntity
  8
0
  6
Continuous
 62
     7
100
AcDbCircle
 10
-10.05045357784581
 20
312.9754422013524
 30
0.0
 40
4.918911161524711
100
AcDbArc
 50
90.0
 51
180.0
  0
ARC
  5
97AE
330
1F
100
AcDbEntity
  8
0
  6
Continuous
 62
     7
100
AcDbCircle
 10
-10.05045357784581
 20
270.8133475440194
 30
0.0
 40
4.918911161524711
100
AcDbArc
 50
180.0
 51
270.0
  0
ARC
  5
97AF
330
1F
100
AcDbEntity
  8
0
  6
Continuous
 62
     7
100
AcDbCircle
 10
32.11164107778728
 20
270.8133475440194
 30
0.0
 40
4.918911161524711
100
AcDbArc
 50
270.0
 51
0.0
  0
ARC
  5
97B0
330
1F
100
AcDbEntity
  8
0
  6
Continuous
 62
     7
100
AcDbCircle
 10
32.11164107778728
 20
312.9754422013524
 30
0.0
 40
4.918911161524711
100
AcDbArc
 50
0.0
 51
90.0
  0
ARC
  5
97B1
330
1F
100
AcDbEntity
  8
0
  6
Continuous
 62
     7
100
AcDbCircle
 10
-10.05045357784581
 20
270.8133475440194
 30
0.0
 40
5.019296983703872
100
AcDbArc
 50
180.0
 51
270.0
  0
ARC
  5
97B2
330
1F
100
AcDbEntity
  8
0
  6
Continuous
 62
     7
100
AcDbCircle
 10
32.11164107778728
 20
270.8133475440194
 30
0.0
 40
5.019296983703872
100
AcDbArc
 50
270.0
 51
0.0
  0
ARC
  5
97B3
330
1F
100
AcDbEntity
  8
0
  6
Continuous
 62
     7
100
AcDbCircle
 10
32.11164107778728
 20
312.9754422013524
 30
0.0
 40
5.019296983703872
100
AcDbArc
 50
0.0
 51
90.0
  0
ARC
  5
97B4
330
1F
100
AcDbEntity
  8
0
  6
Continuous
 62
     7
100
AcDbCircle
 10
-10.05045357784581
 20
312.9754422013524
 30
0.0
 40
5.019296983703872
100
AcDbArc
 50
90.0
 51
180.0
  0
CIRCLE
  5
97B5
330
1F
100
AcDbEntity
  8
0
  6
Continuous
 62
     7
100
AcDbCircle
 10
32.31241295842739
 20
270.6125756650792
 30
0.0
 40
1.606175034921228
  0
CIRCLE
  5
97B6
330
1F
100
AcDbEntity
  8
0
  6
Continuous
 62
     7
100
AcDbCircle
 10
32.11241295842738
 20
312.9762140802926
 30
0.0
 40
1.606175034921228
  0
CIRCLE
  5
97B7
330
1F
100
AcDbEntity
  8
0
  6
Continuous
 62
     7
100
AcDbCircle
 10
-10.25122545678596
 20
312.9762140802926
 30
0.0
 40
1.606175034921228
  0
ARC
  5
97B8
330
1F
100
AcDbEntity
  8
0
  6
Continuous
 62
     7
100
AcDbCircle
 10
11.03059374997076
 20
291.8943948735358
 30
0.0
 40
26.15053728125547
100
AcDbArc
 50
157.8780536592008
 51
242.2880218888994
  0
CIRCLE
  5
97B9
330
1F
100
AcDbEntity
  8
0
  6
Continuous
 62
     7
100
AcDbCircle
 10
11.03059374997076
 20
291.8943948735358
 30
0.0
 40
2.041541166295212
  0
CIRCLE
  5
97BA
330
1F
100
AcDbEntity
  8
0
  6
Continuous
 62
     7
100
AcDbCircle
 10
11.03059374997076
 20
291.8943948735358
 30
0.0
 40
2.415594539037477
  0
CIRCLE
  5
97BB
330
1F
100
AcDbEntity
  8
0
  6
Continuous
 62
     7
100
AcDbCircle
 10
11.03059374997076
 20
291.8943948735358
 30
0.0
 40
2.509648491851936
  0
LINE
  5
97BC
330
1F
100
AcDbEntity
  8
0
  6
Continuous
 62
     7
100
AcDbLine
 10
-15.06975055984975
 20
290.3987314447398
 30
0.0
 11
-15.06975055984975
 21
270.8133475440194
 31
0.0
  0
LINE
  5
97BD
330
1F
100
AcDbEntity
  8
0
  6
Continuous
 62
     7
100
AcDbLine
 10
-15.06975055984975
 20
312.9754422013523
 30
0.0
 11
-15.06975055984975
 21
293.3595057416393
 31
0.0
  0
LINE
  5
97BE
330
1F
100
AcDbEntity
  8
0
  6
Continuous
 62
     7
100
AcDbLine
 10
-14.96936462037962
 20
289.4092692280511
 30
0.0
 11
-14.96936462037962
 21
270.8133475440194
 31
0.0
  0
LINE
  5
97BF
330
1F
100
AcDbEntity
  8
0
  6
Continuous
 62
     7
100
AcDbLine
 10
-14.96936462037962
 20
312.9754422013523
 30
0.0
 11
-14.96936462037962
 21
294.3763379315756
 31
0.0
  0
LINE
  5
97C0
330
1F
100
AcDbEntity
  8
0
  6
Continuous
 62
     7
100
AcDbLine
 10
32.11164107778728
 20
317.9947391833563
 30
0.0
 11
-10.05045357784576
 21
317.9947391833563
 31
0.0
  0
LINE
  5
97C1
330
1F
100
AcDbEntity
  8
0
  6
Continuous
 62
     7
100
AcDbLine
 10
8.957235405754488
 20
317.8943532438863
 30
0.0
 11
-10.05045357784576
 21
317.8943532438863
 31
0.0
  0
LINE
  5
97C2
330
1F
100
AcDbEntity
  8
0
  6
Continuous
 62
     7
100
AcDbLine
 10
32.11164107778728
 20
317.8943532438863
 30
0.0
 11
13.10395209588699
 21
317.8943532438863
 31
0.0
  0
LINE
  5
97C9
330
1F
100
AcDbEntity
  8
0
  6
Continuous
 62
     7
100
AcDbLine
 10
-10.05045357784576
 20
317.8943532438863
 30
0.0
 11
-10.05045357444595
 21
317.9947391833563
 31
0.0
  0
LINE
  5
97CA
330
1F
100
AcDbEntity
  8
0
  6
Continuous
 62
     7
100
AcDbLine
 10
-10.05045357784576
 20
265.8944365014855
 30
0.0
 11
-10.05045357784576
 21
265.7940505620153
 31
0.0
  0
LINE
  5
97D1
330
1F
100
AcDbEntity
  8
0
  6
Continuous
 62
     7
100
AcDbLine
 10
-14.96936462037962
 20
312.9754422013523
 30
0.0
 11
-15.06975055984975
 21
312.9754422013523
 31
0.0
  0
LINE
  5
97D2
330
1F
100
AcDbEntity
  8
0
  6
Continuous
 62
     7
100
AcDbLine
 10
37.03055212202111
 20
312.9754422013523
 30
0.0
 11
37.13093806149124
 21
312.9754421979525
 31
0.0
  0
LINE
  5
97D3
330
1F
100
AcDbEntity
  8
0
  6
Continuous
 62
     7
100
AcDbLine
 10
6.011296767966825
 20
317.3894103577942
 30
0.0
 11
6.011296767966825
 21
317.5075678690923
 31
0.0
  0
LINE
  5
97D4
330
1F
100
AcDbEntity
  8
0
  6
Continuous
 62
     7
100
AcDbLine
 10
7.266121013042891
 20
266.1691811550745
 30
0.0
 11
7.266121013042891
 21
266.0669536884784
 31
0.0
  0
LINE
  5
97D5
330
1F
100
AcDbEntity
  8
0
  6
Continuous
 62
     7
100
AcDbLine
 10
36.37432288901806
 20
297.5854620673245
 30
0.0
 11
36.49852334131862
 21
297.6051334870696
 31
0.0
  0
LINE
  5
97D6
330
1F
100
AcDbEntity
  8
0
  6
Continuous
 62
     7
100
AcDbLine
 10
-13.92863482973661
 20
284.6689637662985
 30
0.0
 11
-14.03829238619102
 21
284.6294846160468
 31
0.0
  0
LINE
  5
97D7
330
1F
100
AcDbEntity
  8
0
  6
Continuous
 62
     7
100
AcDbLine
 10
34.17667173184174
 20
303.7154020870744
 30
0.0
 11
34.27819855850652
 21
303.7593366693636
 31
0.0
  0
LINE
  5
97D8
330
1F
100
AcDbEntity
  8
0
  6
Continuous
 62
     7
100
AcDbLine
 10
30.50444139098494
 20
309.0961165248402
 30
0.0
 11
30.59714126758701
 21
309.1680219210243
 31
0.0
  0
LINE
  5
97D9
330
1F
100
AcDbEntity
  8
0
  6
Continuous
 62
     7
100
AcDbLine
 10
-7.36270458036364
 20
273.5359632190569
 30
0.0
 11
-7.437541423708864
 21
273.4510774836209
 31
0.0
  0
LINE
  5
97DA
330
1F
100
AcDbEntity
  8
0
  6
Continuous
 62
     7
100
AcDbLine
 10
25.61934884284454
 20
313.404582895533
 30
0.0
 11
25.68664583581762
 21
313.49134165666
 31
0.0
  0
LINE
  5
97DB
330
1F
100
AcDbEntity
  8
0
  6
Continuous
 62
     7
100
AcDbLine
 10
-2.009865367782651
 20
269.2273036158034
 30
0.0
 11
-1.98650702488436
 21
269.2717721132142
 31
0.0
  0
LINE
  5
97DC
330
1F
100
AcDbEntity
  8
0
  6
Continuous
 62
     7
100
AcDbLine
 10
-2.218094442685298
 20
269.5408442611614
 30
0.0
 11
-2.270664476342687
 21
269.437669762083
 31
0.0
  0
LINE
  5
97DD
330
1F
100
AcDbEntity
  8
0
  6
Continuous
 62
     7
100
AcDbLine
 10
19.8552567500239
 20
316.4576457994311
 30
0.0
 11
19.80970410533172
 21
316.352379848349
 31
0.0
  0
LINE
  5
97DE
330
1F
100
AcDbEntity
  8
0
  6
Continuous
 62
     7
100
AcDbLine
 10
8.269980409443576
 20
266.0587252111459
 30
0.0
 11
8.269980409443576
 21
265.9404551498495
 31
0.0
  0
LINE
  5
97DF
330
1F
100
AcDbEntity
  8
0
  6
Continuous
 62
     7
100
AcDbLine
 10
2.20593074991774
 20
316.4576457994311
 30
0.0
 11
2.251483396309652
 21
316.352379848349
 31
0.0
  0
LINE
  5
97E0
330
1F
100
AcDbEntity
  8
0
  6
Continuous
 62
     7
100
AcDbLine
 10
24.2777842241199
 20
269.5437837011047
 30
0.0
 11
24.33185197798406
 21
269.437669762083
 31
0.0
  0
LINE
  5
97E1
330
1F
100
AcDbEntity
  8
0
  6
Continuous
 62
     7
100
AcDbLine
 10
-3.55816134120306
 20
313.404582895533
 30
0.0
 11
-3.625458335876089
 21
313.49134165666
 31
0.0
  0
LINE
  5
97E2
330
1F
100
AcDbEntity
  8
0
  6
Continuous
 62
     7
100
AcDbLine
 10
29.42389208200513
 20
273.5359632190569
 30
0.0
 11
29.49872892535035
 21
273.4510774836209
 31
0.0
  0
LINE
  5
97E3
330
1F
100
AcDbEntity
  8
0
  6
Continuous
 62
     7
100
AcDbLine
 10
-8.443253889343452
 20
309.0961165248402
 30
0.0
 11
-8.535953767645366
 21
309.1680219210243
 31
0.0
  0
LINE
  5
97E4
330
1F
100
AcDbEntity
  8
0
  6
Continuous
 62
     7
100
AcDbLine
 10
-12.1223991663864
 20
303.7183944473263
 30
0.0
 11
-12.21701105856488
 21
303.7593366693636
 31
0.0
  0
LINE
  5
97E6
330
1F
100
AcDbEntity
  8
0
  6
Continuous
 62
     7
100
AcDbLine
 10
-14.32085429340537
 20
297.5866846230052
 30
0.0
 11
-14.43733583967713
 21
297.6051334870696
 31
0.0
  0
LINE
  5
97E7
330
1F
100
AcDbEntity
  8
0
  6
Continuous
 62
     7
100
AcDbLine
 10
37.01320620748442
 20
291.1020666623419
 30
0.0
 11
37.11860444233929
 21
291.0921035966154
 31
0.0
  0
LINE
  5
97E8
330
1F
100
AcDbEntity
  8
0
  6
Continuous
 62
     7
100
AcDbLine
 10
-14.95201870584293
 20
291.1020666623419
 30
0.0
 11
-15.0574169406978
 21
291.0921035966154
 31
0.0
  0
LINE
  5
97E9
330
1F
100
AcDbEntity
  8
0
  6
Continuous
 62
     7
100
AcDbLine
 10
37.01674942714777
 20
294.3331827560282
 30
0.0
 11
36.90549922642544
 21
294.315562455505
 31
0.0
  0
LINE
  5
97EA
330
1F
100
AcDbEntity
  8
0
  6
Continuous
 62
     7
100
AcDbLine
 10
35.59384467756598
 20
300.7190578735889
 30
0.0
 11
35.49647059924013
 21
300.6769203464641
 31
0.0
  0
LINE
  5
97EC
330
1F
100
AcDbEntity
  8
0
  6
Continuous
 62
     7
100
AcDbLine
 10
32.62754053479495
 20
306.5504469593827
 30
0.0
 11
32.53567726381249
 21
306.4791905016273
 31
0.0
  0
LINE
  5
97ED
330
1F
100
AcDbEntity
  8
0
  6
Continuous
 62
     7
100
AcDbLine
 10
-4.952621472521229
 20
271.2603258550219
 30
0.0
 11
-4.885314100150651
 21
271.3366710835495
 31
0.0
  0
LINE
  5
97EE
330
1F
100
AcDbEntity
  8
0
  6
Continuous
 62
     7
100
AcDbLine
 10
28.30422079745932
 20
311.4609423911519
 30
0.0
 11
28.23882702834243
 21
311.3766372509283
 31
0.0
  0
LINE
  5
97EF
330
1F
100
AcDbEntity
  8
0
  6
Continuous
 62
     7
100
AcDbLine
 10
-1.130115647300669
 20
268.7434176358406
 30
0.0
 11
-1.106774552968829
 21
268.7878532934903
 31
0.0
  0
LINE
  5
97F0
330
1F
100
AcDbEntity
  8
0
  6
Continuous
 62
     7
100
AcDbLine
 10
0.7284958431214932
 20
268.0269252705561
 30
0.0
 11
0.6810049198833781
 21
267.9337190846983
 31
0.0
  0
LINE
  5
97F1
330
1F
100
AcDbEntity
  8
0
  6
Continuous
 62
     7
100
AcDbLine
 10
22.89553554579862
 20
315.1419996820715
 30
0.0
 11
22.84872120765175
 21
315.033818128303
 31
0.0
  0
LINE
  5
97F8
330
1F
100
AcDbEntity
  8
0
  6
Continuous
 62
     7
100
AcDbLine
 10
-0.8343480458570979
 20
315.1419996820715
 30
0.0
 11
-0.7875337060102652
 21
315.033818128303
 31
0.0
  0
LINE
  5
97F9
330
1F
100
AcDbEntity
  8
0
  6
Continuous
 62
     7
100
AcDbLine
 10
21.33269165682003
 20
268.0269252705561
 30
0.0
 11
21.38018258005815
 21
267.9337190846983
 31
0.0
  0
LINE
  5
97FA
330
1F
100
AcDbEntity
  8
0
  6
Continuous
 62
     7
100
AcDbLine
 10
-6.243033297517683
 20
311.4609423911519
 30
0.0
 11
-6.177639526700943
 21
311.3766372509283
 31
0.0
  0
LINE
  5
97FB
330
1F
100
AcDbEntity
  8
0
  6
Continuous
 62
     7
100
AcDbLine
 10
27.01380897416271
 20
271.2603258550219
 30
0.0
 11
26.94650160009229
 21
271.3366710835495
 31
0.0
  0
LINE
  5
97FC
330
1F
100
AcDbEntity
  8
0
  6
Continuous
 62
     7
100
AcDbLine
 10
-10.56635303315346
 20
306.5504469593827
 30
0.0
 11
-10.474489762171
 21
306.4791905016273
 31
0.0
  0
LINE
  5
97FD
330
1F
100
AcDbEntity
  8
0
  6
Continuous
 62
     7
100
AcDbLine
 10
31.6431511730089
 20
275.8834470669307
 30
0.0
 11
31.54568684356064
 21
275.9496837566789
 31
0.0
  0
LINE
  5
97FE
330
1F
100
AcDbEntity
  8
0
  6
Continuous
 62
     7
100
AcDbLine
 10
-13.5326571759245
 20
300.7190578735889
 30
0.0
 11
-13.4294958457279
 21
300.674415979384
 31
0.0
  0
LINE
  5
97FF
330
1F
100
AcDbEntity
  8
0
  6
Continuous
 62
     7
100
AcDbLine
 10
-13.14835950269906
 20
301.7232398064534
 30
0.0
 11
-13.1948574902039
 21
301.7421414322136
 31
0.0
  0
LINE
  5
9800
330
1F
100
AcDbEntity
  8
0
  6
Continuous
 62
     7
100
AcDbLine
 10
-13.50850154026722
 20
300.7860075205163
 30
0.0
 11
-13.55503389061545
 21
300.8049231140966
 31
0.0
  0
LINE
  5
9801
330
1F
100
AcDbEntity
  8
0
  6
Continuous
 62
     7
100
AcDbLine
 10
-14.95556192550629
 20
294.3331827560282
 30
0.0
 11
-14.84431172478395
 21
294.315562455505
 31
0.0
  0
LINE
  5
9802
330
1F
100
AcDbEntity
  8
0
  6
Continuous
 62
     7
100
AcDbLine
 10
36.80684844480521
 20
287.7940696265454
 30
0.0
 11
36.69124128203231
 21
287.8049977212625
 31
0.0
  0
LINE
  5
9805
330
1F
100
AcDbEntity
  8
0
  6
Continuous
 62
     7
100
AcDbLine
 10
-14.74566094316372
 20
287.7940696265454
 30
0.0
 11
-14.63005378209067
 21
287.8049977212625
 31
0.0
  0
LINE
  5
9806
330
1F
100
AcDbEntity
  8
0
  6
Continuous
 62
     7
100
AcDbLine
 10
13.79120709049795
 20
265.9404551498495
 30
0.0
 11
13.79120709049795
 21
266.0587252111459
 31
0.0
  0
LINE
  5
9807
330
1F
100
AcDbEntity
  8
0
  6
Continuous
 62
     7
100
AcDbLine
 10
14.79506648689875
 20
266.0669536884784
 30
0.0
 11
14.79506648689875
 21
266.1691811550745
 31
0.0
  0
LINE
  5
980F
330
1F
100
AcDbEntity
  8
0
  6
Continuous
 62
     7
100
AcDbLine
 10
32.11164107778728
 20
317.8943532438863
 30
0.0
 11
32.11164107778728
 21
317.9947391833563
 31
0.0
  0
LINE
  5
9810
330
1F
100
AcDbEntity
  8
0
  6
Continuous
 62
     7
100
AcDbLine
 10
32.11164107778728
 20
265.8944365014855
 30
0.0
 11
32.11164107608755
 21
265.7940505620153
 31
0.0
  0
LINE
  5
9815
330
1F
100
AcDbEntity
  8
0
  6
Continuous
 62
     7
100
AcDbLine
 10
-14.96936462037962
 20
270.8133475440194
 30
0.0
 11
-15.06975055984975
 21
270.813347547419
 31
0.0
  0
LINE
  5
9816
330
1F
100
AcDbEntity
  8
0
  6
Continuous
 62
     7
100
AcDbLine
 10
37.03055212202111
 20
270.8133475440194
 30
0.0
 11
37.13093806149124
 21
270.8133475440194
 31
0.0
  0
LINE
  5
981D
330
1F
100
AcDbEntity
  8
0
  6
Continuous
 62
     7
100
AcDbLine
 10
37.03055212202111
 20
294.3331827560282
 30
0.0
 11
37.03055212202111
 21
312.9754422013523
 31
0.0
  0
LINE
  5
981E
330
1F
100
AcDbEntity
  8
0
  6
Continuous
 62
     7
100
AcDbLine
 10
37.03055212202111
 20
270.8133475440194
 30
0.0
 11
37.03055212202111
 21
289.6851446342184
 31
0.0
  0
LINE
  5
981F
330
1F
100
AcDbEntity
  8
0
  6
Continuous
 62
     7
100
AcDbLine
 10
37.13093806149124
 20
270.8133475440194
 30
0.0
 11
37.13093806149124
 21
312.9754422013523
 31
0.0
  0
LINE
  5
9820
330
1F
100
AcDbEntity
  8
0
  6
Continuous
 62
     7
100
AcDbLine
 10
13.90594798057879
 20
265.8944365014855
 30
0.0
 11
14.86657790182874
 21
265.8944365014855
 31
0.0
  0
LINE
  5
9821
330
1F
100
AcDbEntity
  8
0
  6
Continuous
 62
     7
100
AcDbLine
 10
-10.05045357784576
 20
265.8944365014855
 30
0.0
 11
2.56342829557883
 21
265.8944365014855
 31
0.0
  0
LINE
  5
9822
330
1F
100
AcDbEntity
  8
0
  6
Continuous
 62
     7
100
AcDbLine
 10
11.64414905891948
 20
265.7940505620153
 30
0.0
 11
12.40594798057879
 21
265.7940505620153
 31
0.0
  0
LINE
  5
9823
330
1F
100
AcDbEntity
  8
0
  6
Continuous
 62
     7
100
AcDbLine
 10
-10.05045357784576
 20
265.7940505620153
 30
0.0
 11
2.56342829557883
 21
265.7940505620153
 31
0.0
  0
LINE
  5
9824
330
1F
100
AcDbEntity
  8
0
  6
Continuous
 62
     7
100
AcDbLine
 10
95.23638387611368
 20
265.7940505637151
 30
0.0
 11
98.50471600944224
 21
265.7983916867669
 31
0.0
  0
LINE
  5
9825
330
1F
100
AcDbEntity
  8
0
370
     0
100
AcDbLine
 10
101.5064787849997
 20
266.7070271656417
 30
0.0
 11
101.5064787849997
 21
257.2647032666538
 31
0.0
  0
LINE
  5
9826
330
1F
100
AcDbEntity
  8
0
370
     0
100
AcDbLine
 10
100.0064787849997
 20
267.3070271656416
 30
0.0
 11
100.0064787849997
 21
257.0807480461905
 31
0.0
  0
LINE
  5
9827
330
1F
100
AcDbEntity
  8
0
370
     0
100
AcDbLine
 10
98.5047160094423
 20
266.7070271656417
 30
0.0
 11
98.5047160094423
 21
257.0807480461906
 31
0.0
  0
LINE
  5
9828
330
1F
100
AcDbEntity
  8
0
370
     0
100
AcDbLine
 10
100.0047160094422
 20
266.7070271656417
 30
0.0
 11
100.0047160094423
 21
257.2647032666539
 31
0.0
  0
LINE
  5
9829
330
1F
100
AcDbEntity
  8
0
100
AcDbLine
 10
99.10471600944232
 20
267.3070271656416
 30
0.0
 11
99.40471600944221
 21
267.3070271656416
 31
0.0
  0
LINE
  5
982A
330
1F
100
AcDbEntity
  8
0
100
AcDbLine
 10
100.6047160094422
 20
267.3070271656416
 30
0.0
 11
100.9064787849997
 21
267.3070271656416
 31
0.0
  0
ARC
  5
982B
330
1F
100
AcDbEntity
  8
0
370
     0
100
AcDbCircle
 10
99.10471600944232
 20
266.7070271656417
 30
0.0
 40
0.6
100
AcDbArc
 50
90.00000000000161
 51
180.0
  0
ARC
  5
982C
330
1F
100
AcDbEntity
  8
0
370
     0
100
AcDbCircle
 10
99.40471600944221
 20
266.7070271656417
 30
0.0
 40
0.6
100
AcDbArc
 50
0.0
 51
90.00000000000204
  0
ARC
  5
982D
330
1F
100
AcDbEntity
  8
0
370
     0
100
AcDbCircle
 10
100.6047160094422
 20
266.7070271656417
 30
0.0
 40
0.6
100
AcDbArc
 50
90.0
 51
180.0
  0
ARC
  5
982E
330
1F
100
AcDbEntity
  8
0
370
     0
100
AcDbCircle
 10
100.9064787849997
 20
266.7070271656417
 30
0.0
 40
0.6
100
AcDbArc
 50
0.0
 51
90.00000000000204
  0
LINE
  5
982F
330
1F
100
AcDbEntity
  8
0
  6
Continuous
 62
     7
100
AcDbLine
 10
101.5064787849997
 20
265.8023787422585
 30
0.0
 11
104.5220832940959
 21
265.8063841828671
 31
0.0
  0
SPLINE
  5
9830
330
1F
100
AcDbEntity
  8
0
100
AcDbSpline
210
0.0
220
0.0
230
1.0
 70
     8
 71
     3
 72
    12
 73
     8
 74
     0
 42
0.0000000001
 43
0.0000000001
 40
0.0
 40
0.0
 40
0.0
 40
0.0
 40
0.4420702847587103
 40
0.9228717349518912
 40
1.531456869082007
 40
2.328998422596109
 40
3.081123668456169
 40
3.081123668456169
 40
3.081123668456169
 40
3.081123668456169
 10
98.5047160094423
 20
257.0807480461906
 30
0.0
 10
98.63877408410132
 20
257.0025858479283
 30
0.0
 10
98.91863548218736
 20
256.8394134158405
 30
0.0
 10
99.43330001275427
 20
257.0533318735941
 30
0.0
 10
100.0610917220912
 20
256.8449583690324
 30
0.0
 10
100.7545041034556
 20
257.0662719733452
 30
0.0
 10
101.2701836873535
 20
257.3150740338984
 30
0.0
 10
101.5064787849996
 20
257.2647032666538
 30
0.0
  0
LINE
  5
9831
330
1F
100
AcDbEntity
  8
0
370
     0
100
AcDbLine
 10
99.99865759827443
 20
243.2336584980727
 30
0.0
 11
99.99865759827443
 21
253.6359485482877
 31
0.0
  0
LINE
  5
9832
330
1F
100
AcDbEntity
  8
0
370
     0
100
AcDbLine
 10
101.4986575982744
 20
243.2336584980727
 30
0.0
 11
101.4986575982744
 21
253.2546338089693
 31
0.0
  0
SPLINE
  5
9833
330
1F
100
AcDbEntity
  8
0
370
     0
100
AcDbSpline
210
0.0
220
0.0
230
1.0
 70
     8
 71
     3
 72
     8
 73
     4
 74
     0
 42
0.0000000001
 43
0.0000000001
 40
20.94829930608039
 40
20.9482993060807
 40
20.9482993060807
 40
20.9482993060807
 40
22.3960172430086
 40
22.3960172430086
 40
22.3960172430086
 40
22.3960172430086
 10
99.99865759827478
 20
253.6359485482876
 30
0.0
 10
100.4700580724762
 20
253.319047302758
 30
0.0
 10
100.9972172955363
 20
253.2117935761793
 30
0.0
 10
101.4986575982744
 20
253.2546338089693
 30
0.0
  0
CIRCLE
  5
9846
330
1F
100
AcDbEntity
  8
0
100
AcDbCircle
 10
-10.2512254567859
 20
270.6125756650792
 30
0.0
 40
1.649999999999999
  0
LINE
  5
984B
330
1F
100
AcDbEntity
  8
0
100
AcDbLine
 10
98.37054994277796
 20
317.9947391850561
 30
0.0
 11
103.6845510964615
 21
317.9947391850561
 31
0.0
  0
LINE
  5
993D
330
1F
100
AcDbEntity
  8
0
370
     0
100
AcDbLine
 10
117.411483570066
 20
302.9368482356443
 30
0.0
 11
116.2672382341952
 21
302.9368482356443
 31
0.0
  0
LINE
  5
993E
330
1F
100
AcDbEntity
  8
0
  6
Continuous
 62
     7
100
AcDbLine
 10
83.74219378553958
 20
266.094780813006
 30
0.0
 11
83.74219378638956
 21
317.6940089340675
 31
0.0
  0
ARC
  5
993F
330
1F
100
AcDbEntity
  8
0
  6
Continuous
 62
     7
100
AcDbCircle
 10
83.84257972500966
 20
266.094780813006
 30
0.0
 40
0.1003859394700932
100
AcDbArc
 50
179.9999999999996
 51
270.0
  0
ARC
  5
9940
330
1F
100
AcDbEntity
  8
0
  6
Continuous
 62
     7
100
AcDbCircle
 10
83.84257972585965
 20
317.6940089340659
 30
0.0
 40
0.1003859394700932
100
AcDbArc
 50
90.0
 51
179.9999999999996
  0
LINE
  5
9941
330
1F
100
AcDbEntity
  8
0
  6
Continuous
 62
     7
100
AcDbLine
 10
83.84257972500966
 20
265.994394873536
 30
0.0
 11
86.65338603527187
 21
265.994394873536
 31
0.0
  0
LINE
  5
9942
330
1F
100
AcDbEntity
  8
0
  6
Continuous
 62
     7
100
AcDbLine
 10
82.63794844881868
 20
280.8519415114271
 30
0.0
 11
83.74219378468948
 21
280.8519415114271
 31
0.0
  0
LINE
  5
9943
330
1F
100
AcDbEntity
  8
0
  6
Continuous
 62
     7
100
AcDbLine
 10
83.84257972585965
 20
317.794394873536
 30
0.0
 11
83.84257972500966
 21
265.994394873536
 31
0.0
  0
LINE
  5
9944
330
1F
100
AcDbEntity
  8
0
  6
Continuous
 62
     7
100
AcDbLine
 10
83.74219378638956
 20
317.6940089340659
 30
0.0
 11
83.74219378553959
 21
266.0947808130044
 31
0.0
  0
LINE
  5
9945
330
1F
100
AcDbEntity
  8
0
  6
Continuous
 62
     7
100
AcDbLine
 10
82.63794844881884
 20
302.9368482356444
 30
0.0
 11
82.63794844881868
 21
280.8519415114271
 31
0.0
  0
LINE
  5
9946
330
1F
100
AcDbEntity
  8
0
  6
Continuous
 62
     7
100
AcDbLine
 10
82.43717656987858
 20
302.7359493221256
 30
0.0
 11
82.43717656987842
 21
281.0528404249458
 31
0.0
  0
LINE
  5
9947
330
1F
100
AcDbEntity
  8
0
  6
Continuous
 62
     7
100
AcDbLine
 10
82.43717656987858
 20
302.7360763567042
 30
0.0
 11
82.63794844881884
 21
302.9368482356444
 31
0.0
  0
LINE
  5
9948
330
1F
100
AcDbEntity
  8
0
  6
Continuous
 62
     7
100
AcDbLine
 10
82.43717656987842
 20
281.0527133903672
 30
0.0
 11
82.63794844881868
 21
280.8519415114271
 31
0.0
  0
LINE
  5
9949
330
1F
100
AcDbEntity
  8
0
  6
Continuous
 62
     7
100
AcDbLine
 10
86.65338603612196
 20
317.794394873536
 30
0.0
 11
83.8425797258597
 21
317.794394873536
 31
0.0
  0
LINE
  5
994A
330
1F
100
AcDbEntity
  8
0
370
     0
100
AcDbLine
 10
82.63794844881884
 20
302.9368482356444
 30
0.0
 11
83.74219378468968
 21
302.9368482356444
 31
0.0
  0
LINE
  5
994C
330
1F
100
AcDbEntity
  8
0
370
     0
100
AcDbLine
 10
135.7691679332455
 20
294.3943948735356
 30
0.0
 11
135.7691679332456
 21
289.3943948735357
 31
0.0
  0
LINE
  5
994D
330
1F
100
AcDbEntity
  8
0
100
AcDbLine
 10
82.43717656987852
 20
294.2055322445849
 30
0.0
 11
81.84219378468963
 21
293.928087215381
 31
0.0
  0
LINE
  5
994E
330
1F
100
AcDbEntity
  8
0
100
AcDbLine
 10
82.43717656987847
 20
289.5832575024869
 30
0.0
 11
81.84219378468958
 21
289.8607025316909
 31
0.0
  0
LINE
  5
994F
330
1F
100
AcDbEntity
  8
0
100
AcDbLine
 10
81.84219378468958
 20
289.8607025316909
 30
0.0
 11
81.84219378468963
 21
293.928087215381
 31
0.0
  0
LINE
  5
9951
330
1F
100
AcDbEntity
  8
0
370
     0
100
AcDbLine
 10
2.56342829557883
 20
243.2336584980727
 30
0.0
 11
4.063428295578827
 21
243.2336584980727
 31
0.0
  0
LINE
  5
9952
330
1F
100
AcDbEntity
  8
0
370
     0
100
AcDbLine
 10
5.024058216828791
 20
243.2336584980726
 30
0.0
 11
6.524058216828791
 21
243.2336584980726
 31
0.0
  0
LINE
  5
9953
330
1F
100
AcDbEntity
  8
0
370
     0
100
AcDbLine
 10
7.484688138078865
 20
243.2336584980726
 30
0.0
 11
8.984688138078862
 21
243.2336584980726
 31
0.0
  0
LINE
  5
9954
330
1F
100
AcDbEntity
  8
0
370
     0
100
AcDbLine
 10
9.945318059328823
 20
243.2336584980726
 30
0.0
 11
11.44531805932882
 21
243.2336584980726
 31
0.0
  0
LINE
  5
9955
330
1F
100
AcDbEntity
  8
0
370
     0
100
AcDbLine
 10
12.40594798057879
 20
243.2336584980726
 30
0.0
 11
13.90594798057878
 21
243.2336584980727
 31
0.0
  0
LINE
  5
9956
330
1F
100
AcDbEntity
  8
0
370
     0
100
AcDbLine
 10
14.86657790182886
 20
243.2336584980727
 30
0.0
 11
16.36657790182886
 21
243.2336584980727
 31
0.0
  0
LINE
  5
9957
330
1F
100
AcDbEntity
  8
0
370
     0
100
AcDbLine
 10
17.32720782307882
 20
243.2336584980727
 30
0.0
 11
18.82720782307882
 21
243.2336584980727
 31
0.0
  0
LINE
  5
9958
330
1F
100
AcDbEntity
  8
0
370
     0
100
AcDbLine
 10
19.78783774432878
 20
243.2336584980727
 30
0.0
 11
21.28783774432878
 21
243.2336584980727
 31
0.0
  0
LINE
  5
9959
330
1F
100
AcDbEntity
  8
0
370
     0
100
AcDbLine
 10
99.99865759827443
 20
243.2336584980727
 30
0.0
 11
101.4986575982744
 21
243.2336584980727
 31
0.0
  0
LWPOLYLINE
  5
995A
330
1F
100
AcDbEntity
  8
0
370
     0
100
AcDbPolyline
 90
        4
 70
     1
 43
0.0
 10
3.182905044714004
 20
243.2336584980727
 10
3.443951546443656
 20
243.2336584980727
 10
3.443951546443656
 20
240.4794856982937
 10
3.182905044714004
 20
240.4794856982937
  0
HATCH
  5
995F
330
1F
100
AcDbEntity
  8
0
370
     0
100
AcDbHatch
 10
0.0
 20
0.0
 30
0.0
210
0.0
220
0.0
230
1.0
  2
SOLID
 70
     1
 71
     0
 91
        1
 92
        7
 72
     0
 73
     1
 93
        4
 10
3.443951546443656
 20
243.2336584980727
 10
3.182905044714004
 20
243.2336584980727
 10
3.182905044714004
 20
240.4794856982937
 10
3.443951546443656
 20
240.4794856982936
 97
        0
 75
     0
 76
     1
 47
0.0190305396258617
 98
        1
 10
3.346671597949125
 20
241.4875888140851
1001
ACAD
1010
0.0
1020
0.0
1030
0.0
  0
HATCH
  5
9960
330
1F
100
AcDbEntity
  8
0
370
     0
100
AcDbHatch
 10
0.0
 20
0.0
 30
0.0
210
0.0
220
0.0
230
1.0
  2
SOLID
 70
     1
 71
     0
 91
        1
 92
        7
 72
     0
 73
     1
 93
        4
 10
5.643534965963969
 20
240.4794856982936
 10
5.904581467693613
 20
240.4794856982936
 10
5.904581467693617
 20
243.2336584980727
 10
5.643534965963961
 20
243.2336584980727
 97
        0
 75
     0
 76
     1
 47
0.0190305396258617
 98
        1
 10
5.807301519199086
 20
241.4875888140851
1001
ACAD
1010
0.0
1020
0.0
1030
0.0
  0
LWPOLYLINE
  5
9961
330
1F
100
AcDbEntity
  8
0
370
     0
100
AcDbPolyline
 90
        4
 70
     1
 43
0.0
 10
5.643534965963965
 20
243.2336584980727
 10
5.904581467693617
 20
243.2336584980727
 10
5.904581467693617
 20
240.4794856982937
 10
5.643534965963965
 20
240.4794856982937
  0
HATCH
  5
9962
330
1F
100
AcDbEntity
  8
0
370
     0
100
AcDbHatch
 10
0.0
 20
0.0
 30
0.0
210
0.0
220
0.0
230
1.0
  2
SOLID
 70
     1
 71
     0
 91
        1
 92
        7
 72
     0
 73
     1
 93
        4
 10
8.104164887214039
 20
240.4794856982937
 10
8.365211388943691
 20
240.4794856982937
 10
8.365211388943691
 20
243.2336584980726
 10
8.104164887214039
 20
243.2336584980727
 97
        0
 75
     0
 76
     1
 47
0.0190305396258617
 98
        1
 10
8.26793144044916
 20
241.4875888140851
1001
ACAD
1010
0.0
1020
0.0
1030
0.0
  0
LWPOLYLINE
  5
9963
330
1F
100
AcDbEntity
  8
0
370
     0
100
AcDbPolyline
 90
        4
 70
     1
 43
0.0
 10
8.104164887214039
 20
243.2336584980727
 10
8.365211388943691
 20
243.2336584980727
 10
8.365211388943691
 20
240.4794856982937
 10
8.104164887214039
 20
240.4794856982937
  0
HATCH
  5
9964
330
1F
100
AcDbEntity
  8
0
370
     0
100
AcDbHatch
 10
0.0
 20
0.0
 30
0.0
210
0.0
220
0.0
230
1.0
  2
SOLID
 70
     1
 71
     0
 91
        1
 92
        7
 72
     0
 73
     1
 93
        4
 10
10.56479480846399
 20
240.4794856982936
 10
10.82584131019365
 20
240.4794856982936
 10
10.82584131019365
 20
243.2336584980727
 10
10.56479480846399
 20
243.2336584980726
 97
        0
 75
     0
 76
     1
 47
0.0190305396258617
 98
        1
 10
10.72856136169912
 20
241.487588814085
1001
ACAD
1010
0.0
1020
0.0
1030
0.0
  0
LWPOLYLINE
  5
9965
330
1F
100
AcDbEntity
  8
0
370
     0
100
AcDbPolyline
 90
        4
 70
     1
 43
0.0
 10
10.56479480846399
 20
243.2336584980726
 10
10.82584131019365
 20
243.2336584980726
 10
10.82584131019365
 20
240.4794856982936
 10
10.56479480846399
 20
240.4794856982936
  0
HATCH
  5
9966
330
1F
100
AcDbEntity
  8
0
370
     0
100
AcDbHatch
 10
0.0
 20
0.0
 30
0.0
210
0.0
220
0.0
230
1.0
  2
SOLID
 70
     1
 71
     0
 91
        1
 92
        7
 72
     0
 73
     1
 93
        4
 10
13.02542472971396
 20
240.4794856982936
 10
13.2864712314436
 20
240.4794856982936
 10
13.28647123144361
 20
243.2336584980726
 10
13.02542472971396
 20
243.2336584980726
 97
        0
 75
     0
 76
     1
 47
0.0190305396258617
 98
        1
 10
13.18919128294908
 20
241.487588814085
1001
ACAD
1010
0.0
1020
0.0
1030
0.0
  0
LWPOLYLINE
  5
9967
330
1F
100
AcDbEntity
  8
0
370
     0
100
AcDbPolyline
 90
        4
 70
     1
 43
0.0
 10
13.02542472971396
 20
243.2336584980726
 10
13.28647123144361
 20
243.2336584980726
 10
13.28647123144361
 20
240.4794856982936
 10
13.02542472971396
 20
240.4794856982936
  0
HATCH
  5
9968
330
1F
100
AcDbEntity
  8
0
370
     0
100
AcDbHatch
 10
0.0
 20
0.0
 30
0.0
210
0.0
220
0.0
230
1.0
  2
SOLID
 70
     1
 71
     0
 91
        1
 92
        7
 72
     0
 73
     1
 93
        4
 10
15.48605465096403
 20
240.4794856982937
 10
15.74710115269368
 20
240.4794856982937
 10
15.74710115269369
 20
243.2336584980727
 10
15.48605465096403
 20
243.2336584980727
 97
        0
 75
     0
 76
     1
 47
0.0190305396258617
 98
        1
 10
15.64982120419915
 20
241.4875888140851
1001
ACAD
1010
0.0
1020
0.0
1030
0.0
  0
LWPOLYLINE
  5
9969
330
1F
100
AcDbEntity
  8
0
370
     0
100
AcDbPolyline
 90
        4
 70
     1
 43
0.0
 10
15.48605465096403
 20
243.2336584980727
 10
15.74710115269368
 20
243.2336584980727
 10
15.74710115269368
 20
240.4794856982937
 10
15.48605465096403
 20
240.4794856982937
  0
HATCH
  5
996A
330
1F
100
AcDbEntity
  8
0
370
     0
100
AcDbHatch
 10
0.0
 20
0.0
 30
0.0
210
0.0
220
0.0
230
1.0
  2
SOLID
 70
     1
 71
     0
 91
        1
 92
        7
 72
     0
 73
     1
 93
        4
 10
17.946684572214
 20
240.4794856982936
 10
18.20773107394365
 20
240.4794856982936
 10
18.20773107394365
 20
243.2336584980727
 10
17.946684572214
 20
243.2336584980727
 97
        0
 75
     0
 76
     1
 47
0.0190305396258617
 98
        1
 10
18.11045112544912
 20
241.4875888140851
1001
ACAD
1010
0.0
1020
0.0
1030
0.0
  0
LWPOLYLINE
  5
996B
330
1F
100
AcDbEntity
  8
0
370
     0
100
AcDbPolyline
 90
        4
 70
     1
 43
0.0
 10
17.946684572214
 20
243.2336584980727
 10
18.20773107394365
 20
243.2336584980727
 10
18.20773107394365
 20
240.4794856982937
 10
17.946684572214
 20
240.4794856982937
  0
HATCH
  5
996C
330
1F
100
AcDbEntity
  8
0
370
     0
100
AcDbHatch
 10
0.0
 20
0.0
 30
0.0
210
0.0
220
0.0
230
1.0
  2
SOLID
 70
     1
 71
     1
 91
        1
 92
        7
 72
     0
 73
     1
 93
        4
 10
100.8791808491392
 20
243.2336584980727
 10
100.6181343474096
 20
243.2336584980727
 10
100.6181343474096
 20
240.4794856982937
 10
100.8791808491392
 20
240.4794856982936
 97
        1
330
996D
 75
     0
 76
     1
 47
0.0190305396258617
 98
        1
 10
100.7819009006447
 20
241.4875888140851
1001
ACAD
1010
0.0
1020
0.0
1030
0.0
  0
LWPOLYLINE
  5
996D
102
{ACAD_REACTORS
330
996C
102
}
330
1F
100
AcDbEntity
  8
0
370
     0
100
AcDbPolyline
 90
        4
 70
     1
 43
0.0
 10
100.6181343474096
 20
243.2336584980727
 10
100.8791808491392
 20
243.2336584980727
 10
100.8791808491392
 20
240.4794856982937
 10
100.6181343474096
 20
240.4794856982937
  0
HATCH
  5
996E
330
1F
100
AcDbEntity
  8
0
370
     0
100
AcDbHatch
 10
0.0
 20
0.0
 30
0.0
210
0.0
220
0.0
230
1.0
  2
SOLID
 70
     1
 71
     0
 91
        1
 92
        7
 72
     0
 73
     1
 93
        4
 10
20.40731449346396
 20
240.4794856982936
 10
20.66836099519361
 20
240.4794856982936
 10
20.66836099519361
 20
243.2336584980726
 10
20.40731449346396
 20
243.2336584980726
 97
        0
 75
     0
 76
     1
 47
0.0190305396258617
 98
        1
 10
20.57108104669908
 20
241.487588814085
1001
ACAD
1010
0.0
1020
0.0
1030
0.0
  0
LWPOLYLINE
  5
996F
330
1F
100
AcDbEntity
  8
0
370
     0
100
AcDbPolyline
 90
        4
 70
     1
 43
0.0
 10
20.40731449346396
 20
243.2336584980726
 10
20.66836099519361
 20
243.2336584980726
 10
20.66836099519361
 20
240.4794856982936
 10
20.40731449346396
 20
240.4794856982936
  0
LINE
  5
9970
330
1F
100
AcDbEntity
  8
0
370
     0
100
AcDbLine
 10
98.49865759827444
 20
243.2336584980727
 30
0.0
 11
98.49865759827444
 21
253.6359485482877
 31
0.0
  0
LINE
  5
9971
330
1F
100
AcDbEntity
  8
0
370
     0
100
AcDbLine
 10
99.99865759827445
 20
243.2336584980727
 30
0.0
 11
99.99865759827445
 21
253.2546338089693
 31
0.0
  0
SPLINE
  5
9972
330
1F
100
AcDbEntity
  8
0
370
     0
100
AcDbSpline
210
0.0
220
0.0
230
1.0
 70
     8
 71
     3
 72
     8
 73
     4
 74
     0
 42
0.0000000001
 43
0.0000000001
 40
20.94829930608039
 40
20.9482993060807
 40
20.9482993060807
 40
20.9482993060807
 40
22.3960172430086
 40
22.3960172430086
 40
22.3960172430086
 40
22.3960172430086
 10
98.4986575982748
 20
253.6359485482876
 30
0.0
 10
98.97005807247625
 20
253.319047302758
 30
0.0
 10
99.4972172955363
 20
253.2117935761793
 30
0.0
 10
99.99865759827445
 20
253.2546338089693
 30
0.0
  0
LINE
  5
9973
330
1F
100
AcDbEntity
  8
0
370
     0
100
AcDbLine
 10
98.49865759827444
 20
243.2336584980727
 30
0.0
 11
99.99865759827445
 21
243.2336584980727
 31
0.0
  0
HATCH
  5
9974
330
1F
100
AcDbEntity
  8
0
370
     0
100
AcDbHatch
 10
0.0
 20
0.0
 30
0.0
210
0.0
220
0.0
230
1.0
  2
SOLID
 70
     1
 71
     1
 91
        1
 92
        7
 72
     0
 73
     1
 93
        4
 10
99.37918084913929
 20
243.2336584980727
 10
99.11813434740963
 20
243.2336584980727
 10
99.11813434740963
 20
240.4794856982937
 10
99.37918084913924
 20
240.4794856982936
 97
        1
330
9975
 75
     0
 76
     1
 47
0.0190305396258617
 98
        1
 10
99.28190090064475
 20
241.4875888140851
1001
ACAD
1010
0.0
1020
0.0
1030
0.0
  0
LWPOLYLINE
  5
9975
102
{ACAD_REACTORS
330
9974
102
}
330
1F
100
AcDbEntity
  8
0
370
     0
100
AcDbPolyline
 90
        4
 70
     1
 43
0.0
 10
99.11813434740963
 20
243.2336584980727
 10
99.37918084913928
 20
243.2336584980727
 10
99.37918084913928
 20
240.4794856982937
 10
99.11813434740963
 20
240.4794856982937
  0
DIMENSION
  5
9976
330
1F
100
AcDbEntity
  8
Dimension
370
     0
100
AcDbDimension
  2
*D0
 10
116.2672382341952
 20
233.4984595290456
 30
0.0
 11
100.0047160094423
 21
233.4984595290456
 31
0.0
 70
   160
  1
32.6
 71
     5
 42
32.52504444865561
  3
STANDARD
100
AcDbAlignedDimension
 13
83.74219378553958
 23
266.094780813006
 33
0.0
 14
116.2672382341952
 24
265.8944365031853
 34
0.0
100
AcDbRotatedDimension
1001
ACAD
1000
DSTYLE
1002
{
1070
   271
1070
     1
1002
}
  0
DIMENSION
  5
9EDF
330
1F
100
AcDbEntity
  8
Dimension
370
     0
100
AcDbDimension
  2
*D1
 10
113.2556600449928
 20
256.6626390578409
 30
0.0
 11
105.7733953792356
 21
256.6626390578409
 31
0.0
 70
   160
 71
     5
 42
3.011578189202396
  3
STANDARD
100
AcDbAlignedDimension
 13
116.2672382341952
 23
265.8944365031851
 33
0.0
 14
113.2556600449928
 24
265.8063841828671
 34
0.0
100
AcDbRotatedDimension
1001
ACAD
1000
DSTYLE
1002
{
1070
   147
1040
0.5
1070
    72
1070
     0
1070
    71
1070
     0
1070
   271
1070
     0
1002
}
  0
DIMENSION
  5
9F0B
330
1F
100
AcDbEntity
  8
Dimension
370
     0
100
AcDbDimension
  2
*D2
 10
117.6122554490063
 20
246.4394247739351
 30
0.0
 11
128.3305127151532
 21
248.4113452761571
 31
0.0
 70
   160
 71
     5
 42
1.345017214811136
  3
STANDARD
100
AcDbAlignedDimension
 13
116.2672382341952
 23
265.8944365031851
 33
0.0
 14
117.6122554490063
 24
281.0528404249457
 34
0.0
100
AcDbRotatedDimension
1001
ACAD
1000
DSTYLE
1002
{
1070
    47
1040
0.5
1070
    48
1040
0.5
1070
   272
1070
     1
1070
   279
1070
     2
1002
}
  0
DIMENSION
  5
9F37
330
1F
100
AcDbEntity
  8
Dimension
370
     0
100
AcDbDimension
  2
*D3
 10
136.7691679332455
 20
233.4984595290456
 30
0.0
 11
148.8422920805852
 21
233.4984595290456
 31
0.0
 70
   160
 71
     5
 42
20.50192969905032
  3
STANDARD
100
AcDbAlignedDimension
 13
116.2672382341952
 23
265.8944365031851
 33
0.0
 14
136.7691679332455
 24
289.8607025316906
 34
0.0
100
AcDbRotatedDimension
  0
LINE
  5
A7A6
330
1F
100
AcDbEntity
  8
Dimension
370
     0
100
AcDbLine
 10
123.6122554490063
 20
246.4394247739351
 30
0.0
 11
134.6018469993312
 21
246.4394247739351
 31
0.0
  0
DIMENSION
  5
A7A7
330
1F
100
AcDbEntity
  8
Dimension
370
     0
100
AcDbDimension
  2
*D4
 10
163.1845588998719
 20
280.8519415114269
 30
0.0
 11
160.2994338430279
 21
291.8943948735357
 31
0.0
 70
    32
 71
     5
 42
22.08490672421738
  3
STANDARD
100
AcDbAlignedDimension
 13
117.411483570066
 23
302.9368482356443
 33
0.0
 14
117.411483570066
 24
280.851941511427
 34
0.0
 50
90.0
100
AcDbRotatedDimension
1001
ACAD
1000
DSTYLE
1002
{
1070
   284
1070
     8
1070
    47
1040
0.0
1070
   272
1070
     3
1070
    48
1040
0.033
1070
   147
1040
0.5
1070
    72
1070
     0
1070
    71
1070
     1
1070
     3
1000
Ø <>
1070
   271
1070
     0
1002
}
  0
DIMENSION
  5
A7FC
330
1F
100
AcDbEntity
  8
Dimension
370
     0
100
AcDbDimension
  2
*D5
 10
150.2058048718598
 20
289.3943948735357
 30
0.0
 11
150.2058048718597
 21
270.1227428691774
 31
0.0
 70
   160
 71
     5
 42
4.999999999999943
  3
STANDARD
100
AcDbAlignedDimension
 13
135.7691679332455
 23
294.3943948735356
 33
0.0
 14
135.7691679332455
 24
289.3943948735357
 34
0.0
 50
90.0
100
AcDbRotatedDimension
1001
ACAD
1000
DSTYLE
1002
{
1070
     3
1000
Ø <>
1070
    47
1040
-0.008
1070
    48
1040
0.016
1070
   271
1070
     0
1070
   272
1070
     3
1002
}
  0
DIMENSION
  5
A859
330
1F
100
AcDbEntity
  8
Dimension
370
     0
100
AcDbDimension
  2
*D6
 10
72.31679394854039
 20
265.994394873536
 30
0.0
 11
70.30888126095509
 21
291.8943948735361
 31
0.0
 70
    32
 71
     5
 42
51.80000000000001
  3
STANDARD
100
AcDbAlignedDimension
 13
83.8425797258597
 23
317.794394873536
 33
0.0
 14
83.84257972500966
 24
265.994394873536
 34
0.0
 50
90.0
100
AcDbRotatedDimension
1001
ACAD
1000
DSTYLE
1002
{
1070
     3
1000
Ø <>
1070
   147
1040
0.5
1070
    72
1070
     0
1070
    71
1070
     0
1070
   271
1070
     1
1002
}
  0
ARC
  5
A8CD
330
1F
100
AcDbEntity
  8
0
  6
Continuous
 62
     7
100
AcDbCircle
 10
207.4308809733995
 20
289.1337815330085
 30
0.0
 40
1.0038593964008
100
AcDbArc
 50
180.0
 51
270.0
  0
ARC
  5
A8CE
330
1F
100
AcDbEntity
  8
0
  6
Continuous
 62
     7
100
AcDbCircle
 10
207.4308809733995
 20
294.6550082140628
 30
0.0
 40
1.0038593964008
100
AcDbArc
 50
90.0
 51
180.0
  0
ARC
  5
A8CF
330
1F
100
AcDbEntity
  8
0
  6
Continuous
 62
     7
100
AcDbCircle
 10
206.3266356375287
 20
266.094780813006
 30
0.0
 40
0.1003859394700932
100
AcDbArc
 50
270.0
 51
0.0
  0
ARC
  5
A8D0
330
1F
100
AcDbEntity
  8
0
  6
Continuous
 62
     7
100
AcDbCircle
 10
206.3266356375287
 20
317.6940089340659
 30
0.0
 40
0.1003859394700932
100
AcDbArc
 50
0.0
 51
90.0
  0
LINE
  5
A8D1
330
1F
100
AcDbEntity
  8
0
  6
Continuous
 62
     7
100
AcDbLine
 10
218.7252679783763
 20
265.7940505637151
 30
0.0
 11
214.6586686288452
 21
265.7940505637151
 31
0.0
  0
LINE
  5
A8D2
330
1F
100
AcDbEntity
  8
0
  6
Continuous
 62
     7
100
AcDbLine
 10
206.4270215769987
 20
265.8063841828671
 30
0.0
 11
214.6586686288452
 21
265.8063841828671
 31
0.0
  0
LINE
  5
A8D3
330
1F
100
AcDbEntity
  8
0
  6
Continuous
 62
     7
100
AcDbLine
 10
206.4270215769987
 20
266.1181401804011
 30
0.0
 11
214.6586686288452
 21
266.1181401804011
 31
0.0
  0
LINE
  5
A8D4
330
1F
100
AcDbEntity
  8
0
  6
Continuous
 62
     7
100
AcDbLine
 10
206.4270215769987
 20
266.8255087373739
 30
0.0
 11
214.6586686288452
 21
266.8255087373739
 31
0.0
  0
LINE
  5
A8D5
330
1F
100
AcDbEntity
  8
0
  6
Continuous
 62
     7
100
AcDbLine
 10
206.4270215769987
 20
271.2818374521975
 30
0.0
 11
214.6586686288452
 21
271.2818374521975
 31
0.0
  0
LINE
  5
A8D6
330
1F
100
AcDbEntity
  8
0
  6
Continuous
 62
     7
100
AcDbLine
 10
206.4270215769988
 20
273.4262596998559
 30
0.0
 11
214.6586686288452
 21
273.4262596998559
 31
0.0
  0
LINE
  5
A8D7
330
1F
100
AcDbEntity
  8
0
  6
Continuous
 62
     7
100
AcDbLine
 10
206.4270215769988
 20
275.9111796510437
 30
0.0
 11
214.6586686288452
 21
275.9111796510437
 31
0.0
  0
LINE
  5
A8D8
330
1F
100
AcDbEntity
  8
0
  6
Continuous
 62
     7
100
AcDbLine
 10
206.4270215769988
 20
278.5729785075068
 30
0.0
 11
214.6586686288452
 21
278.5729785075068
 31
0.0
  0
LINE
  5
A8D9
330
1F
100
AcDbEntity
  8
0
  6
Continuous
 62
     7
100
AcDbLine
 10
206.4270215769988
 20
278.5931366472222
 30
0.0
 11
214.6586686288452
 21
278.5931366472222
 31
0.0
  0
LINE
  5
A8DA
330
1F
100
AcDbEntity
  8
0
  6
Continuous
 62
     7
100
AcDbLine
 10
206.3266356375286
 20
317.794394873536
 30
0.0
 11
206.3266356375286
 21
265.9943948735359
 31
0.0
  0
LINE
  5
A8DB
330
1F
100
AcDbEntity
  8
0
  6
Continuous
 62
     7
100
AcDbLine
 10
206.4270215769988
 20
317.9824055659042
 30
0.0
 11
206.4270215769987
 21
265.8063841828671
 31
0.0
  0
LINE
  5
A8DC
330
1F
100
AcDbEntity
  8
0
  6
Continuous
 62
     7
100
AcDbLine
 10
206.4270215769988
 20
281.5448060434483
 30
0.0
 11
212.1490201369933
 21
281.5448060434483
 31
0.0
  0
LINE
  5
A8DD
330
1F
100
AcDbEntity
  8
0
  6
Continuous
 62
     7
100
AcDbLine
 10
206.4270215769988
 20
283.3721305738567
 30
0.0
 11
212.1490201369933
 21
283.3721305738567
 31
0.0
  0
LINE
  5
A8DE
330
1F
100
AcDbEntity
  8
0
  6
Continuous
 62
     7
100
AcDbLine
 10
212.1490201369933
 20
288.1299221366077
 30
0.0
 11
212.1490201369933
 21
281.5448060434483
 31
0.0
  0
LINE
  5
A8DF
330
1F
100
AcDbEntity
  8
0
  6
Continuous
 62
     7
100
AcDbLine
 10
212.1490201369933
 20
302.243983703623
 30
0.0
 11
212.1490201369933
 21
295.6588676104636
 31
0.0
  0
LINE
  5
A8E0
330
1F
100
AcDbEntity
  8
0
  6
Continuous
 62
     7
100
AcDbLine
 10
207.4308809733996
 20
288.1299221366077
 30
0.0
 11
212.1490201369933
 21
288.1299221366077
 31
0.0
  0
LINE
  5
A8E1
330
1F
100
AcDbEntity
  8
0
  6
Continuous
 62
     7
100
AcDbLine
 10
214.6586686288452
 20
265.8063841828671
 30
0.0
 11
214.6586686288452
 21
265.7940424723407
 31
0.0
  0
LINE
  5
A8E2
330
1F
100
AcDbEntity
  8
0
  6
Continuous
 62
     7
100
AcDbLine
 10
214.6586686288452
 20
266.8255087373739
 30
0.0
 11
214.6586686288452
 21
266.1181401804011
 31
0.0
  0
LINE
  5
A8E3
330
1F
100
AcDbEntity
  8
0
  6
Continuous
 62
     7
100
AcDbLine
 10
214.6586686288452
 20
273.4262596998559
 30
0.0
 11
214.6586686288452
 21
271.2818374521975
 31
0.0
  0
LINE
  5
A8E4
330
1F
100
AcDbEntity
  8
0
  6
Continuous
 62
     7
100
AcDbLine
 10
214.6586686288452
 20
278.5931366472222
 30
0.0
 11
214.6586686288452
 21
275.9111796510437
 31
0.0
  0
LINE
  5
A8E5
330
1F
100
AcDbEntity
  8
0
  6
Continuous
 62
     7
100
AcDbLine
 10
214.6586686288452
 20
307.8776100977276
 30
0.0
 11
214.6586686288452
 21
305.1956531015489
 31
0.0
  0
LINE
  5
A8E6
330
1F
100
AcDbEntity
  8
0
  6
Continuous
 62
     7
100
AcDbLine
 10
214.6586686288452
 20
312.5069522965738
 30
0.0
 11
214.6586686288452
 21
310.3625300489152
 31
0.0
  0
LINE
  5
A8E7
330
1F
100
AcDbEntity
  8
0
  6
Continuous
 62
     7
100
AcDbLine
 10
214.6586686288452
 20
317.6706495683701
 30
0.0
 11
214.6586686288452
 21
316.9632810096974
 31
0.0
  0
LINE
  5
A8E8
330
1F
100
AcDbEntity
  8
0
  6
Continuous
 62
     7
100
AcDbLine
 10
214.6586686288452
 20
317.9947467358723
 30
0.0
 11
214.6586686288452
 21
317.9824055659042
 31
0.0
  0
LINE
  5
A8E9
330
1F
100
AcDbEntity
  8
0
  6
Continuous
 62
     7
100
AcDbLine
 10
207.4308809733996
 20
295.6588676104636
 30
0.0
 11
212.1490201369933
 21
295.6588676104636
 31
0.0
  0
LINE
  5
A8EA
330
1F
100
AcDbEntity
  8
0
  6
Continuous
 62
     7
100
AcDbLine
 10
206.4270215769988
 20
300.4166591749146
 30
0.0
 11
212.1490201369933
 21
300.4166591749146
 31
0.0
  0
LINE
  5
A8EB
330
1F
100
AcDbEntity
  8
0
  6
Continuous
 62
     7
100
AcDbLine
 10
206.4270215769988
 20
302.243983703623
 30
0.0
 11
212.1490201369933
 21
302.243983703623
 31
0.0
  0
LINE
  5
A8EC
330
1F
100
AcDbEntity
  8
0
  6
Continuous
 62
     7
100
AcDbLine
 10
206.4270215769988
 20
305.1956531015489
 30
0.0
 11
214.6586686288452
 21
305.1956531015489
 31
0.0
  0
LINE
  5
A8ED
330
1F
100
AcDbEntity
  8
0
  6
Continuous
 62
     7
100
AcDbLine
 10
206.4270215769988
 20
305.2158112395645
 30
0.0
 11
214.6586686288452
 21
305.2158112395645
 31
0.0
  0
LINE
  5
A8EE
330
1F
100
AcDbEntity
  8
0
  6
Continuous
 62
     7
100
AcDbLine
 10
206.4270215769988
 20
307.8776100977276
 30
0.0
 11
214.6586686288452
 21
307.8776100977276
 31
0.0
  0
LINE
  5
A8EF
330
1F
100
AcDbEntity
  8
0
  6
Continuous
 62
     7
100
AcDbLine
 10
206.4270215769988
 20
310.3625300489152
 30
0.0
 11
214.6586686288452
 21
310.3625300489152
 31
0.0
  0
LINE
  5
A8F0
330
1F
100
AcDbEntity
  8
0
  6
Continuous
 62
     7
100
AcDbLine
 10
206.4270215769988
 20
312.5069522965738
 30
0.0
 11
214.6586686288452
 21
312.5069522965738
 31
0.0
  0
LINE
  5
A8F1
330
1F
100
AcDbEntity
  8
0
  6
Continuous
 62
     7
100
AcDbLine
 10
206.4270215769988
 20
316.9632810096974
 30
0.0
 11
214.6586686288452
 21
316.9632810096974
 31
0.0
  0
LINE
  5
A8F2
330
1F
100
AcDbEntity
  8
0
  6
Continuous
 62
     7
100
AcDbLine
 10
206.4270215769988
 20
317.6706495683701
 30
0.0
 11
214.6586686288452
 21
317.6706495683701
 31
0.0
  0
LINE
  5
A8F3
330
1F
100
AcDbEntity
  8
0
  6
Continuous
 62
     7
100
AcDbLine
 10
206.4270215769988
 20
317.9824055659042
 30
0.0
 11
216.6808380218482
 21
317.9824055659042
 31
0.0
  0
LINE
  5
A8F4
330
1F
100
AcDbEntity
  8
0
  6
Continuous
 62
     7
100
AcDbLine
 10
203.4154433869463
 20
266.094780813006
 30
0.0
 11
203.4154433877963
 21
317.6940089340675
 31
0.0
  0
ARC
  5
A8F5
330
1F
100
AcDbEntity
  8
0
  6
Continuous
 62
     7
100
AcDbCircle
 10
203.5158293264164
 20
266.094780813006
 30
0.0
 40
0.1003859394700932
100
AcDbArc
 50
179.9999999999996
 51
270.0
  0
ARC
  5
A8F6
330
1F
100
AcDbEntity
  8
0
  6
Continuous
 62
     7
100
AcDbCircle
 10
203.5158293272664
 20
317.6940089340659
 30
0.0
 40
0.1003859394700932
100
AcDbArc
 50
90.0
 51
179.9999999999996
  0
LINE
  5
A8F7
330
1F
100
AcDbEntity
  8
0
  6
Continuous
 62
     7
100
AcDbLine
 10
203.5158293264164
 20
265.994394873536
 30
0.0
 11
206.3266356366786
 21
265.994394873536
 31
0.0
  0
LINE
  5
A8F8
330
1F
100
AcDbEntity
  8
0
  6
Continuous
 62
     7
100
AcDbLine
 10
202.3111980502254
 20
280.8519415114271
 30
0.0
 11
203.4154433860962
 21
280.8519415114271
 31
0.0
  0
LINE
  5
A8F9
330
1F
100
AcDbEntity
  8
0
  6
Continuous
 62
     7
100
AcDbLine
 10
203.5158293272664
 20
317.794394873536
 30
0.0
 11
203.5158293264164
 21
265.994394873536
 31
0.0
  0
LINE
  5
A8FA
330
1F
100
AcDbEntity
  8
0
  6
Continuous
 62
     7
100
AcDbLine
 10
203.4154433877963
 20
317.6940089340659
 30
0.0
 11
203.4154433869463
 21
266.0947808130044
 31
0.0
  0
LINE
  5
A8FB
330
1F
100
AcDbEntity
  8
0
  6
Continuous
 62
     7
100
AcDbLine
 10
202.3111980502255
 20
302.9368482356444
 30
0.0
 11
202.3111980502254
 21
280.8519415114271
 31
0.0
  0
LINE
  5
A8FC
330
1F
100
AcDbEntity
  8
0
  6
Continuous
 62
     7
100
AcDbLine
 10
202.1104261712853
 20
302.7359493221256
 30
0.0
 11
202.1104261712852
 21
281.0528404249458
 31
0.0
  0
LINE
  5
A8FD
330
1F
100
AcDbEntity
  8
0
  6
Continuous
 62
     7
100
AcDbLine
 10
202.1104261712853
 20
302.7360763567042
 30
0.0
 11
202.3111980502255
 21
302.9368482356444
 31
0.0
  0
LINE
  5
A8FE
330
1F
100
AcDbEntity
  8
0
  6
Continuous
 62
     7
100
AcDbLine
 10
202.1104261712852
 20
281.0527133903672
 30
0.0
 11
202.3111980502254
 21
280.8519415114271
 31
0.0
  0
LINE
  5
A8FF
330
1F
100
AcDbEntity
  8
0
  6
Continuous
 62
     7
100
AcDbLine
 10
206.3266356375287
 20
317.794394873536
 30
0.0
 11
203.5158293272664
 21
317.794394873536
 31
0.0
  0
LINE
  5
A900
330
1F
100
AcDbEntity
  8
0
370
     0
100
AcDbLine
 10
202.3111980502255
 20
302.9368482356444
 30
0.0
 11
203.4154433860964
 21
302.9368482356444
 31
0.0
  0
LINE
  5
A901
330
1F
100
AcDbEntity
  8
0
100
AcDbLine
 10
187.5104261725511
 20
293.3943948735357
 30
0.0
 11
186.9154433873914
 21
293.1169498443455
 31
0.0
  0
LINE
  5
A902
330
1F
100
AcDbEntity
  8
0
100
AcDbLine
 10
187.5104261725573
 20
290.3943948735357
 30
0.0
 11
186.9154433873511
 21
290.6718399027479
 31
0.0
  0
LINE
  5
A91B
330
1F
100
AcDbEntity
  8
0
  6
Continuous
 62
     7
100
AcDbLine
 10
186.9154433873915
 20
293.1169498443455
 30
0.0
 11
186.9154433873512
 21
290.6718399027479
 31
0.0
  0
LINE
  5
A91C
330
1F
100
AcDbEntity
  8
Dimension
370
     0
100
AcDbLine
 10
202.1104261712852
 20
293.3943948735357
 30
0.0
 11
187.5104261725511
 21
293.3943948735357
 31
0.0
  0
LINE
  5
A91D
330
1F
100
AcDbEntity
  8
Dimension
370
     0
100
AcDbLine
 10
202.1104261712852
 20
290.3943948735357
 30
0.0
 11
187.5104261725573
 21
290.3943948735357
 31
0.0
  0
LINE
  5
A91E
330
1F
100
AcDbEntity
  8
Dimension
370
     0
100
AcDbLine
 10
187.5104261725803
 20
293.3943948735493
 30
0.0
 11
187.5104261725803
 21
290.3943948735356
 31
0.0
  0
SPLINE
  5
A91F
330
1F
100
AcDbEntity
  8
0
370
     0
100
AcDbSpline
210
0.0
220
0.0
230
1.0
 70
     8
 71
     3
 72
    11
 73
     7
 74
     0
 42
0.0000000001
 43
0.0000000001
 40
5.420868411199505
 40
5.420868411199505
 40
5.420868411199505
 40
5.420868411199505
 40
17.12806291875936
 40
32.99643391469353
 40
52.79087267190728
 40
58.48247673068897
 40
58.48247673068897
 40
58.48247673068897
 40
58.48247673068897
 10
216.6808380218482
 20
317.982405565904
 30
0.0
 10
217.814232319558
 20
314.1637098982543
 30
0.0
 10
219.7011709648283
 20
304.9397535627137
 30
0.0
 10
211.4484679888997
 20
289.6366193357817
 30
0.0
 10
218.9264341317763
 20
276.4071457277477
 30
0.0
 10
218.9661779154691
 20
267.6945295551074
 30
0.0
 10
218.7252679783763
 20
265.7940505637151
 30
0.0
  0
DIMENSION
  5
A920
330
1F
100
AcDbEntity
  8
Dimension
370
     0
100
AcDbDimension
  2
*D7
 10
203.4154433869463
 20
245.939424773935
 30
0.0
 11
195.1654433871487
 21
247.8690291395558
 31
0.0
 70
    32
 71
     5
 42
16.49999999959516
  3
STANDARD
100
AcDbAlignedDimension
 13
186.9154433873511
 23
290.6718399027479
 33
0.0
 14
203.4154433869463
 24
266.0947808130077
 34
0.0
100
AcDbRotatedDimension
1001
ACAD
1000
DSTYLE
1002
{
1070
   147
1040
0.5
1070
    72
1070
     0
1070
    71
1070
     0
1070
   271
1070
     1
1002
}
  0
DIMENSION
  5
A949
330
1F
100
AcDbEntity
  8
Dimension
370
     0
100
AcDbDimension
  2
*D8
 10
176.5620539278295
 20
293.3943948735357
 30
0.0
 11
173.6775973566608
 21
306.7431261150091
 31
0.0
 70
    32
 71
     5
 42
3.000000000010743
  3
STANDARD
100
AcDbAlignedDimension
 13
187.5104261725803
 23
290.394394873525
 33
0.0
 14
187.5104261725511
 24
293.3943948735357
 34
0.0
 50
90.0
100
AcDbRotatedDimension
1001
ACAD
1000
DSTYLE
1002
{
1070
     3
1000
Ø <>
1070
    47
1040
-0.006
1070
    48
1040
0.016
1070
   271
1070
     0
1070
   272
1070
     3
1002
}
  0
DIMENSION
  5
AFFC
330
1F
100
AcDbEntity
  8
Dimension
370
     0
100
AcDbDimension
  2
*D9
 10
230.5220148496378
 20
317.982405565904
 30
0.0
 11
228.5141021620525
 21
291.8882280648096
 31
0.0
 70
    32
 71
     5
 42
52.18835500218904
  3
STANDARD
100
AcDbAlignedDimension
 13
218.7252679783763
 23
265.794050563715
 33
0.0
 14
216.6808380218482
 24
317.982405565904
 34
0.0
 50
90.0
100
AcDbRotatedDimension
1001
ACAD
1000
DSTYLE
1002
{
1070
     3
1000
Ø <>
1070
   147
1040
0.5
1070
    72
1070
     0
1070
    71
1070
     0
1070
   271
1070
     0
1002
}
  0
DIMENSION
  5
B024
330
1F
100
AcDbEntity
  8
Dimension
370
     0
100
AcDbDimension
  2
*D10
 10
48.89427045450815
 20
270.6125756650792
 30
0.0
 11
46.97182843540852
 21
291.7943948726859
 31
0.0
 70
    32
 71
     5
 42
42.3636384152133
  3
STANDARD
100
AcDbAlignedDimension
 13
32.11241295842738
 23
312.9762140802926
 33
0.0
 14
32.31241295842739
 24
270.6125756650792
 34
0.0
 50
90.0
100
AcDbRotatedDimension
1001
ACAD
1000
DSTYLE
1002
{
1070
     3
1000
<>
1070
    47
1040
0.1
1070
    48
1040
0.1
1070
   272
1070
     1
1070
   271
1070
     1
1002
}
  0
DIMENSION
  5
B031
330
1F
100
AcDbEntity
  8
Dimension
370
     0
100
AcDbDimension
  2
*D11
 10
58.4670512238538
 20
317.9947391850563
 30
0.0
 11
56.537446858233
 21
291.8943948726859
 31
0.0
 70
    32
 71
     5
 42
52.20068862474079
  3
STANDARD
100
AcDbAlignedDimension
 13
32.11164107778728
 23
265.7940505603155
 33
0.0
 14
32.11164107778728
 24
317.9947391850563
 34
0.0
 50
90.0
100
AcDbRotatedDimension
1001
ACAD
1000
DSTYLE
1002
{
1070
     3
1000
<>
1070
    71
1070
     0
1070
   271
1070
     0
1002
}
  0
LWPOLYLINE
  5
B07D
330
1F
100
AcDbEntity
  8
0
370
     0
100
AcDbPolyline
 90
        4
 70
     1
 43
0.0
 10
45.70623152703229
 20
283.7203667249021
 10
48.26395496150849
 20
283.7203667249021
 10
48.26395496150849
 20
281.3507086718296
 10
45.70623152703229
 20
281.3507086718296
  0
LWPOLYLINE
  5
B07F
330
1F
100
AcDbEntity
  8
0
370
     0
100
AcDbPolyline
 90
        4
 70
     1
 43
0.0
 10
55.28607175763387
 20
287.8366449898684
 10
57.84379519211007
 20
287.8366449898684
 10
57.84379519211007
 20
285.4669869367959
 10
55.28607175763387
 20
285.4669869367959
  0
LINE
  5
B09F
330
1F
100
AcDbEntity
  8
0
370
     0
100
AcDbLine
 10
33.61164107778729
 20
265.7940505603155
 30
0.0
 11
59.46705122385377
 21
265.7940505603155
 31
0.0
  0
LINE
  5
B0A0
330
1F
100
AcDbEntity
  8
0
370
     0
100
AcDbLine
 10
22.16836099519361
 20
240.4794856982936
 30
0.0
 11
59.46705122385377
 21
240.4794856982936
 31
0.0
  0
LINE
  5
B0A1
330
1F
100
AcDbEntity
  8
0
370
     0
100
AcDbLine
 10
58.46705122385378
 20
262.7940505603155
 30
0.0
 11
58.46705122385378
 21
243.4794856982936
 31
0.0
  0
SOLID
  5
B0A2
330
1F
100
AcDbEntity
  8
0
370
     0
100
AcDbTrace
 10
57.96705122385378
 20
262.7940505603155
 30
0.0
 11
58.96705122385378
 21
262.7940505603155
 31
0.0
 12
58.46705122385378
 22
265.7940505603155
 32
0.0
 13
58.46705122385378
 23
265.7940505603155
 33
0.0
  0
SOLID
  5
B0A3
330
1F
100
AcDbEntity
  8
0
370
     0
100
AcDbTrace
 10
57.96705122385378
 20
243.4794856982936
 30
0.0
 11
58.96705122385378
 21
243.4794856982936
 31
0.0
 12
58.46705122385378
 22
240.4794856982936
 32
0.0
 13
58.46705122385378
 23
240.4794856982936
 33
0.0
  0
MTEXT
  5
B0A4
330
1F
100
AcDbEntity
  8
0
370
     0
100
AcDbMText
 10
56.53649187869685
 20
253.1367681293046
 30
0.0
 40
2.799999999999999
 41
0.0
 71
     5
 72
     1
  1
195{\H0.7x;±10}
 11
0.0000000000000001
 21
1.0
 31
0.0
 73
     1
 44
1.0
1001
ACAD
1000
ACAD_MTEXT_DEFINED_HEIGHT_BEGIN
1070
    46
1040
0.0
1000
ACAD_MTEXT_DEFINED_HEIGHT_END
1000
MTEXTBEGIN
1070
    73
1070
     1
1070
    44
1040
1.0
1070
    74
1070
     0
1000
MTEXTEND
  0
DIMENSION
  5
B0A5
330
1F
100
AcDbEntity
  8
0
370
     0
100
AcDbDimension
  2
*D12
 10
83.74219378553958
 20
233.4984595290456
 30
0.0
 11
72.92227564007838
 21
233.4984595290456
 31
0.0
 70
   160
 71
     5
 42
1.900000000850013
  3
STANDARD
100
AcDbAlignedDimension
 13
81.84219378468958
 23
289.8607025316909
 33
0.0
 14
83.74219378553958
 24
266.0947808130077
 34
0.0
100
AcDbRotatedDimension
1001
ACAD
1000
DSTYLE
1002
{
1070
   147
1040
0.5
1070
    72
1070
     0
1070
    71
1070
     0
1070
   271
1070
     1
1002
}
  0
DIMENSION
  5
B13D
330
1F
100
AcDbEntity
  8
0
370
     0
100
AcDbDimension
  2
*D13
 10
33.71858799334861
 20
327.2698677194297
 30
0.0
 11
45.2304160970321
 21
330.1228099659053
 31
0.0
 70
    32
 71
     5
 42
3.212350069842457
  3
STANDARD
100
AcDbAlignedDimension
 13
30.50623792350616
 23
312.9762140802926
 33
0.0
 14
33.71858799334861
 24
312.9762140802926
 34
0.0
100
AcDbRotatedDimension
1001
ACAD
1000
DSTYLE
1002
{
1070
   284
1070
     8
1070
   272
1070
     1
1070
    47
1040
0.1
1070
    48
1040
0.0
1070
   147
1040
0.5
1070
    72
1070
     0
1070
    71
1070
     1
1070
   271
1070
     1
1002
}
  0
MTEXT
  5
B18D
330
1F
100
AcDbEntity
  8
0
370
     0
100
AcDbMText
 10
74.10482844119281
 20
223.9963515856416
 30
0.0
 40
4.5
 41
53.85321632491582
 71
     1
 72
     5
  1
P530 258  . . .  10
 73
     1
 44
1.0
1001
ACAD
1000
MTEXTBEGIN
1070
    73
1070
     1
1070
    44
1040
1.0
1070
    74
1070
     0
1000
MTEXTEND
  0
MTEXT
  5
B18E
330
1F
100
AcDbEntity
  8
0
370
     0
100
AcDbMText
 10
179.8422623833036
 20
223.9963515856416
 30
0.0
 40
4.5
 41
53.85321632491582
 71
     1
 72
     5
  1
P530 258  . . .  84
 73
     1
 44
1.0
1001
ACAD
1000
ACAD_MTEXT_DEFINED_HEIGHT_BEGIN
1070
    46
1040
0.0
1000
ACAD_MTEXT_DEFINED_HEIGHT_END
1000
MTEXTBEGIN
1070
    73
1070
     1
1070
    44
1040
1.0
1070
    74
1070
     0
1000
MTEXTEND
  0
MTEXT
  5
B194
330
1F
100
AcDbEntity
  8
0
370
     0
100
AcDbMText
 10
74.10482844119281
 20
216.5926220782546
 30
0.0
 40
4.5
 41
53.85321632491582
 71
     1
 72
     5
  1
P532 258  . . .  10
 73
     1
 44
1.0
1001
ACAD
1000
ACAD_MTEXT_DEFINED_HEIGHT_BEGIN
1070
    46
1040
0.0
1000
ACAD_MTEXT_DEFINED_HEIGHT_END
1000
MTEXTBEGIN
1070
    73
1070
     1
1070
    44
1040
1.0
1070
    74
1070
     0
1000
MTEXTEND
  0
MTEXT
  5
B195
330
1F
100
AcDbEntity
  8
0
370
     0
100
AcDbMText
 10
179.8422623833036
 20
216.5926220782546
 30
0.0
 40
4.5
 41
53.85321632491582
 71
     1
 72
     5
  1
P532 258  . . .  84
 73
     1
 44
1.0
1001
ACAD
1000
ACAD_MTEXT_DEFINED_HEIGHT_BEGIN
1070
    46
1040
0.0
1000
ACAD_MTEXT_DEFINED_HEIGHT_END
1000
MTEXTBEGIN
1070
    73
1070
     1
1070
    44
1040
1.0
1070
    74
1070
     0
1000
MTEXTEND
  0
ENDSEC
  0
SECTION
  2
OBJECTS
  0
DICTIONARY
  5
C
330
0
100
AcDbDictionary
281
     1
  3
ACAD_COLOR
350
9AB
  3
ACAD_GROUP
350
D
  3
ACAD_LAYOUT
350
1A
  3
ACAD_MATERIAL
350
9AA
  3
ACAD_MLINESTYLE
350
17
  3
ACAD_PLOTSETTINGS
350
19
  3
ACAD_PLOTSTYLENAME
350
E
  3
ACAD_TABLESTYLE
350
1079
  3
ACDBHEADERROUNDTRIPXREC
350
B19A
  3
AcDbVariableDictionary
350
1081
  3
ASE_INDEX_DICTIONARY
350
9B0
  0
DICTIONARY
  5
46EE
330
2
100
AcDbDictionary
280
     1
281
     1
  3
ACAD_LAYERFILTERS
360
46F4
  3
ACAD_LAYERSTATES
360
9376
  3
ACLYDICTIONARY
360
46F3
  0
DICTIONARY
  5
467E
330
1F
100
AcDbDictionary
280
     1
281
     1
  3
ACAD_SORTENTS
360
467F
  0
DICTIONARY
  5
9AB
102
{ACAD_REACTORS
330
C
102
}
330
C
100
AcDbDictionary
281
     1
  0
DICTIONARY
  5
D
102
{ACAD_REACTORS
330
C
102
}
330
C
100
AcDbDictionary
281
     1
  0
DICTIONARY
  5
1A
102
{ACAD_REACTORS
330
C
102
}
330
C
100
AcDbDictionary
281
     1
  3
Layout1
350
1E
  3
Model
350
22
  0
DICTIONARY
  5
9AA
102
{ACAD_REACTORS
330
C
102
}
330
C
100
AcDbDictionary
281
     1
  0
DICTIONARY
  5
17
102
{ACAD_REACTORS
330
C
102
}
330
C
100
AcDbDictionary
281
     1
  3
Standard
350
18
  0
DICTIONARY
  5
19
102
{ACAD_REACTORS
330
C
102
}
330
C
100
AcDbDictionary
281
     1
  0
ACDBDICTIONARYWDFLT
  5
E
102
{ACAD_REACTORS
330
C
102
}
330
C
100
AcDbDictionary
281
     1
  3
Normal
350
F
100
AcDbDictionaryWithDefault
340
F
  0
DICTIONARY
  5
1079
102
{ACAD_REACTORS
330
C
102
}
330
C
100
AcDbDictionary
281
     1
  3
Standard
350
107A
  0
DICTIONARY
  5
B19A
102
{ACAD_REACTORS
330
C
102
}
330
C
100
AcDbDictionary
281
     1
  0
DICTIONARY
  5
1081
102
{ACAD_REACTORS
330
C
102
}
330
C
100
AcDbDictionary
281
     1
  3
CTABLESTYLE
350
1082
  3
DIMASSOC
350
B197
  3
PROJECTNAME
350
B198
  0
DICTIONARY
  5
9B0
102
{ACAD_REACTORS
330
C
102
}
330
C
100
AcDbDictionary
281
     1
  3
ASEBlockHierarchyIndexRecord
350
9B2
1001
DCO15
1040
1631523621.53
  0
DICTIONARY
  5
46F4
102
{ACAD_REACTORS
330
46EE
102
}
330
46EE
100
AcDbDictionary
281
     1
  0
DICTIONARY
  5
9376
102
{ACAD_REACTORS
330
46EE
102
}
330
46EE
100
AcDbDictionary
281
     1
  0
DICTIONARY
  5
46F3
102
{ACAD_REACTORS
330
46EE
102
}
330
46EE
100
AcDbDictionary
281
     1
1001
ACAD
1000
<All
  0
SORTENTSTABLE
  5
467F
102
{ACAD_REACTORS
330
467E
102
}
330
467E
100
AcDbSortentsTable
330
1F
331
A8DA
  5
A8DA
331
A8E2
  5
A8E2
331
A949
  5
A949
331
A8EA
  5
A8EA
331
A8F2
  5
A8F2
331
9832
  5
9832
331
97BC
  5
97BC
331
9705
  5
9705
331
96C6
  5
96C6
331
968F
  5
968F
331
97FB
  5
97FB
331
9961
  5
9961
331
970D
  5
970D
331
96CE
  5
96CE
331
9697
  5
9697
331
9969
  5
9969
331
9715
  5
9715
331
96D6
  5
96D6
331
969F
  5
969F
331
9650
  5
9650
331
9971
  5
9971
331
97D4
  5
97D4
331
A8FA
  5
A8FA
331
A902
  5
A903
331
A8D3
  5
A8D3
331
9942
  5
9942
331
971D
  5
971D
331
96E6
  5
96E6
331
96A7
  5
96A7
331
97DC
  5
97DC
331
994A
  5
994B
331
97A5
  5
97A5
331
96EE
  5
96EE
331
9678
  5
9678
331
97E4
  5
97E4
331
9823
  5
9823
331
97AD
  5
97AD
331
96F6
  5
96F6
331
96B7
  5
96B7
331
9680
  5
9680
331
97EC
  5
97EC
331
9952
  5
9952
331
982B
  5
982B
331
97B5
  5
97B5
331
96FE
  5
96FE
331
96BF
  5
96BF
331
995A
  5
995B
331
A8DB
  5
A8DB
331
A7FC
  5
A7FC
331
A8E3
  5
A8E3
331
A8EB
  5
A8EB
331
B07F
  5
B07F
331
A8F3
  5
A8F3
331
B09F
  5
B09F
331
9688
  5
9688
331
9833
  5
9833
331
97BD
  5
97BD
331
9706
  5
9706
331
96C7
  5
96C7
331
9690
  5
9690
331
97FC
  5
97FC
331
9962
  5
9962
331
970E
  5
970E
331
96CF
  5
96CF
331
9698
  5
9698
331
9649
  5
9649
331
996A
  5
996A
331
9972
  5
9972
331
9716
  5
9716
331
96D7
  5
96D7
331
9651
  5
9651
331
984B
  5
984B
331
97D5
  5
97D5
331
A8FB
  5
A8FC
331
A91B
  5
A8FB
331
A8D4
  5
A8D4
331
96A0
  5
96A0
331
9659
  5
9659
331
9943
  5
9943
331
971E
  5
971E
331
96E7
  5
96E7
331
96A8
  5
96A8
331
97DD
  5
97DD
331
97A6
  5
97A6
331
96EF
  5
96EF
331
9679
  5
9679
331
9824
  5
9824
331
97AE
  5
97AE
331
96F7
  5
96F7
331
96B8
  5
96B8
331
9681
  5
9681
331
97ED
  5
97ED
331
9953
  5
9953
331
982C
  5
982C
331
97B6
  5
97B6
331
96FF
  5
96FF
331
A8DC
  5
A8DC
331
A8E4
  5
A8E4
331
A8EC
  5
A8EC
331
A8F4
  5
A8F4
331
B0A0
  5
B0A0
331
96C0
  5
96C0
331
9963
  5
9963
331
97BE
  5
97BE
331
9707
  5
9707
331
96C8
  5
96C8
331
9691
  5
9691
331
97FD
  5
97FD
331
996B
  5
996B
331
9805
  5
9805
331
970F
  5
970F
331
96D0
  5
96D0
331
964A
  5
964A
331
9699
  5
9699
331
9973
  5
9973
331
9717
  5
9717
331
96D8
  5
96D8
331
9652
  5
9652
331
97D6
  5
97D6
331
A8FC
  5
A8FD
331
9EDF
  5
9EDF
331
A8CD
  5
A8CD
331
A7A6
  5
A7A6
331
A91C
  5
A91D
331
A8D5
  5
A8D5
331
B031
  5
B031
331
96A1
  5
96A1
331
965A
  5
965A
331
9815
  5
9815
331
97DE
  5
97DE
331
96A9
  5
96A9
331
96E8
  5
96E8
331
9944
  5
9944
331
994C
  5
994C
331
97E6
  5
97E6
331
96F0
  5
96F0
331
96B1
  5
96B1
331
967A
  5
967A
331
97A7
  5
97A7
331
981D
  5
981D
331
9825
  5
9825
331
97AF
  5
97AF
331
96F8
  5
96F8
331
96B9
  5
96B9
331
97EE
  5
97EE
331
9954
  5
9954
331
982D
  5
982D
331
97B7
  5
97B7
331
A8DD
  5
A8DD
331
A8E5
  5
A8E5
331
A8ED
  5
A8ED
331
9F37
  5
9F37
331
A8F5
  5
A8F5
331
B0A1
  5
B0A1
331
9700
  5
9700
331
96C1
  5
96C1
331
968A
  5
968A
331
9964
  5
9964
331
97BF
  5
97BF
331
9708
  5
9708
331
96C9
  5
96C9
331
9692
  5
9692
331
97FE
  5
97FE
331
996C
  5
996C
331
9806
  5
9806
331
9710
  5
9710
331
96D1
  5
96D1
331
964B
  5
964B
331
969A
  5
969A
331
9974
  5
9974
331
96D9
  5
96D9
331
9653
  5
9653
331
993D
  5
993D
331
97D7
  5
97D7
331
A8FD
  5
A8FE
331
A8CE
  5
A8CE
331
A7A7
  5
A7A7
331
A91D
  5
A91C
331
A8D6
  5
A8D6
331
9718
  5
9718
331
96A2
  5
96A2
331
9816
  5
9816
331
97DF
  5
97DF
331
96AA
  5
96AA
331
96E9
  5
96E9
331
9945
  5
9946
331
981E
  5
981E
331
97A8
  5
97A8
331
96F1
  5
96F1
331
96B2
  5
96B2
331
967B
  5
967B
331
97E7
  5
97E7
331
994D
  5
994D
331
9826
  5
9826
331
97B0
  5
97B0
331
96F9
  5
96F9
331
96BA
  5
96BA
331
97EF
  5
97EF
331
9955
  5
9955
331
982E
  5
982E
331
A8DE
  5
A8DE
331
A8E6
  5
A8E6
331
A8EE
  5
A8EE
331
B0A2
  5
B0A2
331
A8F6
  5
A8F6
331
97B8
  5
97B8
331
9701
  5
9701
331
96C2
  5
96C2
331
968B
  5
968B
331
9965
  5
9965
331
97FF
  5
97FF
331
97C0
  5
97C0
331
9709
  5
9709
331
96CA
  5
96CA
331
9693
  5
9693
331
996D
  5
996D
331
9807
  5
9807
331
9711
  5
9711
331
96D2
  5
96D2
331
969B
  5
969B
331
964C
  5
964C
331
9846
  5
9846
331
9975
  5
9975
331
980F
  5
980F
331
993E
  5
993E
331
A8FE
  5
A8FF
331
A91E
  5
A91E
331
A8CF
  5
A8CF
331
A8D7
  5
A8D7
331
9719
  5
9719
331
96A3
  5
96A3
331
97D8
  5
97D8
331
9946
  5
9947
331
97E0
  5
97E0
331
96AB
  5
96AB
331
96EA
  5
96EA
331
981F
  5
981F
331
97A9
  5
97A9
331
96F2
  5
96F2
331
967C
  5
967C
331
97E8
  5
97E8
331
994E
  5
994E
331
9827
  5
9827
331
97B1
  5
97B1
331
96FA
  5
96FA
331
96BB
  5
96BB
331
9684
  5
9684
331
97F0
  5
97F0
331
9956
  5
9956
331
982F
  5
982F
331
AFFC
  5
AFFC
331
A8DF
  5
A8DF
331
A8E7
  5
A8E7
331
A8EF
  5
A8EF
331
A8F7
  5
A8F7
331
B0A3
  5
B0A3
331
97B9
  5
97B9
331
9702
  5
9702
331
96C3
  5
96C3
331
968C
  5
968C
331
97F8
  5
97F8
331
9966
  5
9966
331
9800
  5
9800
331
97C1
  5
97C1
331
970A
  5
970A
331
96CB
  5
96CB
331
996E
  5
996E
331
97C9
  5
97C9
331
9712
  5
9712
331
96D3
  5
96D3
331
969C
  5
969C
331
964D
  5
964D
331
9976
  5
9976
331
97D1
  5
97D1
331
993F
  5
993F
331
A8FF
  5
A900
331
B024
  5
B024
331
A91F
  5
A91F
331
A8D0
  5
A8D0
331
9810
  5
9810
331
971A
  5
971A
331
96E3
  5
96E3
331
96A4
  5
96A4
331
965D
  5
965D
331
97D9
  5
97D9
331
9947
  5
9948
331
97E1
  5
97E1
331
96AC
  5
96AC
331
9665
  5
9665
331
96EB
  5
96EB
331
9820
  5
9820
331
97AA
  5
97AA
331
96F3
  5
96F3
331
96B4
  5
96B4
331
967D
  5
967D
331
97E9
  5
97E9
331
994F
  5
994F
331
9828
  5
9828
331
97B2
  5
97B2
331
96FB
  5
96FB
331
96BC
  5
96BC
331
9685
  5
9685
331
97F1
  5
97F1
331
9957
  5
9957
331
995F
  5
995A
331
A8D8
  5
A8D8
331
A8E0
  5
A8E0
331
A8E8
  5
A8E8
331
A8F0
  5
A8F0
331
B0A4
  5
B0A4
331
9830
  5
9830
331
97BA
  5
97BA
331
9703
  5
9703
331
96C4
  5
96C4
331
968D
  5
968D
331
97F9
  5
97F9
331
9967
  5
9967
331
9801
  5
9801
331
97C2
  5
97C2
331
970B
  5
970B
331
96CC
  5
96CC
331
996F
  5
996F
331
97CA
  5
97CA
331
9713
  5
9713
331
96D4
  5
96D4
331
969D
  5
969D
331
964E
  5
964E
331
97D2
  5
97D2
331
A8F8
  5
A8F8
331
A859
  5
A859
331
A900
  5
A901
331
A8D1
  5
A8D1
331
A920
  5
A920
331
9940
  5
9940
331
971B
  5
971B
331
96E4
  5
96E4
331
96A5
  5
96A5
331
965E
  5
965E
331
97DA
  5
97DA
331
9948
  5
9949
331
97E2
  5
97E2
331
96AD
  5
96AD
331
96EC
  5
96EC
331
9821
  5
9821
331
97EA
  5
97EA
331
96F4
  5
96F4
331
96B5
  5
96B5
331
967E
  5
967E
331
9829
  5
9829
331
97B3
  5
97B3
331
96FC
  5
96FC
331
96BD
  5
96BD
331
9686
  5
9686
331
9958
  5
9958
331
9F0B
  5
9F0B
331
A8D9
  5
A8D9
331
A8E1
  5
A8E1
331
A8E9
  5
A8E9
331
B07D
  5
B07D
331
A8F1
  5
A8F1
331
9831
  5
9831
331
97BB
  5
97BB
331
9704
  5
9704
331
96C5
  5
96C5
331
968E
  5
968E
331
97FA
  5
97FA
331
9960
  5
9960
331
9968
  5
9968
331
9802
  5
9802
331
970C
  5
970C
331
96CD
  5
96CD
331
9970
  5
9970
331
9714
  5
9714
331
969E
  5
969E
331
964F
  5
964F
331
97D3
  5
97D3
331
A8F9
  5
A8F9
331
A901
  5
A902
331
A8D2
  5
A8D2
331
9941
  5
9941
331
971C
  5
971C
331
96E5
  5
96E5
331
96A6
  5
96A6
331
965F
  5
965F
331
97DB
  5
97DB
331
9949
  5
994A
331
97A4
  5
97A4
331
96AE
  5
96AE
331
96ED
  5
96ED
331
97E3
  5
97E3
331
9822
  5
9822
331
97AC
  5
97AC
331
96F5
  5
96F5
331
96B6
  5
96B6
331
967F
  5
967F
331
9951
  5
9951
331
97B4
  5
97B4
331
96FD
  5
96FD
331
9687
  5
9687
331
982A
  5
982A
331
9959
  5
9959
  0
LAYOUT
  5
1E
102
{ACAD_XDICTIONARY
360
B19B
102
}
102
{ACAD_REACTORS
330
1A
102
}
330
1A
100
AcDbPlotSettings
  1

  2

  4

  6

 40
0.0
 41
0.0
 42
0.0
 43
0.0
 44
0.0
 45
0.0
 46
0.0
 47
0.0
 48
0.0
 49
0.0
140
0.0
141
0.0
142
1.0
143
1.0
 70
     0
 72
     0
 73
     0
 74
     0
  7

 75
     0
147
1.0
148
0.0
149
0.0
100
AcDbLayout
  1
Layout1
 70
     0
 71
     1
 10
0.0
 20
0.0
 11
12.0
 21
9.0
 12
0.0
 22
0.0
 32
0.0
 14
1.000000000000000E+20
 24
1.000000000000000E+20
 34
1.000000000000000E+20
 15
-1.000000000000000E+20
 25
-1.000000000000000E+20
 35
-1.000000000000000E+20
146
0.0
 13
0.0
 23
0.0
 33
0.0
 16
1.0
 26
0.0
 36
0.0
 17
0.0
 27
1.0
 37
0.0
 76
     0
330
1B
  0
LAYOUT
  5
22
102
{ACAD_XDICTIONARY
360
B19D
102
}
102
{ACAD_REACTORS
330
1A
102
}
330
1A
100
AcDbPlotSettings
  1

  2
FX Document Centre 405 PCL 6
  4
A4
  6

 40
5.111750125885009
 41
5.11176061630249
 42
5.111740112304687
 43
5.11175537109375
 44
209.9733276367187
 45
296.9259948730469
 46
0.0
 47
0.0
 48
0.0
 49
0.0
140
0.0
141
0.0
142
1.0
143
1.0
 70
 14336
 72
     0
 73
     1
 74
     0
  7

 75
     0
147
1.0
148
-64.72422321218214
149
-2.159235741175924
100
AcDbLayout
  1
Model
 70
     0
 71
     0
 10
0.0
 20
0.0
 11
0.0
 21
0.0
 12
0.0
 22
0.0
 32
0.0
 14
0.0
 24
0.0
 34
0.0
 15
0.0
 25
0.0
 35
0.0
146
0.0
 13
0.0
 23
0.0
 33
0.0
 16
0.0
 26
0.0
 36
0.0
 17
0.0
 27
0.0
 37
0.0
 76
     0
330
1F
  0
MLINESTYLE
  5
18
102
{ACAD_REACTORS
330
17
102
}
330
17
100
AcDbMlineStyle
  2
STANDARD
 70
     0
  3

 62
   256
 51
90.0
 52
90.0
 71
     2
 49
0.5
 62
   256
  6
BYLAYER
 49
-0.5
 62
   256
  6
BYLAYER
  0
ACDBPLACEHOLDER
  5
F
102
{ACAD_REACTORS
330
E
102
}
330
0
  0
TABLESTYLE
  5
107A
102
{ACAD_REACTORS
330
1079
102
}
330
1079
100
AcDbTableStyle
  3
Standard
 70
     0
 71
     0
 40
0.06
 41
0.06
280
     0
281
     0
  7
STANDARD
140
0.18
170
     2
 62
     0
 63
     7
283
     0
274
    -2
284
     1
 64
     0
275
    -2
285
     1
 65
     0
276
    -2
286
     1
 66
     0
277
    -2
287
     1
 67
     0
278
    -2
288
     1
 68
     0
279
    -2
289
     1
 69
     0
  7
STANDARD
140
0.25
170
     5
 62
     0
 63
     7
283
     0
274
    -2
284
     1
 64
     0
275
    -2
285
     1
 65
     0
276
    -2
286
     1
 66
     0
277
    -2
287
     1
 67
     0
278
    -2
288
     1
 68
     0
279
    -2
289
     1
 69
     0
  7
STANDARD
140
0.18
170
     5
 62
     0
 63
     7
283
     0
274
    -2
284
     1
 64
     0
275
    -2
285
     1
 65
     0
276
    -2
286
     1
 66
     0
277
    -2
287
     1
 67
     0
278
    -2
288
     1
 68
     0
279
    -2
289
     1
 69
     0
  0
DICTIONARYVAR
  5
1082
102
{ACAD_REACTORS
330
1081
102
}
330
1081
100
DictionaryVariables
280
     0
  1
STANDARD
  0
DICTIONARYVAR
  5
B197
102
{ACAD_REACTORS
330
1081
102
}
330
1081
100
DictionaryVariables
280
     0
  1
1
  0
DICTIONARYVAR
  5
B198
102
{ACAD_REACTORS
330
1081
102
}
330
1081
100
DictionaryVariables
280
     0
  1

  0
XRECORD
  5
9B2
102
{ACAD_REACTORS
330
9B0
102
}
330
9B0
100
AcDbXrecord
280
     1
330
0
330
0
330
0
330
0
330
0
330
0
330
0
330
0
330
0
330
0
330
0
330
0
330
0
  0
DICTIONARY
  5
B19B
330
1E
100
AcDbDictionary
280
     1
281
     1
  3
ACAD_XREC_ROUNDTRIP
360
B19C
  0
DICTIONARY
  5
B19D
330
22
100
AcDbDictionary
280
     1
281
     1
  3
ACAD_XREC_ROUNDTRIP
360
B19E
  0
XRECORD
  5
B19C
102
{ACAD_REACTORS
330
B19B
102
}
330
B19B
100
AcDbXrecord
280
     1
102
SHADEPLOT
 70
     0
102
SHADEPLOTRESLEVEL
 70
     2
102
SHADEPLOTCUSTOMDPI
 70
   300
  0
XRECORD
  5
B19E
102
{ACAD_REACTORS
330
B19D
102
}
330
B19D
100
AcDbXrecord
280
     1
102
SHADEPLOT
 70
     0
102
SHADEPLOTRESLEVEL
 70
     2
102
SHADEPLOTCUSTOMDPI
 70
   300
  0
ENDSEC
  0
EOF
